  0
SECTION
  2
HEADER
  9
$ACADVER
  1
AC1015
  9
$ACADMAINTVER
 70
    10
  9
$DWGCODEPAGE
  3
ANSI_932
  9
$INSBASE
 10
0.0
 20
0.0
 30
0.0
  9
$EXTMIN
 10
11396.61909896156
 20
-507.4622995770842
 30
0.0
  9
$EXTMAX
 10
11668.60435653713
 20
-366.9584328375013
 30
0.0
  9
$LIMMIN
 10
0.0
 20
0.0
  9
$LIMMAX
 10
420.0
 20
297.0
  9
$ORTHOMODE
 70
     1
  9
$REGENMODE
 70
     1
  9
$FILLMODE
 70
     1
  9
$QTEXTMODE
 70
     0
  9
$MIRRTEXT
 70
     1
  9
$LTSCALE
 40
1.0
  9
$ATTMODE
 70
     1
  9
$TEXTSIZE
 40
2.5
  9
$TRACEWID
 40
1.0
  9
$TEXTSTYLE
  7
囲い文字
  9
$CLAYER
  8
0
  9
$CELTYPE
  6
BYLAYER
  9
$CECOLOR
 62
   256
  9
$CELTSCALE
 40
1.0
  9
$DISPSILH
 70
     0
  9
$DIMSCALE
 40
1.0
  9
$DIMASZ
 40
2.5
  9
$DIMEXO
 40
0.8
  9
$DIMDLI
 40
0.38
  9
$DIMRND
 40
0.0
  9
$DIMDLE
 40
0.0
  9
$DIMEXE
 40
0.8
  9
$DIMTP
 40
0.0
  9
$DIMTM
 40
0.0
  9
$DIMTXT
 40
3.0
  9
$DIMCEN
 40
0.0
  9
$DIMTSZ
 40
0.0
  9
$DIMTOL
 70
     0
  9
$DIMLIM
 70
     0
  9
$DIMTIH
 70
     0
  9
$DIMTOH
 70
     0
  9
$DIMSE1
 70
     0
  9
$DIMSE2
 70
     0
  9
$DIMTAD
 70
     3
  9
$DIMZIN
 70
     8
  9
$DIMBLK
  1
Open30
  9
$DIMASO
 70
     1
  9
$DIMSHO
 70
     1
  9
$DIMPOST
  1

  9
$DIMAPOST
  1

  9
$DIMALT
 70
     0
  9
$DIMALTD
 70
     2
  9
$DIMALTF
 40
25.4
  9
$DIMLFAC
 40
1.0
  9
$DIMTOFL
 70
     0
  9
$DIMTVP
 40
0.0
  9
$DIMTIX
 70
     0
  9
$DIMSOXD
 70
     0
  9
$DIMSAH
 70
     0
  9
$DIMBLK1
  1

  9
$DIMBLK2
  1

  9
$DIMSTYLE
  2
まこ
  9
$DIMCLRD
 70
     4
  9
$DIMCLRE
 70
     4
  9
$DIMCLRT
 70
   256
  9
$DIMTFAC
 40
1.0
  9
$DIMGAP
 40
0.5
  9
$DIMJUST
 70
     0
  9
$DIMSD1
 70
     0
  9
$DIMSD2
 70
     0
  9
$DIMTOLJ
 70
     1
  9
$DIMTZIN
 70
     0
  9
$DIMALTZ
 70
     0
  9
$DIMALTTZ
 70
     0
  9
$DIMUPT
 70
     0
  9
$DIMDEC
 70
     2
  9
$DIMTDEC
 70
     2
  9
$DIMALTU
 70
     2
  9
$DIMALTTD
 70
     2
  9
$DIMTXSTY
  7
まこ
  9
$DIMAUNIT
 70
     0
  9
$DIMADEC
 70
     0
  9
$DIMALTRND
 40
0.0
  9
$DIMAZIN
 70
     0
  9
$DIMDSEP
 70
    46
  9
$DIMATFIT
 70
     3
  9
$DIMFRAC
 70
     0
  9
$DIMLDRBLK
  1
Open30
  9
$DIMLUNIT
 70
     2
  9
$DIMLWD
 70
    13
  9
$DIMLWE
 70
    13
  9
$DIMTMOVE
 70
     0
  9
$LUNITS
 70
     2
  9
$LUPREC
 70
     4
  9
$SKETCHINC
 40
1.0
  9
$FILLETRAD
 40
5.0
  9
$AUNITS
 70
     0
  9
$AUPREC
 70
     0
  9
$MENU
  1
.
  9
$ELEVATION
 40
0.0
  9
$PELEVATION
 40
0.0
  9
$THICKNESS
 40
0.0
  9
$LIMCHECK
 70
     0
  9
$CHAMFERA
 40
1.0
  9
$CHAMFERB
 40
1.0
  9
$CHAMFERC
 40
20.0
  9
$CHAMFERD
 40
0.0
  9
$SKPOLY
 70
     0
  9
$TDCREATE
 40
2453095.611059641
  9
$TDUCREATE
 40
2453095.236059640
  9
$TDUPDATE
 40
2456072.634549143
  9
$TDUUPDATE
 40
2456072.259549143
  9
$TDINDWG
 40
9.6094694329
  9
$TDUSRTIMER
 40
9.6094683912
  9
$USRTIMER
 70
     1
  9
$ANGBASE
 50
0.0
  9
$ANGDIR
 70
     0
  9
$PDMODE
 70
     0
  9
$PDSIZE
 40
0.0
  9
$PLINEWID
 40
0.0
  9
$SPLFRAME
 70
     0
  9
$SPLINETYPE
 70
     6
  9
$SPLINESEGS
 70
     8
  9
$HANDSEED
  5
1D7E9
  9
$SURFTAB1
 70
     6
  9
$SURFTAB2
 70
     6
  9
$SURFTYPE
 70
     6
  9
$SURFU
 70
     6
  9
$SURFV
 70
     6
  9
$UCSBASE
  2

  9
$UCSNAME
  2

  9
$UCSORG
 10
0.0
 20
0.0
 30
0.0
  9
$UCSXDIR
 10
1.0
 20
0.0
 30
0.0
  9
$UCSYDIR
 10
0.0
 20
1.0
 30
0.0
  9
$UCSORTHOREF
  2

  9
$UCSORTHOVIEW
 70
     0
  9
$UCSORGTOP
 10
0.0
 20
0.0
 30
0.0
  9
$UCSORGBOTTOM
 10
0.0
 20
0.0
 30
0.0
  9
$UCSORGLEFT
 10
0.0
 20
0.0
 30
0.0
  9
$UCSORGRIGHT
 10
0.0
 20
0.0
 30
0.0
  9
$UCSORGFRONT
 10
0.0
 20
0.0
 30
0.0
  9
$UCSORGBACK
 10
0.0
 20
0.0
 30
0.0
  9
$PUCSBASE
  2

  9
$PUCSNAME
  2

  9
$PUCSORG
 10
0.0
 20
0.0
 30
0.0
  9
$PUCSXDIR
 10
1.0
 20
0.0
 30
0.0
  9
$PUCSYDIR
 10
0.0
 20
1.0
 30
0.0
  9
$PUCSORTHOREF
  2

  9
$PUCSORTHOVIEW
 70
     0
  9
$PUCSORGTOP
 10
0.0
 20
0.0
 30
0.0
  9
$PUCSORGBOTTOM
 10
0.0
 20
0.0
 30
0.0
  9
$PUCSORGLEFT
 10
0.0
 20
0.0
 30
0.0
  9
$PUCSORGRIGHT
 10
0.0
 20
0.0
 30
0.0
  9
$PUCSORGFRONT
 10
0.0
 20
0.0
 30
0.0
  9
$PUCSORGBACK
 10
0.0
 20
0.0
 30
0.0
  9
$USERI1
 70
     0
  9
$USERI2
 70
     0
  9
$USERI3
 70
     0
  9
$USERI4
 70
     0
  9
$USERI5
 70
     0
  9
$USERR1
 40
0.0
  9
$USERR2
 40
0.0
  9
$USERR3
 40
0.0
  9
$USERR4
 40
0.0
  9
$USERR5
 40
0.0
  9
$WORLDVIEW
 70
     1
  9
$SHADEDGE
 70
     3
  9
$SHADEDIF
 70
    70
  9
$TILEMODE
 70
     0
  9
$MAXACTVP
 70
    48
  9
$PINSBASE
 10
0.0
 20
0.0
 30
0.0
  9
$PLIMCHECK
 70
     0
  9
$PEXTMIN
 10
-0.0178115221804092
 20
-0.0150818097844763
 30
-0.000000000000013
  9
$PEXTMAX
 10
288.0007659527953
 20
210.0001106076857
 30
0.0000000000000023
  9
$PLIMMIN
 10
-5.80808659537422
 20
-5.804289818524125
  9
$PLIMMAX
 10
291.1179082776726
 20
204.1690378181946
  9
$UNITMODE
 70
     0
  9
$VISRETAIN
 70
     1
  9
$PLINEGEN
 70
     0
  9
$PSLTSCALE
 70
     0
  9
$TREEDEPTH
 70
  3020
  9
$CMLSTYLE
  2
STANDARD
  9
$CMLJUST
 70
     0
  9
$CMLSCALE
 40
20.0
  9
$PROXYGRAPHICS
 70
     1
  9
$MEASUREMENT
 70
     1
  9
$CELWEIGHT
370
    -1
  9
$ENDCAPS
280
     0
  9
$JOINSTYLE
280
     0
  9
$LWDISPLAY
290
     0
  9
$INSUNITS
 70
     0
  9
$HYPERLINKBASE
  1

  9
$STYLESHEET
  1
monochrome.ctb
  9
$XEDIT
290
     1
  9
$CEPSNTYPE
380
     0
  9
$PSTYLEMODE
290
     1
  9
$FINGERPRINTGUID
  2
{0FC43A6F-16A9-11D5-BFD6-00004C030E53}
  9
$VERSIONGUID
  2
{1A10C182-989C-4937-AD4E-AC88AF71CCFA}
  9
$EXTNAMES
290
     1
  9
$PSVPSCALE
 40
0.0
  9
$OLESTARTUP
290
     0
  0
ENDSEC
  0
SECTION
  2
CLASSES
  0
CLASS
  1
HATCH
  2
AcDbHatch
  3
AutoCAD 2000
 90
    32768
280
     0
281
     1
  0
CLASS
  1
LWPOLYLINE
  2
AcDbPolyline
  3
AutoCAD 2000
 90
    32768
280
     0
281
     1
  0
CLASS
  1
ACDBDICTIONARYWDFLT
  2
AcDbDictionaryWithDefault
  3
AutoCAD 2000
 90
        0
280
     0
281
     0
  0
CLASS
  1
ACDBPLACEHOLDER
  2
AcDbPlaceHolder
  3
AutoCAD 2000
 90
        0
280
     0
281
     0
  0
CLASS
  1
LAYOUT
  2
AcDbLayout
  3
AutoCAD 2000
 90
        0
280
     0
281
     0
  0
CLASS
  1
DICTIONARYVAR
  2
AcDbDictionaryVar
  3
AutoCAD 2000
 90
        0
280
     0
281
     0
  0
ENDSEC
  0
SECTION
  2
TABLES
  0
TABLE
  2
VPORT
  5
8
330
0
100
AcDbSymbolTable
 70
     1
  0
VPORT
  5
1D74D
330
8
100
AcDbSymbolTableRecord
100
AcDbViewportTableRecord
  2
*Active
 70
     0
 10
0.0
 20
0.0
 11
1.0
 21
1.0
 12
11532.75317689857
 22
-438.2858562999877
 13
0.0
 23
0.0
 14
10.0
 24
10.0
 15
10.0
 25
10.0
 16
0.0
 26
0.0
 36
1.0
 17
0.0
 27
0.0
 37
0.0
 40
179.009984200996
 41
1.52919254658385
 42
50.0
 43
0.0
 44
0.0
 50
0.0
 51
0.0
 71
     0
 72
   100
 73
     1
 74
     0
 75
     0
 76
     1
 77
     0
 78
     0
281
     0
 65
     1
110
0.0
120
0.0
130
0.0
111
1.0
121
0.0
131
0.0
112
0.0
122
1.0
132
0.0
 79
     0
146
0.0
  0
ENDTAB
  0
TABLE
  2
LTYPE
  5
5
330
0
100
AcDbSymbolTable
 70
    10
  0
LTYPE
  5
12
330
5
100
AcDbSymbolTableRecord
100
AcDbLinetypeTableRecord
  2
BYBLOCK
 70
     0
  3

 72
    65
 73
     0
 40
0.0
  0
LTYPE
  5
13
330
5
100
AcDbSymbolTableRecord
100
AcDbLinetypeTableRecord
  2
BYLAYER
 70
     0
  3

 72
    65
 73
     0
 40
0.0
  0
LTYPE
  5
14
330
5
100
AcDbSymbolTableRecord
100
AcDbLinetypeTableRecord
  2
CONTINUOUS
 70
     0
  3
Solid line
 72
    65
 73
     0
 40
0.0
  0
LTYPE
  5
82F
330
5
100
AcDbSymbolTableRecord
100
AcDbLinetypeTableRecord
  2
DASHED
 70
     0
  3
Dashed __ __ __ __ __ __ __ __ __ __ __ __ __ _
 72
    65
 73
     2
 40
19.04999999999999
 49
12.7
 74
     0
 49
-6.349999999999999
 74
     0
  0
LTYPE
  5
2843
330
5
100
AcDbSymbolTableRecord
100
AcDbLinetypeTableRecord
  2
CENTER
 70
     0
  3
____ _ ____ _ ____ _ ____ _ ____ _ ____ _ ____ 
 72
    65
 73
     4
 40
2.0
 49
1.25
 74
     0
 49
-0.25
 74
     0
 49
0.25
 74
     0
 49
-0.25
 74
     0
  0
LTYPE
  5
2844
330
5
100
AcDbSymbolTableRecord
100
AcDbLinetypeTableRecord
  2
HIDDEN
 70
     0
  3
__ __ __ __ __ __ __ __ __ __ __ __ __ __ __ __
 72
    65
 73
     2
 40
0.375
 49
0.25
 74
     0
 49
-0.125
 74
     0
  0
ENDTAB
  0
TABLE
  2
LAYER
  5
2
102
{ACAD_XDICTIONARY
360
B18F
102
}
330
0
100
AcDbSymbolTable
 70
    30
  0
LAYER
  5
E
330
2
100
AcDbSymbolTableRecord
100
AcDbLayerTableRecord
  2
0
 70
     0
 62
     7
  6
CONTINUOUS
370
    -3
390
682
  0
LAYER
  5
2C
330
2
100
AcDbSymbolTableRecord
100
AcDbLayerTableRecord
  2
M_VIEW
 70
     0
 62
    -1
  6
CONTINUOUS
370
    -3
390
682
  0
LAYER
  5
68C
330
2
100
AcDbSymbolTableRecord
100
AcDbLayerTableRecord
  2
wakumoji
 70
     0
 62
     7
  6
CONTINUOUS
370
    -3
390
682
  0
LAYER
  5
68D
330
2
100
AcDbSymbolTableRecord
100
AcDbLayerTableRecord
  2
wakumoji1
 70
     0
 62
    -7
  6
CONTINUOUS
370
    -3
390
682
  0
LAYER
  5
8BC
330
2
100
AcDbSymbolTableRecord
100
AcDbLayerTableRecord
  2
DEFPOINTS
 70
     0
 62
     7
  6
CONTINUOUS
290
     0
370
    -3
390
682
  0
LAYER
  5
A1A
330
2
100
AcDbSymbolTableRecord
100
AcDbLayerTableRecord
  2
治具
 70
     0
 62
   140
  6
CONTINUOUS
370
    30
390
682
  0
LAYER
  5
C05
330
2
100
AcDbSymbolTableRecord
100
AcDbLayerTableRecord
  2
寸法
 70
     0
 62
     4
  6
CONTINUOUS
370
    13
390
682
  0
LAYER
  5
43CC
330
2
100
AcDbSymbolTableRecord
100
AcDbLayerTableRecord
  2
文字
 70
     0
 62
    40
  6
CONTINUOUS
370
    30
390
682
  0
LAYER
  5
43CD
330
2
100
AcDbSymbolTableRecord
100
AcDbLayerTableRecord
  2
実線
 70
     0
 62
     3
  6
CONTINUOUS
370
    30
390
682
  0
LAYER
  5
43D3
330
2
100
AcDbSymbolTableRecord
100
AcDbLayerTableRecord
  2
CENTER
 70
     0
 62
     1
  6
CENTER
370
    13
390
682
  0
LAYER
  5
B442
330
2
100
AcDbSymbolTableRecord
100
AcDbLayerTableRecord
  2
A
 70
     0
 62
     7
  6
CONTINUOUS
370
    -3
390
682
  0
LAYER
  5
B443
330
2
100
AcDbSymbolTableRecord
100
AcDbLayerTableRecord
  2
PIC11
 70
     0
 62
     7
  6
CONTINUOUS
370
    -3
390
682
  0
LAYER
  5
1C8B6
330
2
100
AcDbSymbolTableRecord
100
AcDbLayerTableRecord
  2
CIRCUIT
 70
     0
 62
     7
  6
CONTINUOUS
370
    -3
390
682
  0
ENDTAB
  0
TABLE
  2
STYLE
  5
3
330
0
100
AcDbSymbolTable
 70
    11
  0
STYLE
  5
F
330
3
100
AcDbSymbolTableRecord
100
AcDbTextStyleTableRecord
  2
STANDARD
 70
     0
 40
0.0
 41
1.0
 50
0.0
 71
     0
 42
2.5
  3
isocp.shx
  4
bigfont.shx
  0
STYLE
  5
35
330
3
100
AcDbSymbolTableRecord
100
AcDbTextStyleTableRecord
  2
MSｺﾞｼｯｸ
 70
     0
 40
0.0
 41
1.0
 50
0.0
 71
     0
 42
5.0
  3
MS Gothic.ttf
  4

1001
ACAD
1000
MS Gothic
1071
    32817
  0
STYLE
  5
8BF
330
3
100
AcDbSymbolTableRecord
100
AcDbTextStyleTableRecord
  2
MSｺﾞｼｯｸ-0
 70
     0
 40
0.0
 41
1.0
 50
0.0
 71
     0
 42
4.0
  3
simplex.shx
  4
bigfont.shx
  0
STYLE
  5
1B47
330
3
100
AcDbSymbolTableRecord
100
AcDbTextStyleTableRecord
  2
まこ
 70
     0
 40
0.0
 41
1.0
 50
0.0
 71
     0
 42
2.5
  3
simplex.shx
  4
bigfont.shx
  0
STYLE
  5
1D4E9
330
3
100
AcDbSymbolTableRecord
100
AcDbTextStyleTableRecord
  2
囲い文字
 70
     0
 40
0.0
 41
1.0
 50
0.0
 71
     0
 42
2.5
  3
MS PGothic.ttf
  4

1001
ACAD
1000
MS PGothic
1071
    32818
  0
ENDTAB
  0
TABLE
  2
VIEW
  5
6
330
0
100
AcDbSymbolTable
 70
     0
  0
ENDTAB
  0
TABLE
  2
UCS
  5
7
330
0
100
AcDbSymbolTable
 70
     0
  0
ENDTAB
  0
TABLE
  2
APPID
  5
9
330
0
100
AcDbSymbolTable
 70
     1
  0
APPID
  5
10
330
9
100
AcDbSymbolTableRecord
100
AcDbRegAppTableRecord
  2
ACAD
 70
     0
  0
ENDTAB
  0
TABLE
  2
DIMSTYLE
  5
A
330
0
100
AcDbSymbolTable
 70
    17
100
AcDbDimStyleTable
 71
     3
340
1B48
340
43D5
340
1D
  0
DIMSTYLE
105
1D
330
A
100
AcDbSymbolTableRecord
100
AcDbDimStyleTableRecord
  2
STANDARD
 70
     0
340
F
  0
DIMSTYLE
105
1B48
102
{ACAD_REACTORS
330
1D239
330
1D287
330
1D5B4
330
1D5B9
330
1D5B2
330
1D6AC
102
}
330
A
100
AcDbSymbolTableRecord
100
AcDbDimStyleTableRecord
  2
まこ
 70
     0
 41
2.5
 42
0.8
 44
0.8
 73
     0
 74
     0
 77
     3
 78
     8
140
3.0
141
0.0
147
0.5
176
     4
177
     4
178
   256
271
     2
272
     2
340
1B47
341
83F
342
83F
371
    13
372
    13
  0
DIMSTYLE
105
43D5
102
{ACAD_REACTORS
330
1C721
330
1C72E
330
1C75D
330
1C7F2
330
1CB2D
330
1CD0D
330
1CD1A
330
1C9DA
102
}
330
A
100
AcDbSymbolTableRecord
100
AcDbDimStyleTableRecord
  2
STD-I
 70
     0
 40
0.5
 41
3.0
 42
3.0
 43
9.0
 44
1.0
 45
0.0005
 48
0.000000001
 73
     0
 74
     0
 77
     3
 78
     9
 79
     2
140
3.0
141
0.0
146
0.7
147
1.199999999999999
172
     1
176
     4
177
     4
178
   256
179
     8
271
     8
272
     8
284
     8
340
1B47
341
83F
342
83F
371
    13
372
    13
  0
DIMSTYLE
105
7C3F
102
{ACAD_REACTORS
330
1CCFE
330
1C9A9
330
1CFF1
330
1D02F
330
1C9A8
102
}
330
A
100
AcDbSymbolTableRecord
100
AcDbDimStyleTableRecord
  2
ｺﾋﾟｰ - まこ-10
 70
     0
 41
1.5
 42
0.5
 44
0.8
 73
     0
 74
     0
 77
     3
 78
     8
 79
     2
140
3.0
141
0.0
147
0.5
176
     4
177
     4
178
   256
179
     2
271
     8
272
     8
340
8BF
341
83F
342
83F
371
    13
372
    13
  0
ENDTAB
  0
TABLE
  2
BLOCK_RECORD
  5
1
330
0
100
AcDbSymbolTable
 70
    24
  0
BLOCK_RECORD
  5
18
330
1
100
AcDbSymbolTableRecord
100
AcDbBlockTableRecord
  2
*MODEL_SPACE
340
685
  0
BLOCK_RECORD
  5
15
330
1
100
AcDbSymbolTableRecord
100
AcDbBlockTableRecord
  2
*PAPER_SPACE
340
686
  0
BLOCK_RECORD
  5
83F
330
1
100
AcDbSymbolTableRecord
100
AcDbBlockTableRecord
  2
_Open30
340
0
102
{BLKREFS
331
1D0BE
331
1D0BF
331
1D0E6
331
1D0E7
331
1D461
331
1D462
331
1D4C4
331
1D4C5
331
1D534
331
1D535
331
1D53D
331
1D53E
331
1D567
331
1D568
331
1D57B
331
1D57C
331
1D67A
331
1D67B
331
1D687
331
1D68E
331
1D68F
331
1D69C
331
1D69D
331
1D6BF
331
1D6C0
331
1D6DE
331
1D6DF
331
1D769
331
1D76A
331
1D772
331
1D773
331
1D77B
331
1D77C
331
1D784
331
1D785
331
1D78D
331
1D78E
331
1D796
331
1D797
331
1D7A4
331
1D7A5
331
1D7AC
331
1D7AD
331
1D7B5
331
1D7B6
331
1D7BD
331
1D7C4
331
1D7C5
331
1D7CF
331
1D7D0
331
1D7D8
331
1D7D9
331
1D7E3
331
1D7E4
102
}
  0
BLOCK_RECORD
  5
1C722
330
1
100
AcDbSymbolTableRecord
100
AcDbBlockTableRecord
  2
*D9
340
0
  0
BLOCK_RECORD
  5
1C72F
330
1
100
AcDbSymbolTableRecord
100
AcDbBlockTableRecord
  2
*D10
340
0
  0
BLOCK_RECORD
  5
1C75E
330
1
100
AcDbSymbolTableRecord
100
AcDbBlockTableRecord
  2
*D11
340
0
  0
BLOCK_RECORD
  5
1C7F3
330
1
100
AcDbSymbolTableRecord
100
AcDbBlockTableRecord
  2
*D12
340
0
  0
BLOCK_RECORD
  5
1C9DD
330
1
100
AcDbSymbolTableRecord
100
AcDbBlockTableRecord
  2
*D13
340
0
  0
BLOCK_RECORD
  5
1CB2E
330
1
100
AcDbSymbolTableRecord
100
AcDbBlockTableRecord
  2
*D14
340
0
  0
BLOCK_RECORD
  5
1CD0E
330
1
100
AcDbSymbolTableRecord
100
AcDbBlockTableRecord
  2
*D15
340
0
  0
BLOCK_RECORD
  5
1CD1B
330
1
100
AcDbSymbolTableRecord
100
AcDbBlockTableRecord
  2
*D16
340
0
  0
BLOCK_RECORD
  5
1D23A
330
1
100
AcDbSymbolTableRecord
100
AcDbBlockTableRecord
  2
*D17
340
0
  0
BLOCK_RECORD
  5
1D288
330
1
100
AcDbSymbolTableRecord
100
AcDbBlockTableRecord
  2
*D18
340
0
  0
BLOCK_RECORD
  5
1D5BA
330
1
100
AcDbSymbolTableRecord
100
AcDbBlockTableRecord
  2
*D19
340
0
  0
BLOCK_RECORD
  5
1D5C8
330
1
100
AcDbSymbolTableRecord
100
AcDbBlockTableRecord
  2
*D20
340
0
  0
BLOCK_RECORD
  5
1D5D3
330
1
100
AcDbSymbolTableRecord
100
AcDbBlockTableRecord
  2
*D21
340
0
  0
BLOCK_RECORD
  5
1D6AD
330
1
100
AcDbSymbolTableRecord
100
AcDbBlockTableRecord
  2
*D22
340
0
  0
ENDTAB
  0
ENDSEC
  0
SECTION
  2
BLOCKS
  0
BLOCK
  5
19
330
18
100
AcDbEntity
  8
0
100
AcDbBlockBegin
  2
*MODEL_SPACE
 70
     0
 10
0.0
 20
0.0
 30
0.0
  3
*MODEL_SPACE
  1

  0
ENDBLK
  5
1A
330
18
100
AcDbEntity
  8
0
100
AcDbBlockEnd
  0
BLOCK
  5
16
330
15
100
AcDbEntity
 67
     1
  8
0
100
AcDbBlockBegin
  2
*PAPER_SPACE
 70
     0
 10
0.0
 20
0.0
 30
0.0
  3
*PAPER_SPACE
  1

  0
ENDBLK
  5
17
330
15
100
AcDbEntity
 67
     1
  8
0
100
AcDbBlockEnd
  0
BLOCK
  5
843
330
83F
100
AcDbEntity
  8
0
100
AcDbBlockBegin
  2
_Open30
 70
     0
 10
0.0
 20
0.0
 30
0.0
  3
_Open30
  1

  0
LINE
  5
840
330
83F
100
AcDbEntity
  8
0
  6
ByBlock
 62
     0
370
    -2
100
AcDbLine
 10
-1.0
 20
0.26794919
 30
0.0
 11
0.0
 21
0.0
 31
0.0
  0
LINE
  5
841
330
83F
100
AcDbEntity
  8
0
  6
ByBlock
 62
     0
370
    -2
100
AcDbLine
 10
0.0
 20
0.0
 30
0.0
 11
-1.0
 21
-0.26794919
 31
0.0
  0
LINE
  5
842
330
83F
100
AcDbEntity
  8
0
  6
ByBlock
 62
     0
370
    -2
100
AcDbLine
 10
0.0
 20
0.0
 30
0.0
 11
-1.0
 21
0.0
 31
0.0
  0
ENDBLK
  5
844
330
83F
100
AcDbEntity
  8
0
100
AcDbBlockEnd
  0
BLOCK
  5
1C72C
330
1C722
100
AcDbEntity
  8
0
100
AcDbBlockBegin
  2
*D9
 70
     1
 10
0.0
 20
0.0
 30
0.0
  3
*D9
  1

  0
LINE
  5
1D76F
330
1C722
100
AcDbEntity
  8
寸法
 62
     4
370
    13
100
AcDbLine
 10
11447.1830462636
 20
-481.3522184234216
 30
0.0
 11
11447.1830462636
 21
-500.1057819612951
 31
0.0
  0
LINE
  5
1D770
330
1C722
100
AcDbEntity
  8
寸法
 62
     4
370
    13
100
AcDbLine
 10
11464.1830462636
 20
-481.3522184234207
 30
0.0
 11
11464.1830462636
 21
-500.1057819612951
 31
0.0
  0
LINE
  5
1D771
330
1C722
100
AcDbEntity
  8
寸法
 62
     4
370
    13
100
AcDbLine
 10
11449.6830462636
 20
-499.605781961295
 30
0.0
 11
11461.6830462636
 21
-499.605781961295
 31
0.0
  0
INSERT
  5
1D772
330
1C722
100
AcDbEntity
  8
寸法
 62
     4
370
    13
100
AcDbBlockReference
  2
_Open30
 10
11447.1830462636
 20
-499.605781961295
 30
0.0
 41
2.5
 42
2.5
 43
2.5
 50
180.0
  0
INSERT
  5
1D773
330
1C722
100
AcDbEntity
  8
寸法
 62
     4
370
    13
100
AcDbBlockReference
  2
_Open30
 10
11464.1830462636
 20
-499.605781961295
 30
0.0
 41
2.5
 42
2.5
 43
2.5
  0
MTEXT
  5
1D774
330
1C722
100
AcDbEntity
  8
寸法
 62
     7
100
AcDbMText
 10
11455.6830462636
 20
-497.755781961295
 30
0.0
 40
2.5
 41
0.0
 71
     5
 72
     1
  1
\A1;17
  7
MSｺﾞｼｯｸ
 73
     1
 44
1.0
  0
POINT
  5
1D775
330
1C722
100
AcDbEntity
  8
DEFPOINTS
 62
     0
100
AcDbPoint
 10
11447.1830462636
 20
-480.8522184234216
 30
0.0
  0
POINT
  5
1D776
330
1C722
100
AcDbEntity
  8
DEFPOINTS
 62
     0
100
AcDbPoint
 10
11464.1830462636
 20
-480.8522184234207
 30
0.0
  0
POINT
  5
1D777
330
1C722
100
AcDbEntity
  8
DEFPOINTS
 62
     0
100
AcDbPoint
 10
11464.1830462636
 20
-499.605781961295
 30
0.0
  0
ENDBLK
  5
1C72D
330
1C722
100
AcDbEntity
  8
0
100
AcDbBlockEnd
  0
BLOCK
  5
1C739
330
1C72F
100
AcDbEntity
  8
0
100
AcDbBlockBegin
  2
*D10
 70
     1
 10
0.0
 20
0.0
 30
0.0
  3
*D10
  1

  0
LINE
  5
1D793
330
1C72F
100
AcDbEntity
  8
寸法
 62
     4
370
    13
100
AcDbLine
 10
11446.6830462636
 20
-480.8522184234216
 30
0.0
 11
11441.52132793199
 21
-480.8522184234216
 31
0.0
  0
LINE
  5
1D794
330
1C72F
100
AcDbEntity
  8
寸法
 62
     4
370
    13
100
AcDbLine
 10
11446.6830462636
 20
-473.8522184234216
 30
0.0
 11
11441.52132793199
 21
-473.8522184234216
 31
0.0
  0
LINE
  5
1D795
330
1C72F
100
AcDbEntity
  8
寸法
 62
     4
370
    13
100
AcDbLine
 10
11442.02132793199
 20
-478.3522184234215
 30
0.0
 11
11442.02132793199
 21
-476.3522184234216
 31
0.0
  0
INSERT
  5
1D796
330
1C72F
100
AcDbEntity
  8
寸法
 62
     4
370
    13
100
AcDbBlockReference
  2
_Open30
 10
11442.02132793199
 20
-480.8522184234216
 30
0.0
 41
2.5
 42
2.5
 43
2.5
 50
270.0
  0
INSERT
  5
1D797
330
1C72F
100
AcDbEntity
  8
寸法
 62
     4
370
    13
100
AcDbBlockReference
  2
_Open30
 10
11442.02132793199
 20
-473.8522184234216
 30
0.0
 41
2.5
 42
2.5
 43
2.5
 50
90.0
  0
MTEXT
  5
1D798
330
1C72F
100
AcDbEntity
  8
寸法
 62
     7
100
AcDbMText
 10
11440.17132793199
 20
-477.3522184234197
 30
0.0
 40
2.5
 41
0.0
 71
     5
 72
     1
  1
\A1;7
  7
MSｺﾞｼｯｸ
 11
0.0000000000000001
 21
1.0
 31
0.0
 73
     1
 44
1.0
  0
POINT
  5
1D799
330
1C72F
100
AcDbEntity
  8
DEFPOINTS
 62
     0
100
AcDbPoint
 10
11447.1830462636
 20
-480.8522184234216
 30
0.0
  0
POINT
  5
1D79A
330
1C72F
100
AcDbEntity
  8
DEFPOINTS
 62
     0
100
AcDbPoint
 10
11447.1830462636
 20
-473.8522184234216
 30
0.0
  0
POINT
  5
1D79B
330
1C72F
100
AcDbEntity
  8
DEFPOINTS
 62
     0
100
AcDbPoint
 10
11442.02132793199
 20
-473.8522184234216
 30
0.0
  0
ENDBLK
  5
1C73A
330
1C72F
100
AcDbEntity
  8
0
100
AcDbBlockEnd
  0
BLOCK
  5
1C768
330
1C75E
100
AcDbEntity
  8
0
100
AcDbBlockBegin
  2
*D11
 70
     1
 10
0.0
 20
0.0
 30
0.0
  3
*D11
  1

  0
LINE
  5
1D78A
330
1C75E
100
AcDbEntity
  8
寸法
 62
     4
370
    13
100
AcDbLine
 10
11446.6830462636
 20
-480.8522184234216
 30
0.0
 11
11418.83766855851
 21
-480.8522184234216
 31
0.0
  0
LINE
  5
1D78B
330
1C75E
100
AcDbEntity
  8
寸法
 62
     4
370
    13
100
AcDbLine
 10
11453.6830462636
 20
-465.834571518302
 30
0.0
 11
11418.83766855851
 21
-465.834571518302
 31
0.0
  0
LINE
  5
1D78C
330
1C75E
100
AcDbEntity
  8
寸法
 62
     4
370
    13
100
AcDbLine
 10
11419.33766855851
 20
-478.3522184234215
 30
0.0
 11
11419.33766855851
 21
-468.3345715183021
 31
0.0
  0
INSERT
  5
1D78D
330
1C75E
100
AcDbEntity
  8
寸法
 62
     4
370
    13
100
AcDbBlockReference
  2
_Open30
 10
11419.33766855851
 20
-480.8522184234216
 30
0.0
 41
2.5
 42
2.5
 43
2.5
 50
270.0
  0
INSERT
  5
1D78E
330
1C75E
100
AcDbEntity
  8
寸法
 62
     4
370
    13
100
AcDbBlockReference
  2
_Open30
 10
11419.33766855851
 20
-465.834571518302
 30
0.0
 41
2.5
 42
2.5
 43
2.5
 50
90.0
  0
MTEXT
  5
1D78F
330
1C75E
100
AcDbEntity
  8
寸法
 62
     7
100
AcDbMText
 10
11417.27827769556
 20
-473.34339497086
 30
0.0
 40
2.5
 41
0.0
 71
     5
 72
     1
  1
\A1;(15)
  7
MSｺﾞｼｯｸ
 11
0.0000000000000001
 21
1.0
 31
0.0
 73
     1
 44
1.0
  0
POINT
  5
1D790
330
1C75E
100
AcDbEntity
  8
DEFPOINTS
 62
     0
100
AcDbPoint
 10
11447.1830462636
 20
-480.8522184234216
 30
0.0
  0
POINT
  5
1D791
330
1C75E
100
AcDbEntity
  8
DEFPOINTS
 62
     0
100
AcDbPoint
 10
11454.1830462636
 20
-465.834571518302
 30
0.0
  0
POINT
  5
1D792
330
1C75E
100
AcDbEntity
  8
DEFPOINTS
 62
     0
100
AcDbPoint
 10
11419.33766855851
 20
-465.834571518302
 30
0.0
  0
ENDBLK
  5
1C769
330
1C75E
100
AcDbEntity
  8
0
100
AcDbBlockEnd
  0
BLOCK
  5
1C7FD
330
1C7F3
100
AcDbEntity
  8
0
100
AcDbBlockBegin
  2
*D12
 70
     1
 10
0.0
 20
0.0
 30
0.0
  3
*D12
  1

  0
LINE
  5
1D766
330
1C7F3
100
AcDbEntity
  8
寸法
 62
     4
370
    13
100
AcDbLine
 10
11447.1830462636
 20
-481.3522184234216
 30
0.0
 11
11447.1830462636
 21
-507.2924266020842
 31
0.0
  0
LINE
  5
1D767
330
1C7F3
100
AcDbEntity
  8
寸法
 62
     4
370
    13
100
AcDbLine
 10
11500.18295107648
 20
-469.3522184234208
 30
0.0
 11
11500.18295107648
 21
-507.2924266020842
 31
0.0
  0
LINE
  5
1D768
330
1C7F3
100
AcDbEntity
  8
寸法
 62
     4
370
    13
100
AcDbLine
 10
11449.6830462636
 20
-506.7924266020842
 30
0.0
 11
11497.68295107648
 21
-506.7924266020842
 31
0.0
  0
INSERT
  5
1D769
330
1C7F3
100
AcDbEntity
  8
寸法
 62
     4
370
    13
100
AcDbBlockReference
  2
_Open30
 10
11447.1830462636
 20
-506.7924266020842
 30
0.0
 41
2.5
 42
2.5
 43
2.5
 50
180.0
  0
INSERT
  5
1D76A
330
1C7F3
100
AcDbEntity
  8
寸法
 62
     4
370
    13
100
AcDbBlockReference
  2
_Open30
 10
11500.18295107648
 20
-506.7924266020842
 30
0.0
 41
2.5
 42
2.5
 43
2.5
  0
MTEXT
  5
1D76B
330
1C7F3
100
AcDbEntity
  8
寸法
 62
     7
100
AcDbMText
 10
11473.68299867004
 20
-504.73303573914
 30
0.0
 40
2.5
 41
0.0
 71
     5
 72
     1
  1
\A1;(53)
  7
MSｺﾞｼｯｸ
 73
     1
 44
1.0
  0
POINT
  5
1D76C
330
1C7F3
100
AcDbEntity
  8
DEFPOINTS
 62
     0
100
AcDbPoint
 10
11447.1830462636
 20
-480.8522184234216
 30
0.0
  0
POINT
  5
1D76D
330
1C7F3
100
AcDbEntity
  8
DEFPOINTS
 62
     0
100
AcDbPoint
 10
11500.18295107648
 20
-468.8522184234208
 30
0.0
  0
POINT
  5
1D76E
330
1C7F3
100
AcDbEntity
  8
DEFPOINTS
 62
     0
100
AcDbPoint
 10
11500.18295107648
 20
-506.7924266020842
 30
0.0
  0
ENDBLK
  5
1C7FE
330
1C7F3
100
AcDbEntity
  8
0
100
AcDbBlockEnd
  0
BLOCK
  5
1C9E7
330
1C9DD
100
AcDbEntity
  8
0
100
AcDbBlockBegin
  2
*D13
 70
     1
 10
0.0
 20
0.0
 30
0.0
  3
*D13
  1

  0
LINE
  5
1D7A9
330
1C9DD
100
AcDbEntity
  8
寸法
 62
     4
370
    13
100
AcDbLine
 10
11567.95367797368
 20
-465.0522184234212
 30
0.0
 11
11567.95367797368
 21
-448.0041026867421
 31
0.0
  0
LINE
  5
1D7AA
330
1C9DD
100
AcDbEntity
  8
寸法
 62
     4
370
    13
100
AcDbLine
 10
11636.91333463541
 20
-464.6772116137472
 30
0.0
 11
11636.91333463541
 21
-448.0041026867421
 31
0.0
  0
LINE
  5
1D7AB
330
1C9DD
100
AcDbEntity
  8
寸法
 62
     4
370
    13
100
AcDbLine
 10
11570.45367797368
 20
-448.5041026867421
 30
0.0
 11
11634.41333463541
 21
-448.5041026867421
 31
0.0
  0
INSERT
  5
1D7AC
330
1C9DD
100
AcDbEntity
  8
寸法
 62
     4
370
    13
100
AcDbBlockReference
  2
_Open30
 10
11567.95367797368
 20
-448.5041026867421
 30
0.0
 41
2.5
 42
2.5
 43
2.5
 50
180.0
  0
INSERT
  5
1D7AD
330
1C9DD
100
AcDbEntity
  8
寸法
 62
     4
370
    13
100
AcDbBlockReference
  2
_Open30
 10
11636.91333463541
 20
-448.5041026867421
 30
0.0
 41
2.5
 42
2.5
 43
2.5
  0
MTEXT
  5
1D7AE
330
1C9DD
100
AcDbEntity
  8
寸法
 62
     7
100
AcDbMText
 10
11602.43350630455
 20
-446.5716153770974
 30
0.0
 40
2.5
 41
0.0
 71
     5
 72
     1
  1
\A1;※ L
  7
MSｺﾞｼｯｸ
 73
     1
 44
1.0
  0
POINT
  5
1D7AF
330
1C9DD
100
AcDbEntity
  8
DEFPOINTS
 62
     0
100
AcDbPoint
 10
11567.95367797368
 20
-465.5522184234213
 30
0.0
  0
POINT
  5
1D7B0
330
1C9DD
100
AcDbEntity
  8
DEFPOINTS
 62
     0
100
AcDbPoint
 10
11636.91333463541
 20
-465.1772116137472
 30
0.0
  0
POINT
  5
1D7B1
330
1C9DD
100
AcDbEntity
  8
DEFPOINTS
 62
     0
100
AcDbPoint
 10
11636.91333463541
 20
-448.5041026867421
 30
0.0
  0
ENDBLK
  5
1C9E8
330
1C9DD
100
AcDbEntity
  8
0
100
AcDbBlockEnd
  0
BLOCK
  5
1CB38
330
1CB2E
100
AcDbEntity
  8
0
100
AcDbBlockBegin
  2
*D14
 70
     1
 10
0.0
 20
0.0
 30
0.0
  3
*D14
  1

  0
LINE
  5
1D781
330
1CB2E
100
AcDbEntity
  8
寸法
 62
     4
370
    13
100
AcDbLine
 10
11447.1830462636
 20
-473.3522184234216
 30
0.0
 11
11447.1830462636
 21
-457.9502028621886
 31
0.0
  0
LINE
  5
1D782
330
1CB2E
100
AcDbEntity
  8
寸法
 62
     4
370
    13
100
AcDbLine
 10
11454.1830462636
 20
-465.3345715183021
 30
0.0
 11
11454.1830462636
 21
-457.9502028621886
 31
0.0
  0
LINE
  5
1D783
330
1CB2E
100
AcDbEntity
  8
寸法
 62
     4
370
    13
100
AcDbLine
 10
11449.6830462636
 20
-458.4502028621886
 30
0.0
 11
11451.6830462636
 21
-458.4502028621886
 31
0.0
  0
INSERT
  5
1D784
330
1CB2E
100
AcDbEntity
  8
寸法
 62
     4
370
    13
100
AcDbBlockReference
  2
_Open30
 10
11447.1830462636
 20
-458.4502028621886
 30
0.0
 41
2.5
 42
2.5
 43
2.5
 50
180.0
  0
INSERT
  5
1D785
330
1CB2E
100
AcDbEntity
  8
寸法
 62
     4
370
    13
100
AcDbBlockReference
  2
_Open30
 10
11454.1830462636
 20
-458.4502028621886
 30
0.0
 41
2.5
 42
2.5
 43
2.5
  0
MTEXT
  5
1D786
330
1CB2E
100
AcDbEntity
  8
寸法
 62
     7
100
AcDbMText
 10
11450.6830462636
 20
-456.6002028621887
 30
0.0
 40
2.5
 41
0.0
 71
     5
 72
     1
  1
\A1;7
  7
MSｺﾞｼｯｸ
 73
     1
 44
1.0
  0
POINT
  5
1D787
330
1CB2E
100
AcDbEntity
  8
DEFPOINTS
 62
     0
100
AcDbPoint
 10
11447.1830462636
 20
-473.8522184234216
 30
0.0
  0
POINT
  5
1D788
330
1CB2E
100
AcDbEntity
  8
DEFPOINTS
 62
     0
100
AcDbPoint
 10
11454.1830462636
 20
-465.834571518302
 30
0.0
  0
POINT
  5
1D789
330
1CB2E
100
AcDbEntity
  8
DEFPOINTS
 62
     0
100
AcDbPoint
 10
11454.1830462636
 20
-458.4502028621886
 30
0.0
  0
ENDBLK
  5
1CB39
330
1CB2E
100
AcDbEntity
  8
0
100
AcDbBlockEnd
  0
BLOCK
  5
1CD18
330
1CD0E
100
AcDbEntity
  8
0
100
AcDbBlockBegin
  2
*D15
 70
     1
 10
0.0
 20
0.0
 30
0.0
  3
*D15
  1

  0
LINE
  5
1D778
330
1CD0E
100
AcDbEntity
  8
寸法
 62
     4
370
    13
100
AcDbLine
 10
11446.6830462636
 20
-427.5496347854432
 30
0.0
 11
11423.80488056804
 21
-427.5496347854432
 31
0.0
  0
LINE
  5
1D779
330
1CD0E
100
AcDbEntity
  8
寸法
 62
     4
370
    13
100
AcDbLine
 10
11446.6830462636
 20
-404.049634785445
 30
0.0
 11
11423.80488056804
 21
-404.049634785445
 31
0.0
  0
LINE
  5
1D77A
330
1CD0E
100
AcDbEntity
  8
寸法
 62
     4
370
    13
100
AcDbLine
 10
11424.30488056804
 20
-425.0496347854432
 30
0.0
 11
11424.30488056804
 21
-406.549634785445
 31
0.0
  0
INSERT
  5
1D77B
330
1CD0E
100
AcDbEntity
  8
寸法
 62
     4
370
    13
100
AcDbBlockReference
  2
_Open30
 10
11424.30488056804
 20
-427.5496347854432
 30
0.0
 41
2.5
 42
2.5
 43
2.5
 50
270.0
  0
INSERT
  5
1D77C
330
1CD0E
100
AcDbEntity
  8
寸法
 62
     4
370
    13
100
AcDbBlockReference
  2
_Open30
 10
11424.30488056804
 20
-404.049634785445
 30
0.0
 41
2.5
 42
2.5
 43
2.5
 50
90.0
  0
MTEXT
  5
1D77D
330
1CD0E
100
AcDbEntity
  8
寸法
 62
     7
100
AcDbMText
 10
11422.45488056804
 20
-415.7996347854422
 30
0.0
 40
2.5
 41
0.0
 71
     5
 72
     1
  1
\A1;23.5
  7
MSｺﾞｼｯｸ
 11
0.0000000000000001
 21
1.0
 31
0.0
 73
     1
 44
1.0
  0
POINT
  5
1D77E
330
1CD0E
100
AcDbEntity
  8
DEFPOINTS
 62
     0
100
AcDbPoint
 10
11447.1830462636
 20
-427.5496347854432
 30
0.0
  0
POINT
  5
1D77F
330
1CD0E
100
AcDbEntity
  8
DEFPOINTS
 62
     0
100
AcDbPoint
 10
11447.1830462636
 20
-404.049634785445
 30
0.0
  0
POINT
  5
1D780
330
1CD0E
100
AcDbEntity
  8
DEFPOINTS
 62
     0
100
AcDbPoint
 10
11424.30488056804
 20
-404.049634785445
 30
0.0
  0
ENDBLK
  5
1CD19
330
1CD0E
100
AcDbEntity
  8
0
100
AcDbBlockEnd
  0
BLOCK
  5
1CD27
330
1CD1B
100
AcDbEntity
  8
0
100
AcDbBlockBegin
  2
*D16
 70
     1
 10
0.0
 20
0.0
 30
0.0
  3
*D16
  1

  0
LINE
  5
1D79C
330
1CD1B
100
AcDbEntity
  8
寸法
 62
     4
370
    13
100
AcDbLine
 10
11446.6830462636
 20
-404.049634785445
 30
0.0
 11
11423.80488056804
 21
-404.049634785445
 31
0.0
  0
LINE
  5
1D79D
330
1CD1B
100
AcDbEntity
  8
寸法
 62
     4
370
    13
100
AcDbLine
 10
11447.80804445827
 20
-401.049634785445
 30
0.0
 11
11423.80488056804
 21
-401.049634785445
 31
0.0
  0
LINE
  5
1D79E
330
1CD1B
100
AcDbEntity
  8
寸法
 62
     4
370
    13
100
AcDbLine
 10
11424.30488056804
 20
-406.549634785445
 30
0.0
 11
11424.30488056804
 21
-409.049634785445
 31
0.0
  0
LINE
  5
1D79F
330
1CD1B
100
AcDbEntity
  8
寸法
 62
     4
370
    13
100
AcDbLine
 10
11424.30488056804
 20
-398.549634785445
 30
0.0
 11
11424.30488056804
 21
-396.049634785445
 31
0.0
  0
LINE
  5
1D7A0
330
1CD1B
100
AcDbEntity
  8
寸法
 62
     4
370
    13
100
AcDbLine
 10
11424.30488056804
 20
-386.5679725317649
 30
0.0
 11
11424.30488056804
 21
-401.049634785445
 31
0.0
  0
MTEXT
  5
1D7A1
330
1CD1B
100
AcDbEntity
  8
寸法
 62
     7
100
AcDbMText
 10
11422.2454897051
 20
-388.8494446129814
 30
0.0
 40
2.5
 41
0.0
 71
     5
 72
     1
  1
\A1;(3)
  7
MSｺﾞｼｯｸ
 11
0.0000000000000001
 21
1.0
 31
0.0
 73
     1
 44
1.0
  0
LINE
  5
1D7A2
330
1CD1B
100
AcDbEntity
  8
寸法
 62
     4
370
    13
100
AcDbLine
 10
11424.30488056804
 20
-404.049634785445
 30
0.0
 11
11424.30488056804
 21
-401.049634785445
 31
0.0
  0
LINE
  5
1D7A3
330
1CD1B
100
AcDbEntity
  8
寸法
 62
     4
370
    13
100
AcDbLine
 10
11424.30488056804
 20
-404.049634785445
 30
0.0
 11
11424.30488056804
 21
-401.049634785445
 31
0.0
  0
INSERT
  5
1D7A4
330
1CD1B
100
AcDbEntity
  8
寸法
 62
     4
370
    13
100
AcDbBlockReference
  2
_Open30
 10
11424.30488056804
 20
-404.049634785445
 30
0.0
 41
2.5
 42
2.5
 43
2.5
 50
90.0
  0
INSERT
  5
1D7A5
330
1CD1B
100
AcDbEntity
  8
寸法
 62
     4
370
    13
100
AcDbBlockReference
  2
_Open30
 10
11424.30488056804
 20
-401.049634785445
 30
0.0
 41
2.5
 42
2.5
 43
2.5
 50
270.0
  0
POINT
  5
1D7A6
330
1CD1B
100
AcDbEntity
  8
DEFPOINTS
 62
     0
100
AcDbPoint
 10
11447.1830462636
 20
-404.049634785445
 30
0.0
  0
POINT
  5
1D7A7
330
1CD1B
100
AcDbEntity
  8
DEFPOINTS
 62
     0
100
AcDbPoint
 10
11448.30804445827
 20
-401.049634785445
 30
0.0
  0
POINT
  5
1D7A8
330
1CD1B
100
AcDbEntity
  8
DEFPOINTS
 62
     0
100
AcDbPoint
 10
11424.30488056804
 20
-401.049634785445
 30
0.0
  0
ENDBLK
  5
1CD28
330
1CD1B
100
AcDbEntity
  8
0
100
AcDbBlockEnd
  0
BLOCK
  5
1D245
330
1D23A
100
AcDbEntity
  8
0
100
AcDbBlockBegin
  2
*D17
 70
     1
 10
0.0
 20
0.0
 30
0.0
  3
*D17
  1

  0
LINE
  5
1D7DE
330
1D23A
100
AcDbEntity
  8
0
 62
     4
370
    13
100
AcDbLine
 10
11466.4830462636
 20
-477.3522184234207
 30
0.0
 11
11483.92649173531
 21
-477.3522184234207
 31
0.0
  0
LINE
  5
1D7DF
330
1D23A
100
AcDbEntity
  8
0
 62
     4
370
    13
100
AcDbLine
 10
11464.9830462636
 20
-480.8522184234207
 30
0.0
 11
11483.92649173531
 21
-480.8522184234207
 31
0.0
  0
LINE
  5
1D7E0
330
1D23A
100
AcDbEntity
  8
0
 62
     4
370
    13
100
AcDbLine
 10
11483.12649173532
 20
-474.8522184234206
 30
0.0
 11
11483.12649173532
 21
-472.3522184234207
 31
0.0
  0
LINE
  5
1D7E1
330
1D23A
100
AcDbEntity
  8
0
 62
     4
370
    13
100
AcDbLine
 10
11483.12649173532
 20
-483.3522184234206
 30
0.0
 11
11483.12649173532
 21
-492.3039950731669
 31
0.0
  0
LINE
  5
1D7E2
330
1D23A
100
AcDbEntity
  8
0
 62
     4
370
    13
100
AcDbLine
 10
11483.12649173532
 20
-477.3522184234207
 30
0.0
 11
11483.12649173532
 21
-480.8522184234207
 31
0.0
  0
INSERT
  5
1D7E3
330
1D23A
100
AcDbEntity
  8
0
 62
     4
370
    13
100
AcDbBlockReference
  2
_Open30
 10
11483.12649173532
 20
-477.3522184234207
 30
0.0
 41
2.5
 42
2.5
 43
2.5
 50
270.0
  0
INSERT
  5
1D7E4
330
1D23A
100
AcDbEntity
  8
0
 62
     4
370
    13
100
AcDbBlockReference
  2
_Open30
 10
11483.12649173532
 20
-480.8522184234207
 30
0.0
 41
2.5
 42
2.5
 43
2.5
 50
90.0
  0
MTEXT
  5
1D7E5
330
1D23A
100
AcDbEntity
  8
0
100
AcDbMText
 10
11481.12649173532
 20
-489.0781067482919
 30
0.0
 40
3.0
 41
0.0
 71
     5
 72
     1
  1
\A1;3.5
  7
MSｺﾞｼｯｸ
 11
0.0000000000000001
 21
1.0
 31
0.0
 73
     1
 44
1.0
  0
POINT
  5
1D7E6
330
1D23A
100
AcDbEntity
  8
DEFPOINTS
 62
     0
100
AcDbPoint
 10
11465.6830462636
 20
-477.3522184234207
 30
0.0
  0
POINT
  5
1D7E7
330
1D23A
100
AcDbEntity
  8
DEFPOINTS
 62
     0
100
AcDbPoint
 10
11464.1830462636
 20
-480.8522184234207
 30
0.0
  0
POINT
  5
1D7E8
330
1D23A
100
AcDbEntity
  8
DEFPOINTS
 62
     0
100
AcDbPoint
 10
11483.12649173532
 20
-480.8522184234207
 30
0.0
  0
ENDBLK
  5
1D246
330
1D23A
100
AcDbEntity
  8
0
100
AcDbBlockEnd
  0
BLOCK
  5
1D292
330
1D288
100
AcDbEntity
  8
0
100
AcDbBlockBegin
  2
*D18
 70
     1
 10
0.0
 20
0.0
 30
0.0
  3
*D18
  1

  0
LINE
  5
1D7D5
330
1D288
100
AcDbEntity
  8
0
 62
     4
370
    13
100
AcDbLine
 10
11450.6830462636
 20
-480.7522184234207
 30
0.0
 11
11450.6830462636
 21
-493.2874612383192
 31
0.0
  0
LINE
  5
1D7D6
330
1D288
100
AcDbEntity
  8
0
 62
     4
370
    13
100
AcDbLine
 10
11460.6830462636
 20
-480.7522184234207
 30
0.0
 11
11460.6830462636
 21
-493.2874612383192
 31
0.0
  0
LINE
  5
1D7D7
330
1D288
100
AcDbEntity
  8
0
 62
     4
370
    13
100
AcDbLine
 10
11453.1830462636
 20
-492.4874612383191
 30
0.0
 11
11458.1830462636
 21
-492.4874612383191
 31
0.0
  0
INSERT
  5
1D7D8
330
1D288
100
AcDbEntity
  8
0
 62
     4
370
    13
100
AcDbBlockReference
  2
_Open30
 10
11450.6830462636
 20
-492.4874612383191
 30
0.0
 41
2.5
 42
2.5
 43
2.5
 50
180.0
  0
INSERT
  5
1D7D9
330
1D288
100
AcDbEntity
  8
0
 62
     4
370
    13
100
AcDbBlockReference
  2
_Open30
 10
11460.6830462636
 20
-492.4874612383191
 30
0.0
 41
2.5
 42
2.5
 43
2.5
  0
MTEXT
  5
1D7DA
330
1D288
100
AcDbEntity
  8
0
100
AcDbMText
 10
11455.6830462636
 20
-490.4874612383191
 30
0.0
 40
3.0
 41
0.0
 71
     5
 72
     1
  1
\A1;10
  7
MSｺﾞｼｯｸ
 73
     1
 44
1.0
  0
POINT
  5
1D7DB
330
1D288
100
AcDbEntity
  8
DEFPOINTS
 62
     0
100
AcDbPoint
 10
11450.6830462636
 20
-479.9522184234207
 30
0.0
  0
POINT
  5
1D7DC
330
1D288
100
AcDbEntity
  8
DEFPOINTS
 62
     0
100
AcDbPoint
 10
11460.6830462636
 20
-479.9522184234207
 30
0.0
  0
POINT
  5
1D7DD
330
1D288
100
AcDbEntity
  8
DEFPOINTS
 62
     0
100
AcDbPoint
 10
11460.6830462636
 20
-492.4874612383191
 30
0.0
  0
ENDBLK
  5
1D293
330
1D288
100
AcDbEntity
  8
0
100
AcDbBlockEnd
  0
BLOCK
  5
1D5C6
330
1D5BA
100
AcDbEntity
  8
0
100
AcDbBlockBegin
  2
*D19
 70
     1
 10
0.0
 20
0.0
 30
0.0
  3
*D19
  1

  0
LINE
  5
1D7C0
330
1D5BA
100
AcDbEntity
  8
0
 62
     4
370
    13
100
AcDbLine
 10
11456.38306034874
 20
-404.0496347854445
 30
0.0
 11
11410.01455810322
 21
-404.0496347854445
 31
0.0
  0
LINE
  5
1D7C1
330
1D5BA
100
AcDbEntity
  8
0
 62
     4
370
    13
100
AcDbLine
 10
11459.88304626361
 20
-394.0496347854405
 30
0.0
 11
11410.01455810322
 21
-394.0496347854405
 31
0.0
  0
LINE
  5
1D7C2
330
1D5BA
100
AcDbEntity
  8
0
 62
     4
370
    13
100
AcDbLine
 10
11410.81455810322
 20
-396.5496347854405
 30
0.0
 11
11410.81455810322
 21
-401.5496347854446
 31
0.0
  0
LINE
  5
1D7C3
330
1D5BA
100
AcDbEntity
  8
0
 62
     4
370
    13
100
AcDbLine
 10
11410.81455810322
 20
-404.0496347854445
 30
0.0
 11
11410.81455810322
 21
-442.293072058831
 31
0.0
  0
INSERT
  5
1D7C4
330
1D5BA
100
AcDbEntity
  8
0
 62
     4
370
    13
100
AcDbBlockReference
  2
_Open30
 10
11410.81455810322
 20
-394.0496347854405
 30
0.0
 41
2.5
 42
2.5
 43
2.5
 50
90.0
  0
INSERT
  5
1D7C5
330
1D5BA
100
AcDbEntity
  8
0
 62
     4
370
    13
100
AcDbBlockReference
  2
_Open30
 10
11410.81455810322
 20
-404.0496347854445
 30
0.0
 41
2.5
 42
2.5
 43
2.5
 50
270.0
  0
MTEXT
  5
1D7C6
330
1D5BA
100
AcDbEntity
  8
0
100
AcDbMText
 10
11408.5176037885
 20
-424.7067776425855
 30
0.0
 40
3.0
 41
0.0
 71
     5
 72
     1
  1
\A1;10（曲げ起点MIN.）
  7
MSｺﾞｼｯｸ
 11
0.0000000000000001
 21
1.0
 31
0.0
 73
     1
 44
1.0
  0
POINT
  5
1D7C7
330
1D5BA
100
AcDbEntity
  8
DEFPOINTS
 62
     0
100
AcDbPoint
 10
11457.18306034874
 20
-404.0496347854445
 30
0.0
  0
POINT
  5
1D7C8
330
1D5BA
100
AcDbEntity
  8
DEFPOINTS
 62
     0
100
AcDbPoint
 10
11460.6830462636
 20
-394.0496347854405
 30
0.0
  0
POINT
  5
1D7C9
330
1D5BA
100
AcDbEntity
  8
DEFPOINTS
 62
     0
100
AcDbPoint
 10
11410.81455810322
 20
-394.0496347854405
 30
0.0
  0
ENDBLK
  5
1D5C7
330
1D5BA
100
AcDbEntity
  8
0
100
AcDbBlockEnd
  0
BLOCK
  5
1D5D1
330
1D5C8
100
AcDbEntity
  8
0
100
AcDbBlockBegin
  2
*D20
 70
     1
 10
0.0
 20
0.0
 30
0.0
  3
*D20
  1

  0
LINE
  5
1D7BB
330
1D5C8
100
AcDbEntity
  8
0
 62
     4
370
    13
100
AcDbLine
 10
11503.40809234274
 20
-375.4202373327102
 30
0.0
 11
11462.23895781515
 21
-387.4556334146091
 31
0.0
  0
MTEXT
  5
1D7BC
330
1D5C8
100
AcDbEntity
  8
0
100
AcDbMText
 10
11484.85545696489
 20
-378.4587583240599
 30
0.0
 40
3.0
 41
0.0
 71
     5
 72
     1
  1
\A1;R21（曲げ半径MIN.）
  7
MSｺﾞｼｯｸ
 11
0.9598260234702332
 21
0.2805958030144422
 31
0.0
 73
     1
 44
1.0
  0
INSERT
  5
1D7BD
330
1D5C8
100
AcDbEntity
  8
0
 62
     4
370
    13
100
AcDbBlockReference
  2
_Open30
 10
11459.83939275648
 20
-388.1571229221453
 30
0.0
 41
2.5
 42
2.5
 43
2.5
 50
196.2957673026673
  0
POINT
  5
1D7BE
330
1D5C8
100
AcDbEntity
  8
DEFPOINTS
 62
     0
100
AcDbPoint
 10
11459.83939275648
 20
-388.1571229221453
 30
0.0
  0
POINT
  5
1D7BF
330
1D5C8
100
AcDbEntity
  8
DEFPOINTS
 62
     0
100
AcDbPoint
 10
11439.6830462636
 20
-394.0496347854491
 30
0.0
  0
ENDBLK
  5
1D5D2
330
1D5C8
100
AcDbEntity
  8
0
100
AcDbBlockEnd
  0
BLOCK
  5
1D5DE
330
1D5D3
100
AcDbEntity
  8
0
100
AcDbBlockBegin
  2
*D21
 70
     1
 10
0.0
 20
0.0
 30
0.0
  3
*D21
  1

  0
LINE
  5
1D7B2
330
1D5D3
100
AcDbEntity
  8
0
 62
     4
370
    13
100
AcDbLine
 10
11453.45285018377
 20
-386.0996347854361
 30
0.0
 11
11451.28778667431
 21
-387.3496347854352
 31
0.0
  0
LINE
  5
1D7B3
330
1D5D3
100
AcDbEntity
  8
0
 62
     4
370
    13
100
AcDbLine
 10
11462.28630930238
 20
-380.9996347854403
 30
0.0
 11
11477.75387469941
 21
-372.069431739761
 31
0.0
  0
LINE
  5
1D7B4
330
1D5D3
100
AcDbEntity
  8
0
 62
     4
370
    13
100
AcDbLine
 10
11455.61791369323
 20
-384.849634785437
 30
0.0
 11
11460.12124579291
 21
-382.2496347854384
 31
0.0
  0
INSERT
  5
1D7B5
330
1D5D3
100
AcDbEntity
  8
0
 62
     4
370
    13
100
AcDbBlockReference
  2
_Open30
 10
11455.61791369323
 20
-384.849634785437
 30
0.0
 41
2.5
 42
2.5
 43
2.5
 50
29.99999999997343
  0
INSERT
  5
1D7B6
330
1D5D3
100
AcDbEntity
  8
0
 62
     4
370
    13
100
AcDbBlockReference
  2
_Open30
 10
11460.12124579291
 20
-382.2496347854384
 30
0.0
 41
2.5
 42
2.5
 43
2.5
 50
209.9999999999734
  0
MTEXT
  5
1D7B7
330
1D5D3
100
AcDbEntity
  8
0
100
AcDbMText
 10
11469.97318213126
 20
-373.9532829850158
 30
0.0
 40
3.0
 41
0.0
 71
     5
 72
     1
  1
\A1;（φ5.2）
  7
MSｺﾞｼｯｸ
 11
0.8660254037846708
 21
0.4999999999995978
 31
0.0
 73
     1
 44
1.0
  0
POINT
  5
1D7B8
330
1D5D3
100
AcDbEntity
  8
DEFPOINTS
 62
     0
100
AcDbPoint
 10
11455.61791369324
 20
-384.8496347854443
 30
0.0
  0
POINT
  5
1D7B9
330
1D5D3
100
AcDbEntity
  8
DEFPOINTS
 62
     0
100
AcDbPoint
 10
11460.12124579292
 20
-382.2496347854457
 30
0.0
  0
POINT
  5
1D7BA
330
1D5D3
100
AcDbEntity
  8
DEFPOINTS
 62
     0
100
AcDbPoint
 10
11460.12124579291
 20
-382.2496347854384
 30
0.0
  0
ENDBLK
  5
1D5DF
330
1D5D3
100
AcDbEntity
  8
0
100
AcDbBlockEnd
  0
BLOCK
  5
1D6B8
330
1D6AD
100
AcDbEntity
  8
0
100
AcDbBlockBegin
  2
*D22
 70
     1
 10
0.0
 20
0.0
 30
0.0
  3
*D22
  1

  0
LINE
  5
1D7CA
330
1D6AD
100
AcDbEntity
  8
0
 62
     4
370
    13
100
AcDbLine
 10
11460.6830462636
 20
-480.7522184234207
 30
0.0
 11
11460.6830462636
 21
-493.2874612383192
 31
0.0
  0
LINE
  5
1D7CB
330
1D6AD
100
AcDbEntity
  8
0
 62
     4
370
    13
100
AcDbLine
 10
11464.1830462636
 20
-481.6522184234207
 30
0.0
 11
11464.1830462636
 21
-493.2874612383192
 31
0.0
  0
LINE
  5
1D7CC
330
1D6AD
100
AcDbEntity
  8
0
 62
     4
370
    13
100
AcDbLine
 10
11458.1830462636
 20
-492.4874612383191
 30
0.0
 11
11455.6830462636
 21
-492.4874612383191
 31
0.0
  0
LINE
  5
1D7CD
330
1D6AD
100
AcDbEntity
  8
0
 62
     4
370
    13
100
AcDbLine
 10
11466.6830462636
 20
-492.4874612383191
 30
0.0
 11
11476.05179173133
 21
-492.4874612383191
 31
0.0
  0
LINE
  5
1D7CE
330
1D6AD
100
AcDbEntity
  8
0
 62
     4
370
    13
100
AcDbLine
 10
11460.6830462636
 20
-492.4874612383191
 30
0.0
 11
11464.1830462636
 21
-492.4874612383191
 31
0.0
  0
INSERT
  5
1D7CF
330
1D6AD
100
AcDbEntity
  8
0
 62
     4
370
    13
100
AcDbBlockReference
  2
_Open30
 10
11460.6830462636
 20
-492.4874612383191
 30
0.0
 41
2.5
 42
2.5
 43
2.5
  0
INSERT
  5
1D7D0
330
1D6AD
100
AcDbEntity
  8
0
 62
     4
370
    13
100
AcDbBlockReference
  2
_Open30
 10
11464.1830462636
 20
-492.4874612383191
 30
0.0
 41
2.5
 42
2.5
 43
2.5
 50
180.0
  0
MTEXT
  5
1D7D1
330
1D6AD
100
AcDbEntity
  8
0
100
AcDbMText
 10
11472.82590340646
 20
-490.4874612383191
 30
0.0
 40
3.0
 41
0.0
 71
     5
 72
     1
  1
\A1;3.5
  7
MSｺﾞｼｯｸ
 73
     1
 44
1.0
  0
POINT
  5
1D7D2
330
1D6AD
100
AcDbEntity
  8
DEFPOINTS
 62
     0
100
AcDbPoint
 10
11460.6830462636
 20
-479.9522184234207
 30
0.0
  0
POINT
  5
1D7D3
330
1D6AD
100
AcDbEntity
  8
DEFPOINTS
 62
     0
100
AcDbPoint
 10
11464.1830462636
 20
-480.8522184234207
 30
0.0
  0
POINT
  5
1D7D4
330
1D6AD
100
AcDbEntity
  8
DEFPOINTS
 62
     0
100
AcDbPoint
 10
11464.1830462636
 20
-492.4874612383191
 30
0.0
  0
ENDBLK
  5
1D6B9
330
1D6AD
100
AcDbEntity
  8
0
100
AcDbBlockEnd
  0
ENDSEC
  0
SECTION
  2
ENTITIES
  0
LINE
  5
1C6B7
102
{ACAD_REACTORS
330
1C6C9
102
}
330
18
100
AcDbEntity
  8
治具
 48
10.0
100
AcDbLine
 10
11454.1830462636
 20
-470.7522184234214
 30
0.0
 11
11454.1830462636
 21
-465.834571518302
 31
0.0
  0
ARC
  5
1C6B8
102
{ACAD_REACTORS
330
1C6C9
102
}
330
18
100
AcDbEntity
  8
治具
100
AcDbCircle
 10
11498.18295107648
 20
-468.3522184234204
 30
0.0
 40
2.0
100
AcDbArc
 50
359.9999999999902
 51
89.99999999985671
  0
ARC
  5
1C6B9
102
{ACAD_REACTORS
330
1C6C9
102
}
330
18
100
AcDbEntity
  8
治具
100
AcDbCircle
 10
11498.18295107648
 20
-469.3522184234204
 30
0.0
 40
2.0
100
AcDbArc
 50
269.9999999998697
 51
359.9999999999902
  0
LINE
  5
1C6BA
102
{ACAD_REACTORS
330
1C6C9
102
}
330
18
100
AcDbEntity
  8
治具
100
AcDbLine
 10
11500.18295107648
 20
-468.3522184234208
 30
0.0
 11
11500.18295107648
 21
-469.3522184234208
 31
0.0
  0
CIRCLE
  5
1C6BF
102
{ACAD_REACTORS
330
1C6C9
102
}
330
18
100
AcDbEntity
  8
実線
100
AcDbCircle
 10
11450.6830462636
 20
-477.3522184234207
 30
0.0
 40
1.6
  0
LINE
  5
1C6C0
102
{ACAD_REACTORS
330
1C6C9
102
}
330
18
100
AcDbEntity
  8
実線
 48
10.0
100
AcDbLine
 10
11447.1830462636
 20
-473.8522184234216
 30
0.0
 11
11454.1830462636
 21
-473.8522184234216
 31
0.0
  0
LINE
  5
1C6C1
102
{ACAD_REACTORS
330
1C6C9
102
}
330
18
100
AcDbEntity
  8
実線
 48
10.0
100
AcDbLine
 10
11464.1830462636
 20
-470.7522184234217
 30
0.0
 11
11464.1830462636
 21
-480.8522184234207
 31
0.0
  0
LINE
  5
1C6C2
102
{ACAD_REACTORS
330
1C6C9
102
}
330
18
100
AcDbEntity
  8
実線
 48
10.0
100
AcDbLine
 10
11447.1830462636
 20
-480.8522184234216
 30
0.0
 11
11447.1830462636
 21
-473.8522184234216
 31
0.0
  0
CIRCLE
  5
1C6C3
102
{ACAD_REACTORS
330
1C6C9
102
}
330
18
100
AcDbEntity
  8
実線
100
AcDbCircle
 10
11460.6830462636
 20
-477.3522184234207
 30
0.0
 40
1.6
  0
LINE
  5
1C6C4
102
{ACAD_REACTORS
330
1C6C9
102
}
330
18
100
AcDbEntity
  8
実線
 48
10.0
100
AcDbLine
 10
11464.1830462636
 20
-480.8522184234207
 30
0.0
 11
11447.1830462636
 21
-480.8522184234216
 31
0.0
  0
LINE
  5
1C6C5
102
{ACAD_REACTORS
330
1C6C9
102
}
330
18
100
AcDbEntity
  8
実線
 48
10.0
100
AcDbLine
 10
11454.1830462636
 20
-470.7522184234217
 30
0.0
 11
11454.1830462636
 21
-473.8522184234216
 31
0.0
  0
LINE
  5
1C6C6
102
{ACAD_REACTORS
330
1C6C9
102
}
330
18
100
AcDbEntity
  8
実線
 48
10.0
100
AcDbLine
 10
11454.1830462636
 20
-470.7522184234214
 30
0.0
 11
11464.1830462636
 21
-470.7522184234217
 31
0.0
  0
LINE
  5
1C6C7
102
{ACAD_REACTORS
330
1C6C9
102
}
330
18
100
AcDbEntity
  8
治具
100
AcDbLine
 10
11498.18295107648
 20
-471.3522184234204
 30
0.0
 11
11464.1830462636
 21
-471.7522184234204
 31
0.0
  0
LINE
  5
1C6C8
102
{ACAD_REACTORS
330
1C6C9
102
}
330
18
100
AcDbEntity
  8
治具
 48
10.0
100
AcDbLine
 10
11498.18295107648
 20
-466.3522184234205
 30
0.0
 11
11454.1830462636
 21
-465.834571518302
 31
0.0
  0
DIMENSION
  5
1C721
330
18
100
AcDbEntity
  8
寸法
 48
10.0
100
AcDbDimension
  2
*D9
 10
11464.1830462636
 20
-499.605781961295
 30
0.0
 11
11455.6830462636
 21
-497.755781961295
 31
0.0
 70
    32
 71
     5
 42
17.0
  3
STD-I
100
AcDbAlignedDimension
 13
11447.1830462636
 23
-480.8522184234216
 33
0.0
 14
11464.1830462636
 24
-480.8522184234207
 34
0.0
100
AcDbRotatedDimension
1001
ACAD
1000
DSTYLE
1002
{
1070
   340
1005
35
1070
    41
1040
5.0
1070
    42
1040
1.0
1070
   140
1040
5.0
1070
   178
1070
     7
1070
   271
1070
     6
1002
}
  0
DIMENSION
  5
1C72E
330
18
100
AcDbEntity
  8
寸法
 48
10.0
100
AcDbDimension
  2
*D10
 10
11442.02132793199
 20
-473.8522184234216
 30
0.0
 11
11440.17132793199
 21
-477.3522184234197
 31
0.0
 70
    32
 71
     5
 42
7.0
  3
STD-I
100
AcDbAlignedDimension
 13
11447.1830462636
 23
-480.8522184234216
 33
0.0
 14
11447.1830462636
 24
-473.8522184234216
 34
0.0
 50
90.0
100
AcDbRotatedDimension
1001
ACAD
1000
DSTYLE
1002
{
1070
   340
1005
35
1070
    41
1040
5.0
1070
    42
1040
1.0
1070
   140
1040
5.0
1070
   178
1070
     7
1070
   271
1070
     6
1002
}
  0
DIMENSION
  5
1C75D
330
18
100
AcDbEntity
  8
寸法
 48
10.0
100
AcDbDimension
  2
*D11
 10
11419.33766855851
 20
-465.834571518302
 30
0.0
 11
11417.27827769556
 21
-473.34339497086
 31
0.0
 70
    32
  1
(<>)
 71
     5
 42
15.01764690511953
  3
STD-I
100
AcDbAlignedDimension
 13
11447.1830462636
 23
-480.8522184234216
 33
0.0
 14
11454.1830462636
 24
-465.834571518302
 34
0.0
 50
90.0
100
AcDbRotatedDimension
1001
ACAD
1000
DSTYLE
1002
{
1070
   340
1005
35
1070
    41
1040
5.0
1070
    42
1040
1.0
1070
   140
1040
5.0
1070
   178
1070
     7
1070
   271
1070
     1
1002
}
  0
DIMENSION
  5
1C7F2
330
18
100
AcDbEntity
  8
寸法
 48
10.0
100
AcDbDimension
  2
*D12
 10
11500.18295107648
 20
-506.7924266020842
 30
0.0
 11
11473.68299867004
 21
-504.73303573914
 31
0.0
 70
    32
  1
(<>)
 71
     5
 42
52.9999048128775
  3
STD-I
100
AcDbAlignedDimension
 13
11447.1830462636
 23
-480.8522184234216
 33
0.0
 14
11500.18295107648
 24
-468.8522184234208
 34
0.0
100
AcDbRotatedDimension
1001
ACAD
1000
DSTYLE
1002
{
1070
   340
1005
35
1070
    41
1040
5.0
1070
    42
1040
1.0
1070
   140
1040
5.0
1070
   178
1070
     7
1070
   271
1070
     1
1002
}
  0
LINE
  5
1C896
102
{ACAD_REACTORS
330
1C89B
102
}
330
18
100
AcDbEntity
  8
実線
100
AcDbLine
 10
11545.45367797368
 20
-480.8522184234207
 30
0.0
 11
11545.45367797368
 21
-471.7522184234215
 31
0.0
  0
LINE
  5
1C897
102
{ACAD_REACTORS
330
1C89B
102
}
330
18
100
AcDbEntity
  8
治具
 48
10.0
100
AcDbLine
 10
11544.95367797368
 20
-465.7522184234209
 30
0.0
 11
11544.95367797368
 21
-471.7522184234215
 31
0.0
  0
LINE
  5
1C898
102
{ACAD_REACTORS
330
1C89B
102
}
330
18
100
AcDbEntity
  8
治具
 48
10.0
100
AcDbLine
 10
11567.95367797368
 20
-465.7522184234209
 30
0.0
 11
11544.95367797368
 21
-465.7522184234209
 31
0.0
  0
LINE
  5
1C899
102
{ACAD_REACTORS
330
1C89B
102
}
330
18
100
AcDbEntity
  8
治具
100
AcDbLine
 10
11567.95367797368
 20
-465.7522184234209
 30
0.0
 11
11567.95367797368
 21
-471.7522184234215
 31
0.0
  0
LINE
  5
1C9A6
330
18
100
AcDbEntity
  8
0
 48
0.5
370
    30
100
AcDbLine
 10
11579.78438313128
 20
-470.7522184234215
 30
0.0
 11
11567.95367797368
 21
-470.7522184234215
 31
0.0
  0
LINE
  5
1C9A7
330
18
100
AcDbEntity
  8
0
 48
0.5
370
    30
100
AcDbLine
 10
11580.43356514104
 20
-465.5522184234207
 30
0.0
 11
11567.95367797368
 21
-465.5522184234213
 31
0.0
  0
LEADER
  5
1C9A8
330
18
100
AcDbEntity
  8
文字
 48
0.5
100
AcDbLeader
  3
ｺﾋﾟｰ - まこ-10
 76
     3
 10
11605.12059554672
 20
-457.961073162291
 30
0.0
 10
11616.98468469117
 20
-442.4968962011645
 30
0.0
 10
11651.06052180274
 20
-442.4968962011645
 30
0.0
1001
ACAD
1000
DSTYLE
1002
{
1070
    77
1070
     0
1002
}
  0
LEADER
  5
1C9A9
330
18
100
AcDbEntity
  8
文字
 48
0.5
100
AcDbLeader
  3
ｺﾋﾟｰ - まこ-10
 76
     3
 10
11629.10347663874
 20
-471.9087676521886
 30
0.0
 10
11624.95175965569
 20
-501.1898915798501
 30
0.0
 10
11587.30101379652
 20
-501.1898915798501
 30
0.0
1001
ACAD
1000
DSTYLE
1002
{
1070
    77
1070
     0
1002
}
  0
MTEXT
  5
1C9AB
330
18
100
AcDbEntity
  8
文字
 62
     7
100
AcDbMText
 10
11589.0916956835
 20
-500.0058670076241
 30
0.0
 40
2.5
 41
0.0
 71
     7
 72
     1
  1
{\fＭＳ Ｐゴシック|b0|i0|c128|p50;ｺﾝﾀｸﾄ：AMP 170363-1\Pｷｬｯﾌﾟ：AMP 172168-1}
  7
MSｺﾞｼｯｸ
 73
     1
 44
1.0
1001
ACAD
1000
MTEXTBEGIN
1070
    73
1070
     1
1070
    44
1040
0.8
1070
    74
1070
     0
1000
MTEXTEND
1000
MTEXTBEGIN
1070
    73
1070
     1
1070
    44
1040
0.8
1070
    74
1070
     0
1000
MTEXTEND
  0
LWPOLYLINE
  5
1C9AC
330
18
100
AcDbEntity
  8
0
100
AcDbPolyline
 90
        4
 70
     1
 43
0.0
 10
11630.16333463541
 20
-471.0272206933114
 10
11636.91333463541
 20
-471.0272206933114
 10
11636.91333463541
 20
-468.4022206933114
 10
11630.16333463541
 20
-468.4022206933114
  0
LINE
  5
1C9AD
330
18
100
AcDbEntity
  8
A
 62
     7
100
AcDbLine
 10
11630.16330080931
 20
-471.7772161535295
 30
0.0
 11
11630.16330080931
 21
-464.4272161535291
 31
0.0
  0
LINE
  5
1C9AE
330
18
100
AcDbEntity
  8
A
 62
     7
100
AcDbLine
 10
11619.66330080931
 20
-471.7772161535295
 30
0.0
 11
11619.66330080931
 21
-464.427220693311
 31
0.0
  0
LINE
  5
1C9AF
330
18
100
AcDbEntity
  8
A
 62
     7
100
AcDbLine
 10
11617.66330080931
 20
-464.3522184234207
 30
0.0
 11
11617.66330080931
 21
-471.9522184234211
 31
0.0
  0
LINE
  5
1C9B0
330
18
100
AcDbEntity
  8
A
 62
     7
100
AcDbLine
 10
11619.66333463541
 20
-471.7772206933114
 30
0.0
 11
11630.16333463541
 21
-471.7772206933114
 31
0.0
  0
LINE
  5
1C9B1
330
18
100
AcDbEntity
  8
A
 62
     7
100
AcDbLine
 10
11619.66333463541
 20
-472.5272206933114
 30
0.0
 11
11620.41333463541
 21
-472.5272206933114
 31
0.0
  0
LINE
  5
1C9B2
330
18
100
AcDbEntity
  8
A
 62
     7
100
AcDbLine
 10
11619.66330080931
 20
-472.5272161535295
 30
0.0
 11
11619.66330080931
 21
-471.7772161535295
 31
0.0
  0
LINE
  5
1C9B3
330
18
100
AcDbEntity
  8
A
 62
     7
100
AcDbLine
 10
11620.41330080931
 20
-472.5272161535295
 30
0.0
 11
11620.41330080931
 21
-471.7772161535295
 31
0.0
  0
LWPOLYLINE
  5
1C9B4
330
18
100
AcDbEntity
  8
0
100
AcDbPolyline
 90
        4
 70
     1
 43
0.0
 10
11630.16333463541
 20
-465.1772116137472
 10
11636.91333463541
 20
-465.1772116137472
 10
11636.91333463541
 20
-467.8022116137472
 10
11630.16333463541
 20
-467.8022116137472
  0
LINE
  5
1C9B5
330
18
100
AcDbEntity
  8
PIC11
  6
Continuous
100
AcDbLine
 10
11624.08830080931
 20
-462.2147161535304
 30
0.0
 11
11623.75080080931
 21
-460.9022161535304
 31
0.0
  0
LINE
  5
1C9B6
330
18
100
AcDbEntity
  8
A
 62
     7
100
AcDbLine
 10
11619.66330080931
 20
-465.6022153968988
 30
0.0
 11
11617.66330080931
 21
-465.6022153968988
 31
0.0
  0
LINE
  5
1C9B7
330
18
100
AcDbEntity
  8
A
 62
     7
100
AcDbLine
 10
11619.66330080931
 20
-468.6022153968989
 30
0.0
 11
11617.66330080931
 21
-468.6022153968989
 31
0.0
  0
LINE
  5
1C9B8
330
18
100
AcDbEntity
  8
A
 62
     7
100
AcDbLine
 10
11619.66330080931
 20
-469.6022153968988
 30
0.0
 11
11617.66330080931
 21
-469.6022153968988
 31
0.0
  0
LINE
  5
1C9B9
330
18
100
AcDbEntity
  8
A
 62
     7
100
AcDbLine
 10
11619.66330080931
 20
-466.6022153968988
 30
0.0
 11
11617.66330080931
 21
-466.6022153968988
 31
0.0
  0
LINE
  5
1C9BA
330
18
100
AcDbEntity
  8
A
 62
     7
100
AcDbLine
 10
11619.66330080931
 20
-467.6022153968989
 30
0.0
 11
11617.66330080931
 21
-467.6022153968989
 31
0.0
  0
LINE
  5
1C9BB
330
18
100
AcDbEntity
  8
A
 62
     7
100
AcDbLine
 10
11619.66333463541
 20
-464.427220693311
 30
0.0
 11
11630.16333463541
 21
-464.427220693311
 31
0.0
  0
LINE
  5
1C9BC
330
18
100
AcDbEntity
  8
A
 62
     7
100
AcDbLine
 10
11620.41330080931
 20
-464.4272161535291
 30
0.0
 11
11620.41330080931
 21
-463.6772161535291
 31
0.0
  0
LINE
  5
1C9BD
330
18
100
AcDbEntity
  8
A
 62
     7
100
AcDbLine
 10
11619.66330080931
 20
-464.4272161535291
 30
0.0
 11
11619.66330080931
 21
-463.6772161535291
 31
0.0
  0
LINE
  5
1C9BE
330
18
100
AcDbEntity
  8
A
 62
     7
100
AcDbLine
 10
11619.66333463541
 20
-463.6772206933111
 30
0.0
 11
11620.41333463541
 21
-463.6772206933111
 31
0.0
  0
LINE
  5
1C9BF
330
18
100
AcDbEntity
  8
0
100
AcDbLine
 10
11627.89214705931
 20
-463.8272161535287
 30
0.0
 11
11627.89214705931
 21
-464.427220693311
 31
0.0
  0
LINE
  5
1C9C0
330
18
100
AcDbEntity
  8
0
100
AcDbLine
 10
11630.16330080931
 20
-463.6772161535291
 30
0.0
 11
11630.16333463541
 21
-464.427220693311
 31
0.0
  0
LINE
  5
1C9C1
330
18
100
AcDbEntity
  8
PIC11
  6
Continuous
100
AcDbLine
 10
11627.89214705931
 20
-463.8272161535287
 30
0.0
 11
11624.08830080931
 21
-462.2147161535286
 31
0.0
  0
LINE
  5
1C9C2
330
18
100
AcDbEntity
  8
A
 62
     7
100
AcDbLine
 10
11632.52580080931
 20
-463.3513539035303
 30
0.0
 11
11630.16330080931
 21
-463.6772161535291
 31
0.0
  0
LINE
  5
1C9C3
330
18
100
AcDbEntity
  8
A
 62
     7
100
AcDbLine
 10
11623.75080080931
 20
-460.9022161535304
 30
0.0
 11
11632.52580080931
 21
-462.3647161535291
 31
0.0
  0
LINE
  5
1C9C4
330
18
100
AcDbEntity
  8
A
 62
     7
100
AcDbLine
 10
11619.66330080931
 20
-470.6022153968988
 30
0.0
 11
11617.66330080931
 21
-470.6022153968988
 31
0.0
  0
LINE
  5
1C9C5
330
18
100
AcDbEntity
  8
A
 62
     7
100
AcDbLine
 10
11606.91330080931
 20
-470.9522184234211
 30
0.0
 11
11606.91330080931
 21
-465.3522184234212
 31
0.0
  0
LWPOLYLINE
  5
1C9C7
330
18
100
AcDbEntity
  8
0
100
AcDbPolyline
 90
        4
 70
     1
 43
0.0
 10
11595.34768620993
 20
-464.405920629691
 10
11605.34768620993
 20
-464.405920629691
 10
11605.34768620993
 20
-459.405920629691
 10
11595.34768620993
 20
-459.405920629691
  0
LWPOLYLINE
  5
1C9C8
330
18
100
AcDbEntity
  8
0
370
    30
100
AcDbPolyline
 90
        2
 70
     0
 43
0.0
 10
11600.84768620993
 20
-470.7522184234215
 10
11602.99782249758
 20
-470.7522184234215
  0
LWPOLYLINE
  5
1C9C9
330
18
100
AcDbEntity
  8
0
370
    30
100
AcDbPolyline
 90
        2
 70
     0
 43
0.0
 10
11604.12692086549
 20
-470.7522184234215
 10
11606.91330080931
 20
-470.7522184234215
  0
LWPOLYLINE
  5
1C9CA
330
18
100
AcDbEntity
  8
0
370
    30
100
AcDbPolyline
 90
        2
 70
     0
 43
0.0
 10
11606.91330080931
 20
-465.5522184234207
 10
11604.64700450735
 20
-465.5522184234207
  0
LWPOLYLINE
  5
1C9CB
330
18
100
AcDbEntity
  8
0
370
    30
100
AcDbPolyline
 90
        2
 70
     0
 43
0.0
 10
11603.51743756948
 20
-465.5522184234207
 10
11600.84768620993
 20
-465.5522184234207
  0
LINE
  5
1C9CC
330
18
100
AcDbEntity
  8
A
 62
     7
100
AcDbLine
 10
11606.91330080931
 20
-465.3522184234208
 30
0.0
 11
11611.66330080931
 21
-465.3522184234212
 31
0.0
  0
LINE
  5
1C9CD
330
18
100
AcDbEntity
  8
A
 62
     7
100
AcDbLine
 10
11611.66330080931
 20
-470.9522184234207
 30
0.0
 11
11606.91330080931
 21
-470.9522184234211
 31
0.0
  0
LINE
  5
1C9CE
330
18
100
AcDbEntity
  8
A
 62
     7
100
AcDbLine
 10
11612.66330080931
 20
-464.3522184234202
 30
0.0
 11
11617.66330080931
 21
-464.3522184234207
 31
0.0
  0
LINE
  5
1C9CF
330
18
100
AcDbEntity
  8
A
 62
     7
100
AcDbLine
 10
11612.66330080931
 20
-471.9522184234211
 30
0.0
 11
11617.66330080931
 21
-471.9522184234211
 31
0.0
  0
ARC
  5
1C9D0
330
18
100
AcDbEntity
  8
A
 48
0.5
100
AcDbCircle
 10
11611.66330080931
 20
-471.4522184234207
 30
0.0
 40
0.5
100
AcDbArc
 50
0.0
 51
90.0
  0
ARC
  5
1C9D1
330
18
100
AcDbEntity
  8
A
 48
0.5
100
AcDbCircle
 10
11612.66330080931
 20
-471.4522184234211
 30
0.0
 40
0.5
100
AcDbArc
 50
180.0
 51
270.0
  0
ARC
  5
1C9D2
330
18
100
AcDbEntity
  8
A
 48
0.5
100
AcDbCircle
 10
11612.66330080931
 20
-464.8522184234202
 30
0.0
 40
0.5
100
AcDbArc
 50
90.0
 51
180.0
  0
ARC
  5
1C9D3
330
18
100
AcDbEntity
  8
A
 48
0.5
100
AcDbCircle
 10
11611.66330080931
 20
-464.8522184234212
 30
0.0
 40
0.5
100
AcDbArc
 50
270.0
 51
0.0
  0
SPLINE
  5
1C9D4
330
18
100
AcDbEntity
  8
0
 48
0.5
100
AcDbSpline
210
0.0
220
0.0
230
1.0
 70
     8
 71
     3
 72
    11
 73
     7
 74
     5
 42
0.0000000001
 43
0.0000000001
 44
0.0000000001
 40
0.0
 40
0.0
 40
0.0
 40
0.0
 40
1.581138830084189
 40
3.162277660168379
 40
5.320980974660692
 40
6.902119804744882
 40
6.902119804744882
 40
6.902119804744882
 40
6.902119804744882
 10
11603.32366301992
 20
-471.4554132185513
 30
0.0
 10
11603.07093504048
 20
-470.9544109490674
 30
0.0
 10
11602.5654790816
 20
-469.9524064100994
 30
0.0
 10
11603.45270217072
 20
-468.2866290900195
 30
0.0
 10
11604.07935352305
 20
-466.5251167741558
 30
0.0
 10
11603.54821777847
 20
-465.3515685589046
 30
0.0
 10
11603.32366301992
 20
-464.8554132185513
 30
0.0
 11
11603.32366301992
 21
-471.4554132185513
 31
0.0
 11
11602.82366301992
 21
-469.9554132185514
 31
0.0
 11
11603.32366301992
 21
-468.4554132185513
 31
0.0
 11
11603.82366301992
 21
-466.3554132185513
 31
0.0
 11
11603.32366301992
 21
-464.8554132185513
 31
0.0
  0
SPLINE
  5
1C9D5
330
18
100
AcDbEntity
  8
0
 48
0.5
100
AcDbSpline
210
0.0
220
0.0
230
1.0
 70
     8
 71
     3
 72
    11
 73
     7
 74
     5
 42
0.0000000001
 43
0.0000000001
 44
0.0000000001
 40
0.0
 40
0.0
 40
0.0
 40
0.0
 40
1.581138830084189
 40
3.162277660168379
 40
5.320980974660692
 40
6.902119804744882
 40
6.902119804744882
 40
6.902119804744882
 40
6.902119804744882
 10
11604.32366301992
 20
-471.4554132185513
 30
0.0
 10
11604.07093504048
 20
-470.9544109490674
 30
0.0
 10
11603.5654790816
 20
-469.9524064100994
 30
0.0
 10
11604.45270217072
 20
-468.2866290900195
 30
0.0
 10
11605.07935352305
 20
-466.5251167741558
 30
0.0
 10
11604.54821777847
 20
-465.3515685589046
 30
0.0
 10
11604.32366301992
 20
-464.8554132185513
 30
0.0
 11
11604.32366301992
 21
-471.4554132185513
 31
0.0
 11
11603.82366301992
 21
-469.9554132185514
 31
0.0
 11
11604.32366301992
 21
-468.4554132185513
 31
0.0
 11
11604.82366301992
 21
-466.3554132185513
 31
0.0
 11
11604.32366301992
 21
-464.8554132185513
 31
0.0
  0
SPLINE
  5
1C9D6
330
18
100
AcDbEntity
  8
0
 48
0.5
100
AcDbSpline
210
0.0
220
0.0
230
1.0
 70
     8
 71
     3
 72
    11
 73
     7
 74
     5
 42
0.0000000001
 43
0.0000000001
 44
0.0000000001
 40
0.0
 40
0.0
 40
0.0
 40
0.0
 40
1.581138830084189
 40
3.162277660168379
 40
5.320980974660692
 40
6.902119804744882
 40
6.902119804744882
 40
6.902119804744882
 40
6.902119804744882
 10
11581.11022365362
 20
-471.4554132185513
 30
0.0
 10
11580.85749567418
 20
-470.9544109490674
 30
0.0
 10
11580.3520397153
 20
-469.9524064100994
 30
0.0
 10
11581.23926280442
 20
-468.2866290900195
 30
0.0
 10
11581.86591415674
 20
-466.5251167741558
 30
0.0
 10
11581.33477841217
 20
-465.3515685589046
 30
0.0
 10
11581.11022365362
 20
-464.8554132185513
 30
0.0
 11
11581.11022365362
 21
-471.4554132185513
 31
0.0
 11
11580.61022365362
 21
-469.9554132185514
 31
0.0
 11
11581.11022365362
 21
-468.4554132185513
 31
0.0
 11
11581.61022365362
 21
-466.3554132185513
 31
0.0
 11
11581.11022365362
 21
-464.8554132185513
 31
0.0
  0
SPLINE
  5
1C9D7
330
18
100
AcDbEntity
  8
0
 48
0.5
100
AcDbSpline
210
0.0
220
0.0
230
1.0
 70
     8
 71
     3
 72
    11
 73
     7
 74
     5
 42
0.0000000001
 43
0.0000000001
 44
0.0000000001
 40
0.0
 40
0.0
 40
0.0
 40
0.0
 40
1.581138830084189
 40
3.162277660168379
 40
5.320980974660692
 40
6.902119804744882
 40
6.902119804744882
 40
6.902119804744882
 40
6.902119804744882
 10
11580.11022365362
 20
-471.4554132185513
 30
0.0
 10
11579.85749567418
 20
-470.9544109490674
 30
0.0
 10
11579.3520397153
 20
-469.9524064100994
 30
0.0
 10
11580.23926280442
 20
-468.2866290900195
 30
0.0
 10
11580.86591415675
 20
-466.5251167741558
 30
0.0
 10
11580.33477841217
 20
-465.3515685589046
 30
0.0
 10
11580.11022365362
 20
-464.8554132185513
 30
0.0
 11
11580.11022365362
 21
-471.4554132185513
 31
0.0
 11
11579.61022365362
 21
-469.9554132185514
 31
0.0
 11
11580.11022365362
 21
-468.4554132185513
 31
0.0
 11
11580.61022365362
 21
-466.3554132185513
 31
0.0
 11
11580.11022365362
 21
-464.8554132185513
 31
0.0
  0
LWPOLYLINE
  5
1C9D8
330
18
100
AcDbEntity
  8
0
370
    30
100
AcDbPolyline
 90
        2
 70
     0
 43
0.0
 10
11599.84768620993
 20
-465.5522184234207
 10
11581.43356514104
 20
-465.5522184234207
  0
LWPOLYLINE
  5
1C9D9
330
18
100
AcDbEntity
  8
0
370
    30
100
AcDbPolyline
 90
        2
 70
     0
 43
0.0
 10
11580.78438313128
 20
-470.7522184234215
 10
11599.84768620993
 20
-470.7522184234215
  0
DIMENSION
  5
1C9DA
330
18
100
AcDbEntity
  8
寸法
 48
10.0
100
AcDbDimension
  2
*D13
 10
11636.91333463541
 20
-448.5041026867421
 30
0.0
 11
11602.43350630455
 21
-446.5716153770974
 31
0.0
 70
    32
  1
※ L
 71
     5
 42
68.95965666173651
  3
STD-I
100
AcDbAlignedDimension
 13
11567.95367797368
 23
-465.5522184234213
 33
0.0
 14
11636.91333463541
 24
-465.1772116137472
 34
0.0
100
AcDbRotatedDimension
1001
ACAD
1000
DSTYLE
1002
{
1070
   340
1005
35
1070
    41
1040
5.0
1070
    42
1040
1.0
1070
   140
1040
5.0
1070
   178
1070
     7
1070
   271
1070
     6
1070
   279
1070
     1
1002
}
  0
LINE
  5
1CA12
330
18
100
AcDbEntity
  8
0
100
AcDbLine
 10
11599.84768620993
 20
-471.2059206296911
 30
0.0
 11
11600.84768620993
 21
-471.2059206296911
 31
0.0
  0
LINE
  5
1CA13
330
18
100
AcDbEntity
  8
0
100
AcDbLine
 10
11600.84768620993
 20
-471.205920629691
 30
0.0
 11
11600.84768620993
 21
-464.405920629691
 31
0.0
  0
LINE
  5
1CA14
330
18
100
AcDbEntity
  8
0
100
AcDbLine
 10
11600.84768620993
 20
-464.405920629691
 30
0.0
 11
11599.84768620993
 21
-464.405920629691
 31
0.0
  0
LINE
  5
1CA15
330
18
100
AcDbEntity
  8
0
100
AcDbLine
 10
11599.84768620993
 20
-464.405920629691
 30
0.0
 11
11599.84768620993
 21
-471.205920629691
 31
0.0
  0
MTEXT
  5
1CA7C
330
18
100
AcDbEntity
  8
文字
100
AcDbMText
 10
11618.57415539408
 20
-441.2308568772669
 30
0.0
 40
3.0
 41
0.0
 71
     7
 72
     1
  1
{\fＭＳ Ｐゴシック|b0|i0|c128|p50;装置銘板，検査証}
  7
MSｺﾞｼｯｸ
 73
     1
 44
1.0
1001
ACAD
1000
MTEXTBEGIN
1070
    73
1070
     1
1070
    44
1040
0.8
1070
    74
1070
     0
1000
MTEXTEND
1000
MTEXTBEGIN
1070
    73
1070
     1
1070
    44
1040
0.8
1070
    74
1070
     0
1000
MTEXTEND
  0
LINE
  5
1CA9B
330
18
100
AcDbEntity
  8
治具
 48
10.0
100
AcDbLine
 10
11454.1830462636
 20
-427.5496347854432
 30
0.0
 11
11500.18304626361
 21
-427.5496347854469
 31
0.0
  0
LINE
  5
1CA9C
330
18
100
AcDbEntity
  8
治具
 48
10.0
100
AcDbLine
 10
11500.1830462636
 20
-404.5496347854541
 30
0.0
 11
11454.1830462636
 21
-404.5496347854486
 31
0.0
  0
LWPOLYLINE
  5
1CA9D
330
18
100
AcDbEntity
  8
実線
 48
10.0
100
AcDbPolyline
 90
        5
 70
     0
 43
0.0
 10
11464.1830462636
 20
-404.5496347854505
 10
11464.1830462636
 20
-404.049634785445
 10
11447.1830462636
 20
-404.049634785445
 10
11447.1830462636
 20
-427.5496347854432
 10
11454.1830462636
 20
-427.5496347854432
  0
LINE
  5
1CA9E
330
18
100
AcDbEntity
  8
実線
100
AcDbLine
 10
11454.1830462636
 20
-404.049634785445
 30
0.0
 11
11454.1830462636
 21
-404.5496347854486
 31
0.0
  0
LINE
  5
1CA9F
330
18
100
AcDbEntity
  8
治具
 48
10.0
100
AcDbLine
 10
11454.1830462636
 20
-427.549634785445
 30
0.0
 11
11454.1830462636
 21
-404.5496347854486
 31
0.0
  0
LWPOLYLINE
  5
1CAA0
330
18
100
AcDbEntity
  8
実線
 48
10.0
100
AcDbPolyline
 90
        2
 70
     1
 43
0.0
 10
11463.6830462636
 20
-427.549634785445
 10
11463.6830462636
 20
-427.549634785445
  0
LINE
  5
1CAA1
330
18
100
AcDbEntity
  8
治具
 48
10.0
100
AcDbLine
 10
11500.18304626361
 20
-427.5496347854469
 30
0.0
 11
11500.1830462636
 21
-404.5496347854522
 31
0.0
  0
LINE
  5
1CAD5
330
18
100
AcDbEntity
  8
実線
 48
10.0
100
AcDbLine
 10
11568.45367797368
 20
-470.7522184234214
 30
0.0
 11
11568.45367797368
 21
-480.8522184234216
 31
0.0
  0
LINE
  5
1CAD6
330
18
100
AcDbEntity
  8
実線
 48
10.0
100
AcDbLine
 10
11568.45367797368
 20
-480.8522184234216
 30
0.0
 11
11545.45367797368
 21
-480.8522184234207
 31
0.0
  0
LINE
  5
1CAD7
330
18
100
AcDbEntity
  8
実線
 48
10.0
100
AcDbLine
 10
11545.45367797368
 20
-480.8522184234207
 30
0.0
 11
11544.95367797368
 21
-480.3522184234207
 31
0.0
  0
LINE
  5
1CAD8
330
18
100
AcDbEntity
  8
実線
 48
10.0
100
AcDbLine
 10
11544.95367797368
 20
-480.3522184234207
 30
0.0
 11
11544.95367797368
 21
-470.7522184234214
 31
0.0
  0
LINE
  5
1CADA
330
18
100
AcDbEntity
  8
治具
 48
10.0
100
AcDbLine
 10
11544.95367797368
 20
-471.7522184234215
 30
0.0
 11
11567.95367797368
 21
-471.7522184234214
 31
0.0
  0
LINE
  5
1CADB
330
18
100
AcDbEntity
  8
実線
 48
10.0
100
AcDbLine
 10
11567.95367797368
 20
-470.7522184234215
 30
0.0
 11
11568.45367797368
 21
-470.7522184234214
 31
0.0
  0
MTEXT
  5
1CB21
330
18
100
AcDbEntity
  8
CIRCUIT
 62
     7
100
AcDbMText
 10
11589.51470414762
 20
-414.3144775759028
 30
0.0
 40
3.0
 41
0.0
 71
     7
 72
     1
  1
10mm単位
  7
MSｺﾞｼｯｸ
 73
     1
 44
1.0
1001
ACAD
1000
MTEXTBEGIN
1070
    73
1070
     1
1070
    44
1040
0.8
1070
    74
1070
     0
1000
MTEXTEND
1000
MTEXTBEGIN
1070
    73
1070
     1
1070
    44
1040
0.8
1070
    74
1070
     0
1000
MTEXTEND
  0
LWPOLYLINE
  5
1CB22
330
18
100
AcDbEntity
  8
0
 48
0.5
100
AcDbPolyline
 90
        4
 70
     1
 43
0.0
 10
11538.82064397387
 20
-386.297341078759
 10
11638.89001974121
 20
-386.297341078759
 10
11638.89001974121
 20
-420.5499654022124
 10
11538.82064397387
 20
-420.5499654022124
  0
MTEXT
  5
1CB23
330
18
100
AcDbEntity
  8
CIRCUIT
 62
     7
100
AcDbMText
 10
11542.04313577159
 20
-391.9336715598292
 30
0.0
 40
3.0
 41
0.0
 71
     7
 72
     1
  1
{\L\U+203BＬ寸法は以下の通りになります。}
  7
MSｺﾞｼｯｸ
 73
     1
 44
1.0
1001
ACAD
1000
MTEXTBEGIN
1070
    73
1070
     1
1070
    44
1040
0.8
1070
    74
1070
     0
1000
MTEXTEND
1000
MTEXTBEGIN
1070
    73
1070
     1
1070
    44
1040
0.8
1070
    74
1070
     0
1000
MTEXTEND
  0
MTEXT
  5
1CB24
330
18
100
AcDbEntity
  8
CIRCUIT
 62
     7
100
AcDbMText
 10
11544.35039118532
 20
-395.831287795132
 30
0.0
 40
3.0
 41
0.0
 71
     7
 72
     1
  1
製品型式長さが
  7
MSｺﾞｼｯｸ
 73
     1
 44
1.0
1001
ACAD
1000
MTEXTBEGIN
1070
    73
1070
     1
1070
    44
1040
0.8
1070
    74
1070
     0
1000
MTEXTEND
1000
MTEXTBEGIN
1070
    73
1070
     1
1070
    44
1040
0.8
1070
    74
1070
     0
1000
MTEXTEND
  0
MTEXT
  5
1CB25
330
18
100
AcDbEntity
  8
CIRCUIT
 62
     7
100
AcDbMText
 10
11546.35039118532
 20
-400.2943917116353
 30
0.0
 40
3.0
 41
0.0
 71
     7
 72
     1
  1
1m以上の場合、Ｌ＝製品型式長さ±50mm
  7
MSｺﾞｼｯｸ
 73
     1
 44
1.0
1001
ACAD
1000
MTEXTBEGIN
1070
    73
1070
     1
1070
    44
1040
0.8
1070
    74
1070
     0
1000
MTEXTEND
1000
MTEXTBEGIN
1070
    73
1070
     1
1070
    44
1040
0.8
1070
    74
1070
     0
1000
MTEXTEND
  0
MTEXT
  5
1CB26
330
18
100
AcDbEntity
  8
CIRCUIT
 62
     7
100
AcDbMText
 10
11546.09525091748
 20
-409.8120630443345
 30
0.0
 40
3.0
 41
0.0
 71
     7
 72
     1
  1
例：NSR-PAB2D1A-050 \U+2192 製品型式長さ：500mm
  7
MSｺﾞｼｯｸ
 73
     1
 44
1.0
1001
ACAD
1000
MTEXTBEGIN
1070
    73
1070
     1
1070
    44
1040
0.8
1070
    74
1070
     0
1000
MTEXTEND
1000
MTEXTBEGIN
1070
    73
1070
     1
1070
    44
1040
0.8
1070
    74
1070
     0
1000
MTEXTEND
  0
MTEXT
  5
1CB27
330
18
100
AcDbEntity
  8
CIRCUIT
 62
     7
100
AcDbMText
 10
11546.35039118532
 20
-405.2390394620852
 30
0.0
 40
3.0
 41
0.0
 71
     7
 72
     1
  1
1m未満の場合、Ｌ＝製品型式長さ＋30 ±20mm
  7
MSｺﾞｼｯｸ
 73
     1
 44
1.0
1001
ACAD
1000
MTEXTBEGIN
1070
    73
1070
     1
1070
    44
1040
0.8
1070
    74
1070
     0
1000
MTEXTEND
1000
MTEXTBEGIN
1070
    73
1070
     1
1070
    44
1040
0.8
1070
    74
1070
     0
1000
MTEXTEND
  0
MTEXT
  5
1CB28
330
18
100
AcDbEntity
  8
CIRCUIT
 62
     7
100
AcDbMText
 10
11554.21770259461
 20
-418.5714508627812
 30
0.0
 40
3.0
 41
0.0
 71
     7
 72
     1
  1
Ｌ寸法：530±20mm　（500+30±20）
  7
MSｺﾞｼｯｸ
 73
     1
 44
1.0
1001
ACAD
1000
MTEXTBEGIN
1070
    73
1070
     1
1070
    44
1040
0.8
1070
    74
1070
     0
1000
MTEXTEND
1000
MTEXTBEGIN
1070
    73
1070
     1
1070
    44
1040
0.8
1070
    74
1070
     0
1000
MTEXTEND
  0
LINE
  5
1CB29
330
18
100
AcDbEntity
  8
0
100
AcDbLine
 10
11581.47172074058
 20
-410.3234584826305
 30
0.0
 11
11587.97012499126
 21
-410.3234584826305
 31
0.0
  0
LINE
  5
1CB2A
330
18
100
AcDbEntity
  8
0
100
AcDbLine
 10
11585.23610993378
 20
-410.3234584826305
 30
0.0
 11
11585.23610993378
 21
-413.3234584826304
 31
0.0
  0
LINE
  5
1CB2B
330
18
100
AcDbEntity
  8
0
100
AcDbLine
 10
11585.23610993378
 20
-413.3888374443841
 30
0.0
 11
11588.23610993378
 21
-413.3888374443841
 31
0.0
  0
DIMENSION
  5
1CB2D
330
18
100
AcDbEntity
  8
寸法
 48
10.0
100
AcDbDimension
  2
*D14
 10
11454.1830462636
 20
-458.4502028621886
 30
0.0
 11
11450.6830462636
 21
-456.6002028621887
 31
0.0
 70
    32
 71
     5
 42
7.0
  3
STD-I
100
AcDbAlignedDimension
 13
11447.1830462636
 23
-473.8522184234216
 33
0.0
 14
11454.1830462636
 24
-465.834571518302
 34
0.0
100
AcDbRotatedDimension
1001
ACAD
1000
DSTYLE
1002
{
1070
   340
1005
35
1070
    41
1040
5.0
1070
    42
1040
1.0
1070
   140
1040
5.0
1070
   178
1070
     7
1070
   271
1070
     6
1070
   279
1070
     1
1002
}
  0
LINE
  5
1CB92
102
{ACAD_REACTORS
330
1CC26
102
}
330
18
100
AcDbEntity
  8
0
  6
DASHED
 48
0.05
100
AcDbLine
 10
11448.05804475916
 20
-401.549634785445
 30
0.0
 11
11448.0580462636
 21
-404.049634785445
 31
0.0
  0
LINE
  5
1CB93
102
{ACAD_REACTORS
330
1CC26
102
}
330
18
100
AcDbEntity
  8
0
  6
DASHED
 48
0.05
100
AcDbLine
 10
11448.05804445827
 20
-401.549634785445
 30
0.0
 11
11448.30804445827
 21
-401.049634785445
 31
0.0
  0
LINE
  5
1CB94
102
{ACAD_REACTORS
330
1CC26
102
}
330
18
100
AcDbEntity
  8
0
  6
DASHED
 48
0.05
100
AcDbLine
 10
11453.30804445827
 20
-401.549634785445
 30
0.0
 11
11448.05804445827
 21
-401.549634785445
 31
0.0
  0
LINE
  5
1CB95
102
{ACAD_REACTORS
330
1CC26
102
}
330
18
100
AcDbEntity
  8
0
  6
DASHED
 48
0.05
100
AcDbLine
 10
11453.05804445827
 20
-401.0496349358895
 30
0.0
 11
11448.30804445827
 21
-401.049634785445
 31
0.0
  0
LINE
  5
1CB96
102
{ACAD_REACTORS
330
1CC26
102
}
330
18
100
AcDbEntity
  8
0
  6
DASHED
 48
0.05
100
AcDbLine
 10
11453.30804445827
 20
-401.549634785445
 30
0.0
 11
11453.05804445827
 21
-401.0496349358895
 31
0.0
  0
LINE
  5
1CB97
102
{ACAD_REACTORS
330
1CC26
102
}
330
18
100
AcDbEntity
  8
0
  6
DASHED
 48
0.05
100
AcDbLine
 10
11453.30804445827
 20
-401.549634785445
 30
0.0
 11
11453.30804626361
 21
-404.049634785445
 31
0.0
  0
LINE
  5
1CB98
102
{ACAD_REACTORS
330
1CC26
102
}
330
18
100
AcDbEntity
  8
0
  6
DASHED
 48
0.05
100
AcDbLine
 10
11453.30804626361
 20
-404.049634785445
 30
0.0
 11
11448.0580462636
 21
-404.049634785445
 31
0.0
  0
LINE
  5
1CC31
102
{ACAD_REACTORS
330
1CC3B
102
}
330
18
100
AcDbEntity
  8
0
  6
DASHED
 48
0.05
100
AcDbLine
 10
11461.93304626361
 20
-427.549634785445
 30
0.0
 11
11461.93304626361
 21
-436.049634785445
 31
0.0
  0
LINE
  5
1CC32
102
{ACAD_REACTORS
330
1CC3B
102
}
330
18
100
AcDbEntity
  8
0
  6
DASHED
 48
0.05
100
AcDbLine
 10
11459.4330462636
 20
-427.549634785445
 30
0.0
 11
11459.4330462636
 21
-436.049634785445
 31
0.0
  0
LINE
  5
1CC33
102
{ACAD_REACTORS
330
1CC3B
102
}
330
18
100
AcDbEntity
  8
0
  6
DASHED
 48
0.05
100
AcDbLine
 10
11459.18304626361
 20
-427.549634785445
 30
0.0
 11
11459.18304626361
 21
-434.049634785445
 31
0.0
  0
LINE
  5
1CC34
102
{ACAD_REACTORS
330
1CC3B
102
}
330
18
100
AcDbEntity
  8
0
  6
DASHED
 48
0.05
100
AcDbLine
 10
11462.1830462636
 20
-427.549634785445
 30
0.0
 11
11462.1830462636
 21
-434.049634785445
 31
0.0
  0
LINE
  5
1CC35
102
{ACAD_REACTORS
330
1CC3B
102
}
330
18
100
AcDbEntity
  8
0
  6
DASHED
 48
0.05
100
AcDbLine
 10
11460.68304626361
 20
-436.771322621932
 30
0.0
 11
11461.93304626361
 21
-436.049634785445
 31
0.0
  0
LINE
  5
1CC36
102
{ACAD_REACTORS
330
1CC3B
102
}
330
18
100
AcDbEntity
  8
0
  6
DASHED
 48
0.05
100
AcDbLine
 10
11459.18304626361
 20
-434.049634785445
 30
0.0
 11
11459.4330462636
 21
-434.4826474873371
 31
0.0
  0
LINE
  5
1CC37
102
{ACAD_REACTORS
330
1CC3B
102
}
330
18
100
AcDbEntity
  8
0
  6
DASHED
 48
0.05
100
AcDbLine
 10
11460.68304626361
 20
-436.771322621932
 30
0.0
 11
11459.4330462636
 21
-436.049634785445
 31
0.0
  0
LINE
  5
1CC38
102
{ACAD_REACTORS
330
1CC3B
102
}
330
18
100
AcDbEntity
  8
0
  6
DASHED
 48
0.05
100
AcDbLine
 10
11461.93304626361
 20
-436.049634785445
 30
0.0
 11
11459.4330462636
 21
-436.049634785445
 31
0.0
  0
LINE
  5
1CC39
102
{ACAD_REACTORS
330
1CC3B
102
}
330
18
100
AcDbEntity
  8
0
  6
DASHED
 48
0.05
100
AcDbLine
 10
11462.1830462636
 20
-434.049634785445
 30
0.0
 11
11461.93304626361
 21
-434.4826474873371
 31
0.0
  0
LINE
  5
1CC3A
102
{ACAD_REACTORS
330
1CC3B
102
}
330
18
100
AcDbEntity
  8
0
  6
DASHED
 48
0.05
100
AcDbLine
 10
11462.1830462636
 20
-434.049634785445
 30
0.0
 11
11459.18304626361
 21
-434.049634785445
 31
0.0
  0
LINE
  5
1CC3C
102
{ACAD_REACTORS
330
1CC46
102
}
330
18
100
AcDbEntity
  8
0
  6
DASHED
 48
0.05
100
AcDbLine
 10
11451.9330462636
 20
-427.549634785445
 30
0.0
 11
11451.9330462636
 21
-436.049634785445
 31
0.0
  0
LINE
  5
1CC3D
102
{ACAD_REACTORS
330
1CC46
102
}
330
18
100
AcDbEntity
  8
0
  6
DASHED
 48
0.05
100
AcDbLine
 10
11449.43304626361
 20
-427.549634785445
 30
0.0
 11
11449.43304626361
 21
-436.049634785445
 31
0.0
  0
LINE
  5
1CC3E
102
{ACAD_REACTORS
330
1CC46
102
}
330
18
100
AcDbEntity
  8
0
  6
DASHED
 48
0.05
100
AcDbLine
 10
11449.18304626361
 20
-427.549634785445
 30
0.0
 11
11449.18304626361
 21
-434.049634785445
 31
0.0
  0
LINE
  5
1CC3F
102
{ACAD_REACTORS
330
1CC46
102
}
330
18
100
AcDbEntity
  8
0
  6
DASHED
 48
0.05
100
AcDbLine
 10
11452.18304626361
 20
-427.549634785445
 30
0.0
 11
11452.18304626361
 21
-434.049634785445
 31
0.0
  0
LINE
  5
1CC40
102
{ACAD_REACTORS
330
1CC46
102
}
330
18
100
AcDbEntity
  8
0
  6
DASHED
 48
0.05
100
AcDbLine
 10
11450.6830462636
 20
-436.771322621932
 30
0.0
 11
11451.9330462636
 21
-436.049634785445
 31
0.0
  0
LINE
  5
1CC41
102
{ACAD_REACTORS
330
1CC46
102
}
330
18
100
AcDbEntity
  8
0
  6
DASHED
 48
0.05
100
AcDbLine
 10
11449.18304626361
 20
-434.049634785445
 30
0.0
 11
11449.43304626361
 21
-434.4826474873371
 31
0.0
  0
LINE
  5
1CC42
102
{ACAD_REACTORS
330
1CC46
102
}
330
18
100
AcDbEntity
  8
0
  6
DASHED
 48
0.05
100
AcDbLine
 10
11450.6830462636
 20
-436.771322621932
 30
0.0
 11
11449.43304626361
 21
-436.049634785445
 31
0.0
  0
LINE
  5
1CC43
102
{ACAD_REACTORS
330
1CC46
102
}
330
18
100
AcDbEntity
  8
0
  6
DASHED
 48
0.05
100
AcDbLine
 10
11451.9330462636
 20
-436.049634785445
 30
0.0
 11
11449.43304626361
 21
-436.049634785445
 31
0.0
  0
LINE
  5
1CC44
102
{ACAD_REACTORS
330
1CC46
102
}
330
18
100
AcDbEntity
  8
0
  6
DASHED
 48
0.05
100
AcDbLine
 10
11452.18304626361
 20
-434.049634785445
 30
0.0
 11
11451.9330462636
 21
-434.4826474873371
 31
0.0
  0
LINE
  5
1CC45
102
{ACAD_REACTORS
330
1CC46
102
}
330
18
100
AcDbEntity
  8
0
  6
DASHED
 48
0.05
100
AcDbLine
 10
11452.18304626361
 20
-434.049634785445
 30
0.0
 11
11449.18304626361
 21
-434.049634785445
 31
0.0
  0
LINE
  5
1CCA8
330
18
100
AcDbEntity
  8
0
370
    30
100
AcDbLine
 10
11463.28304626361
 20
-400.049634943016
 30
0.0
 11
11463.28304626361
 21
-398.549634785445
 31
0.0
  0
LINE
  5
1CCAA
330
18
100
AcDbEntity
  8
0
370
    30
100
AcDbLine
 10
11458.0830462636
 20
-398.549634785445
 30
0.0
 11
11458.0830462636
 21
-400.0496347783188
 31
0.0
  0
LINE
  5
1CCF9
330
18
100
AcDbEntity
  8
0
  6
DASHED
 48
0.05
100
AcDbLine
 10
11458.0830462636
 20
-401.549634785445
 30
0.0
 11
11458.05804445827
 21
-401.549634785445
 31
0.0
  0
LEADER
  5
1CCFE
330
18
100
AcDbEntity
  8
文字
 48
0.5
100
AcDbLeader
  3
ｺﾋﾟｰ - まこ-10
 76
     3
 10
11449.78121830499
 20
-478.6738486035637
 30
0.0
 10
11421.5642536911
 20
-491.6364527145028
 30
0.0
 10
11396.61909896156
 20
-491.6364527145027
 30
0.0
211
-1.0
221
0.0000000000000001
231
0.0
1001
ACAD
1000
DSTYLE
1002
{
1070
    77
1070
     0
1002
}
  0
MTEXT
  5
1CD01
330
18
100
AcDbEntity
  8
文字
100
AcDbMText
 10
11398.32559323374
 20
-491.0214172583155
 30
0.0
 40
3.0
 41
0.0
 71
     7
 72
     1
  1
{\fＭＳ Ｐゴシック|b0|i0|c128|p50;2-φ3.2貫通}
  7
MSｺﾞｼｯｸ
 73
     1
 44
1.0
1001
ACAD
1000
MTEXTBEGIN
1070
    73
1070
     1
1070
    44
1040
0.8
1070
    74
1070
     0
1000
MTEXTEND
1000
MTEXTBEGIN
1070
    73
1070
     1
1070
    44
1040
0.8
1070
    74
1070
     0
1000
MTEXTEND
  0
DIMENSION
  5
1CD0D
330
18
100
AcDbEntity
  8
寸法
 48
10.0
100
AcDbDimension
  2
*D15
 10
11424.30488056804
 20
-404.049634785445
 30
0.0
 11
11422.45488056804
 21
-415.7996347854422
 31
0.0
 70
    32
 71
     5
 42
23.49999999999818
  3
STD-I
100
AcDbAlignedDimension
 13
11447.1830462636
 23
-427.5496347854432
 33
0.0
 14
11447.1830462636
 24
-404.049634785445
 34
0.0
 50
90.0
100
AcDbRotatedDimension
1001
ACAD
1000
DSTYLE
1002
{
1070
   340
1005
35
1070
    41
1040
5.0
1070
    42
1040
1.0
1070
   140
1040
5.0
1070
   178
1070
     7
1070
   271
1070
     6
1070
   279
1070
     1
1002
}
  0
DIMENSION
  5
1CD1A
330
18
100
AcDbEntity
  8
寸法
 48
10.0
100
AcDbDimension
  2
*D16
 10
11424.30488056804
 20
-401.049634785445
 30
0.0
 11
11424.03223866062
 21
-388.8494446129814
 31
0.0
 70
   160
  1
(<>)
 71
     5
 42
3.0
  3
STD-I
100
AcDbAlignedDimension
 13
11447.1830462636
 23
-404.049634785445
 33
0.0
 14
11448.30804445827
 24
-401.049634785445
 34
0.0
 50
90.0
100
AcDbRotatedDimension
1001
ACAD
1000
DSTYLE
1002
{
1070
   340
1005
35
1070
    41
1040
5.0
1070
    42
1040
1.0
1070
   140
1040
5.0
1070
   178
1070
     7
1070
   271
1070
     6
1070
   279
1070
     1
1002
}
  0
LINE
  5
1CFAF
330
18
100
AcDbEntity
  8
0
100
AcDbLine
 10
11459.18304626361
 20
-427.5496347854436
 30
0.0
 11
11462.1830462636
 21
-427.549634785445
 31
0.0
  0
LINE
  5
1CFB0
102
{ACAD_REACTORS
330
1CFDA
330
1CFEA
330
1D74C
102
}
330
18
100
AcDbEntity
  8
0
  6
HIDDEN
 48
10.0
100
AcDbLine
 10
11439.18304626361
 20
-428.0496347854444
 30
0.0
 11
11439.18304626361
 21
-454.1427580185857
 31
0.0
  0
LINE
  5
1CFB1
102
{ACAD_REACTORS
330
1CFDA
330
1CFEA
330
1D74C
102
}
330
18
100
AcDbEntity
  8
0
  6
HIDDEN
 48
10.0
100
AcDbLine
 10
11464.1830462636
 20
-428.0496347854444
 30
0.0
 11
11464.1830462636
 21
-445.5687376363885
 31
0.0
  0
LINE
  5
1CFB2
102
{ACAD_REACTORS
330
1CFDA
330
1CFEA
330
1D74C
102
}
330
18
100
AcDbEntity
  8
0
  6
HIDDEN
 48
10.0
100
AcDbLine
 10
11531.6830462636
 20
-451.7240718433352
 30
0.0
 11
11531.6830462636
 21
-428.5496347854444
 31
0.0
  0
LINE
  5
1CFB3
102
{ACAD_REACTORS
330
1CFEA
330
1D74C
102
}
330
18
100
AcDbEntity
  8
0
  6
HIDDEN
 48
10.0
100
AcDbLine
 10
11446.53304626361
 20
-380.7722762670747
 30
0.0
 11
11446.53304626361
 21
-415.5496347854461
 31
0.0
  0
LINE
  5
1CFB4
102
{ACAD_REACTORS
330
1CFEA
330
1D74C
102
}
330
18
100
AcDbEntity
  8
0
  6
HIDDEN
 48
10.0
100
AcDbLine
 10
11452.8330462636
 20
-415.5496347854445
 30
0.0
 11
11452.83304626361
 21
-380.7722762670746
 31
0.0
  0
CIRCLE
  5
1CFB5
102
{ACAD_REACTORS
330
1CFDA
330
1CFEA
330
1D74C
102
}
330
18
100
AcDbEntity
  8
0
  6
HIDDEN
 48
3.0
100
AcDbCircle
 10
11445.1830462636
 20
-440.549634785444
 30
0.0
 40
1.999999999998294
  0
CIRCLE
  5
1CFB6
102
{ACAD_REACTORS
330
1CFDA
330
1CFEA
330
1D74C
102
}
330
18
100
AcDbEntity
  8
0
  6
HIDDEN
 48
3.0
100
AcDbCircle
 10
11445.1830462636
 20
-440.549634785444
 30
0.0
 40
1.649999999998385
  0
LINE
  5
1CFB7
102
{ACAD_REACTORS
330
1CFDA
330
1CFEA
330
1D74C
102
}
330
18
100
AcDbEntity
  8
0
  6
HIDDEN
 48
3.0
100
AcDbLine
 10
11445.1830462636
 20
-444.1996347854439
 30
0.0
 11
11445.18304626361
 21
-436.8996347854465
 31
0.0
  0
LINE
  5
1CFB8
102
{ACAD_REACTORS
330
1CFDA
330
1CFEA
330
1D74C
102
}
330
18
100
AcDbEntity
  8
0
  6
HIDDEN
 48
3.0
100
AcDbLine
 10
11441.53304626361
 20
-440.5496347854444
 30
0.0
 11
11448.8330462636
 21
-440.5496347854444
 31
0.0
  0
LINE
  5
1CFB9
102
{ACAD_REACTORS
330
1CFDA
330
1CFEA
330
1D74C
102
}
330
18
100
AcDbEntity
  8
0
  6
HIDDEN
 48
10.0
100
AcDbLine
 10
11463.68304626361
 20
-427.5496347854443
 30
0.0
 11
11439.68304626361
 21
-427.5496347854443
 31
0.0
  0
LINE
  5
1CFBA
102
{ACAD_REACTORS
330
1CFDA
330
1CFEA
330
1D74C
102
}
330
18
100
AcDbEntity
  8
0
  6
HIDDEN
 48
10.0
100
AcDbLine
 10
11439.68304626361
 20
-427.5496347854443
 30
0.0
 11
11439.18304626361
 21
-428.0496347854444
 31
0.0
  0
LINE
  5
1CFBB
102
{ACAD_REACTORS
330
1CFEA
330
1D74C
102
}
330
18
100
AcDbEntity
  8
0
  6
HIDDEN
 48
10.0
100
AcDbLine
 10
11446.08304626361
 20
-415.5496347854461
 30
0.0
 11
11446.08304626361
 21
-427.5496347854443
 31
0.0
  0
LINE
  5
1CFBD
102
{ACAD_REACTORS
330
1CFEA
330
1D74C
102
}
330
18
100
AcDbEntity
  8
0
  6
HIDDEN
 48
10.0
100
AcDbLine
 10
11453.28304626361
 20
-415.5496347854443
 30
0.0
 11
11446.08304626361
 21
-415.5496347854461
 31
0.0
  0
LINE
  5
1CFC7
102
{ACAD_REACTORS
330
1CFDA
330
1CFEA
330
1D74C
102
}
330
18
100
AcDbEntity
  8
0
  6
HIDDEN
 48
10.0
100
AcDbLine
 10
11464.1830462636
 20
-428.0496347854444
 30
0.0
 11
11463.68304626361
 21
-427.5496347854443
 31
0.0
  0
LINE
  5
1CFD7
102
{ACAD_REACTORS
330
1CFDA
330
1CFEA
330
1D74C
102
}
330
18
100
AcDbEntity
  8
0
  6
HIDDEN
 48
10.0
100
AcDbLine
 10
11464.1830462636
 20
-428.5496347854444
 30
0.0
 11
11531.6830462636
 21
-428.5496347854444
 31
0.0
  0
SPLINE
  5
1CFE2
330
18
100
AcDbEntity
  8
0
 48
0.5
100
AcDbSpline
210
0.0
220
0.0
230
1.0
 70
     8
 71
     3
 72
     9
 73
     5
 74
     0
 42
0.0000000001
 43
0.0000000001
 40
0.0
 40
0.0
 40
0.0
 40
0.0
 40
22.36067977499789
 40
44.72135954999505
 40
44.72135954999505
 40
44.72135954999505
 40
44.72135954999579
 10
11544.55801701022
 20
-445.7395351695195
 30
0.0
 10
11537.89135034355
 20
-442.406201836186
 30
0.0
 10
11524.55801701022
 20
-467.7395351695199
 30
0.0
 10
11511.22468367689
 20
-445.0728685028535
 30
0.0
 10
11504.55801701022
 20
-445.739535169519
 30
0.0
  0
SPLINE
  5
1CFE3
330
18
100
AcDbEntity
  8
0
 48
0.5
100
AcDbSpline
210
0.0
220
0.0
230
1.0
 70
     8
 71
     3
 72
     9
 73
     5
 74
     0
 42
0.0000000001
 43
0.0000000001
 40
0.0
 40
0.0
 40
0.0
 40
0.0
 40
22.36067977499789
 40
44.72135954999505
 40
44.72135954999505
 40
44.72135954999505
 40
44.72135954999579
 10
11504.55801701022
 20
-445.739535169519
 30
0.0
 10
11497.89135034355
 20
-442.4062018361856
 30
0.0
 10
11484.55801701022
 20
-467.7395351695195
 30
0.0
 10
11471.22468367688
 20
-445.0728685028529
 30
0.0
 10
11464.55801701022
 20
-445.7395351695185
 30
0.0
  0
SPLINE
  5
1CFE4
330
18
100
AcDbEntity
  8
0
 48
0.5
100
AcDbSpline
210
0.0
220
0.0
230
1.0
 70
     8
 71
     3
 72
     9
 73
     5
 74
     0
 42
0.0000000001
 43
0.0000000001
 40
0.0
 40
0.0
 40
0.0
 40
0.0
 40
22.36067977499789
 40
44.72135954999505
 40
44.72135954999505
 40
44.72135954999505
 40
44.72135954999579
 10
11464.55801701022
 20
-445.7395351695185
 30
0.0
 10
11457.89135034355
 20
-442.406201836185
 30
0.0
 10
11444.55801701022
 20
-467.739535169519
 30
0.0
 10
11431.22468367688
 20
-445.0728685028525
 30
0.0
 10
11424.55801701022
 20
-445.7395351695181
 30
0.0
  0
MTEXT
  5
1CFEC
330
18
100
AcDbEntity
  8
文字
100
AcDbMText
 10
11470.97173724028
 20
-392.1411727660023
 30
0.0
 40
3.0
 41
0.0
 71
     7
 72
     1
  1
{\fＭＳ Ｐゴシック|b0|i0|c128|p50;M3-30六角ﾎﾞﾙﾄ取付}
  7
MSｺﾞｼｯｸ
 73
     1
 44
1.0
1001
ACAD
1000
MTEXTBEGIN
1070
    73
1070
     1
1070
    44
1040
0.8
1070
    74
1070
     0
1000
MTEXTEND
1000
MTEXTBEGIN
1070
    73
1070
     1
1070
    44
1040
0.8
1070
    74
1070
     0
1000
MTEXTEND
  0
LEADER
  5
1CFF1
330
18
100
AcDbEntity
  8
文字
 48
0.5
100
AcDbLeader
  3
ｺﾋﾟｰ - まこ-10
 76
     3
 10
11450.68304445827
 20
-401.0496348606673
 30
0.0
 10
11469.83311708466
 20
-392.8763417366052
 30
0.0
 10
11509.13454801857
 20
-392.8763417366051
 30
0.0
211
1.0
221
0.0000000000000001
231
0.0
210
0.0
220
0.0
230
-1.0
1001
ACAD
1000
DSTYLE
1002
{
1070
    77
1070
     0
1002
}
  0
MTEXT
  5
1D02E
330
18
100
AcDbEntity
  8
文字
 62
    40
 48
0.5
100
AcDbMText
 10
11406.00809602778
 20
-377.8093765241413
 30
0.0
 40
3.0
 41
0.0
 71
     1
 72
     1
  1
ﾓｰﾀ動力線
  7
MSｺﾞｼｯｸ
 73
     1
 44
1.0
  0
LEADER
  5
1D02F
330
18
100
AcDbEntity
  8
文字
 48
0.5
100
AcDbLeader
  3
ｺﾋﾟｰ - まこ-10
 40
3.578680203045685
 41
21.1979695431472
 76
     3
 10
11446.53304626361
 20
-389.7317124978812
 30
0.0
 10
11424.35205923732
 20
-381.9339223574983
 30
0.0
 10
11405.02412700046
 20
-381.963202354423
 30
0.0
211
-1.0
221
0.0000000000000001
231
0.0
213
-27.29070383634825
223
4.291760789555269
233
0.0
1001
ACAD
1000
DSTYLE
1002
{
1070
    77
1070
     0
1002
}
  0
MTEXT
  5
1D08B
330
18
100
AcDbEntity
  8
文字
100
AcDbMText
 10
11483.07462633703
 20
-442.6366321454861
 30
0.0
 40
5.0
 41
0.0
 71
     7
 72
     1
  1
{\fＭＳ Ｐゴシック|b0|i0|c128|p50;ｺｲﾙﾕﾆｯﾄ}
  7
MSｺﾞｼｯｸ
 73
     1
 44
1.0
1001
ACAD
1000
MTEXTBEGIN
1070
    73
1070
     1
1070
    44
1040
0.8
1070
    74
1070
     0
1000
MTEXTEND
1000
MTEXTBEGIN
1070
    73
1070
     1
1070
    44
1040
0.8
1070
    74
1070
     0
1000
MTEXTEND
  0
LINE
  5
1D11B
330
18
100
AcDbEntity
  8
A
 62
     7
100
AcDbLine
 10
11632.52580080931
 20
-463.3513539035303
 30
0.0
 11
11632.52580080931
 21
-462.3647161535291
 31
0.0
  0
LINE
  5
1D150
102
{ACAD_REACTORS
330
1D157
102
}
330
18
100
AcDbEntity
  8
0
  6
DASHED
 48
0.05
100
AcDbLine
 10
11463.30804445828
 20
-401.549634785445
 30
0.0
 11
11463.05804445827
 21
-401.0496349358895
 31
0.0
  0
LINE
  5
1D151
102
{ACAD_REACTORS
330
1D157
102
}
330
18
100
AcDbEntity
  8
0
  6
DASHED
 48
0.05
100
AcDbLine
 10
11463.30804445828
 20
-401.549634785445
 30
0.0
 11
11463.3080462636
 21
-404.049634785445
 31
0.0
  0
LINE
  5
1D152
102
{ACAD_REACTORS
330
1D157
102
}
330
18
100
AcDbEntity
  8
0
  6
DASHED
 48
0.05
100
AcDbLine
 10
11463.05804445827
 20
-401.0496349358895
 30
0.0
 11
11458.30804445827
 21
-401.049634785445
 31
0.0
  0
LINE
  5
1D153
102
{ACAD_REACTORS
330
1D157
102
}
330
18
100
AcDbEntity
  8
0
  6
DASHED
 48
0.05
100
AcDbLine
 10
11463.30804445828
 20
-401.549634785445
 30
0.0
 11
11458.05804445827
 21
-401.549634785445
 31
0.0
  0
LINE
  5
1D154
102
{ACAD_REACTORS
330
1D157
102
}
330
18
100
AcDbEntity
  8
0
  6
DASHED
 48
0.05
100
AcDbLine
 10
11458.05804445827
 20
-401.549634785445
 30
0.0
 11
11458.30804445827
 21
-401.049634785445
 31
0.0
  0
LINE
  5
1D155
102
{ACAD_REACTORS
330
1D157
102
}
330
18
100
AcDbEntity
  8
0
  6
DASHED
 48
0.05
100
AcDbLine
 10
11458.05804475916
 20
-401.549634785445
 30
0.0
 11
11458.0580462636
 21
-404.049634785445
 31
0.0
  0
LINE
  5
1D156
102
{ACAD_REACTORS
330
1D157
102
}
330
18
100
AcDbEntity
  8
0
  6
DASHED
 48
0.05
100
AcDbLine
 10
11463.3080462636
 20
-404.049634785445
 30
0.0
 11
11458.0580462636
 21
-404.049634785445
 31
0.0
  0
LEADER
  5
1D174
330
18
100
AcDbEntity
  8
文字
 48
0.5
100
AcDbLeader
  3
ｺﾋﾟｰ - まこ-10
 76
     3
 10
11463.05804445827
 20
-401.0496349358895
 30
0.0
 10
11469.83311708466
 20
-392.8763417366052
 30
0.0
 10
11509.13454801857
 20
-392.8763417366051
 30
0.0
211
1.0
221
0.0000000000000001
231
0.0
210
0.0
220
0.0
230
-1.0
1001
ACAD
1000
DSTYLE
1002
{
1070
    77
1070
     0
1002
}
  0
LINE
  5
1D19C
330
18
100
AcDbEntity
  8
0
100
AcDbLine
 10
11655.56827755638
 20
-386.1322657399471
 30
0.0
 11
11655.56827755638
 21
-422.1322657399471
 31
0.0
  0
MTEXT
  5
1D19D
330
18
100
AcDbEntity
  8
寸法
 62
     7
100
AcDbMText
 10
11649.51726628546
 20
-405.1250990244182
 30
0.0
 40
2.5
 41
0.0
 71
     5
 72
     1
  1
{\fＭＳ Ｐゴシック|b0|i0|c128|p50;3}
  7
MSｺﾞｼｯｸ
 73
     1
 44
1.0
1001
ACAD
1000
MTEXTBEGIN
1070
    73
1070
     1
1070
    44
1040
0.8
1070
    74
1070
     0
1000
MTEXTEND
1000
MTEXTBEGIN
1070
    73
1070
     1
1070
    44
1040
0.8
1070
    74
1070
     0
1000
MTEXTEND
  0
MTEXT
  5
1D19E
330
18
100
AcDbEntity
  8
寸法
 62
     7
100
AcDbMText
 10
11662.0184677294
 20
-405.0854999641266
 30
0.0
 40
2.5
 41
0.0
 71
     5
 72
     1
  1
{\fＭＳ Ｐゴシック|b0|i0|c128|p50;PC}
  7
MSｺﾞｼｯｸ
 73
     1
 44
1.0
1001
ACAD
1000
MTEXTBEGIN
1070
    73
1070
     1
1070
    44
1040
0.8
1070
    74
1070
     0
1000
MTEXTEND
1000
MTEXTBEGIN
1070
    73
1070
     1
1070
    44
1040
0.8
1070
    74
1070
     0
1000
MTEXTEND
  0
MTEXT
  5
1D1A0
330
18
100
AcDbEntity
  8
寸法
 62
     7
100
AcDbMText
 10
11649.51726628546
 20
-420.1250990244181
 30
0.0
 40
2.5
 41
0.0
 71
     5
 72
     1
  1
{\fＭＳ Ｐゴシック|b0|i0|c128|p50;6}
  7
MSｺﾞｼｯｸ
 73
     1
 44
1.0
1001
ACAD
1000
MTEXTBEGIN
1070
    73
1070
     1
1070
    44
1040
0.8
1070
    74
1070
     0
1000
MTEXTEND
1000
MTEXTBEGIN
1070
    73
1070
     1
1070
    44
1040
0.8
1070
    74
1070
     0
1000
MTEXTEND
  0
MTEXT
  5
1D1A1
330
18
100
AcDbEntity
  8
寸法
 62
     7
100
AcDbMText
 10
11662.0184677294
 20
-420.0854999641267
 30
0.0
 40
2.5
 41
0.0
 71
     5
 72
     1
  1
{\fＭＳ Ｐゴシック|b0|i0|c128|p50;PC}
  7
MSｺﾞｼｯｸ
 73
     1
 44
1.0
1001
ACAD
1000
MTEXTBEGIN
1070
    73
1070
     1
1070
    44
1040
0.8
1070
    74
1070
     0
1000
MTEXTEND
1000
MTEXTBEGIN
1070
    73
1070
     1
1070
    44
1040
0.8
1070
    74
1070
     0
1000
MTEXTEND
  0
LINE
  5
1D1A4
330
18
100
AcDbEntity
  8
0
100
AcDbLine
 10
11642.56827755638
 20
-422.1322657399471
 30
0.0
 11
11668.60435653713
 21
-422.1322657399471
 31
0.0
  0
LINE
  5
1D1A8
330
18
100
AcDbEntity
  8
0
100
AcDbLine
 10
11642.56827755638
 20
-417.132265739947
 30
0.0
 11
11668.60435653713
 21
-417.132265739947
 31
0.0
  0
LINE
  5
1D1A9
330
18
100
AcDbEntity
  8
0
100
AcDbLine
 10
11642.56827755638
 20
-412.1322657399471
 30
0.0
 11
11668.60435653713
 21
-412.1322657399471
 31
0.0
  0
LINE
  5
1D1AA
330
18
100
AcDbEntity
  8
0
100
AcDbLine
 10
11642.56827755638
 20
-407.1322657399471
 30
0.0
 11
11668.60435653713
 21
-407.1322657399471
 31
0.0
  0
MTEXT
  5
1D1AB
330
18
100
AcDbEntity
  8
寸法
 62
     7
100
AcDbMText
 10
11649.51726628546
 20
-415.1250990244181
 30
0.0
 40
2.5
 41
0.0
 71
     5
 72
     1
  1
{\fＭＳ Ｐゴシック|b0|i0|c128|p50;5}
  7
MSｺﾞｼｯｸ
 73
     1
 44
1.0
1001
ACAD
1000
MTEXTBEGIN
1070
    73
1070
     1
1070
    44
1040
0.8
1070
    74
1070
     0
1000
MTEXTEND
1000
MTEXTBEGIN
1070
    73
1070
     1
1070
    44
1040
0.8
1070
    74
1070
     0
1000
MTEXTEND
  0
MTEXT
  5
1D1AC
330
18
100
AcDbEntity
  8
寸法
 62
     7
100
AcDbMText
 10
11649.51726628546
 20
-410.1250990244182
 30
0.0
 40
2.5
 41
0.0
 71
     5
 72
     1
  1
{\fＭＳ Ｐゴシック|b0|i0|c128|p50;4}
  7
MSｺﾞｼｯｸ
 73
     1
 44
1.0
1001
ACAD
1000
MTEXTBEGIN
1070
    73
1070
     1
1070
    44
1040
0.8
1070
    74
1070
     0
1000
MTEXTEND
1000
MTEXTBEGIN
1070
    73
1070
     1
1070
    44
1040
0.8
1070
    74
1070
     0
1000
MTEXTEND
  0
LINE
  5
1D1AE
330
18
100
AcDbEntity
  8
0
100
AcDbLine
 10
11658.60426918611
 20
-418.2650073059823
 30
0.0
 11
11665.10426918611
 21
-418.2650073059823
 31
0.0
  0
MTEXT
  5
1D1B1
330
18
100
AcDbEntity
  8
寸法
 62
     7
100
AcDbMText
 10
11662.0184677294
 20
-389.0854999641267
 30
0.0
 40
2.5
 41
0.0
 71
     5
 72
     1
  1
{\fＭＳ Ｐゴシック|b0|i0|c128|p50;信号}
  7
MSｺﾞｼｯｸ
 73
     1
 44
1.0
1001
ACAD
1000
MTEXTBEGIN
1070
    73
1070
     1
1070
    44
1040
0.8
1070
    74
1070
     0
1000
MTEXTEND
1000
MTEXTBEGIN
1070
    73
1070
     1
1070
    44
1040
0.8
1070
    74
1070
     0
1000
MTEXTEND
  0
MTEXT
  5
1D1B2
330
18
100
AcDbEntity
  8
寸法
 62
     7
100
AcDbMText
 10
11649.51726628546
 20
-389.0854999641267
 30
0.0
 40
2.5
 41
0.0
 71
     5
 72
     1
  1
{\fＭＳ Ｐゴシック|b0|i0|c128|p50;ピン}
  7
MSｺﾞｼｯｸ
 73
     1
 44
1.0
1001
ACAD
1000
MTEXTBEGIN
1070
    73
1070
     1
1070
    44
1040
0.8
1070
    74
1070
     0
1000
MTEXTEND
1000
MTEXTBEGIN
1070
    73
1070
     1
1070
    44
1040
0.8
1070
    74
1070
     0
1000
MTEXTEND
  0
LINE
  5
1D1B3
330
18
100
AcDbEntity
  8
0
100
AcDbLine
 10
11642.56827755638
 20
-402.1322657399471
 30
0.0
 11
11668.60435653713
 21
-402.1322657399471
 31
0.0
  0
LINE
  5
1D1B4
330
18
100
AcDbEntity
  8
0
100
AcDbLine
 10
11642.56827755638
 20
-397.1322657399471
 30
0.0
 11
11668.60435653713
 21
-397.1322657399471
 31
0.0
  0
LINE
  5
1D1B5
330
18
100
AcDbEntity
  8
0
100
AcDbLine
 10
11642.56827755638
 20
-391.6322657399471
 30
0.0
 11
11668.60435653713
 21
-391.6322657399471
 31
0.0
  0
LINE
  5
1D1B6
330
18
100
AcDbEntity
  8
0
100
AcDbLine
 10
11642.56827755638
 20
-392.1322657399471
 30
0.0
 11
11668.60435653713
 21
-392.1322657399471
 31
0.0
  0
MTEXT
  5
1D1B7
330
18
100
AcDbEntity
  8
寸法
 62
     7
100
AcDbMText
 10
11649.51726628546
 20
-400.1250990244182
 30
0.0
 40
2.5
 41
0.0
 71
     5
 72
     1
  1
{\fＭＳ Ｐゴシック|b0|i0|c128|p50;2}
  7
MSｺﾞｼｯｸ
 73
     1
 44
1.0
1001
ACAD
1000
MTEXTBEGIN
1070
    73
1070
     1
1070
    44
1040
0.8
1070
    74
1070
     0
1000
MTEXTEND
1000
MTEXTBEGIN
1070
    73
1070
     1
1070
    44
1040
0.8
1070
    74
1070
     0
1000
MTEXTEND
  0
MTEXT
  5
1D1B8
330
18
100
AcDbEntity
  8
寸法
 62
     7
100
AcDbMText
 10
11649.51726628546
 20
-395.1250990244182
 30
0.0
 40
2.5
 41
0.0
 71
     5
 72
     1
  1
{\fＭＳ Ｐゴシック|b0|i0|c128|p50;1}
  7
MSｺﾞｼｯｸ
 73
     1
 44
1.0
1001
ACAD
1000
MTEXTBEGIN
1070
    73
1070
     1
1070
    44
1040
0.8
1070
    74
1070
     0
1000
MTEXTEND
1000
MTEXTBEGIN
1070
    73
1070
     1
1070
    44
1040
0.8
1070
    74
1070
     0
1000
MTEXTEND
  0
MTEXT
  5
1D1B9
330
18
100
AcDbEntity
  8
寸法
 62
     7
100
AcDbMText
 10
11662.0184677294
 20
-400.0854999641267
 30
0.0
 40
2.5
 41
0.0
 71
     5
 72
     1
  1
{\fＭＳ Ｐゴシック|b0|i0|c128|p50;PS}
  7
MSｺﾞｼｯｸ
 73
     1
 44
1.0
1001
ACAD
1000
MTEXTBEGIN
1070
    73
1070
     1
1070
    44
1040
0.8
1070
    74
1070
     0
1000
MTEXTEND
1000
MTEXTBEGIN
1070
    73
1070
     1
1070
    44
1040
0.8
1070
    74
1070
     0
1000
MTEXTEND
  0
MTEXT
  5
1D1BA
330
18
100
AcDbEntity
  8
寸法
 62
     7
100
AcDbMText
 10
11662.0184677294
 20
-395.0854999641267
 30
0.0
 40
2.5
 41
0.0
 71
     5
 72
     1
  1
{\fＭＳ Ｐゴシック|b0|i0|c128|p50;P5}
  7
MSｺﾞｼｯｸ
 73
     1
 44
1.0
1001
ACAD
1000
MTEXTBEGIN
1070
    73
1070
     1
1070
    44
1040
0.8
1070
    74
1070
     0
1000
MTEXTEND
1000
MTEXTBEGIN
1070
    73
1070
     1
1070
    44
1040
0.8
1070
    74
1070
     0
1000
MTEXTEND
  0
LINE
  5
1D1BC
330
18
100
AcDbEntity
  8
0
100
AcDbLine
 10
11668.60435653713
 20
-422.1322657399471
 30
0.0
 11
11668.60435653713
 21
-386.1322657399471
 31
0.0
  0
LINE
  5
1D1BD
330
18
100
AcDbEntity
  8
0
100
AcDbLine
 10
11668.60435653713
 20
-386.1322657399471
 30
0.0
 11
11642.56827755638
 21
-386.1322657399471
 31
0.0
  0
LINE
  5
1D1BE
330
18
100
AcDbEntity
  8
0
100
AcDbLine
 10
11642.56827755638
 20
-386.1322657399471
 30
0.0
 11
11642.56827755637
 21
-422.1322657399471
 31
0.0
  0
MTEXT
  5
1D1BF
330
18
100
AcDbEntity
  8
寸法
 62
     7
100
AcDbMText
 10
11662.0184677294
 20
-410.0854999641267
 30
0.0
 40
2.5
 41
0.0
 71
     5
 72
     1
  1
{\fＭＳ Ｐゴシック|b0|i0|c128|p50;GND}
  7
MSｺﾞｼｯｸ
 73
     1
 44
1.0
1001
ACAD
1000
MTEXTBEGIN
1070
    73
1070
     1
1070
    44
1040
0.8
1070
    74
1070
     0
1000
MTEXTEND
1000
MTEXTBEGIN
1070
    73
1070
     1
1070
    44
1040
0.8
1070
    74
1070
     0
1000
MTEXTEND
  0
MTEXT
  5
1D1C0
330
18
100
AcDbEntity
  8
寸法
 62
     7
100
AcDbMText
 10
11662.0184677294
 20
-415.0854999641267
 30
0.0
 40
2.5
 41
0.0
 71
     5
 72
     1
  1
{\fＭＳ Ｐゴシック|b0|i0|c128|p50;PS}
  7
MSｺﾞｼｯｸ
 73
     1
 44
1.0
1001
ACAD
1000
MTEXTBEGIN
1070
    73
1070
     1
1070
    44
1040
0.8
1070
    74
1070
     0
1000
MTEXTEND
1000
MTEXTBEGIN
1070
    73
1070
     1
1070
    44
1040
0.8
1070
    74
1070
     0
1000
MTEXTEND
  0
LINE
  5
1D1C1
330
18
100
AcDbEntity
  8
0
100
AcDbLine
 10
11658.60426918611
 20
-413.2650073059823
 30
0.0
 11
11665.10426918611
 21
-413.2650073059823
 31
0.0
  0
LINE
  5
1D236
330
18
100
AcDbEntity
  8
CENTER
100
AcDbLine
 10
11445.6830462636
 20
-477.3522184234207
 30
0.0
 11
11465.6830462636
 21
-477.3522184234207
 31
0.0
  0
LINE
  5
1D237
330
18
100
AcDbEntity
  8
CENTER
100
AcDbLine
 10
11460.6830462636
 20
-479.9522184234207
 30
0.0
 11
11460.6830462636
 21
-474.7522184234206
 31
0.0
  0
LINE
  5
1D238
330
18
100
AcDbEntity
  8
CENTER
100
AcDbLine
 10
11450.6830462636
 20
-479.9522184234207
 30
0.0
 11
11450.6830462636
 21
-474.7522184234206
 31
0.0
  0
DIMENSION
  5
1D239
330
18
100
AcDbEntity
  8
0
100
AcDbDimension
  2
*D17
 10
11483.12649173532
 20
-480.8522184234207
 30
0.0
 11
11481.12649173532
 21
-489.0781067482919
 31
0.0
 70
    32
 71
     5
 42
3.5
  3
まこ
100
AcDbAlignedDimension
 13
11465.6830462636
 23
-477.3522184234207
 33
0.0
 14
11464.1830462636
 24
-480.8522184234207
 34
0.0
 50
90.0
100
AcDbRotatedDimension
1001
ACAD
1000
DSTYLE
1002
{
1070
   340
1005
35
1070
   172
1070
     1
1002
}
  0
DIMENSION
  5
1D287
330
18
100
AcDbEntity
  8
0
100
AcDbDimension
  2
*D18
 10
11460.6830462636
 20
-492.4874612383191
 30
0.0
 11
11455.6830462636
 21
-490.4874612383191
 31
0.0
 70
    32
 71
     5
 42
10.0
  3
まこ
100
AcDbAlignedDimension
 13
11450.6830462636
 23
-479.9522184234207
 33
0.0
 14
11460.6830462636
 24
-479.9522184234207
 34
0.0
100
AcDbRotatedDimension
1001
ACAD
1000
DSTYLE
1002
{
1070
   340
1005
35
1070
   172
1070
     1
1002
}
  0
TEXT
  5
1D4FB
330
18
100
AcDbEntity
  8
CIRCUIT
 62
     7
100
AcDbText
 10
11647.17940992824
 20
-383.6215763703283
 30
0.0
 40
2.7
  1
ﾋﾟﾝ配置表
  7
MSｺﾞｼｯｸ
 72
     1
 11
11655.0738261719
 21
-382.2715763703283
 31
0.0
100
AcDbText
 73
     2
  0
MTEXT
  5
1D504
330
18
100
AcDbEntity
  8
CIRCUIT
 62
     7
100
AcDbMText
 10
11541.71672150664
 20
-429.2043119373037
 30
0.0
 40
3.0
 41
0.0
 71
     7
 72
     1
  1
\U+203B　本センサのケーブルは固定用です。
  7
MSｺﾞｼｯｸ
 73
     1
 44
1.0
1001
ACAD
1000
MTEXTBEGIN
1070
    73
1070
     1
1070
    44
1040
0.8
1070
    74
1070
     0
1000
MTEXTEND
1000
MTEXTBEGIN
1070
    73
1070
     1
1070
    44
1040
0.8
1070
    74
1070
     0
1000
MTEXTEND
  0
LWPOLYLINE
  5
1D505
330
18
100
AcDbEntity
  8
0
 48
0.5
100
AcDbPolyline
 90
        4
 70
     1
 43
0.0
 10
11538.49422970892
 20
-423.5679814562335
 10
11638.56360547626
 20
-423.5679814562335
 10
11638.56360547626
 20
-432.1429588202444
 10
11538.49422970892
 20
-432.1429588202444
  0
LINE
  5
1D51B
330
18
100
AcDbEntity
  8
0
 48
0.5
370
    30
100
AcDbLine
 10
11567.95367797368
 20
-465.5522184234213
 30
0.0
 11
11567.95367797368
 21
-470.7522184234215
 31
0.0
  0
LINE
  5
1D530
330
18
100
AcDbEntity
  8
0
100
AcDbLine
 10
11606.91330080931
 20
-465.5522184234207
 30
0.0
 11
11606.91330080931
 21
-470.7522184234215
 31
0.0
  0
LINE
  5
1D5B1
330
18
100
AcDbEntity
  8
0
370
    30
100
AcDbLine
 10
11463.28304626361
 20
-400.0496349430159
 30
0.0
 11
11463.28304626361
 21
-394.0496347854441
 31
0.0
  0
DIMENSION
  5
1D5B2
330
18
100
AcDbEntity
  8
0
100
AcDbDimension
  2
*D19
 10
11410.81455810322
 20
-394.0496347854405
 30
0.0
 11
11410.81455810322
 21
-424.7067776425855
 31
0.0
 70
   160
 71
     5
 42
10.00000000000409
  3
まこ
100
AcDbAlignedDimension
 13
11457.18306034874
 23
-404.0496347854445
 33
0.0
 14
11460.6830462636
 24
-394.0496347854405
 34
0.0
 50
90.0
100
AcDbRotatedDimension
1001
ACAD
1000
DSTYLE
1002
{
1070
   340
1005
35
1070
     3
1000
（曲げ起点MIN.）
1070
   172
1070
     1
1002
}
  0
ARC
  5
1D5B3
330
18
100
AcDbEntity
  8
CENTER
100
AcDbCircle
 10
11439.68304626361
 20
-394.0496347854441
 30
0.0
 40
21.0
100
AcDbArc
 50
0.0
 51
40.00000000000187
  0
DIMENSION
  5
1D5B4
330
18
100
AcDbEntity
  8
0
100
AcDbDimension
  2
*D20
 10
11439.6830462636
 20
-394.0496347854491
 30
0.0
 11
11485.49783618906
 21
-380.6561265300761
 31
0.0
 70
   164
 71
     5
 42
21.00000000000182
  3
まこ
100
AcDbRadialDimension
 15
11459.83939275648
 25
-388.1571229221453
 35
0.0
 40
0.0
1001
ACAD
1000
DSTYLE
1002
{
1070
   340
1005
35
1070
     3
1000
（曲げ半径MIN.）
1070
   172
1070
     0
1002
}
  0
ARC
  5
1D5B5
330
18
100
AcDbEntity
  8
0
370
    30
100
AcDbCircle
 10
11439.68304626361
 20
-394.0496347854441
 30
0.0
 40
23.6
100
AcDbArc
 50
0.0
 51
40.00000000000187
  0
ARC
  5
1D5B6
330
18
100
AcDbEntity
  8
0
370
    30
100
AcDbCircle
 10
11439.68304626361
 20
-394.0496347854441
 30
0.0
 40
18.39999999999999
100
AcDbArc
 50
0.0
 51
40.00000000000187
  0
LINE
  5
1D5B7
330
18
100
AcDbEntity
  8
CENTER
100
AcDbLine
 10
11460.6830462636
 20
-400.0496348606673
 30
0.0
 11
11460.6830462636
 21
-394.0496347854455
 31
0.0
  0
LINE
  5
1D5B8
330
18
100
AcDbEntity
  8
0
370
    30
100
AcDbLine
 10
11458.0830462636
 20
-394.0496347854441
 30
0.0
 11
11458.0830462636
 21
-400.0496347783187
 31
0.0
  0
DIMENSION
  5
1D5B9
330
18
100
AcDbEntity
  8
0
100
AcDbDimension
  2
*D21
 10
11460.12124579291
 20
-382.2496347854384
 30
0.0
 11
11469.97318213126
 21
-373.9532829850158
 31
0.0
 70
    33
 71
     5
 42
5.200000000000727
  3
まこ
100
AcDbAlignedDimension
 13
11455.61791369324
 23
-384.8496347854439
 33
0.0
 14
11460.12124579292
 24
-382.2496347854467
 34
0.0
1001
ACAD
1000
DSTYLE
1002
{
1070
   340
1005
35
1070
     3
1000
（φ<>）
1070
   172
1070
     1
1002
}
  0
DIMENSION
  5
1D6AC
330
18
100
AcDbEntity
  8
0
100
AcDbDimension
  2
*D22
 10
11464.1830462636
 20
-492.4874612383191
 30
0.0
 11
11472.82590340646
 21
-492.4874612383191
 31
0.0
 70
   160
 71
     5
 42
3.5
  3
まこ
100
AcDbAlignedDimension
 13
11460.6830462636
 23
-479.9522184234207
 33
0.0
 14
11464.1830462636
 24
-480.8522184234207
 34
0.0
100
AcDbRotatedDimension
1001
ACAD
1000
DSTYLE
1002
{
1070
   340
1005
35
1070
   172
1070
     1
1002
}
  0
LINE
  5
1D715
102
{ACAD_REACTORS
330
1D74C
102
}
330
18
100
AcDbEntity
  8
0
  6
HIDDEN
 48
10.0
100
AcDbLine
 10
11453.28304626361
 20
-415.5496347854461
 30
0.0
 11
11453.28304626361
 21
-427.5496347854443
 31
0.0
  0
HATCH
  5
1D74B
330
18
100
AcDbEntity
  8
0
  6
HIDDEN
 48
10.0
100
AcDbHatch
 10
0.0
 20
0.0
 30
0.0
210
0.0
220
0.0
230
1.0
  2
ANSI31
 70
     0
 71
     0
 91
        6
 92
        7
 72
     0
 73
     1
 93
       10
 10
11452.83304626361
 20
-380.7722762670746
 10
11446.53304626361
 20
-380.7722762670747
 10
11446.53304626361
 20
-415.5496347854461
 10
11447.1830462636
 20
-415.5496347854459
 10
11447.1830462636
 20
-404.049634785445
 10
11448.0580462636
 20
-404.049634785445
 10
11448.05804475916
 20
-401.549634785445
 10
11448.05804445827
 20
-401.549634785445
 10
11448.30804445827
 20
-401.049634785445
 10
11452.8330462636
 20
-401.0496349287633
 97
        0
 92
       22
 72
     0
 73
     1
 93
        5
 10
11452.8330462636
 20
-401.0496349287633
 10
11448.30804445827
 20
-401.049634785445
 10
11448.05804475916
 20
-401.5496341836708
 10
11448.05804475916
 20
-401.549634785445
 10
11452.8330462636
 20
-401.5496347854449
 97
        0
 92
       23
 72
     0
 73
     1
 93
        4
 10
11452.8330462636
 20
-401.549634785445
 10
11448.05804475916
 20
-401.5496347854449
 10
11448.0580462636
 20
-404.0496347854451
 10
11452.8330462636
 20
-404.049634785445
 97
        0
 92
       23
 72
     0
 73
     1
 93
        5
 10
11452.8330462636
 20
-404.0496347854451
 10
11448.0580462636
 20
-404.049634785445
 10
11447.1830462636
 20
-404.049634785445
 10
11447.1830462636
 20
-415.5496347854459
 10
11452.8330462636
 20
-415.5496347854443
 97
        0
 92
        7
 72
     0
 73
     1
 93
        4
 10
11453.28304626361
 20
-415.5496347854443
 10
11447.1830462636
 20
-415.5496347854459
 10
11447.1830462636
 20
-427.5496347854443
 10
11453.28304626361
 20
-427.5496347854443
 97
        0
 92
        7
 72
     0
 73
     1
 93
        4
 10
11447.1830462636
 20
-415.5496347854459
 10
11446.0830462636
 20
-415.5496347854462
 10
11446.08304626361
 20
-427.5496347854443
 10
11447.1830462636
 20
-427.5496347854443
 97
        0
 75
     0
 76
     1
 52
0.0
 41
1.0
 77
     0
 78
     1
 53
45.0
 43
0.0
 44
0.0
 45
-2.245064030267287
 46
2.245064030267288
 79
     0
 47
0.0839331144266927
 98
        6
 10
11451.12343617132
 20
-384.7093489513545
 10
11450.03391956817
 20
-401.3053884520428
 10
11450.03391956817
 20
-402.7322514093494
 10
11450.2018576637
 20
-407.0967732376691
 10
11450.2018576637
 20
-419.2670751228272
 10
11446.59118324527
 20
-417.5044798002194
  0
VIEWPORT
  5
23
330
15
100
AcDbEntity
 67
     1
  8
0
100
AcDbViewport
 10
142.6549108411492
 20
103.5357951896626
 30
0.0
 40
339.712847164481
 41
230.8586230193032
 68
     1
 69
     1
 12
142.6549108411492
 22
103.5357951896626
 13
0.0
 23
0.0
 14
10.0
 24
10.0
 15
10.0
 25
10.0
 16
0.0
 26
0.0
 36
1.0
 17
0.0
 27
0.0
 37
0.0
 42
50.0
 43
0.0
 44
0.0
 45
230.8586230193032
 50
0.0
 51
0.0
 72
   100
 90
    32768
  1

281
     0
 71
     1
 74
     0
110
0.0
120
0.0
130
0.0
111
1.0
121
0.0
131
0.0
112
0.0
122
1.0
132
0.0
 79
     0
146
0.0
  0
VIEWPORT
  5
2E
330
15
100
AcDbEntity
 67
     1
  8
M_VIEW
100
AcDbViewport
 10
144.0
 20
105.0
 30
0.0
 40
288.0
 41
210.0
 68
     2
 69
     2
 12
11536.55182619446
 22
-446.6768534887428
 13
0.0
 23
0.0
 14
10.0
 24
10.0
 15
10.0
 25
10.0
 16
0.0
 26
0.0
 36
1.0
 17
0.0
 27
0.0
 37
0.0
 42
50.0
 43
0.0
 44
0.0
 45
210.0000031055066
 50
0.0
 51
0.0
 72
   100
 90
    32768
  1

281
     0
 71
     1
 74
     0
110
0.0
120
0.0
130
0.0
111
1.0
121
0.0
131
0.0
112
0.0
122
1.0
132
0.0
 79
     0
146
0.0
  0
TEXT
  5
5D0
330
15
100
AcDbEntity
 67
     1
  8
wakumoji1
  6
Continuous
100
AcDbText
 10
8.865235070261704
 20
10.96666666666598
 30
0.0
 40
4.0
  1
Ｒ＊－
 41
0.625
100
AcDbText
  0
TEXT
  5
5D4
330
15
100
AcDbEntity
 67
     1
  8
wakumoji1
  6
Continuous
100
AcDbText
 10
9.866692070452764
 20
15.78333333333638
 30
0.0
 40
3.5
  1
Ａ
 72
     1
 11
11.50002540378609
 21
15.78333333333638
 31
0.0
100
AcDbText
  0
TEXT
  5
5D9
330
15
100
AcDbEntity
 67
     1
  8
wakumoji1
  6
Continuous
100
AcDbText
 10
17.86523507026169
 20
15.96666666666598
 30
0.0
 40
4.0
  1
１～＊
 41
0.625
100
AcDbText
  0
TEXT
  5
5EF
330
15
100
AcDbEntity
 67
     1
  8
wakumoji1
  6
Continuous
100
AcDbText
 10
33.89605408586112
 20
16.35134447262123
 30
0.0
 40
3.5
  1
＊＊＊＊＊
100
AcDbText
  0
TEXT
  5
5FE
330
15
100
AcDbEntity
 67
     1
  8
wakumoji
  6
Continuous
100
AcDbText
 10
210.8022848534179
 20
5.8315805819974
 30
0.0
 40
7.0
  1
ＳＥ－４６０２１
 41
0.9529999999999999
  7
MSｺﾞｼｯｸ
100
AcDbText
  0
TEXT
  5
651
330
15
100
AcDbEntity
 67
     1
  8
wakumoji1
  6
Continuous
100
AcDbText
 10
275.402284853418
 20
5.981155417998706
 30
0.0
 40
7.0
  1
Ａ
 41
0.9529999999999999
100
AcDbText
  0
TEXT
  5
673
330
15
100
AcDbEntity
 67
     1
  8
wakumoji1
  6
Continuous
100
AcDbText
 10
105.8652350702616
 20
10.96666666666598
 30
0.0
 40
3.0
  1
'99.**.**
 41
0.6
100
AcDbText
  0
MTEXT
  5
1D765
330
15
100
AcDbEntity
 67
     1
  8
0
 48
0.5
100
AcDbMText
 10
102.7415973361415
 20
23.63405658405832
 30
0.0
 40
6.0
 41
181.5735
 71
     1
 72
     5
  1
{\fＭＳ ゴシック|b0|i0|c128|p49;τﾘﾆｱﾓｰﾀ　NLD-AM用磁極ｾﾝｻﾕﾆｯﾄ NSR-PAB2D1B-***}
 73
     1
 44
1.0
  0
ENDSEC
  0
SECTION
  2
OBJECTS
  0
DICTIONARY
  5
C
330
0
100
AcDbDictionary
281
     1
  3
ACAD_GROUP
350
D
  3
ACAD_LAYOUT
350
683
  3
ACAD_MLINESTYLE
350
1B
  3
ACAD_PLOTSETTINGS
350
684
  3
ACAD_PLOTSTYLENAME
350
681
  3
AcadDim
350
511E
  3
AcDbVariableDictionary
350
7920
  0
DICTIONARY
  5
B18F
330
2
100
AcDbDictionary
280
     1
281
     1
  3
ACAD_LAYERFILTERS
360
B190
  3
ACAD_LAYERSTATES
360
B19C
  0
DICTIONARY
  5
D
102
{ACAD_REACTORS
330
C
102
}
330
C
100
AcDbDictionary
281
     1
  3
*A1
350
EB3
  3
*A10
350
1AC59
  3
*A100
350
73DA
  3
*A101
350
13A5E
  3
*A102
350
7331
  3
*A103
350
1AD56
  3
*A104
350
113FD
  3
*A105
350
11401
  3
*A106
350
172B9
  3
*A107
350
10FA5
  3
*A108
350
11A59
  3
*A109
350
196AF
  3
*A11
350
DC36
  3
*A110
350
1257D
  3
*A111
350
19686
  3
*A112
350
1A840
  3
*A113
350
19660
  3
*A114
350
13DE
  3
*A115
350
172A7
  3
*A116
350
1968E
  3
*A117
350
14B70
  3
*A118
350
A777
  3
*A119
350
1AD57
  3
*A12
350
1969E
  3
*A120
350
11ABD
  3
*A121
350
1AD58
  3
*A122
350
DC19
  3
*A123
350
1FD5
  3
*A124
350
886C
  3
*A125
350
A778
  3
*A126
350
1AD59
  3
*A127
350
7BC9
  3
*A128
350
19673
  3
*A129
350
19684
  3
*A13
350
13C45
  3
*A130
350
73A1
  3
*A131
350
6C7D
  3
*A132
350
DC24
  3
*A133
350
19662
  3
*A134
350
1395C
  3
*A135
350
DC31
  3
*A136
350
1969F
  3
*A137
350
B17C
  3
*A138
350
DC4B
  3
*A139
350
9D06
  3
*A14
350
761D
  3
*A140
350
13986
  3
*A141
350
1728D
  3
*A142
350
9AC8
  3
*A143
350
1AD5A
  3
*A144
350
735E
  3
*A145
350
1ADC1
  3
*A146
350
1A9DA
  3
*A147
350
9CFE
  3
*A148
350
1727A
  3
*A149
350
DC28
  3
*A15
350
19670
  3
*A150
350
1ADC2
  3
*A151
350
1ADC3
  3
*A152
350
1A843
  3
*A153
350
EB4
  3
*A154
350
1384A
  3
*A155
350
FF0A
  3
*A156
350
97C9
  3
*A157
350
19675
  3
*A158
350
196A0
  3
*A159
350
6C6A
  3
*A16
350
1A25A
  3
*A160
350
172B8
  3
*A161
350
1145C
  3
*A162
350
13A7D
  3
*A163
350
196BE
  3
*A164
350
B17B
  3
*A165
350
7BCA
  3
*A166
350
1495D
  3
*A167
350
DC48
  3
*A168
350
A1A4
  3
*A169
350
172CC
  3
*A17
350
144F0
  3
*A170
350
19693
  3
*A171
350
9AE2
  3
*A172
350
DC2B
  3
*A173
350
97F1
  3
*A174
350
970C
  3
*A175
350
172AF
  3
*A176
350
A1BB
  3
*A177
350
19694
  3
*A178
350
144F9
  3
*A179
350
1A9DB
  3
*A18
350
DC21
  3
*A180
350
14B45
  3
*A181
350
F671
  3
*A182
350
B3EC
  3
*A183
350
5697
  3
*A184
350
1968F
  3
*A185
350
196B9
  3
*A186
350
9976
  3
*A187
350
17907
  3
*A188
350
17A20
  3
*A189
350
65BC
  3
*A19
350
17283
  3
*A190
350
DC44
  3
*A191
350
1ADFD
  3
*A192
350
1728E
  3
*A193
350
DC43
  3
*A194
350
172D7
  3
*A195
350
9111
  3
*A196
350
14947
  3
*A197
350
196BF
  3
*A198
350
13A5C
  3
*A199
350
5B3F
  3
*A2
350
1A84B
  3
*A20
350
19678
  3
*A200
350
5B41
  3
*A201
350
172C8
  3
*A202
350
196A1
  3
*A203
350
63A2
  3
*A204
350
1565D
  3
*A205
350
1ADFE
  3
*A206
350
DC23
  3
*A207
350
1ADFF
  3
*A208
350
61EA
  3
*A209
350
73C1
  3
*A21
350
144ED
  3
*A210
350
144EB
  3
*A211
350
FE50
  3
*A212
350
17289
  3
*A213
350
19689
  3
*A214
350
19698
  3
*A215
350
7BCD
  3
*A216
350
1261E
  3
*A217
350
A189
  3
*A218
350
1967A
  3
*A219
350
635D
  3
*A22
350
1395A
  3
*A220
350
196B0
  3
*A221
350
1727F
  3
*A222
350
10F88
  3
*A223
350
83B3
  3
*A224
350
6664
  3
*A225
350
172B0
  3
*A226
350
13958
  3
*A227
350
1AE00
  3
*A228
350
17284
  3
*A229
350
1AE01
  3
*A23
350
1AC5A
  3
*A230
350
67B7
  3
*A231
350
1729F
  3
*A232
350
9977
  3
*A233
350
1AE02
  3
*A234
350
1AE03
  3
*A235
350
1AB03
  3
*A236
350
1728F
  3
*A237
350
13C6F
  3
*A238
350
140A
  3
*A239
350
74F9
  3
*A24
350
1968B
  3
*A240
350
196B1
  3
*A241
350
74F6
  3
*A242
350
1012A
  3
*A243
350
1966A
  3
*A244
350
7BF2
  3
*A245
350
19CDF
  3
*A246
350
74BA
  3
*A247
350
9973
  3
*A248
350
12B35
  3
*A249
350
11D8F
  3
*A25
350
676B
  3
*A250
350
113FF
  3
*A251
350
196A5
  3
*A252
350
DC2E
  3
*A253
350
13957
  3
*A254
350
1727C
  3
*A255
350
A18B
  3
*A256
350
172CE
  3
*A257
350
144EF
  3
*A258
350
196A6
  3
*A259
350
19671
  3
*A26
350
1AC5B
  3
*A260
350
12B36
  3
*A261
350
73DB
  3
*A262
350
74B8
  3
*A263
350
11EC9
  3
*A264
350
196A2
  3
*A265
350
19CDB
  3
*A266
350
DC3A
  3
*A267
350
144F3
  3
*A268
350
735F
  3
*A269
350
9ACA
  3
*A27
350
63A8
  3
*A270
350
1AE12
  3
*A271
350
172B1
  3
*A272
350
12B37
  3
*A273
350
7C5C
  3
*A274
350
1384B
  3
*A275
350
FEF3
  3
*A276
350
19CE0
  3
*A277
350
DC1E
  3
*A278
350
74B5
  3
*A279
350
10CE0
  3
*A28
350
172E5
  3
*A280
350
196B2
  3
*A281
350
DC40
  3
*A282
350
1729D
  3
*A283
350
DC1F
  3
*A284
350
1FD4
  3
*A285
350
1355E
  3
*A286
350
144E8
  3
*A287
350
1965E
  3
*A288
350
14B49
  3
*A289
350
B2EF
  3
*A29
350
172AD
  3
*A290
350
1969C
  3
*A291
350
196AA
  3
*A292
350
B10C
  3
*A293
350
DC37
  3
*A294
350
B431
  3
*A295
350
1489E
  3
*A296
350
1727D
  3
*A297
350
196C0
  3
*A298
350
172A4
  3
*A299
350
695D
  3
*A3
350
DC25
  3
*A30
350
1728B
  3
*A300
350
172CF
  3
*A301
350
74F7
  3
*A302
350
B2E6
  3
*A303
350
172A8
  3
*A304
350
B2AD
  3
*A305
350
14906
  3
*A306
350
172C1
  3
*A307
350
6534
  3
*A308
350
11D3D
  3
*A309
350
A1A0
  3
*A31
350
1AC5C
  3
*A310
350
172B2
  3
*A311
350
9A76
  3
*A312
350
5B95
  3
*A313
350
15377
  3
*A314
350
196C1
  3
*A315
350
1965A
  3
*A316
350
219F
  3
*A317
350
19681
  3
*A318
350
5BA0
  3
*A319
350
1A557
  3
*A32
350
9CDF
  3
*A320
350
151B9
  3
*A321
350
ECB
  3
*A322
350
2BCC
  3
*A323
350
17906
  3
*A324
350
196B6
  3
*A325
350
60BA
  3
*A326
350
12623
  3
*A327
350
172A1
  3
*A328
350
10128
  3
*A329
350
74BC
  3
*A33
350
1965B
  3
*A330
350
196B7
  3
*A331
350
19687
  3
*A332
350
B2AB
  3
*A333
350
9900
  3
*A334
350
A131
  3
*A335
350
6FD9
  3
*A336
350
196B3
  3
*A337
350
7363
  3
*A338
350
102C0
  3
*A339
350
19663
  3
*A34
350
1966D
  3
*A340
350
60BD
  3
*A341
350
ECA
  3
*A342
350
172D0
  3
*A343
350
DC4D
  3
*A344
350
1797F
  3
*A345
350
13C7E
  3
*A346
350
9ADF
  3
*A347
350
1A558
  3
*A348
350
5D35
  3
*A349
350
9AC9
  3
*A35
350
133B4
  3
*A350
350
14C3F
  3
*A351
350
10F73
  3
*A352
350
172BF
  3
*A353
350
65DE
  3
*A354
350
17281
  3
*A355
350
13C6B
  3
*A356
350
14B46
  3
*A357
350
19676
  3
*A358
350
DC4C
  3
*A359
350
531A
  3
*A36
350
14C3D
  3
*A360
350
196BA
  3
*A361
350
74BB
  3
*A362
350
6173
  3
*A363
350
DC39
  3
*A364
350
99FF
  3
*A365
350
172A2
  3
*A366
350
19CF0
  3
*A367
350
172C5
  3
*A368
350
74B3
  3
*A369
350
12621
  3
*A37
350
1564C
  3
*A370
350
11D78
  3
*A371
350
172C9
  3
*A372
350
97CF
  3
*A373
350
5A3F
  3
*A374
350
172DF
  3
*A375
350
9903
  3
*A376
350
2C4E
  3
*A377
350
9AE0
  3
*A378
350
172D1
  3
*A379
350
A188
  3
*A38
350
10F72
  3
*A380
350
DC22
  3
*A381
350
19FF7
  3
*A382
350
19672
  3
*A383
350
11AA2
  3
*A384
350
19695
  3
*A385
350
148ED
  3
*A386
350
1A844
  3
*A387
350
1257B
  3
*A388
350
721D
  3
*A389
350
151B7
  3
*A39
350
144F2
  3
*A390
350
196C5
  3
*A391
350
7621
  3
*A392
350
1564A
  3
*A393
350
DC47
  3
*A394
350
65DF
  3
*A395
350
113FE
  3
*A396
350
196C6
  3
*A397
350
1969A
  3
*A398
350
71C7
  3
*A399
350
11A5D
  3
*A4
350
5D34
  3
*A40
350
10FFE
  3
*A400
350
196C2
  3
*A401
350
DC27
  3
*A402
350
74B4
  3
*A403
350
1967B
  3
*A404
350
133B5
  3
*A405
350
9A01
  3
*A406
350
584F
  3
*A407
350
1564E
  3
*A408
350
144F7
  3
*A409
350
A190
  3
*A41
350
7318
  3
*A410
350
1A845
  3
*A411
350
1489C
  3
*A412
350
B3DF
  3
*A413
350
1A86
  3
*A414
350
A1B9
  3
*A415
350
172DD
  3
*A416
350
1BA61
  3
*A417
350
172A5
  3
*A418
350
1BBF9
  3
*A419
350
A19C
  3
*A42
350
1968C
  3
*A420
350
9D11
  3
*A421
350
151B4
  3
*A422
350
19CDC
  3
*A423
350
9CE0
  3
*A424
350
10F22
  3
*A425
350
13803
  3
*A426
350
67B6
  3
*A427
350
172C3
  3
*A428
350
1A83A
  3
*A429
350
172E2
  3
*A43
350
1395E
  3
*A430
350
17908
  3
*A431
350
1BBFA
  3
*A432
350
17378
  3
*A433
350
1BBFB
  3
*A434
350
1145D
  3
*A435
350
639A
  3
*A436
350
5869
  3
*A437
350
1BBFC
  3
*A438
350
6786
  3
*A439
350
7362
  3
*A44
350
149B3
  3
*A440
350
5D36
  3
*A441
350
1A83B
  3
*A442
350
19688
  3
*A443
350
9D07
  3
*A444
350
196A7
  3
*A445
350
DC26
  3
*A446
350
1AB04
  3
*A447
350
13A59
  3
*A448
350
73DE
  3
*A449
350
1257A
  3
*A45
350
1A1AF
  3
*A450
350
7325
  3
*A451
350
17299
  3
*A452
350
144EC
  3
*A453
350
13959
  3
*A454
350
12B3B
  3
*A455
350
1A1B0
  3
*A456
350
196AC
  3
*A457
350
6926
  3
*A458
350
9CE3
  3
*A459
350
1A1AC
  3
*A46
350
9975
  3
*A460
350
10126
  3
*A461
350
DC3B
  3
*A462
350
13C46
  3
*A463
350
1BBFD
  3
*A464
350
17909
  3
*A465
350
1729C
  3
*A466
350
1966B
  3
*A467
350
6174
  3
*A468
350
1AB71
  3
*A469
350
6212
  3
*A47
350
A1B7
  3
*A470
350
B309
  3
*A471
350
13984
  3
*A472
350
DC29
  3
*A473
350
1BD92
  3
*A474
350
172C6
  3
*A475
350
1BD93
  3
*A476
350
7BC8
  3
*A477
350
A77C
  3
*A478
350
12579
  3
*A479
350
1A554
  3
*A48
350
13A5F
  3
*A480
350
97D0
  3
*A481
350
13C6E
  3
*A482
350
B2AE
  3
*A483
350
74BD
  3
*A484
350
1A846
  3
*A485
350
10123
  3
*A486
350
144F4
  3
*A487
350
1BD94
  3
*A488
350
97F2
  3
*A489
350
1BD95
  3
*A49
350
A198
  3
*A490
350
17A25
  3
*A491
350
DC3D
  3
*A492
350
1BD96
  3
*A493
350
2C50
  3
*A494
350
17950
  3
*A495
350
9D00
  3
*A496
350
1A847
  3
*A497
350
1969B
  3
*A498
350
1FB7
  3
*A499
350
14C3E
  3
*A5
350
A1BA
  3
*A50
350
1AC72
  3
*A500
350
9904
  3
*A501
350
1395B
  3
*A502
350
13996
  3
*A503
350
65C1
  3
*A504
350
172BB
  3
*A505
350
14B6F
  3
*A506
350
DC2C
  3
*A507
350
11443
  3
*A508
350
1A83F
  3
*A509
350
196BC
  3
*A51
350
7C7D
  3
*A510
350
60E3
  3
*A511
350
1A83C
  3
*A512
350
6670
  3
*A513
350
97F0
  3
*A514
350
DC30
  3
*A515
350
1BE5A
  3
*A516
350
83B7
  3
*A517
350
172BE
  3
*A518
350
19682
  3
*A519
350
149C2
  3
*A52
350
1AC88
  3
*A520
350
11E8C
  3
*A521
350
151B3
  3
*A522
350
6665
  3
*A523
350
17A23
  3
*A524
350
1BE5B
  3
*A525
350
172E3
  3
*A526
350
1BE5C
  3
*A527
350
B323
  3
*A528
350
DC38
  3
*A529
350
13987
  3
*A53
350
1A841
  3
*A530
350
A13B
  3
*A531
350
61E9
  3
*A532
350
151FB
  3
*A533
350
6C4A
  3
*A534
350
1AB72
  3
*A535
350
13C42
  3
*A536
350
19664
  3
*A537
350
7C72
  3
*A538
350
6675
  3
*A539
350
73A0
  3
*A54
350
1355A
  3
*A540
350
5850
  3
*A541
350
7BCC
  3
*A542
350
9A04
  3
*A543
350
144F5
  3
*A544
350
17296
  3
*A545
350
1AB88
  3
*A546
350
196AD
  3
*A547
350
60A2
  3
*A548
350
10F24
  3
*A549
350
17294
  3
*A55
350
DC1D
  3
*A550
350
6CCE
  3
*A551
350
1727B
  3
*A552
350
172D9
  3
*A553
350
82D8
  3
*A554
350
1564D
  3
*A555
350
331D
  3
*A556
350
1A84A
  3
*A557
350
19CDE
  3
*A558
350
13265
  3
*A559
350
1A848
  3
*A56
350
6C4C
  3
*A560
350
6FC4
  3
*A561
350
970B
  3
*A562
350
B322
  3
*A563
350
19665
  3
*A564
350
172DC
  3
*A565
350
19696
  3
*A566
350
A776
  3
*A567
350
83B4
  3
*A568
350
9CFD
  3
*A569
350
17288
  3
*A57
350
10574
  3
*A570
350
DC2D
  3
*A571
350
6981
  3
*A572
350
9901
  3
*A573
350
DC32
  3
*A574
350
13982
  3
*A575
350
6F9D
  3
*A576
350
DC1C
  3
*A577
350
78EA
  3
*A578
350
A77E
  3
*A579
350
10125
  3
*A58
350
1AD54
  3
*A580
350
1965C
  3
*A581
350
1355D
  3
*A582
350
6C7C
  3
*A583
350
1965F
  3
*A584
350
151B5
  3
*A585
350
74B9
  3
*A586
350
13A6F
  3
*A587
350
11ADA
  3
*A588
350
19666
  3
*A589
350
7360
  3
*A59
350
1AD55
  3
*A590
350
196BD
  3
*A591
350
101A2
  3
*A592
350
B2AC
  3
*A593
350
172B7
  3
*A594
350
17292
  3
*A595
350
172A0
  3
*A596
350
11AA4
  3
*A597
350
5849
  3
*A598
350
1729B
  3
*A599
350
B3D4
  3
*A6
350
1AC58
  3
*A60
350
1A556
  3
*A600
350
DC3F
  3
*A601
350
11A5B
  3
*A602
350
6172
  3
*A603
350
60B0
  3
*A604
350
1384E
  3
*A605
350
1967C
  3
*A606
350
721E
  3
*A607
350
196A8
  3
*A608
350
9ADE
  3
*A609
350
151B8
  3
*A61
350
9A02
  3
*A610
350
172AC
  3
*A611
350
151B6
  3
*A612
350
82EE
  3
*A613
350
11AA0
  3
*A614
350
1395F
  3
*A615
350
B306
  3
*A616
350
17290
  3
*A617
350
1384C
  3
*A618
350
149B2
  3
*A619
350
13A5A
  3
*A62
350
73DD
  3
*A620
350
19674
  3
*A621
350
13C6A
  3
*A622
350
149AF
  3
*A623
350
19677
  3
*A624
350
DC46
  3
*A625
350
82F9
  3
*A626
350
9A62
  3
*A627
350
886B
  3
*A628
350
1967D
  3
*A629
350
6982
  3
*A63
350
2C4F
  3
*A630
350
133B3
  3
*A631
350
151B2
  3
*A632
350
172D6
  3
*A633
350
172B5
  3
*A634
350
172C2
  3
*A635
350
144EE
  3
*A636
350
A187
  3
*A637
350
172BD
  3
*A638
350
1261F
  3
*A639
350
102D8
  3
*A64
350
6C51
  3
*A640
350
1257C
  3
*A641
350
6540
  3
*A642
350
DC2F
  3
*A643
350
19690
  3
*A644
350
17A22
  3
*A645
350
196B8
  3
*A646
350
B320
  3
*A647
350
6925
  3
*A648
350
B321
  3
*A649
350
60B7
  3
*A65
350
1965D
  3
*A650
350
83B5
  3
*A651
350
10FE0
  3
*A652
350
DC1B
  3
*A653
350
172B3
  3
*A654
350
9113
  3
*A655
350
DC4A
  3
*A656
350
9A61
  3
*A657
350
1968A
  3
*A658
350
7C67
  3
*A659
350
65CC
  3
*A66
350
1968D
  3
*A660
350
639F
  3
*A661
350
1355B
  3
*A662
350
A77B
  3
*A663
350
DC4F
  3
*A664
350
19691
  3
*A665
350
1257E
  3
*A666
350
13C44
  3
*A667
350
DC3E
  3
*A668
350
74B7
  3
*A669
350
172D4
  3
*A67
350
172E0
  3
*A670
350
14B71
  3
*A671
350
5B40
  3
*A672
350
172DB
  3
*A673
350
13C3F
  3
*A674
350
13C40
  3
*A675
350
13A5B
  3
*A676
350
DC34
  3
*A677
350
A18A
  3
*A678
350
196A3
  3
*A679
350
31D6
  3
*A68
350
19CDA
  3
*A680
350
74B6
  3
*A681
350
A0A7
  3
*A682
350
B307
  3
*A683
350
71C3
  3
*A684
350
1145B
  3
*A685
350
17285
  3
*A686
350
6CCD
  3
*A687
350
172D2
  3
*A688
350
695E
  3
*A689
350
11ECA
  3
*A69
350
17295
  3
*A690
350
1969D
  3
*A691
350
6C69
  3
*A692
350
11EC8
  3
*A693
350
9730
  3
*A694
350
13C47
  3
*A695
350
148EC
  3
*A696
350
10124
  3
*A697
350
2BCB
  3
*A698
350
13A60
  3
*A699
350
9112
  3
*A7
350
635C
  3
*A70
350
17969
  3
*A700
350
7BCE
  3
*A701
350
B308
  3
*A702
350
13983
  3
*A703
350
A77A
  3
*A704
350
7620
  3
*A705
350
707D
  3
*A706
350
6170
  3
*A707
350
11A5C
  3
*A708
350
14067
  3
*A709
350
196B4
  3
*A71
350
1966F
  3
*A710
350
13267
  3
*A711
350
11A5A
  3
*A712
350
1489D
  3
*A713
350
73A2
  3
*A714
350
13266
  3
*A715
350
172A9
  3
*A716
350
1355C
  3
*A717
350
DC41
  3
*A718
350
14066
  3
*A719
350
82E3
  3
*A72
350
196AE
  3
*A720
350
149AE
  3
*A721
350
7326
  3
*A722
350
B434
  3
*A723
350
9A63
  3
*A724
350
DC49
  3
*A725
350
73DC
  3
*A726
350
5BAB
  3
*A727
350
61ED
  3
*A728
350
6D93
  3
*A729
350
17953
  3
*A73
350
9847
  3
*A730
350
1290F
  3
*A731
350
17A21
  3
*A732
350
11400
  3
*A733
350
7C3D
  3
*A734
350
56AA
  3
*A735
350
DC3C
  3
*A736
350
5B42
  3
*A737
350
196C3
  3
*A738
350
735D
  3
*A739
350
17293
  3
*A74
350
A1BC
  3
*A740
350
17291
  3
*A741
350
63A7
  3
*A742
350
172CA
  3
*A743
350
13C69
  3
*A744
350
17951
  3
*A745
350
14B43
  3
*A746
350
A098
  3
*A747
350
DC2A
  3
*A748
350
E69A
  3
*A749
350
144E9
  3
*A75
350
A77D
  3
*A750
350
11EAC
  3
*A751
350
136EA
  3
*A752
350
A1B8
  3
*A753
350
6171
  3
*A754
350
14946
  3
*A755
350
56A9
  3
*A756
350
17287
  3
*A757
350
144F8
  3
*A758
350
148EE
  3
*A759
350
148EF
  3
*A76
350
1489B
  3
*A760
350
6341
  3
*A761
350
5A54
  3
*A762
350
1A1AD
  3
*A763
350
17280
  3
*A764
350
172B6
  3
*A765
350
172B4
  3
*A766
350
12620
  3
*A767
350
175C9
  3
*A768
350
74BF
  3
*A769
350
144F6
  3
*A77
350
6671
  3
*A770
350
1395D
  3
*A771
350
60B8
  3
*A772
350
9A03
  3
*A773
350
14B47
  3
*A774
350
A194
  3
*A775
350
13C6C
  3
*A776
350
DC42
  3
*A777
350
1489F
  3
*A778
350
9902
  3
*A779
350
19668
  3
*A78
350
172AB
  3
*A780
350
1966E
  3
*A781
350
1FC1
  3
*A782
350
11441
  3
*A783
350
13A5D
  3
*A784
350
7C2F
  3
*A785
350
1A83D
  3
*A786
350
7316
  3
*A787
350
172D5
  3
*A788
350
172D3
  3
*A789
350
13C41
  3
*A79
350
9CFF
  3
*A790
350
DC35
  3
*A791
350
19667
  3
*A792
350
E38E
  3
*A793
350
10129
  3
*A794
350
78E9
  3
*A795
350
7361
  3
*A796
350
118B2
  3
*A797
350
6FD7
  3
*A798
350
10F71
  3
*A799
350
732D
  3
*A8
350
11AA1
  3
*A80
350
1967F
  3
*A800
350
19685
  3
*A801
350
A127
  3
*A802
350
7215
  3
*A803
350
17279
  3
*A804
350
B3D3
  3
*A805
350
74BE
  3
*A806
350
144EA
  3
*A807
350
10F25
  3
*A808
350
12622
  3
*A809
350
1145A
  3
*A81
350
149AD
  3
*A810
350
1967E
  3
*A811
350
1727E
  3
*A812
350
98FF
  3
*A813
350
1C5E3
  3
*A814
350
9846
  3
*A815
350
1C5E4
  3
*A816
350
DC45
  3
*A817
350
13282
  3
*A818
350
11E8D
  3
*A819
350
19699
  3
*A82
350
5BB6
  3
*A820
350
572B
  3
*A821
350
1729E
  3
*A822
350
1C5E5
  3
*A823
350
A145
  3
*A824
350
14B48
  3
*A825
350
17954
  3
*A826
350
1C5E6
  3
*A827
350
1C5E7
  3
*A828
350
19692
  3
*A829
350
172A3
  3
*A83
350
74FA
  3
*A830
350
1C68D
  3
*A831
350
A14F
  3
*A832
350
1C6B5
  3
*A833
350
149B0
  3
*A834
350
A0AA
  3
*A835
350
10127
  3
*A836
350
196AB
  3
*A837
350
83B6
  3
*A838
350
172C0
  3
*A839
350
1C6C9
  3
*A84
350
1491B
  3
*A840
350
11D3E
  3
*A841
350
61EC
  3
*A842
350
1C868
  3
*A843
350
1C869
  3
*A844
350
196A4
  3
*A845
350
172C4
  3
*A846
350
1C86A
  3
*A847
350
5B3E
  3
*A848
350
61EB
  3
*A849
350
102BF
  3
*A85
350
1728C
  3
*A850
350
101C3
  3
*A851
350
196BB
  3
*A852
350
10F26
  3
*A853
350
172DE
  3
*A854
350
1C889
  3
*A855
350
5A3E
  3
*A856
350
19669
  3
*A857
350
1C88A
  3
*A858
350
1C88B
  3
*A859
350
196B5
  3
*A86
350
172E1
  3
*A860
350
1C892
  3
*A861
350
6CD1
  3
*A862
350
6FC5
  3
*A863
350
B17A
  3
*A864
350
1388D
  3
*A865
350
19CDD
  3
*A866
350
A0B3
  3
*A867
350
DC33
  3
*A868
350
1C89B
  3
*A869
350
115F
  3
*A87
350
19680
  3
*A870
350
1CC26
  3
*A871
350
1CC2E
  3
*A872
350
196C4
  3
*A873
350
1CC30
  3
*A874
350
11442
  3
*A875
350
5867
  3
*A876
350
B2B7
  3
*A877
350
5846
  3
*A878
350
1A555
  3
*A879
350
9972
  3
*A88
350
17A24
  3
*A880
350
1CC3B
  3
*A881
350
1387B
  3
*A882
350
1CC46
  3
*A883
350
DC20
  3
*A884
350
1A1AE
  3
*A885
350
12B3A
  3
*A886
350
97ED
  3
*A887
350
13981
  3
*A888
350
13864
  3
*A889
350
15648
  3
*A89
350
1A842
  3
*A890
350
7BCB
  3
*A891
350
17952
  3
*A892
350
B433
  3
*A893
350
97CA
  3
*A894
350
1FCA
  3
*A895
350
1A83E
  3
*A896
350
A77F
  3
*A897
350
A097
  3
*A898
350
5A40
  3
*A899
350
9873
  3
*A9
350
17297
  3
*A90
350
11AA3
  3
*A900
350
13C43
  3
*A901
350
73A3
  3
*A902
350
148F0
  3
*A903
350
15649
  3
*A904
350
1A849
  3
*A905
350
1CF56
  3
*A906
350
732E
  3
*A907
350
17286
  3
*A908
350
B432
  3
*A909
350
1CF57
  3
*A91
350
141F4
  3
*A910
350
1CF80
  3
*A911
350
17298
  3
*A912
350
DC1A
  3
*A913
350
1CF81
  3
*A914
350
136EB
  3
*A915
350
172AA
  3
*A916
350
141F3
  3
*A917
350
1CFAD
  3
*A918
350
1CFAE
  3
*A919
350
172BA
  3
*A92
350
60E2
  3
*A920
350
1CFD8
  3
*A921
350
13C6D
  3
*A922
350
172CB
  3
*A923
350
14B44
  3
*A924
350
1CFD9
  3
*A925
350
1CFDA
  3
*A926
350
172D8
  3
*A927
350
1CFEA
  3
*A928
350
63AB
  3
*A929
350
6528
  3
*A93
350
10556
  3
*A930
350
7BF1
  3
*A931
350
14BCD
  3
*A932
350
A779
  3
*A933
350
9974
  3
*A934
350
9CE1
  3
*A935
350
17905
  3
*A936
350
17282
  3
*A937
350
DC18
  3
*A938
350
17A1F
  3
*A939
350
74F8
  3
*A94
350
149B1
  3
*A940
350
144F1
  3
*A941
350
172A6
  3
*A942
350
1D157
  3
*A943
350
118B1
  3
*A944
350
E68F
  3
*A945
350
19661
  3
*A946
350
172C7
  3
*A947
350
A159
  3
*A948
350
1966C
  3
*A949
350
F622
  3
*A95
350
19679
  3
*A950
350
172E4
  3
*A951
350
12B38
  3
*A952
350
19683
  3
*A953
350
10F23
  3
*A954
350
12B39
  3
*A955
350
DC4E
  3
*A956
350
19697
  3
*A957
350
1D4EC
  3
*A958
350
118B0
  3
*A959
350
13985
  3
*A96
350
196A9
  3
*A960
350
B179
  3
*A961
350
6669
  3
*A962
350
107B
  3
*A963
350
1564B
  3
*A964
350
530F
  3
*A965
350
1728A
  3
*A966
350
1729A
  3
*A967
350
7317
  3
*A968
350
1D724
  3
*A969
350
1D74C
  3
*A97
350
1384D
  3
*A970
350
172AE
  3
*A971
350
172BC
  3
*A972
350
172CD
  3
*A973
350
172DA
  3
*A98
350
F567
  3
*A99
350
65BB
  0
DICTIONARY
  5
683
102
{ACAD_REACTORS
330
C
102
}
330
C
100
AcDbDictionary
281
     1
  3
Model
350
685
  3
外形図
350
686
  0
DICTIONARY
  5
1B
102
{ACAD_REACTORS
330
C
102
}
330
C
100
AcDbDictionary
281
     1
  3
STANDARD
350
1C
  0
DICTIONARY
  5
684
102
{ACAD_REACTORS
330
C
102
}
330
C
100
AcDbDictionary
281
     1
  0
ACDBDICTIONARYWDFLT
  5
681
102
{ACAD_REACTORS
330
C
102
}
330
C
100
AcDbDictionary
281
     1
  3
Normal
350
682
100
AcDbDictionaryWithDefault
340
682
  0
XRECORD
  5
511E
102
{ACAD_REACTORS
330
C
102
}
330
C
100
AcDbXrecord
280
     1
 90
   990106
  3

 60
     0
 61
     0
 62
     1
 63
     3
 64
     0
 65
     0
 66
     0
 67
     3
 68
     1
 69
     0
 70
     0
 71
     0
 72
     0
 40
0.0
170
     0
340
0
  0
DICTIONARY
  5
7920
102
{ACAD_REACTORS
330
C
102
}
330
C
100
AcDbDictionary
281
     1
  3
SORTENTS
350
7921
  0
DICTIONARY
  5
B190
102
{ACAD_REACTORS
330
B18F
102
}
330
B18F
100
AcDbDictionary
280
     1
281
     1
  3
0
360
B191
  3
11
360
B192
  3
150_
360
B193
  3
160_
360
B194
  3
170_
360
B195
  3
171_
360
B196
  3
350_
360
B197
  3
4
360
B198
  3
5
360
B199
  3
7
360
B19A
  3
kiseki
360
B19B
  0
DICTIONARY
  5
B19C
102
{ACAD_REACTORS
330
B18F
102
}
330
B18F
100
AcDbDictionary
281
     1
  0
GROUP
  5
EB3
102
{ACAD_REACTORS
330
D
102
}
330
D
100
AcDbGroup
300

 70
     1
 71
     1
  0
GROUP
  5
1AC59
102
{ACAD_REACTORS
330
D
102
}
330
D
100
AcDbGroup
300

 70
     1
 71
     1
  0
GROUP
  5
73DA
102
{ACAD_REACTORS
330
D
102
}
330
D
100
AcDbGroup
300

 70
     1
 71
     1
  0
GROUP
  5
13A5E
102
{ACAD_REACTORS
330
D
102
}
330
D
100
AcDbGroup
300

 70
     1
 71
     1
  0
GROUP
  5
7331
102
{ACAD_REACTORS
330
D
102
}
330
D
100
AcDbGroup
300

 70
     1
 71
     1
  0
GROUP
  5
1AD56
102
{ACAD_REACTORS
330
D
102
}
330
D
100
AcDbGroup
300

 70
     1
 71
     1
  0
GROUP
  5
113FD
102
{ACAD_REACTORS
330
D
102
}
330
D
100
AcDbGroup
300

 70
     1
 71
     1
  0
GROUP
  5
11401
102
{ACAD_REACTORS
330
D
102
}
330
D
100
AcDbGroup
300

 70
     1
 71
     1
  0
GROUP
  5
172B9
102
{ACAD_REACTORS
330
D
102
}
330
D
100
AcDbGroup
300

 70
     1
 71
     1
  0
GROUP
  5
10FA5
102
{ACAD_REACTORS
330
D
102
}
330
D
100
AcDbGroup
300

 70
     1
 71
     1
  0
GROUP
  5
11A59
102
{ACAD_REACTORS
330
D
102
}
330
D
100
AcDbGroup
300

 70
     1
 71
     1
  0
GROUP
  5
196AF
102
{ACAD_REACTORS
330
D
102
}
330
D
100
AcDbGroup
300

 70
     1
 71
     1
  0
GROUP
  5
DC36
102
{ACAD_REACTORS
330
D
102
}
330
D
100
AcDbGroup
300

 70
     1
 71
     1
  0
GROUP
  5
1257D
102
{ACAD_REACTORS
330
D
102
}
330
D
100
AcDbGroup
300

 70
     1
 71
     1
  0
GROUP
  5
19686
102
{ACAD_REACTORS
330
D
102
}
330
D
100
AcDbGroup
300

 70
     1
 71
     1
  0
GROUP
  5
1A840
102
{ACAD_REACTORS
330
D
102
}
330
D
100
AcDbGroup
300

 70
     1
 71
     1
  0
GROUP
  5
19660
102
{ACAD_REACTORS
330
D
102
}
330
D
100
AcDbGroup
300

 70
     1
 71
     1
  0
GROUP
  5
13DE
102
{ACAD_REACTORS
330
D
102
}
330
D
100
AcDbGroup
300

 70
     1
 71
     1
  0
GROUP
  5
172A7
102
{ACAD_REACTORS
330
D
102
}
330
D
100
AcDbGroup
300

 70
     1
 71
     1
  0
GROUP
  5
1968E
102
{ACAD_REACTORS
330
D
102
}
330
D
100
AcDbGroup
300

 70
     1
 71
     1
  0
GROUP
  5
14B70
102
{ACAD_REACTORS
330
D
102
}
330
D
100
AcDbGroup
300

 70
     1
 71
     1
  0
GROUP
  5
A777
102
{ACAD_REACTORS
330
D
102
}
330
D
100
AcDbGroup
300

 70
     1
 71
     1
  0
GROUP
  5
1AD57
102
{ACAD_REACTORS
330
D
102
}
330
D
100
AcDbGroup
300

 70
     1
 71
     1
  0
GROUP
  5
1969E
102
{ACAD_REACTORS
330
D
102
}
330
D
100
AcDbGroup
300

 70
     1
 71
     1
  0
GROUP
  5
11ABD
102
{ACAD_REACTORS
330
D
102
}
330
D
100
AcDbGroup
300

 70
     1
 71
     1
  0
GROUP
  5
1AD58
102
{ACAD_REACTORS
330
D
102
}
330
D
100
AcDbGroup
300

 70
     1
 71
     1
  0
GROUP
  5
DC19
102
{ACAD_REACTORS
330
D
102
}
330
D
100
AcDbGroup
300

 70
     1
 71
     1
  0
GROUP
  5
1FD5
102
{ACAD_REACTORS
330
D
102
}
330
D
100
AcDbGroup
300

 70
     1
 71
     1
  0
GROUP
  5
886C
102
{ACAD_REACTORS
330
D
102
}
330
D
100
AcDbGroup
300

 70
     1
 71
     1
  0
GROUP
  5
A778
102
{ACAD_REACTORS
330
D
102
}
330
D
100
AcDbGroup
300

 70
     1
 71
     1
  0
GROUP
  5
1AD59
102
{ACAD_REACTORS
330
D
102
}
330
D
100
AcDbGroup
300

 70
     1
 71
     1
  0
GROUP
  5
7BC9
102
{ACAD_REACTORS
330
D
102
}
330
D
100
AcDbGroup
300

 70
     1
 71
     1
  0
GROUP
  5
19673
102
{ACAD_REACTORS
330
D
102
}
330
D
100
AcDbGroup
300

 70
     1
 71
     1
  0
GROUP
  5
19684
102
{ACAD_REACTORS
330
D
102
}
330
D
100
AcDbGroup
300

 70
     1
 71
     1
  0
GROUP
  5
13C45
102
{ACAD_REACTORS
330
D
102
}
330
D
100
AcDbGroup
300

 70
     1
 71
     1
  0
GROUP
  5
73A1
102
{ACAD_REACTORS
330
D
102
}
330
D
100
AcDbGroup
300

 70
     1
 71
     1
  0
GROUP
  5
6C7D
102
{ACAD_REACTORS
330
D
102
}
330
D
100
AcDbGroup
300

 70
     1
 71
     1
  0
GROUP
  5
DC24
102
{ACAD_REACTORS
330
D
102
}
330
D
100
AcDbGroup
300

 70
     1
 71
     1
  0
GROUP
  5
19662
102
{ACAD_REACTORS
330
D
102
}
330
D
100
AcDbGroup
300

 70
     1
 71
     1
  0
GROUP
  5
1395C
102
{ACAD_REACTORS
330
D
102
}
330
D
100
AcDbGroup
300

 70
     1
 71
     1
  0
GROUP
  5
DC31
102
{ACAD_REACTORS
330
D
102
}
330
D
100
AcDbGroup
300

 70
     1
 71
     1
  0
GROUP
  5
1969F
102
{ACAD_REACTORS
330
D
102
}
330
D
100
AcDbGroup
300

 70
     1
 71
     1
  0
GROUP
  5
B17C
102
{ACAD_REACTORS
330
D
102
}
330
D
100
AcDbGroup
300

 70
     1
 71
     1
  0
GROUP
  5
DC4B
102
{ACAD_REACTORS
330
D
102
}
330
D
100
AcDbGroup
300

 70
     1
 71
     1
  0
GROUP
  5
9D06
102
{ACAD_REACTORS
330
D
102
}
330
D
100
AcDbGroup
300

 70
     1
 71
     1
  0
GROUP
  5
761D
102
{ACAD_REACTORS
330
D
102
}
330
D
100
AcDbGroup
300

 70
     1
 71
     1
  0
GROUP
  5
13986
102
{ACAD_REACTORS
330
D
102
}
330
D
100
AcDbGroup
300

 70
     1
 71
     1
  0
GROUP
  5
1728D
102
{ACAD_REACTORS
330
D
102
}
330
D
100
AcDbGroup
300

 70
     1
 71
     1
  0
GROUP
  5
9AC8
102
{ACAD_REACTORS
330
D
102
}
330
D
100
AcDbGroup
300

 70
     1
 71
     1
  0
GROUP
  5
1AD5A
102
{ACAD_REACTORS
330
D
102
}
330
D
100
AcDbGroup
300

 70
     1
 71
     1
  0
GROUP
  5
735E
102
{ACAD_REACTORS
330
D
102
}
330
D
100
AcDbGroup
300

 70
     1
 71
     1
  0
GROUP
  5
1ADC1
102
{ACAD_REACTORS
330
D
102
}
330
D
100
AcDbGroup
300

 70
     1
 71
     1
  0
GROUP
  5
1A9DA
102
{ACAD_REACTORS
330
D
102
}
330
D
100
AcDbGroup
300

 70
     1
 71
     1
  0
GROUP
  5
9CFE
102
{ACAD_REACTORS
330
D
102
}
330
D
100
AcDbGroup
300

 70
     1
 71
     1
  0
GROUP
  5
1727A
102
{ACAD_REACTORS
330
D
102
}
330
D
100
AcDbGroup
300

 70
     1
 71
     1
  0
GROUP
  5
DC28
102
{ACAD_REACTORS
330
D
102
}
330
D
100
AcDbGroup
300

 70
     1
 71
     1
  0
GROUP
  5
19670
102
{ACAD_REACTORS
330
D
102
}
330
D
100
AcDbGroup
300

 70
     1
 71
     1
  0
GROUP
  5
1ADC2
102
{ACAD_REACTORS
330
D
102
}
330
D
100
AcDbGroup
300

 70
     1
 71
     1
  0
GROUP
  5
1ADC3
102
{ACAD_REACTORS
330
D
102
}
330
D
100
AcDbGroup
300

 70
     1
 71
     1
  0
GROUP
  5
1A843
102
{ACAD_REACTORS
330
D
102
}
330
D
100
AcDbGroup
300

 70
     1
 71
     1
  0
GROUP
  5
EB4
102
{ACAD_REACTORS
330
D
102
}
330
D
100
AcDbGroup
300

 70
     1
 71
     1
  0
GROUP
  5
1384A
102
{ACAD_REACTORS
330
D
102
}
330
D
100
AcDbGroup
300

 70
     1
 71
     1
  0
GROUP
  5
FF0A
102
{ACAD_REACTORS
330
D
102
}
330
D
100
AcDbGroup
300

 70
     1
 71
     1
  0
GROUP
  5
97C9
102
{ACAD_REACTORS
330
D
102
}
330
D
100
AcDbGroup
300

 70
     1
 71
     1
  0
GROUP
  5
19675
102
{ACAD_REACTORS
330
D
102
}
330
D
100
AcDbGroup
300

 70
     1
 71
     1
  0
GROUP
  5
196A0
102
{ACAD_REACTORS
330
D
102
}
330
D
100
AcDbGroup
300

 70
     1
 71
     1
  0
GROUP
  5
6C6A
102
{ACAD_REACTORS
330
D
102
}
330
D
100
AcDbGroup
300

 70
     1
 71
     1
  0
GROUP
  5
1A25A
102
{ACAD_REACTORS
330
D
102
}
330
D
100
AcDbGroup
300

 70
     1
 71
     1
  0
GROUP
  5
172B8
102
{ACAD_REACTORS
330
D
102
}
330
D
100
AcDbGroup
300

 70
     1
 71
     1
  0
GROUP
  5
1145C
102
{ACAD_REACTORS
330
D
102
}
330
D
100
AcDbGroup
300

 70
     1
 71
     1
  0
GROUP
  5
13A7D
102
{ACAD_REACTORS
330
D
102
}
330
D
100
AcDbGroup
300

 70
     1
 71
     1
  0
GROUP
  5
196BE
102
{ACAD_REACTORS
330
D
102
}
330
D
100
AcDbGroup
300

 70
     1
 71
     1
  0
GROUP
  5
B17B
102
{ACAD_REACTORS
330
D
102
}
330
D
100
AcDbGroup
300

 70
     1
 71
     1
  0
GROUP
  5
7BCA
102
{ACAD_REACTORS
330
D
102
}
330
D
100
AcDbGroup
300

 70
     1
 71
     1
  0
GROUP
  5
1495D
102
{ACAD_REACTORS
330
D
102
}
330
D
100
AcDbGroup
300

 70
     1
 71
     1
  0
GROUP
  5
DC48
102
{ACAD_REACTORS
330
D
102
}
330
D
100
AcDbGroup
300

 70
     1
 71
     1
  0
GROUP
  5
A1A4
102
{ACAD_REACTORS
330
D
102
}
330
D
100
AcDbGroup
300

 70
     1
 71
     1
  0
GROUP
  5
172CC
102
{ACAD_REACTORS
330
D
102
}
330
D
100
AcDbGroup
300

 70
     1
 71
     1
  0
GROUP
  5
144F0
102
{ACAD_REACTORS
330
D
102
}
330
D
100
AcDbGroup
300

 70
     1
 71
     1
  0
GROUP
  5
19693
102
{ACAD_REACTORS
330
D
102
}
330
D
100
AcDbGroup
300

 70
     1
 71
     1
  0
GROUP
  5
9AE2
102
{ACAD_REACTORS
330
D
102
}
330
D
100
AcDbGroup
300

 70
     1
 71
     1
  0
GROUP
  5
DC2B
102
{ACAD_REACTORS
330
D
102
}
330
D
100
AcDbGroup
300

 70
     1
 71
     1
  0
GROUP
  5
97F1
102
{ACAD_REACTORS
330
D
102
}
330
D
100
AcDbGroup
300

 70
     1
 71
     1
  0
GROUP
  5
970C
102
{ACAD_REACTORS
330
D
102
}
330
D
100
AcDbGroup
300

 70
     1
 71
     1
  0
GROUP
  5
172AF
102
{ACAD_REACTORS
330
D
102
}
330
D
100
AcDbGroup
300

 70
     1
 71
     1
  0
GROUP
  5
A1BB
102
{ACAD_REACTORS
330
D
102
}
330
D
100
AcDbGroup
300

 70
     1
 71
     1
  0
GROUP
  5
19694
102
{ACAD_REACTORS
330
D
102
}
330
D
100
AcDbGroup
300

 70
     1
 71
     1
  0
GROUP
  5
144F9
102
{ACAD_REACTORS
330
D
102
}
330
D
100
AcDbGroup
300

 70
     1
 71
     1
  0
GROUP
  5
1A9DB
102
{ACAD_REACTORS
330
D
102
}
330
D
100
AcDbGroup
300

 70
     1
 71
     1
  0
GROUP
  5
DC21
102
{ACAD_REACTORS
330
D
102
}
330
D
100
AcDbGroup
300

 70
     1
 71
     1
  0
GROUP
  5
14B45
102
{ACAD_REACTORS
330
D
102
}
330
D
100
AcDbGroup
300

 70
     1
 71
     1
  0
GROUP
  5
F671
102
{ACAD_REACTORS
330
D
102
}
330
D
100
AcDbGroup
300

 70
     1
 71
     1
  0
GROUP
  5
B3EC
102
{ACAD_REACTORS
330
D
102
}
330
D
100
AcDbGroup
300

 70
     1
 71
     1
  0
GROUP
  5
5697
102
{ACAD_REACTORS
330
D
102
}
330
D
100
AcDbGroup
300

 70
     1
 71
     1
  0
GROUP
  5
1968F
102
{ACAD_REACTORS
330
D
102
}
330
D
100
AcDbGroup
300

 70
     1
 71
     1
  0
GROUP
  5
196B9
102
{ACAD_REACTORS
330
D
102
}
330
D
100
AcDbGroup
300

 70
     1
 71
     1
  0
GROUP
  5
9976
102
{ACAD_REACTORS
330
D
102
}
330
D
100
AcDbGroup
300

 70
     1
 71
     1
  0
GROUP
  5
17907
102
{ACAD_REACTORS
330
D
102
}
330
D
100
AcDbGroup
300

 70
     1
 71
     1
  0
GROUP
  5
17A20
102
{ACAD_REACTORS
330
D
102
}
330
D
100
AcDbGroup
300

 70
     1
 71
     1
  0
GROUP
  5
65BC
102
{ACAD_REACTORS
330
D
102
}
330
D
100
AcDbGroup
300

 70
     1
 71
     1
  0
GROUP
  5
17283
102
{ACAD_REACTORS
330
D
102
}
330
D
100
AcDbGroup
300

 70
     1
 71
     1
  0
GROUP
  5
DC44
102
{ACAD_REACTORS
330
D
102
}
330
D
100
AcDbGroup
300

 70
     1
 71
     1
  0
GROUP
  5
1ADFD
102
{ACAD_REACTORS
330
D
102
}
330
D
100
AcDbGroup
300

 70
     1
 71
     1
  0
GROUP
  5
1728E
102
{ACAD_REACTORS
330
D
102
}
330
D
100
AcDbGroup
300

 70
     1
 71
     1
  0
GROUP
  5
DC43
102
{ACAD_REACTORS
330
D
102
}
330
D
100
AcDbGroup
300

 70
     1
 71
     1
  0
GROUP
  5
172D7
102
{ACAD_REACTORS
330
D
102
}
330
D
100
AcDbGroup
300

 70
     1
 71
     1
  0
GROUP
  5
9111
102
{ACAD_REACTORS
330
D
102
}
330
D
100
AcDbGroup
300

 70
     1
 71
     1
  0
GROUP
  5
14947
102
{ACAD_REACTORS
330
D
102
}
330
D
100
AcDbGroup
300

 70
     1
 71
     1
  0
GROUP
  5
196BF
102
{ACAD_REACTORS
330
D
102
}
330
D
100
AcDbGroup
300

 70
     1
 71
     1
  0
GROUP
  5
13A5C
102
{ACAD_REACTORS
330
D
102
}
330
D
100
AcDbGroup
300

 70
     1
 71
     1
  0
GROUP
  5
5B3F
102
{ACAD_REACTORS
330
D
102
}
330
D
100
AcDbGroup
300

 70
     1
 71
     1
  0
GROUP
  5
1A84B
102
{ACAD_REACTORS
330
D
102
}
330
D
100
AcDbGroup
300

 70
     1
 71
     1
  0
GROUP
  5
19678
102
{ACAD_REACTORS
330
D
102
}
330
D
100
AcDbGroup
300

 70
     1
 71
     1
  0
GROUP
  5
5B41
102
{ACAD_REACTORS
330
D
102
}
330
D
100
AcDbGroup
300

 70
     1
 71
     1
  0
GROUP
  5
172C8
102
{ACAD_REACTORS
330
D
102
}
330
D
100
AcDbGroup
300

 70
     1
 71
     1
  0
GROUP
  5
196A1
102
{ACAD_REACTORS
330
D
102
}
330
D
100
AcDbGroup
300

 70
     1
 71
     1
  0
GROUP
  5
63A2
102
{ACAD_REACTORS
330
D
102
}
330
D
100
AcDbGroup
300

 70
     1
 71
     1
  0
GROUP
  5
1565D
102
{ACAD_REACTORS
330
D
102
}
330
D
100
AcDbGroup
300

 70
     1
 71
     1
  0
GROUP
  5
1ADFE
102
{ACAD_REACTORS
330
D
102
}
330
D
100
AcDbGroup
300

 70
     1
 71
     1
  0
GROUP
  5
DC23
102
{ACAD_REACTORS
330
D
102
}
330
D
100
AcDbGroup
300

 70
     1
 71
     1
  0
GROUP
  5
1ADFF
102
{ACAD_REACTORS
330
D
102
}
330
D
100
AcDbGroup
300

 70
     1
 71
     1
  0
GROUP
  5
61EA
102
{ACAD_REACTORS
330
D
102
}
330
D
100
AcDbGroup
300

 70
     1
 71
     1
  0
GROUP
  5
73C1
102
{ACAD_REACTORS
330
D
102
}
330
D
100
AcDbGroup
300

 70
     1
 71
     1
  0
GROUP
  5
144ED
102
{ACAD_REACTORS
330
D
102
}
330
D
100
AcDbGroup
300

 70
     1
 71
     1
  0
GROUP
  5
144EB
102
{ACAD_REACTORS
330
D
102
}
330
D
100
AcDbGroup
300

 70
     1
 71
     1
  0
GROUP
  5
FE50
102
{ACAD_REACTORS
330
D
102
}
330
D
100
AcDbGroup
300

 70
     1
 71
     1
  0
GROUP
  5
17289
102
{ACAD_REACTORS
330
D
102
}
330
D
100
AcDbGroup
300

 70
     1
 71
     1
  0
GROUP
  5
19689
102
{ACAD_REACTORS
330
D
102
}
330
D
100
AcDbGroup
300

 70
     1
 71
     1
  0
GROUP
  5
19698
102
{ACAD_REACTORS
330
D
102
}
330
D
100
AcDbGroup
300

 70
     1
 71
     1
  0
GROUP
  5
7BCD
102
{ACAD_REACTORS
330
D
102
}
330
D
100
AcDbGroup
300

 70
     1
 71
     1
  0
GROUP
  5
1261E
102
{ACAD_REACTORS
330
D
102
}
330
D
100
AcDbGroup
300

 70
     1
 71
     1
  0
GROUP
  5
A189
102
{ACAD_REACTORS
330
D
102
}
330
D
100
AcDbGroup
300

 70
     1
 71
     1
  0
GROUP
  5
1967A
102
{ACAD_REACTORS
330
D
102
}
330
D
100
AcDbGroup
300

 70
     1
 71
     1
  0
GROUP
  5
635D
102
{ACAD_REACTORS
330
D
102
}
330
D
100
AcDbGroup
300

 70
     1
 71
     1
  0
GROUP
  5
1395A
102
{ACAD_REACTORS
330
D
102
}
330
D
100
AcDbGroup
300

 70
     1
 71
     1
  0
GROUP
  5
196B0
102
{ACAD_REACTORS
330
D
102
}
330
D
100
AcDbGroup
300

 70
     1
 71
     1
  0
GROUP
  5
1727F
102
{ACAD_REACTORS
330
D
102
}
330
D
100
AcDbGroup
300

 70
     1
 71
     1
  0
GROUP
  5
10F88
102
{ACAD_REACTORS
330
D
102
}
330
D
100
AcDbGroup
300

 70
     1
 71
     1
  0
GROUP
  5
83B3
102
{ACAD_REACTORS
330
D
102
}
330
D
100
AcDbGroup
300

 70
     1
 71
     1
  0
GROUP
  5
6664
102
{ACAD_REACTORS
330
D
102
}
330
D
100
AcDbGroup
300

 70
     1
 71
     1
  0
GROUP
  5
172B0
102
{ACAD_REACTORS
330
D
102
}
330
D
100
AcDbGroup
300

 70
     1
 71
     1
  0
GROUP
  5
13958
102
{ACAD_REACTORS
330
D
102
}
330
D
100
AcDbGroup
300

 70
     1
 71
     1
  0
GROUP
  5
1AE00
102
{ACAD_REACTORS
330
D
102
}
330
D
100
AcDbGroup
300

 70
     1
 71
     1
  0
GROUP
  5
17284
102
{ACAD_REACTORS
330
D
102
}
330
D
100
AcDbGroup
300

 70
     1
 71
     1
  0
GROUP
  5
1AE01
102
{ACAD_REACTORS
330
D
102
}
330
D
100
AcDbGroup
300

 70
     1
 71
     1
  0
GROUP
  5
1AC5A
102
{ACAD_REACTORS
330
D
102
}
330
D
100
AcDbGroup
300

 70
     1
 71
     1
  0
GROUP
  5
67B7
102
{ACAD_REACTORS
330
D
102
}
330
D
100
AcDbGroup
300

 70
     1
 71
     1
  0
GROUP
  5
1729F
102
{ACAD_REACTORS
330
D
102
}
330
D
100
AcDbGroup
300

 70
     1
 71
     1
  0
GROUP
  5
9977
102
{ACAD_REACTORS
330
D
102
}
330
D
100
AcDbGroup
300

 70
     1
 71
     1
  0
GROUP
  5
1AE02
102
{ACAD_REACTORS
330
D
102
}
330
D
100
AcDbGroup
300

 70
     1
 71
     1
  0
GROUP
  5
1AE03
102
{ACAD_REACTORS
330
D
102
}
330
D
100
AcDbGroup
300

 70
     1
 71
     1
  0
GROUP
  5
1AB03
102
{ACAD_REACTORS
330
D
102
}
330
D
100
AcDbGroup
300

 70
     1
 71
     1
  0
GROUP
  5
1728F
102
{ACAD_REACTORS
330
D
102
}
330
D
100
AcDbGroup
300

 70
     1
 71
     1
  0
GROUP
  5
13C6F
102
{ACAD_REACTORS
330
D
102
}
330
D
100
AcDbGroup
300

 70
     1
 71
     1
  0
GROUP
  5
140A
102
{ACAD_REACTORS
330
D
102
}
330
D
100
AcDbGroup
300

 70
     1
 71
     1
  0
GROUP
  5
74F9
102
{ACAD_REACTORS
330
D
102
}
330
D
100
AcDbGroup
300

 70
     1
 71
     1
  0
GROUP
  5
1968B
102
{ACAD_REACTORS
330
D
102
}
330
D
100
AcDbGroup
300

 70
     1
 71
     1
  0
GROUP
  5
196B1
102
{ACAD_REACTORS
330
D
102
}
330
D
100
AcDbGroup
300

 70
     1
 71
     1
  0
GROUP
  5
74F6
102
{ACAD_REACTORS
330
D
102
}
330
D
100
AcDbGroup
300

 70
     1
 71
     1
  0
GROUP
  5
1012A
102
{ACAD_REACTORS
330
D
102
}
330
D
100
AcDbGroup
300

 70
     1
 71
     1
  0
GROUP
  5
1966A
102
{ACAD_REACTORS
330
D
102
}
330
D
100
AcDbGroup
300

 70
     1
 71
     1
  0
GROUP
  5
7BF2
102
{ACAD_REACTORS
330
D
102
}
330
D
100
AcDbGroup
300

 70
     1
 71
     1
  0
GROUP
  5
19CDF
102
{ACAD_REACTORS
330
D
102
}
330
D
100
AcDbGroup
300

 70
     1
 71
     1
  0
GROUP
  5
74BA
102
{ACAD_REACTORS
330
D
102
}
330
D
100
AcDbGroup
300

 70
     1
 71
     1
  0
GROUP
  5
9973
102
{ACAD_REACTORS
330
D
102
}
330
D
100
AcDbGroup
300

 70
     1
 71
     1
  0
GROUP
  5
12B35
102
{ACAD_REACTORS
330
D
102
}
330
D
100
AcDbGroup
300

 70
     1
 71
     1
  0
GROUP
  5
11D8F
102
{ACAD_REACTORS
330
D
102
}
330
D
100
AcDbGroup
300

 70
     1
 71
     1
  0
GROUP
  5
676B
102
{ACAD_REACTORS
330
D
102
}
330
D
100
AcDbGroup
300

 70
     1
 71
     1
  0
GROUP
  5
113FF
102
{ACAD_REACTORS
330
D
102
}
330
D
100
AcDbGroup
300

 70
     1
 71
     1
  0
GROUP
  5
196A5
102
{ACAD_REACTORS
330
D
102
}
330
D
100
AcDbGroup
300

 70
     1
 71
     1
  0
GROUP
  5
DC2E
102
{ACAD_REACTORS
330
D
102
}
330
D
100
AcDbGroup
300

 70
     1
 71
     1
  0
GROUP
  5
13957
102
{ACAD_REACTORS
330
D
102
}
330
D
100
AcDbGroup
300

 70
     1
 71
     1
  0
GROUP
  5
1727C
102
{ACAD_REACTORS
330
D
102
}
330
D
100
AcDbGroup
300

 70
     1
 71
     1
  0
GROUP
  5
A18B
102
{ACAD_REACTORS
330
D
102
}
330
D
100
AcDbGroup
300

 70
     1
 71
     1
  0
GROUP
  5
172CE
102
{ACAD_REACTORS
330
D
102
}
330
D
100
AcDbGroup
300

 70
     1
 71
     1
  0
GROUP
  5
144EF
102
{ACAD_REACTORS
330
D
102
}
330
D
100
AcDbGroup
300

 70
     1
 71
     1
  0
GROUP
  5
196A6
102
{ACAD_REACTORS
330
D
102
}
330
D
100
AcDbGroup
300

 70
     1
 71
     1
  0
GROUP
  5
19671
102
{ACAD_REACTORS
330
D
102
}
330
D
100
AcDbGroup
300

 70
     1
 71
     1
  0
GROUP
  5
1AC5B
102
{ACAD_REACTORS
330
D
102
}
330
D
100
AcDbGroup
300

 70
     1
 71
     1
  0
GROUP
  5
12B36
102
{ACAD_REACTORS
330
D
102
}
330
D
100
AcDbGroup
300

 70
     1
 71
     1
  0
GROUP
  5
73DB
102
{ACAD_REACTORS
330
D
102
}
330
D
100
AcDbGroup
300

 70
     1
 71
     1
  0
GROUP
  5
74B8
102
{ACAD_REACTORS
330
D
102
}
330
D
100
AcDbGroup
300

 70
     1
 71
     1
  0
GROUP
  5
11EC9
102
{ACAD_REACTORS
330
D
102
}
330
D
100
AcDbGroup
300

 70
     1
 71
     1
  0
GROUP
  5
196A2
102
{ACAD_REACTORS
330
D
102
}
330
D
100
AcDbGroup
300

 70
     1
 71
     1
  0
GROUP
  5
19CDB
102
{ACAD_REACTORS
330
D
102
}
330
D
100
AcDbGroup
300

 70
     1
 71
     1
  0
GROUP
  5
DC3A
102
{ACAD_REACTORS
330
D
102
}
330
D
100
AcDbGroup
300

 70
     1
 71
     1
  0
GROUP
  5
144F3
102
{ACAD_REACTORS
330
D
102
}
330
D
100
AcDbGroup
300

 70
     1
 71
     1
  0
GROUP
  5
735F
102
{ACAD_REACTORS
330
D
102
}
330
D
100
AcDbGroup
300

 70
     1
 71
     1
  0
GROUP
  5
9ACA
102
{ACAD_REACTORS
330
D
102
}
330
D
100
AcDbGroup
300

 70
     1
 71
     1
  0
GROUP
  5
63A8
102
{ACAD_REACTORS
330
D
102
}
330
D
100
AcDbGroup
300

 70
     1
 71
     1
  0
GROUP
  5
1AE12
102
{ACAD_REACTORS
330
D
102
}
330
D
100
AcDbGroup
300

 70
     1
 71
     1
  0
GROUP
  5
172B1
102
{ACAD_REACTORS
330
D
102
}
330
D
100
AcDbGroup
300

 70
     1
 71
     1
  0
GROUP
  5
12B37
102
{ACAD_REACTORS
330
D
102
}
330
D
100
AcDbGroup
300

 70
     1
 71
     1
  0
GROUP
  5
7C5C
102
{ACAD_REACTORS
330
D
102
}
330
D
100
AcDbGroup
300

 70
     1
 71
     1
  0
GROUP
  5
1384B
102
{ACAD_REACTORS
330
D
102
}
330
D
100
AcDbGroup
300

 70
     1
 71
     1
  0
GROUP
  5
FEF3
102
{ACAD_REACTORS
330
D
102
}
330
D
100
AcDbGroup
300

 70
     1
 71
     1
  0
GROUP
  5
19CE0
102
{ACAD_REACTORS
330
D
102
}
330
D
100
AcDbGroup
300

 70
     1
 71
     1
  0
GROUP
  5
DC1E
102
{ACAD_REACTORS
330
D
102
}
330
D
100
AcDbGroup
300

 70
     1
 71
     1
  0
GROUP
  5
74B5
102
{ACAD_REACTORS
330
D
102
}
330
D
100
AcDbGroup
300

 70
     1
 71
     1
  0
GROUP
  5
10CE0
102
{ACAD_REACTORS
330
D
102
}
330
D
100
AcDbGroup
300

 70
     1
 71
     1
  0
GROUP
  5
172E5
102
{ACAD_REACTORS
330
D
102
}
330
D
100
AcDbGroup
300

 70
     1
 71
     1
  0
GROUP
  5
196B2
102
{ACAD_REACTORS
330
D
102
}
330
D
100
AcDbGroup
300

 70
     1
 71
     1
  0
GROUP
  5
DC40
102
{ACAD_REACTORS
330
D
102
}
330
D
100
AcDbGroup
300

 70
     1
 71
     1
  0
GROUP
  5
1729D
102
{ACAD_REACTORS
330
D
102
}
330
D
100
AcDbGroup
300

 70
     1
 71
     1
  0
GROUP
  5
DC1F
102
{ACAD_REACTORS
330
D
102
}
330
D
100
AcDbGroup
300

 70
     1
 71
     1
  0
GROUP
  5
1FD4
102
{ACAD_REACTORS
330
D
102
}
330
D
100
AcDbGroup
300

 70
     1
 71
     1
  0
GROUP
  5
1355E
102
{ACAD_REACTORS
330
D
102
}
330
D
100
AcDbGroup
300

 70
     1
 71
     1
  0
GROUP
  5
144E8
102
{ACAD_REACTORS
330
D
102
}
330
D
100
AcDbGroup
300

 70
     1
 71
     1
  0
GROUP
  5
1965E
102
{ACAD_REACTORS
330
D
102
}
330
D
100
AcDbGroup
300

 70
     1
 71
     1
  0
GROUP
  5
14B49
102
{ACAD_REACTORS
330
D
102
}
330
D
100
AcDbGroup
300

 70
     1
 71
     1
  0
GROUP
  5
B2EF
102
{ACAD_REACTORS
330
D
102
}
330
D
100
AcDbGroup
300

 70
     1
 71
     1
  0
GROUP
  5
172AD
102
{ACAD_REACTORS
330
D
102
}
330
D
100
AcDbGroup
300

 70
     1
 71
     1
  0
GROUP
  5
1969C
102
{ACAD_REACTORS
330
D
102
}
330
D
100
AcDbGroup
300

 70
     1
 71
     1
  0
GROUP
  5
196AA
102
{ACAD_REACTORS
330
D
102
}
330
D
100
AcDbGroup
300

 70
     1
 71
     1
  0
GROUP
  5
B10C
102
{ACAD_REACTORS
330
D
102
}
330
D
100
AcDbGroup
300

 70
     1
 71
     1
  0
GROUP
  5
DC37
102
{ACAD_REACTORS
330
D
102
}
330
D
100
AcDbGroup
300

 70
     1
 71
     1
  0
GROUP
  5
B431
102
{ACAD_REACTORS
330
D
102
}
330
D
100
AcDbGroup
300

 70
     1
 71
     1
  0
GROUP
  5
1489E
102
{ACAD_REACTORS
330
D
102
}
330
D
100
AcDbGroup
300

 70
     1
 71
     1
  0
GROUP
  5
1727D
102
{ACAD_REACTORS
330
D
102
}
330
D
100
AcDbGroup
300

 70
     1
 71
     1
  0
GROUP
  5
196C0
102
{ACAD_REACTORS
330
D
102
}
330
D
100
AcDbGroup
300

 70
     1
 71
     1
  0
GROUP
  5
172A4
102
{ACAD_REACTORS
330
D
102
}
330
D
100
AcDbGroup
300

 70
     1
 71
     1
  0
GROUP
  5
695D
102
{ACAD_REACTORS
330
D
102
}
330
D
100
AcDbGroup
300

 70
     1
 71
     1
  0
GROUP
  5
DC25
102
{ACAD_REACTORS
330
D
102
}
330
D
100
AcDbGroup
300

 70
     1
 71
     1
  0
GROUP
  5
1728B
102
{ACAD_REACTORS
330
D
102
}
330
D
100
AcDbGroup
300

 70
     1
 71
     1
  0
GROUP
  5
172CF
102
{ACAD_REACTORS
330
D
102
}
330
D
100
AcDbGroup
300

 70
     1
 71
     1
  0
GROUP
  5
74F7
102
{ACAD_REACTORS
330
D
102
}
330
D
100
AcDbGroup
300

 70
     1
 71
     1
  0
GROUP
  5
B2E6
102
{ACAD_REACTORS
330
D
102
}
330
D
100
AcDbGroup
300

 70
     1
 71
     1
  0
GROUP
  5
172A8
102
{ACAD_REACTORS
330
D
102
}
330
D
100
AcDbGroup
300

 70
     1
 71
     1
  0
GROUP
  5
B2AD
102
{ACAD_REACTORS
330
D
102
}
330
D
100
AcDbGroup
300

 70
     1
 71
     1
  0
GROUP
  5
14906
102
{ACAD_REACTORS
330
D
102
}
330
D
100
AcDbGroup
300

 70
     1
 71
     1
  0
GROUP
  5
172C1
102
{ACAD_REACTORS
330
D
102
}
330
D
100
AcDbGroup
300

 70
     1
 71
     1
  0
GROUP
  5
6534
102
{ACAD_REACTORS
330
D
102
}
330
D
100
AcDbGroup
300

 70
     1
 71
     1
  0
GROUP
  5
11D3D
102
{ACAD_REACTORS
330
D
102
}
330
D
100
AcDbGroup
300

 70
     1
 71
     1
  0
GROUP
  5
A1A0
102
{ACAD_REACTORS
330
D
102
}
330
D
100
AcDbGroup
300

 70
     1
 71
     1
  0
GROUP
  5
1AC5C
102
{ACAD_REACTORS
330
D
102
}
330
D
100
AcDbGroup
300

 70
     1
 71
     1
  0
GROUP
  5
172B2
102
{ACAD_REACTORS
330
D
102
}
330
D
100
AcDbGroup
300

 70
     1
 71
     1
  0
GROUP
  5
9A76
102
{ACAD_REACTORS
330
D
102
}
330
D
100
AcDbGroup
300

 70
     1
 71
     1
  0
GROUP
  5
5B95
102
{ACAD_REACTORS
330
D
102
}
330
D
100
AcDbGroup
300

 70
     1
 71
     1
  0
GROUP
  5
15377
102
{ACAD_REACTORS
330
D
102
}
330
D
100
AcDbGroup
300

 70
     1
 71
     1
  0
GROUP
  5
196C1
102
{ACAD_REACTORS
330
D
102
}
330
D
100
AcDbGroup
300

 70
     1
 71
     1
  0
GROUP
  5
1965A
102
{ACAD_REACTORS
330
D
102
}
330
D
100
AcDbGroup
300

 70
     1
 71
     1
  0
GROUP
  5
219F
102
{ACAD_REACTORS
330
D
102
}
330
D
100
AcDbGroup
300

 70
     1
 71
     1
  0
GROUP
  5
19681
102
{ACAD_REACTORS
330
D
102
}
330
D
100
AcDbGroup
300

 70
     1
 71
     1
  0
GROUP
  5
5BA0
102
{ACAD_REACTORS
330
D
102
}
330
D
100
AcDbGroup
300

 70
     1
 71
     1
  0
GROUP
  5
1A557
102
{ACAD_REACTORS
330
D
102
}
330
D
100
AcDbGroup
300

 70
     1
 71
     1
  0
GROUP
  5
9CDF
102
{ACAD_REACTORS
330
D
102
}
330
D
100
AcDbGroup
300

 70
     1
 71
     1
  0
GROUP
  5
151B9
102
{ACAD_REACTORS
330
D
102
}
330
D
100
AcDbGroup
300

 70
     1
 71
     1
  0
GROUP
  5
ECB
102
{ACAD_REACTORS
330
D
102
}
330
D
100
AcDbGroup
300

 70
     1
 71
     1
  0
GROUP
  5
2BCC
102
{ACAD_REACTORS
330
D
102
}
330
D
100
AcDbGroup
300

 70
     1
 71
     1
  0
GROUP
  5
17906
102
{ACAD_REACTORS
330
D
102
}
330
D
100
AcDbGroup
300

 70
     1
 71
     1
  0
GROUP
  5
196B6
102
{ACAD_REACTORS
330
D
102
}
330
D
100
AcDbGroup
300

 70
     1
 71
     1
  0
GROUP
  5
60BA
102
{ACAD_REACTORS
330
D
102
}
330
D
100
AcDbGroup
300

 70
     1
 71
     1
  0
GROUP
  5
12623
102
{ACAD_REACTORS
330
D
102
}
330
D
100
AcDbGroup
300

 70
     1
 71
     1
  0
GROUP
  5
172A1
102
{ACAD_REACTORS
330
D
102
}
330
D
100
AcDbGroup
300

 70
     1
 71
     1
  0
GROUP
  5
10128
102
{ACAD_REACTORS
330
D
102
}
330
D
100
AcDbGroup
300

 70
     1
 71
     1
  0
GROUP
  5
74BC
102
{ACAD_REACTORS
330
D
102
}
330
D
100
AcDbGroup
300

 70
     1
 71
     1
  0
GROUP
  5
1965B
102
{ACAD_REACTORS
330
D
102
}
330
D
100
AcDbGroup
300

 70
     1
 71
     1
  0
GROUP
  5
196B7
102
{ACAD_REACTORS
330
D
102
}
330
D
100
AcDbGroup
300

 70
     1
 71
     1
  0
GROUP
  5
19687
102
{ACAD_REACTORS
330
D
102
}
330
D
100
AcDbGroup
300

 70
     1
 71
     1
  0
GROUP
  5
B2AB
102
{ACAD_REACTORS
330
D
102
}
330
D
100
AcDbGroup
300

 70
     1
 71
     1
  0
GROUP
  5
9900
102
{ACAD_REACTORS
330
D
102
}
330
D
100
AcDbGroup
300

 70
     1
 71
     1
  0
GROUP
  5
A131
102
{ACAD_REACTORS
330
D
102
}
330
D
100
AcDbGroup
300

 70
     1
 71
     1
  0
GROUP
  5
6FD9
102
{ACAD_REACTORS
330
D
102
}
330
D
100
AcDbGroup
300

 70
     1
 71
     1
  0
GROUP
  5
196B3
102
{ACAD_REACTORS
330
D
102
}
330
D
100
AcDbGroup
300

 70
     1
 71
     1
  0
GROUP
  5
7363
102
{ACAD_REACTORS
330
D
102
}
330
D
100
AcDbGroup
300

 70
     1
 71
     1
  0
GROUP
  5
102C0
102
{ACAD_REACTORS
330
D
102
}
330
D
100
AcDbGroup
300

 70
     1
 71
     1
  0
GROUP
  5
19663
102
{ACAD_REACTORS
330
D
102
}
330
D
100
AcDbGroup
300

 70
     1
 71
     1
  0
GROUP
  5
1966D
102
{ACAD_REACTORS
330
D
102
}
330
D
100
AcDbGroup
300

 70
     1
 71
     1
  0
GROUP
  5
60BD
102
{ACAD_REACTORS
330
D
102
}
330
D
100
AcDbGroup
300

 70
     1
 71
     1
  0
GROUP
  5
ECA
102
{ACAD_REACTORS
330
D
102
}
330
D
100
AcDbGroup
300

 70
     1
 71
     1
  0
GROUP
  5
172D0
102
{ACAD_REACTORS
330
D
102
}
330
D
100
AcDbGroup
300

 70
     1
 71
     1
  0
GROUP
  5
DC4D
102
{ACAD_REACTORS
330
D
102
}
330
D
100
AcDbGroup
300

 70
     1
 71
     1
  0
GROUP
  5
1797F
102
{ACAD_REACTORS
330
D
102
}
330
D
100
AcDbGroup
300

 70
     1
 71
     1
  0
GROUP
  5
13C7E
102
{ACAD_REACTORS
330
D
102
}
330
D
100
AcDbGroup
300

 70
     1
 71
     1
  0
GROUP
  5
9ADF
102
{ACAD_REACTORS
330
D
102
}
330
D
100
AcDbGroup
300

 70
     1
 71
     1
  0
GROUP
  5
1A558
102
{ACAD_REACTORS
330
D
102
}
330
D
100
AcDbGroup
300

 70
     1
 71
     1
  0
GROUP
  5
5D35
102
{ACAD_REACTORS
330
D
102
}
330
D
100
AcDbGroup
300

 70
     1
 71
     1
  0
GROUP
  5
9AC9
102
{ACAD_REACTORS
330
D
102
}
330
D
100
AcDbGroup
300

 70
     1
 71
     1
  0
GROUP
  5
133B4
102
{ACAD_REACTORS
330
D
102
}
330
D
100
AcDbGroup
300

 70
     1
 71
     1
  0
GROUP
  5
14C3F
102
{ACAD_REACTORS
330
D
102
}
330
D
100
AcDbGroup
300

 70
     1
 71
     1
  0
GROUP
  5
10F73
102
{ACAD_REACTORS
330
D
102
}
330
D
100
AcDbGroup
300

 70
     1
 71
     1
  0
GROUP
  5
172BF
102
{ACAD_REACTORS
330
D
102
}
330
D
100
AcDbGroup
300

 70
     1
 71
     1
  0
GROUP
  5
65DE
102
{ACAD_REACTORS
330
D
102
}
330
D
100
AcDbGroup
300

 70
     1
 71
     1
  0
GROUP
  5
17281
102
{ACAD_REACTORS
330
D
102
}
330
D
100
AcDbGroup
300

 70
     1
 71
     1
  0
GROUP
  5
13C6B
102
{ACAD_REACTORS
330
D
102
}
330
D
100
AcDbGroup
300

 70
     1
 71
     1
  0
GROUP
  5
14B46
102
{ACAD_REACTORS
330
D
102
}
330
D
100
AcDbGroup
300

 70
     1
 71
     1
  0
GROUP
  5
19676
102
{ACAD_REACTORS
330
D
102
}
330
D
100
AcDbGroup
300

 70
     1
 71
     1
  0
GROUP
  5
DC4C
102
{ACAD_REACTORS
330
D
102
}
330
D
100
AcDbGroup
300

 70
     1
 71
     1
  0
GROUP
  5
531A
102
{ACAD_REACTORS
330
D
102
}
330
D
100
AcDbGroup
300

 70
     1
 71
     1
  0
GROUP
  5
14C3D
102
{ACAD_REACTORS
330
D
102
}
330
D
100
AcDbGroup
300

 70
     1
 71
     1
  0
GROUP
  5
196BA
102
{ACAD_REACTORS
330
D
102
}
330
D
100
AcDbGroup
300

 70
     1
 71
     1
  0
GROUP
  5
74BB
102
{ACAD_REACTORS
330
D
102
}
330
D
100
AcDbGroup
300

 70
     1
 71
     1
  0
GROUP
  5
6173
102
{ACAD_REACTORS
330
D
102
}
330
D
100
AcDbGroup
300

 70
     1
 71
     1
  0
GROUP
  5
DC39
102
{ACAD_REACTORS
330
D
102
}
330
D
100
AcDbGroup
300

 70
     1
 71
     1
  0
GROUP
  5
99FF
102
{ACAD_REACTORS
330
D
102
}
330
D
100
AcDbGroup
300

 70
     1
 71
     1
  0
GROUP
  5
172A2
102
{ACAD_REACTORS
330
D
102
}
330
D
100
AcDbGroup
300

 70
     1
 71
     1
  0
GROUP
  5
19CF0
102
{ACAD_REACTORS
330
D
102
}
330
D
100
AcDbGroup
300

 70
     1
 71
     1
  0
GROUP
  5
172C5
102
{ACAD_REACTORS
330
D
102
}
330
D
100
AcDbGroup
300

 70
     1
 71
     1
  0
GROUP
  5
74B3
102
{ACAD_REACTORS
330
D
102
}
330
D
100
AcDbGroup
300

 70
     1
 71
     1
  0
GROUP
  5
12621
102
{ACAD_REACTORS
330
D
102
}
330
D
100
AcDbGroup
300

 70
     1
 71
     1
  0
GROUP
  5
1564C
102
{ACAD_REACTORS
330
D
102
}
330
D
100
AcDbGroup
300

 70
     1
 71
     1
  0
GROUP
  5
11D78
102
{ACAD_REACTORS
330
D
102
}
330
D
100
AcDbGroup
300

 70
     1
 71
     1
  0
GROUP
  5
172C9
102
{ACAD_REACTORS
330
D
102
}
330
D
100
AcDbGroup
300

 70
     1
 71
     1
  0
GROUP
  5
97CF
102
{ACAD_REACTORS
330
D
102
}
330
D
100
AcDbGroup
300

 70
     1
 71
     1
  0
GROUP
  5
5A3F
102
{ACAD_REACTORS
330
D
102
}
330
D
100
AcDbGroup
300

 70
     1
 71
     1
  0
GROUP
  5
172DF
102
{ACAD_REACTORS
330
D
102
}
330
D
100
AcDbGroup
300

 70
     1
 71
     1
  0
GROUP
  5
9903
102
{ACAD_REACTORS
330
D
102
}
330
D
100
AcDbGroup
300

 70
     1
 71
     1
  0
GROUP
  5
2C4E
102
{ACAD_REACTORS
330
D
102
}
330
D
100
AcDbGroup
300

 70
     1
 71
     1
  0
GROUP
  5
9AE0
102
{ACAD_REACTORS
330
D
102
}
330
D
100
AcDbGroup
300

 70
     1
 71
     1
  0
GROUP
  5
172D1
102
{ACAD_REACTORS
330
D
102
}
330
D
100
AcDbGroup
300

 70
     1
 71
     1
  0
GROUP
  5
A188
102
{ACAD_REACTORS
330
D
102
}
330
D
100
AcDbGroup
300

 70
     1
 71
     1
  0
GROUP
  5
10F72
102
{ACAD_REACTORS
330
D
102
}
330
D
100
AcDbGroup
300

 70
     1
 71
     1
  0
GROUP
  5
DC22
102
{ACAD_REACTORS
330
D
102
}
330
D
100
AcDbGroup
300

 70
     1
 71
     1
  0
GROUP
  5
19FF7
102
{ACAD_REACTORS
330
D
102
}
330
D
100
AcDbGroup
300

 70
     1
 71
     1
  0
GROUP
  5
19672
102
{ACAD_REACTORS
330
D
102
}
330
D
100
AcDbGroup
300

 70
     1
 71
     1
  0
GROUP
  5
11AA2
102
{ACAD_REACTORS
330
D
102
}
330
D
100
AcDbGroup
300

 70
     1
 71
     1
  0
GROUP
  5
19695
102
{ACAD_REACTORS
330
D
102
}
330
D
100
AcDbGroup
300

 70
     1
 71
     1
  0
GROUP
  5
148ED
102
{ACAD_REACTORS
330
D
102
}
330
D
100
AcDbGroup
300

 70
     1
 71
     1
  0
GROUP
  5
1A844
102
{ACAD_REACTORS
330
D
102
}
330
D
100
AcDbGroup
300

 70
     1
 71
     1
  0
GROUP
  5
1257B
102
{ACAD_REACTORS
330
D
102
}
330
D
100
AcDbGroup
300

 70
     1
 71
     1
  0
GROUP
  5
721D
102
{ACAD_REACTORS
330
D
102
}
330
D
100
AcDbGroup
300

 70
     1
 71
     1
  0
GROUP
  5
151B7
102
{ACAD_REACTORS
330
D
102
}
330
D
100
AcDbGroup
300

 70
     1
 71
     1
  0
GROUP
  5
144F2
102
{ACAD_REACTORS
330
D
102
}
330
D
100
AcDbGroup
300

 70
     1
 71
     1
  0
GROUP
  5
196C5
102
{ACAD_REACTORS
330
D
102
}
330
D
100
AcDbGroup
300

 70
     1
 71
     1
  0
GROUP
  5
7621
102
{ACAD_REACTORS
330
D
102
}
330
D
100
AcDbGroup
300

 70
     1
 71
     1
  0
GROUP
  5
1564A
102
{ACAD_REACTORS
330
D
102
}
330
D
100
AcDbGroup
300

 70
     1
 71
     1
  0
GROUP
  5
DC47
102
{ACAD_REACTORS
330
D
102
}
330
D
100
AcDbGroup
300

 70
     1
 71
     1
  0
GROUP
  5
65DF
102
{ACAD_REACTORS
330
D
102
}
330
D
100
AcDbGroup
300

 70
     1
 71
     1
  0
GROUP
  5
113FE
102
{ACAD_REACTORS
330
D
102
}
330
D
100
AcDbGroup
300

 70
     1
 71
     1
  0
GROUP
  5
196C6
102
{ACAD_REACTORS
330
D
102
}
330
D
100
AcDbGroup
300

 70
     1
 71
     1
  0
GROUP
  5
1969A
102
{ACAD_REACTORS
330
D
102
}
330
D
100
AcDbGroup
300

 70
     1
 71
     1
  0
GROUP
  5
71C7
102
{ACAD_REACTORS
330
D
102
}
330
D
100
AcDbGroup
300

 70
     1
 71
     1
  0
GROUP
  5
11A5D
102
{ACAD_REACTORS
330
D
102
}
330
D
100
AcDbGroup
300

 70
     1
 71
     1
  0
GROUP
  5
5D34
102
{ACAD_REACTORS
330
D
102
}
330
D
100
AcDbGroup
300

 70
     1
 71
     1
  0
GROUP
  5
10FFE
102
{ACAD_REACTORS
330
D
102
}
330
D
100
AcDbGroup
300

 70
     1
 71
     1
  0
GROUP
  5
196C2
102
{ACAD_REACTORS
330
D
102
}
330
D
100
AcDbGroup
300

 70
     1
 71
     1
  0
GROUP
  5
DC27
102
{ACAD_REACTORS
330
D
102
}
330
D
100
AcDbGroup
300

 70
     1
 71
     1
  0
GROUP
  5
74B4
102
{ACAD_REACTORS
330
D
102
}
330
D
100
AcDbGroup
300

 70
     1
 71
     1
  0
GROUP
  5
1967B
102
{ACAD_REACTORS
330
D
102
}
330
D
100
AcDbGroup
300

 70
     1
 71
     1
  0
GROUP
  5
133B5
102
{ACAD_REACTORS
330
D
102
}
330
D
100
AcDbGroup
300

 70
     1
 71
     1
  0
GROUP
  5
9A01
102
{ACAD_REACTORS
330
D
102
}
330
D
100
AcDbGroup
300

 70
     1
 71
     1
  0
GROUP
  5
584F
102
{ACAD_REACTORS
330
D
102
}
330
D
100
AcDbGroup
300

 70
     1
 71
     1
  0
GROUP
  5
1564E
102
{ACAD_REACTORS
330
D
102
}
330
D
100
AcDbGroup
300

 70
     1
 71
     1
  0
GROUP
  5
144F7
102
{ACAD_REACTORS
330
D
102
}
330
D
100
AcDbGroup
300

 70
     1
 71
     1
  0
GROUP
  5
A190
102
{ACAD_REACTORS
330
D
102
}
330
D
100
AcDbGroup
300

 70
     1
 71
     1
  0
GROUP
  5
7318
102
{ACAD_REACTORS
330
D
102
}
330
D
100
AcDbGroup
300

 70
     1
 71
     1
  0
GROUP
  5
1A845
102
{ACAD_REACTORS
330
D
102
}
330
D
100
AcDbGroup
300

 70
     1
 71
     1
  0
GROUP
  5
1489C
102
{ACAD_REACTORS
330
D
102
}
330
D
100
AcDbGroup
300

 70
     1
 71
     1
  0
GROUP
  5
B3DF
102
{ACAD_REACTORS
330
D
102
}
330
D
100
AcDbGroup
300

 70
     1
 71
     1
  0
GROUP
  5
1A86
102
{ACAD_REACTORS
330
D
102
}
330
D
100
AcDbGroup
300

 70
     1
 71
     1
  0
GROUP
  5
A1B9
102
{ACAD_REACTORS
330
D
102
}
330
D
100
AcDbGroup
300

 70
     1
 71
     1
  0
GROUP
  5
172DD
102
{ACAD_REACTORS
330
D
102
}
330
D
100
AcDbGroup
300

 70
     1
 71
     1
  0
GROUP
  5
1BA61
102
{ACAD_REACTORS
330
D
102
}
330
D
100
AcDbGroup
300

 70
     1
 71
     1
  0
GROUP
  5
172A5
102
{ACAD_REACTORS
330
D
102
}
330
D
100
AcDbGroup
300

 70
     1
 71
     1
  0
GROUP
  5
1BBF9
102
{ACAD_REACTORS
330
D
102
}
330
D
100
AcDbGroup
300

 70
     1
 71
     1
  0
GROUP
  5
A19C
102
{ACAD_REACTORS
330
D
102
}
330
D
100
AcDbGroup
300

 70
     1
 71
     1
  0
GROUP
  5
1968C
102
{ACAD_REACTORS
330
D
102
}
330
D
100
AcDbGroup
300

 70
     1
 71
     1
  0
GROUP
  5
9D11
102
{ACAD_REACTORS
330
D
102
}
330
D
100
AcDbGroup
300

 70
     1
 71
     1
  0
GROUP
  5
151B4
102
{ACAD_REACTORS
330
D
102
}
330
D
100
AcDbGroup
300

 70
     1
 71
     1
  0
GROUP
  5
19CDC
102
{ACAD_REACTORS
330
D
102
}
330
D
100
AcDbGroup
300

 70
     1
 71
     1
  0
GROUP
  5
9CE0
102
{ACAD_REACTORS
330
D
102
}
330
D
100
AcDbGroup
300

 70
     1
 71
     1
  0
GROUP
  5
10F22
102
{ACAD_REACTORS
330
D
102
}
330
D
100
AcDbGroup
300

 70
     1
 71
     1
  0
GROUP
  5
13803
102
{ACAD_REACTORS
330
D
102
}
330
D
100
AcDbGroup
300

 70
     1
 71
     1
  0
GROUP
  5
67B6
102
{ACAD_REACTORS
330
D
102
}
330
D
100
AcDbGroup
300

 70
     1
 71
     1
  0
GROUP
  5
172C3
102
{ACAD_REACTORS
330
D
102
}
330
D
100
AcDbGroup
300

 70
     1
 71
     1
  0
GROUP
  5
1A83A
102
{ACAD_REACTORS
330
D
102
}
330
D
100
AcDbGroup
300

 70
     1
 71
     1
  0
GROUP
  5
172E2
102
{ACAD_REACTORS
330
D
102
}
330
D
100
AcDbGroup
300

 70
     1
 71
     1
  0
GROUP
  5
1395E
102
{ACAD_REACTORS
330
D
102
}
330
D
100
AcDbGroup
300

 70
     1
 71
     1
  0
GROUP
  5
17908
102
{ACAD_REACTORS
330
D
102
}
330
D
100
AcDbGroup
300

 70
     1
 71
     1
  0
GROUP
  5
1BBFA
102
{ACAD_REACTORS
330
D
102
}
330
D
100
AcDbGroup
300

 70
     1
 71
     1
  0
GROUP
  5
17378
102
{ACAD_REACTORS
330
D
102
}
330
D
100
AcDbGroup
300

 70
     1
 71
     1
  0
GROUP
  5
1BBFB
102
{ACAD_REACTORS
330
D
102
}
330
D
100
AcDbGroup
300

 70
     1
 71
     1
  0
GROUP
  5
1145D
102
{ACAD_REACTORS
330
D
102
}
330
D
100
AcDbGroup
300

 70
     1
 71
     1
  0
GROUP
  5
639A
102
{ACAD_REACTORS
330
D
102
}
330
D
100
AcDbGroup
300

 70
     1
 71
     1
  0
GROUP
  5
5869
102
{ACAD_REACTORS
330
D
102
}
330
D
100
AcDbGroup
300

 70
     1
 71
     1
  0
GROUP
  5
1BBFC
102
{ACAD_REACTORS
330
D
102
}
330
D
100
AcDbGroup
300

 70
     1
 71
     1
  0
GROUP
  5
6786
102
{ACAD_REACTORS
330
D
102
}
330
D
100
AcDbGroup
300

 70
     1
 71
     1
  0
GROUP
  5
7362
102
{ACAD_REACTORS
330
D
102
}
330
D
100
AcDbGroup
300

 70
     1
 71
     1
  0
GROUP
  5
149B3
102
{ACAD_REACTORS
330
D
102
}
330
D
100
AcDbGroup
300

 70
     1
 71
     1
  0
GROUP
  5
5D36
102
{ACAD_REACTORS
330
D
102
}
330
D
100
AcDbGroup
300

 70
     1
 71
     1
  0
GROUP
  5
1A83B
102
{ACAD_REACTORS
330
D
102
}
330
D
100
AcDbGroup
300

 70
     1
 71
     1
  0
GROUP
  5
19688
102
{ACAD_REACTORS
330
D
102
}
330
D
100
AcDbGroup
300

 70
     1
 71
     1
  0
GROUP
  5
9D07
102
{ACAD_REACTORS
330
D
102
}
330
D
100
AcDbGroup
300

 70
     1
 71
     1
  0
GROUP
  5
196A7
102
{ACAD_REACTORS
330
D
102
}
330
D
100
AcDbGroup
300

 70
     1
 71
     1
  0
GROUP
  5
DC26
102
{ACAD_REACTORS
330
D
102
}
330
D
100
AcDbGroup
300

 70
     1
 71
     1
  0
GROUP
  5
1AB04
102
{ACAD_REACTORS
330
D
102
}
330
D
100
AcDbGroup
300

 70
     1
 71
     1
  0
GROUP
  5
13A59
102
{ACAD_REACTORS
330
D
102
}
330
D
100
AcDbGroup
300

 70
     1
 71
     1
  0
GROUP
  5
73DE
102
{ACAD_REACTORS
330
D
102
}
330
D
100
AcDbGroup
300

 70
     1
 71
     1
  0
GROUP
  5
1257A
102
{ACAD_REACTORS
330
D
102
}
330
D
100
AcDbGroup
300

 70
     1
 71
     1
  0
GROUP
  5
1A1AF
102
{ACAD_REACTORS
330
D
102
}
330
D
100
AcDbGroup
300

 70
     1
 71
     1
  0
GROUP
  5
7325
102
{ACAD_REACTORS
330
D
102
}
330
D
100
AcDbGroup
300

 70
     1
 71
     1
  0
GROUP
  5
17299
102
{ACAD_REACTORS
330
D
102
}
330
D
100
AcDbGroup
300

 70
     1
 71
     1
  0
GROUP
  5
144EC
102
{ACAD_REACTORS
330
D
102
}
330
D
100
AcDbGroup
300

 70
     1
 71
     1
  0
GROUP
  5
13959
102
{ACAD_REACTORS
330
D
102
}
330
D
100
AcDbGroup
300

 70
     1
 71
     1
  0
GROUP
  5
12B3B
102
{ACAD_REACTORS
330
D
102
}
330
D
100
AcDbGroup
300

 70
     1
 71
     1
  0
GROUP
  5
1A1B0
102
{ACAD_REACTORS
330
D
102
}
330
D
100
AcDbGroup
300

 70
     1
 71
     1
  0
GROUP
  5
196AC
102
{ACAD_REACTORS
330
D
102
}
330
D
100
AcDbGroup
300

 70
     1
 71
     1
  0
GROUP
  5
6926
102
{ACAD_REACTORS
330
D
102
}
330
D
100
AcDbGroup
300

 70
     1
 71
     1
  0
GROUP
  5
9CE3
102
{ACAD_REACTORS
330
D
102
}
330
D
100
AcDbGroup
300

 70
     1
 71
     1
  0
GROUP
  5
1A1AC
102
{ACAD_REACTORS
330
D
102
}
330
D
100
AcDbGroup
300

 70
     1
 71
     1
  0
GROUP
  5
9975
102
{ACAD_REACTORS
330
D
102
}
330
D
100
AcDbGroup
300

 70
     1
 71
     1
  0
GROUP
  5
10126
102
{ACAD_REACTORS
330
D
102
}
330
D
100
AcDbGroup
300

 70
     1
 71
     1
  0
GROUP
  5
DC3B
102
{ACAD_REACTORS
330
D
102
}
330
D
100
AcDbGroup
300

 70
     1
 71
     1
  0
GROUP
  5
13C46
102
{ACAD_REACTORS
330
D
102
}
330
D
100
AcDbGroup
300

 70
     1
 71
     1
  0
GROUP
  5
1BBFD
102
{ACAD_REACTORS
330
D
102
}
330
D
100
AcDbGroup
300

 70
     1
 71
     1
  0
GROUP
  5
17909
102
{ACAD_REACTORS
330
D
102
}
330
D
100
AcDbGroup
300

 70
     1
 71
     1
  0
GROUP
  5
1729C
102
{ACAD_REACTORS
330
D
102
}
330
D
100
AcDbGroup
300

 70
     1
 71
     1
  0
GROUP
  5
1966B
102
{ACAD_REACTORS
330
D
102
}
330
D
100
AcDbGroup
300

 70
     1
 71
     1
  0
GROUP
  5
6174
102
{ACAD_REACTORS
330
D
102
}
330
D
100
AcDbGroup
300

 70
     1
 71
     1
  0
GROUP
  5
1AB71
102
{ACAD_REACTORS
330
D
102
}
330
D
100
AcDbGroup
300

 70
     1
 71
     1
  0
GROUP
  5
6212
102
{ACAD_REACTORS
330
D
102
}
330
D
100
AcDbGroup
300

 70
     1
 71
     1
  0
GROUP
  5
A1B7
102
{ACAD_REACTORS
330
D
102
}
330
D
100
AcDbGroup
300

 70
     1
 71
     1
  0
GROUP
  5
B309
102
{ACAD_REACTORS
330
D
102
}
330
D
100
AcDbGroup
300

 70
     1
 71
     1
  0
GROUP
  5
13984
102
{ACAD_REACTORS
330
D
102
}
330
D
100
AcDbGroup
300

 70
     1
 71
     1
  0
GROUP
  5
DC29
102
{ACAD_REACTORS
330
D
102
}
330
D
100
AcDbGroup
300

 70
     1
 71
     1
  0
GROUP
  5
1BD92
102
{ACAD_REACTORS
330
D
102
}
330
D
100
AcDbGroup
300

 70
     1
 71
     1
  0
GROUP
  5
172C6
102
{ACAD_REACTORS
330
D
102
}
330
D
100
AcDbGroup
300

 70
     1
 71
     1
  0
GROUP
  5
1BD93
102
{ACAD_REACTORS
330
D
102
}
330
D
100
AcDbGroup
300

 70
     1
 71
     1
  0
GROUP
  5
7BC8
102
{ACAD_REACTORS
330
D
102
}
330
D
100
AcDbGroup
300

 70
     1
 71
     1
  0
GROUP
  5
A77C
102
{ACAD_REACTORS
330
D
102
}
330
D
100
AcDbGroup
300

 70
     1
 71
     1
  0
GROUP
  5
12579
102
{ACAD_REACTORS
330
D
102
}
330
D
100
AcDbGroup
300

 70
     1
 71
     1
  0
GROUP
  5
1A554
102
{ACAD_REACTORS
330
D
102
}
330
D
100
AcDbGroup
300

 70
     1
 71
     1
  0
GROUP
  5
13A5F
102
{ACAD_REACTORS
330
D
102
}
330
D
100
AcDbGroup
300

 70
     1
 71
     1
  0
GROUP
  5
97D0
102
{ACAD_REACTORS
330
D
102
}
330
D
100
AcDbGroup
300

 70
     1
 71
     1
  0
GROUP
  5
13C6E
102
{ACAD_REACTORS
330
D
102
}
330
D
100
AcDbGroup
300

 70
     1
 71
     1
  0
GROUP
  5
B2AE
102
{ACAD_REACTORS
330
D
102
}
330
D
100
AcDbGroup
300

 70
     1
 71
     1
  0
GROUP
  5
74BD
102
{ACAD_REACTORS
330
D
102
}
330
D
100
AcDbGroup
300

 70
     1
 71
     1
  0
GROUP
  5
1A846
102
{ACAD_REACTORS
330
D
102
}
330
D
100
AcDbGroup
300

 70
     1
 71
     1
  0
GROUP
  5
10123
102
{ACAD_REACTORS
330
D
102
}
330
D
100
AcDbGroup
300

 70
     1
 71
     1
  0
GROUP
  5
144F4
102
{ACAD_REACTORS
330
D
102
}
330
D
100
AcDbGroup
300

 70
     1
 71
     1
  0
GROUP
  5
1BD94
102
{ACAD_REACTORS
330
D
102
}
330
D
100
AcDbGroup
300

 70
     1
 71
     1
  0
GROUP
  5
97F2
102
{ACAD_REACTORS
330
D
102
}
330
D
100
AcDbGroup
300

 70
     1
 71
     1
  0
GROUP
  5
1BD95
102
{ACAD_REACTORS
330
D
102
}
330
D
100
AcDbGroup
300

 70
     1
 71
     1
  0
GROUP
  5
A198
102
{ACAD_REACTORS
330
D
102
}
330
D
100
AcDbGroup
300

 70
     1
 71
     1
  0
GROUP
  5
17A25
102
{ACAD_REACTORS
330
D
102
}
330
D
100
AcDbGroup
300

 70
     1
 71
     1
  0
GROUP
  5
DC3D
102
{ACAD_REACTORS
330
D
102
}
330
D
100
AcDbGroup
300

 70
     1
 71
     1
  0
GROUP
  5
1BD96
102
{ACAD_REACTORS
330
D
102
}
330
D
100
AcDbGroup
300

 70
     1
 71
     1
  0
GROUP
  5
2C50
102
{ACAD_REACTORS
330
D
102
}
330
D
100
AcDbGroup
300

 70
     1
 71
     1
  0
GROUP
  5
17950
102
{ACAD_REACTORS
330
D
102
}
330
D
100
AcDbGroup
300

 70
     1
 71
     1
  0
GROUP
  5
9D00
102
{ACAD_REACTORS
330
D
102
}
330
D
100
AcDbGroup
300

 70
     1
 71
     1
  0
GROUP
  5
1A847
102
{ACAD_REACTORS
330
D
102
}
330
D
100
AcDbGroup
300

 70
     1
 71
     1
  0
GROUP
  5
1969B
102
{ACAD_REACTORS
330
D
102
}
330
D
100
AcDbGroup
300

 70
     1
 71
     1
  0
GROUP
  5
1FB7
102
{ACAD_REACTORS
330
D
102
}
330
D
100
AcDbGroup
300

 70
     1
 71
     1
  0
GROUP
  5
14C3E
102
{ACAD_REACTORS
330
D
102
}
330
D
100
AcDbGroup
300

 70
     1
 71
     1
  0
GROUP
  5
A1BA
102
{ACAD_REACTORS
330
D
102
}
330
D
100
AcDbGroup
300

 70
     1
 71
     1
  0
GROUP
  5
1AC72
102
{ACAD_REACTORS
330
D
102
}
330
D
100
AcDbGroup
300

 70
     1
 71
     1
  0
GROUP
  5
9904
102
{ACAD_REACTORS
330
D
102
}
330
D
100
AcDbGroup
300

 70
     1
 71
     1
  0
GROUP
  5
1395B
102
{ACAD_REACTORS
330
D
102
}
330
D
100
AcDbGroup
300

 70
     1
 71
     1
  0
GROUP
  5
13996
102
{ACAD_REACTORS
330
D
102
}
330
D
100
AcDbGroup
300

 70
     1
 71
     1
  0
GROUP
  5
65C1
102
{ACAD_REACTORS
330
D
102
}
330
D
100
AcDbGroup
300

 70
     1
 71
     1
  0
GROUP
  5
172BB
102
{ACAD_REACTORS
330
D
102
}
330
D
100
AcDbGroup
300

 70
     1
 71
     1
  0
GROUP
  5
14B6F
102
{ACAD_REACTORS
330
D
102
}
330
D
100
AcDbGroup
300

 70
     1
 71
     1
  0
GROUP
  5
DC2C
102
{ACAD_REACTORS
330
D
102
}
330
D
100
AcDbGroup
300

 70
     1
 71
     1
  0
GROUP
  5
11443
102
{ACAD_REACTORS
330
D
102
}
330
D
100
AcDbGroup
300

 70
     1
 71
     1
  0
GROUP
  5
1A83F
102
{ACAD_REACTORS
330
D
102
}
330
D
100
AcDbGroup
300

 70
     1
 71
     1
  0
GROUP
  5
196BC
102
{ACAD_REACTORS
330
D
102
}
330
D
100
AcDbGroup
300

 70
     1
 71
     1
  0
GROUP
  5
7C7D
102
{ACAD_REACTORS
330
D
102
}
330
D
100
AcDbGroup
300

 70
     1
 71
     1
  0
GROUP
  5
60E3
102
{ACAD_REACTORS
330
D
102
}
330
D
100
AcDbGroup
300

 70
     1
 71
     1
  0
GROUP
  5
1A83C
102
{ACAD_REACTORS
330
D
102
}
330
D
100
AcDbGroup
300

 70
     1
 71
     1
  0
GROUP
  5
6670
102
{ACAD_REACTORS
330
D
102
}
330
D
100
AcDbGroup
300

 70
     1
 71
     1
  0
GROUP
  5
97F0
102
{ACAD_REACTORS
330
D
102
}
330
D
100
AcDbGroup
300

 70
     1
 71
     1
  0
GROUP
  5
DC30
102
{ACAD_REACTORS
330
D
102
}
330
D
100
AcDbGroup
300

 70
     1
 71
     1
  0
GROUP
  5
1BE5A
102
{ACAD_REACTORS
330
D
102
}
330
D
100
AcDbGroup
300

 70
     1
 71
     1
  0
GROUP
  5
83B7
102
{ACAD_REACTORS
330
D
102
}
330
D
100
AcDbGroup
300

 70
     1
 71
     1
  0
GROUP
  5
172BE
102
{ACAD_REACTORS
330
D
102
}
330
D
100
AcDbGroup
300

 70
     1
 71
     1
  0
GROUP
  5
19682
102
{ACAD_REACTORS
330
D
102
}
330
D
100
AcDbGroup
300

 70
     1
 71
     1
  0
GROUP
  5
149C2
102
{ACAD_REACTORS
330
D
102
}
330
D
100
AcDbGroup
300

 70
     1
 71
     1
  0
GROUP
  5
1AC88
102
{ACAD_REACTORS
330
D
102
}
330
D
100
AcDbGroup
300

 70
     1
 71
     1
  0
GROUP
  5
11E8C
102
{ACAD_REACTORS
330
D
102
}
330
D
100
AcDbGroup
300

 70
     1
 71
     1
  0
GROUP
  5
151B3
102
{ACAD_REACTORS
330
D
102
}
330
D
100
AcDbGroup
300

 70
     1
 71
     1
  0
GROUP
  5
6665
102
{ACAD_REACTORS
330
D
102
}
330
D
100
AcDbGroup
300

 70
     1
 71
     1
  0
GROUP
  5
17A23
102
{ACAD_REACTORS
330
D
102
}
330
D
100
AcDbGroup
300

 70
     1
 71
     1
  0
GROUP
  5
1BE5B
102
{ACAD_REACTORS
330
D
102
}
330
D
100
AcDbGroup
300

 70
     1
 71
     1
  0
GROUP
  5
172E3
102
{ACAD_REACTORS
330
D
102
}
330
D
100
AcDbGroup
300

 70
     1
 71
     1
  0
GROUP
  5
1BE5C
102
{ACAD_REACTORS
330
D
102
}
330
D
100
AcDbGroup
300

 70
     1
 71
     1
  0
GROUP
  5
B323
102
{ACAD_REACTORS
330
D
102
}
330
D
100
AcDbGroup
300

 70
     1
 71
     1
  0
GROUP
  5
DC38
102
{ACAD_REACTORS
330
D
102
}
330
D
100
AcDbGroup
300

 70
     1
 71
     1
  0
GROUP
  5
13987
102
{ACAD_REACTORS
330
D
102
}
330
D
100
AcDbGroup
300

 70
     1
 71
     1
  0
GROUP
  5
1A841
102
{ACAD_REACTORS
330
D
102
}
330
D
100
AcDbGroup
300

 70
     1
 71
     1
  0
GROUP
  5
A13B
102
{ACAD_REACTORS
330
D
102
}
330
D
100
AcDbGroup
300

 70
     1
 71
     1
  0
GROUP
  5
61E9
102
{ACAD_REACTORS
330
D
102
}
330
D
100
AcDbGroup
300

 70
     1
 71
     1
  0
GROUP
  5
151FB
102
{ACAD_REACTORS
330
D
102
}
330
D
100
AcDbGroup
300

 70
     1
 71
     1
  0
GROUP
  5
6C4A
102
{ACAD_REACTORS
330
D
102
}
330
D
100
AcDbGroup
300

 70
     1
 71
     1
  0
GROUP
  5
1AB72
102
{ACAD_REACTORS
330
D
102
}
330
D
100
AcDbGroup
300

 70
     1
 71
     1
  0
GROUP
  5
13C42
102
{ACAD_REACTORS
330
D
102
}
330
D
100
AcDbGroup
300

 70
     1
 71
     1
  0
GROUP
  5
19664
102
{ACAD_REACTORS
330
D
102
}
330
D
100
AcDbGroup
300

 70
     1
 71
     1
  0
GROUP
  5
7C72
102
{ACAD_REACTORS
330
D
102
}
330
D
100
AcDbGroup
300

 70
     1
 71
     1
  0
GROUP
  5
6675
102
{ACAD_REACTORS
330
D
102
}
330
D
100
AcDbGroup
300

 70
     1
 71
     1
  0
GROUP
  5
73A0
102
{ACAD_REACTORS
330
D
102
}
330
D
100
AcDbGroup
300

 70
     1
 71
     1
  0
GROUP
  5
1355A
102
{ACAD_REACTORS
330
D
102
}
330
D
100
AcDbGroup
300

 70
     1
 71
     1
  0
GROUP
  5
5850
102
{ACAD_REACTORS
330
D
102
}
330
D
100
AcDbGroup
300

 70
     1
 71
     1
  0
GROUP
  5
7BCC
102
{ACAD_REACTORS
330
D
102
}
330
D
100
AcDbGroup
300

 70
     1
 71
     1
  0
GROUP
  5
9A04
102
{ACAD_REACTORS
330
D
102
}
330
D
100
AcDbGroup
300

 70
     1
 71
     1
  0
GROUP
  5
144F5
102
{ACAD_REACTORS
330
D
102
}
330
D
100
AcDbGroup
300

 70
     1
 71
     1
  0
GROUP
  5
17296
102
{ACAD_REACTORS
330
D
102
}
330
D
100
AcDbGroup
300

 70
     1
 71
     1
  0
GROUP
  5
1AB88
102
{ACAD_REACTORS
330
D
102
}
330
D
100
AcDbGroup
300

 70
     1
 71
     1
  0
GROUP
  5
196AD
102
{ACAD_REACTORS
330
D
102
}
330
D
100
AcDbGroup
300

 70
     1
 71
     1
  0
GROUP
  5
60A2
102
{ACAD_REACTORS
330
D
102
}
330
D
100
AcDbGroup
300

 70
     1
 71
     1
  0
GROUP
  5
10F24
102
{ACAD_REACTORS
330
D
102
}
330
D
100
AcDbGroup
300

 70
     1
 71
     1
  0
GROUP
  5
17294
102
{ACAD_REACTORS
330
D
102
}
330
D
100
AcDbGroup
300

 70
     1
 71
     1
  0
GROUP
  5
DC1D
102
{ACAD_REACTORS
330
D
102
}
330
D
100
AcDbGroup
300

 70
     1
 71
     1
  0
GROUP
  5
6CCE
102
{ACAD_REACTORS
330
D
102
}
330
D
100
AcDbGroup
300

 70
     1
 71
     1
  0
GROUP
  5
1727B
102
{ACAD_REACTORS
330
D
102
}
330
D
100
AcDbGroup
300

 70
     1
 71
     1
  0
GROUP
  5
172D9
102
{ACAD_REACTORS
330
D
102
}
330
D
100
AcDbGroup
300

 70
     1
 71
     1
  0
GROUP
  5
82D8
102
{ACAD_REACTORS
330
D
102
}
330
D
100
AcDbGroup
300

 70
     1
 71
     1
  0
GROUP
  5
1564D
102
{ACAD_REACTORS
330
D
102
}
330
D
100
AcDbGroup
300

 70
     1
 71
     1
  0
GROUP
  5
331D
102
{ACAD_REACTORS
330
D
102
}
330
D
100
AcDbGroup
300

 70
     1
 71
     1
  0
GROUP
  5
1A84A
102
{ACAD_REACTORS
330
D
102
}
330
D
100
AcDbGroup
300

 70
     1
 71
     1
  0
GROUP
  5
19CDE
102
{ACAD_REACTORS
330
D
102
}
330
D
100
AcDbGroup
300

 70
     1
 71
     1
  0
GROUP
  5
13265
102
{ACAD_REACTORS
330
D
102
}
330
D
100
AcDbGroup
300

 70
     1
 71
     1
  0
GROUP
  5
1A848
102
{ACAD_REACTORS
330
D
102
}
330
D
100
AcDbGroup
300

 70
     1
 71
     1
  0
GROUP
  5
6C4C
102
{ACAD_REACTORS
330
D
102
}
330
D
100
AcDbGroup
300

 70
     1
 71
     1
  0
GROUP
  5
6FC4
102
{ACAD_REACTORS
330
D
102
}
330
D
100
AcDbGroup
300

 70
     1
 71
     1
  0
GROUP
  5
970B
102
{ACAD_REACTORS
330
D
102
}
330
D
100
AcDbGroup
300

 70
     1
 71
     1
  0
GROUP
  5
B322
102
{ACAD_REACTORS
330
D
102
}
330
D
100
AcDbGroup
300

 70
     1
 71
     1
  0
GROUP
  5
19665
102
{ACAD_REACTORS
330
D
102
}
330
D
100
AcDbGroup
300

 70
     1
 71
     1
  0
GROUP
  5
172DC
102
{ACAD_REACTORS
330
D
102
}
330
D
100
AcDbGroup
300

 70
     1
 71
     1
  0
GROUP
  5
19696
102
{ACAD_REACTORS
330
D
102
}
330
D
100
AcDbGroup
300

 70
     1
 71
     1
  0
GROUP
  5
A776
102
{ACAD_REACTORS
330
D
102
}
330
D
100
AcDbGroup
300

 70
     1
 71
     1
  0
GROUP
  5
83B4
102
{ACAD_REACTORS
330
D
102
}
330
D
100
AcDbGroup
300

 70
     1
 71
     1
  0
GROUP
  5
9CFD
102
{ACAD_REACTORS
330
D
102
}
330
D
100
AcDbGroup
300

 70
     1
 71
     1
  0
GROUP
  5
17288
102
{ACAD_REACTORS
330
D
102
}
330
D
100
AcDbGroup
300

 70
     1
 71
     1
  0
GROUP
  5
10574
102
{ACAD_REACTORS
330
D
102
}
330
D
100
AcDbGroup
300

 70
     1
 71
     1
  0
GROUP
  5
DC2D
102
{ACAD_REACTORS
330
D
102
}
330
D
100
AcDbGroup
300

 70
     1
 71
     1
  0
GROUP
  5
6981
102
{ACAD_REACTORS
330
D
102
}
330
D
100
AcDbGroup
300

 70
     1
 71
     1
  0
GROUP
  5
9901
102
{ACAD_REACTORS
330
D
102
}
330
D
100
AcDbGroup
300

 70
     1
 71
     1
  0
GROUP
  5
DC32
102
{ACAD_REACTORS
330
D
102
}
330
D
100
AcDbGroup
300

 70
     1
 71
     1
  0
GROUP
  5
13982
102
{ACAD_REACTORS
330
D
102
}
330
D
100
AcDbGroup
300

 70
     1
 71
     1
  0
GROUP
  5
6F9D
102
{ACAD_REACTORS
330
D
102
}
330
D
100
AcDbGroup
300

 70
     1
 71
     1
  0
GROUP
  5
DC1C
102
{ACAD_REACTORS
330
D
102
}
330
D
100
AcDbGroup
300

 70
     1
 71
     1
  0
GROUP
  5
78EA
102
{ACAD_REACTORS
330
D
102
}
330
D
100
AcDbGroup
300

 70
     1
 71
     1
  0
GROUP
  5
A77E
102
{ACAD_REACTORS
330
D
102
}
330
D
100
AcDbGroup
300

 70
     1
 71
     1
  0
GROUP
  5
10125
102
{ACAD_REACTORS
330
D
102
}
330
D
100
AcDbGroup
300

 70
     1
 71
     1
  0
GROUP
  5
1AD54
102
{ACAD_REACTORS
330
D
102
}
330
D
100
AcDbGroup
300

 70
     1
 71
     1
  0
GROUP
  5
1965C
102
{ACAD_REACTORS
330
D
102
}
330
D
100
AcDbGroup
300

 70
     1
 71
     1
  0
GROUP
  5
1355D
102
{ACAD_REACTORS
330
D
102
}
330
D
100
AcDbGroup
300

 70
     1
 71
     1
  0
GROUP
  5
6C7C
102
{ACAD_REACTORS
330
D
102
}
330
D
100
AcDbGroup
300

 70
     1
 71
     1
  0
GROUP
  5
1965F
102
{ACAD_REACTORS
330
D
102
}
330
D
100
AcDbGroup
300

 70
     1
 71
     1
  0
GROUP
  5
151B5
102
{ACAD_REACTORS
330
D
102
}
330
D
100
AcDbGroup
300

 70
     1
 71
     1
  0
GROUP
  5
74B9
102
{ACAD_REACTORS
330
D
102
}
330
D
100
AcDbGroup
300

 70
     1
 71
     1
  0
GROUP
  5
13A6F
102
{ACAD_REACTORS
330
D
102
}
330
D
100
AcDbGroup
300

 70
     1
 71
     1
  0
GROUP
  5
11ADA
102
{ACAD_REACTORS
330
D
102
}
330
D
100
AcDbGroup
300

 70
     1
 71
     1
  0
GROUP
  5
19666
102
{ACAD_REACTORS
330
D
102
}
330
D
100
AcDbGroup
300

 70
     1
 71
     1
  0
GROUP
  5
7360
102
{ACAD_REACTORS
330
D
102
}
330
D
100
AcDbGroup
300

 70
     1
 71
     1
  0
GROUP
  5
1AD55
102
{ACAD_REACTORS
330
D
102
}
330
D
100
AcDbGroup
300

 70
     1
 71
     1
  0
GROUP
  5
196BD
102
{ACAD_REACTORS
330
D
102
}
330
D
100
AcDbGroup
300

 70
     1
 71
     1
  0
GROUP
  5
101A2
102
{ACAD_REACTORS
330
D
102
}
330
D
100
AcDbGroup
300

 70
     1
 71
     1
  0
GROUP
  5
B2AC
102
{ACAD_REACTORS
330
D
102
}
330
D
100
AcDbGroup
300

 70
     1
 71
     1
  0
GROUP
  5
172B7
102
{ACAD_REACTORS
330
D
102
}
330
D
100
AcDbGroup
300

 70
     1
 71
     1
  0
GROUP
  5
17292
102
{ACAD_REACTORS
330
D
102
}
330
D
100
AcDbGroup
300

 70
     1
 71
     1
  0
GROUP
  5
172A0
102
{ACAD_REACTORS
330
D
102
}
330
D
100
AcDbGroup
300

 70
     1
 71
     1
  0
GROUP
  5
11AA4
102
{ACAD_REACTORS
330
D
102
}
330
D
100
AcDbGroup
300

 70
     1
 71
     1
  0
GROUP
  5
5849
102
{ACAD_REACTORS
330
D
102
}
330
D
100
AcDbGroup
300

 70
     1
 71
     1
  0
GROUP
  5
1729B
102
{ACAD_REACTORS
330
D
102
}
330
D
100
AcDbGroup
300

 70
     1
 71
     1
  0
GROUP
  5
B3D4
102
{ACAD_REACTORS
330
D
102
}
330
D
100
AcDbGroup
300

 70
     1
 71
     1
  0
GROUP
  5
1AC58
102
{ACAD_REACTORS
330
D
102
}
330
D
100
AcDbGroup
300

 70
     1
 71
     1
  0
GROUP
  5
1A556
102
{ACAD_REACTORS
330
D
102
}
330
D
100
AcDbGroup
300

 70
     1
 71
     1
  0
GROUP
  5
DC3F
102
{ACAD_REACTORS
330
D
102
}
330
D
100
AcDbGroup
300

 70
     1
 71
     1
  0
GROUP
  5
11A5B
102
{ACAD_REACTORS
330
D
102
}
330
D
100
AcDbGroup
300

 70
     1
 71
     1
  0
GROUP
  5
6172
102
{ACAD_REACTORS
330
D
102
}
330
D
100
AcDbGroup
300

 70
     1
 71
     1
  0
GROUP
  5
60B0
102
{ACAD_REACTORS
330
D
102
}
330
D
100
AcDbGroup
300

 70
     1
 71
     1
  0
GROUP
  5
1384E
102
{ACAD_REACTORS
330
D
102
}
330
D
100
AcDbGroup
300

 70
     1
 71
     1
  0
GROUP
  5
1967C
102
{ACAD_REACTORS
330
D
102
}
330
D
100
AcDbGroup
300

 70
     1
 71
     1
  0
GROUP
  5
721E
102
{ACAD_REACTORS
330
D
102
}
330
D
100
AcDbGroup
300

 70
     1
 71
     1
  0
GROUP
  5
196A8
102
{ACAD_REACTORS
330
D
102
}
330
D
100
AcDbGroup
300

 70
     1
 71
     1
  0
GROUP
  5
9ADE
102
{ACAD_REACTORS
330
D
102
}
330
D
100
AcDbGroup
300

 70
     1
 71
     1
  0
GROUP
  5
151B8
102
{ACAD_REACTORS
330
D
102
}
330
D
100
AcDbGroup
300

 70
     1
 71
     1
  0
GROUP
  5
9A02
102
{ACAD_REACTORS
330
D
102
}
330
D
100
AcDbGroup
300

 70
     1
 71
     1
  0
GROUP
  5
172AC
102
{ACAD_REACTORS
330
D
102
}
330
D
100
AcDbGroup
300

 70
     1
 71
     1
  0
GROUP
  5
151B6
102
{ACAD_REACTORS
330
D
102
}
330
D
100
AcDbGroup
300

 70
     1
 71
     1
  0
GROUP
  5
82EE
102
{ACAD_REACTORS
330
D
102
}
330
D
100
AcDbGroup
300

 70
     1
 71
     1
  0
GROUP
  5
11AA0
102
{ACAD_REACTORS
330
D
102
}
330
D
100
AcDbGroup
300

 70
     1
 71
     1
  0
GROUP
  5
1395F
102
{ACAD_REACTORS
330
D
102
}
330
D
100
AcDbGroup
300

 70
     1
 71
     1
  0
GROUP
  5
B306
102
{ACAD_REACTORS
330
D
102
}
330
D
100
AcDbGroup
300

 70
     1
 71
     1
  0
GROUP
  5
17290
102
{ACAD_REACTORS
330
D
102
}
330
D
100
AcDbGroup
300

 70
     1
 71
     1
  0
GROUP
  5
1384C
102
{ACAD_REACTORS
330
D
102
}
330
D
100
AcDbGroup
300

 70
     1
 71
     1
  0
GROUP
  5
149B2
102
{ACAD_REACTORS
330
D
102
}
330
D
100
AcDbGroup
300

 70
     1
 71
     1
  0
GROUP
  5
13A5A
102
{ACAD_REACTORS
330
D
102
}
330
D
100
AcDbGroup
300

 70
     1
 71
     1
  0
GROUP
  5
73DD
102
{ACAD_REACTORS
330
D
102
}
330
D
100
AcDbGroup
300

 70
     1
 71
     1
  0
GROUP
  5
19674
102
{ACAD_REACTORS
330
D
102
}
330
D
100
AcDbGroup
300

 70
     1
 71
     1
  0
GROUP
  5
13C6A
102
{ACAD_REACTORS
330
D
102
}
330
D
100
AcDbGroup
300

 70
     1
 71
     1
  0
GROUP
  5
149AF
102
{ACAD_REACTORS
330
D
102
}
330
D
100
AcDbGroup
300

 70
     1
 71
     1
  0
GROUP
  5
19677
102
{ACAD_REACTORS
330
D
102
}
330
D
100
AcDbGroup
300

 70
     1
 71
     1
  0
GROUP
  5
DC46
102
{ACAD_REACTORS
330
D
102
}
330
D
100
AcDbGroup
300

 70
     1
 71
     1
  0
GROUP
  5
82F9
102
{ACAD_REACTORS
330
D
102
}
330
D
100
AcDbGroup
300

 70
     1
 71
     1
  0
GROUP
  5
9A62
102
{ACAD_REACTORS
330
D
102
}
330
D
100
AcDbGroup
300

 70
     1
 71
     1
  0
GROUP
  5
886B
102
{ACAD_REACTORS
330
D
102
}
330
D
100
AcDbGroup
300

 70
     1
 71
     1
  0
GROUP
  5
1967D
102
{ACAD_REACTORS
330
D
102
}
330
D
100
AcDbGroup
300

 70
     1
 71
     1
  0
GROUP
  5
6982
102
{ACAD_REACTORS
330
D
102
}
330
D
100
AcDbGroup
300

 70
     1
 71
     1
  0
GROUP
  5
2C4F
102
{ACAD_REACTORS
330
D
102
}
330
D
100
AcDbGroup
300

 70
     1
 71
     1
  0
GROUP
  5
133B3
102
{ACAD_REACTORS
330
D
102
}
330
D
100
AcDbGroup
300

 70
     1
 71
     1
  0
GROUP
  5
151B2
102
{ACAD_REACTORS
330
D
102
}
330
D
100
AcDbGroup
300

 70
     1
 71
     1
  0
GROUP
  5
172D6
102
{ACAD_REACTORS
330
D
102
}
330
D
100
AcDbGroup
300

 70
     1
 71
     1
  0
GROUP
  5
172B5
102
{ACAD_REACTORS
330
D
102
}
330
D
100
AcDbGroup
300

 70
     1
 71
     1
  0
GROUP
  5
172C2
102
{ACAD_REACTORS
330
D
102
}
330
D
100
AcDbGroup
300

 70
     1
 71
     1
  0
GROUP
  5
144EE
102
{ACAD_REACTORS
330
D
102
}
330
D
100
AcDbGroup
300

 70
     1
 71
     1
  0
GROUP
  5
A187
102
{ACAD_REACTORS
330
D
102
}
330
D
100
AcDbGroup
300

 70
     1
 71
     1
  0
GROUP
  5
172BD
102
{ACAD_REACTORS
330
D
102
}
330
D
100
AcDbGroup
300

 70
     1
 71
     1
  0
GROUP
  5
1261F
102
{ACAD_REACTORS
330
D
102
}
330
D
100
AcDbGroup
300

 70
     1
 71
     1
  0
GROUP
  5
102D8
102
{ACAD_REACTORS
330
D
102
}
330
D
100
AcDbGroup
300

 70
     1
 71
     1
  0
GROUP
  5
6C51
102
{ACAD_REACTORS
330
D
102
}
330
D
100
AcDbGroup
300

 70
     1
 71
     1
  0
GROUP
  5
1257C
102
{ACAD_REACTORS
330
D
102
}
330
D
100
AcDbGroup
300

 70
     1
 71
     1
  0
GROUP
  5
6540
102
{ACAD_REACTORS
330
D
102
}
330
D
100
AcDbGroup
300

 70
     1
 71
     1
  0
GROUP
  5
DC2F
102
{ACAD_REACTORS
330
D
102
}
330
D
100
AcDbGroup
300

 70
     1
 71
     1
  0
GROUP
  5
19690
102
{ACAD_REACTORS
330
D
102
}
330
D
100
AcDbGroup
300

 70
     1
 71
     1
  0
GROUP
  5
17A22
102
{ACAD_REACTORS
330
D
102
}
330
D
100
AcDbGroup
300

 70
     1
 71
     1
  0
GROUP
  5
196B8
102
{ACAD_REACTORS
330
D
102
}
330
D
100
AcDbGroup
300

 70
     1
 71
     1
  0
GROUP
  5
B320
102
{ACAD_REACTORS
330
D
102
}
330
D
100
AcDbGroup
300

 70
     1
 71
     1
  0
GROUP
  5
6925
102
{ACAD_REACTORS
330
D
102
}
330
D
100
AcDbGroup
300

 70
     1
 71
     1
  0
GROUP
  5
B321
102
{ACAD_REACTORS
330
D
102
}
330
D
100
AcDbGroup
300

 70
     1
 71
     1
  0
GROUP
  5
60B7
102
{ACAD_REACTORS
330
D
102
}
330
D
100
AcDbGroup
300

 70
     1
 71
     1
  0
GROUP
  5
1965D
102
{ACAD_REACTORS
330
D
102
}
330
D
100
AcDbGroup
300

 70
     1
 71
     1
  0
GROUP
  5
83B5
102
{ACAD_REACTORS
330
D
102
}
330
D
100
AcDbGroup
300

 70
     1
 71
     1
  0
GROUP
  5
10FE0
102
{ACAD_REACTORS
330
D
102
}
330
D
100
AcDbGroup
300

 70
     1
 71
     1
  0
GROUP
  5
DC1B
102
{ACAD_REACTORS
330
D
102
}
330
D
100
AcDbGroup
300

 70
     1
 71
     1
  0
GROUP
  5
172B3
102
{ACAD_REACTORS
330
D
102
}
330
D
100
AcDbGroup
300

 70
     1
 71
     1
  0
GROUP
  5
9113
102
{ACAD_REACTORS
330
D
102
}
330
D
100
AcDbGroup
300

 70
     1
 71
     1
  0
GROUP
  5
DC4A
102
{ACAD_REACTORS
330
D
102
}
330
D
100
AcDbGroup
300

 70
     1
 71
     1
  0
GROUP
  5
9A61
102
{ACAD_REACTORS
330
D
102
}
330
D
100
AcDbGroup
300

 70
     1
 71
     1
  0
GROUP
  5
1968A
102
{ACAD_REACTORS
330
D
102
}
330
D
100
AcDbGroup
300

 70
     1
 71
     1
  0
GROUP
  5
7C67
102
{ACAD_REACTORS
330
D
102
}
330
D
100
AcDbGroup
300

 70
     1
 71
     1
  0
GROUP
  5
65CC
102
{ACAD_REACTORS
330
D
102
}
330
D
100
AcDbGroup
300

 70
     1
 71
     1
  0
GROUP
  5
1968D
102
{ACAD_REACTORS
330
D
102
}
330
D
100
AcDbGroup
300

 70
     1
 71
     1
  0
GROUP
  5
639F
102
{ACAD_REACTORS
330
D
102
}
330
D
100
AcDbGroup
300

 70
     1
 71
     1
  0
GROUP
  5
1355B
102
{ACAD_REACTORS
330
D
102
}
330
D
100
AcDbGroup
300

 70
     1
 71
     1
  0
GROUP
  5
A77B
102
{ACAD_REACTORS
330
D
102
}
330
D
100
AcDbGroup
300

 70
     1
 71
     1
  0
GROUP
  5
DC4F
102
{ACAD_REACTORS
330
D
102
}
330
D
100
AcDbGroup
300

 70
     1
 71
     1
  0
GROUP
  5
19691
102
{ACAD_REACTORS
330
D
102
}
330
D
100
AcDbGroup
300

 70
     1
 71
     1
  0
GROUP
  5
1257E
102
{ACAD_REACTORS
330
D
102
}
330
D
100
AcDbGroup
300

 70
     1
 71
     1
  0
GROUP
  5
13C44
102
{ACAD_REACTORS
330
D
102
}
330
D
100
AcDbGroup
300

 70
     1
 71
     1
  0
GROUP
  5
DC3E
102
{ACAD_REACTORS
330
D
102
}
330
D
100
AcDbGroup
300

 70
     1
 71
     1
  0
GROUP
  5
74B7
102
{ACAD_REACTORS
330
D
102
}
330
D
100
AcDbGroup
300

 70
     1
 71
     1
  0
GROUP
  5
172D4
102
{ACAD_REACTORS
330
D
102
}
330
D
100
AcDbGroup
300

 70
     1
 71
     1
  0
GROUP
  5
172E0
102
{ACAD_REACTORS
330
D
102
}
330
D
100
AcDbGroup
300

 70
     1
 71
     1
  0
GROUP
  5
14B71
102
{ACAD_REACTORS
330
D
102
}
330
D
100
AcDbGroup
300

 70
     1
 71
     1
  0
GROUP
  5
5B40
102
{ACAD_REACTORS
330
D
102
}
330
D
100
AcDbGroup
300

 70
     1
 71
     1
  0
GROUP
  5
172DB
102
{ACAD_REACTORS
330
D
102
}
330
D
100
AcDbGroup
300

 70
     1
 71
     1
  0
GROUP
  5
13C3F
102
{ACAD_REACTORS
330
D
102
}
330
D
100
AcDbGroup
300

 70
     1
 71
     1
  0
GROUP
  5
13C40
102
{ACAD_REACTORS
330
D
102
}
330
D
100
AcDbGroup
300

 70
     1
 71
     1
  0
GROUP
  5
13A5B
102
{ACAD_REACTORS
330
D
102
}
330
D
100
AcDbGroup
300

 70
     1
 71
     1
  0
GROUP
  5
DC34
102
{ACAD_REACTORS
330
D
102
}
330
D
100
AcDbGroup
300

 70
     1
 71
     1
  0
GROUP
  5
A18A
102
{ACAD_REACTORS
330
D
102
}
330
D
100
AcDbGroup
300

 70
     1
 71
     1
  0
GROUP
  5
196A3
102
{ACAD_REACTORS
330
D
102
}
330
D
100
AcDbGroup
300

 70
     1
 71
     1
  0
GROUP
  5
31D6
102
{ACAD_REACTORS
330
D
102
}
330
D
100
AcDbGroup
300

 70
     1
 71
     1
  0
GROUP
  5
19CDA
102
{ACAD_REACTORS
330
D
102
}
330
D
100
AcDbGroup
300

 70
     1
 71
     1
  0
GROUP
  5
74B6
102
{ACAD_REACTORS
330
D
102
}
330
D
100
AcDbGroup
300

 70
     1
 71
     1
  0
GROUP
  5
A0A7
102
{ACAD_REACTORS
330
D
102
}
330
D
100
AcDbGroup
300

 70
     1
 71
     1
  0
GROUP
  5
B307
102
{ACAD_REACTORS
330
D
102
}
330
D
100
AcDbGroup
300

 70
     1
 71
     1
  0
GROUP
  5
71C3
102
{ACAD_REACTORS
330
D
102
}
330
D
100
AcDbGroup
300

 70
     1
 71
     1
  0
GROUP
  5
1145B
102
{ACAD_REACTORS
330
D
102
}
330
D
100
AcDbGroup
300

 70
     1
 71
     1
  0
GROUP
  5
17285
102
{ACAD_REACTORS
330
D
102
}
330
D
100
AcDbGroup
300

 70
     1
 71
     1
  0
GROUP
  5
6CCD
102
{ACAD_REACTORS
330
D
102
}
330
D
100
AcDbGroup
300

 70
     1
 71
     1
  0
GROUP
  5
172D2
102
{ACAD_REACTORS
330
D
102
}
330
D
100
AcDbGroup
300

 70
     1
 71
     1
  0
GROUP
  5
695E
102
{ACAD_REACTORS
330
D
102
}
330
D
100
AcDbGroup
300

 70
     1
 71
     1
  0
GROUP
  5
11ECA
102
{ACAD_REACTORS
330
D
102
}
330
D
100
AcDbGroup
300

 70
     1
 71
     1
  0
GROUP
  5
17295
102
{ACAD_REACTORS
330
D
102
}
330
D
100
AcDbGroup
300

 70
     1
 71
     1
  0
GROUP
  5
1969D
102
{ACAD_REACTORS
330
D
102
}
330
D
100
AcDbGroup
300

 70
     1
 71
     1
  0
GROUP
  5
6C69
102
{ACAD_REACTORS
330
D
102
}
330
D
100
AcDbGroup
300

 70
     1
 71
     1
  0
GROUP
  5
11EC8
102
{ACAD_REACTORS
330
D
102
}
330
D
100
AcDbGroup
300

 70
     1
 71
     1
  0
GROUP
  5
9730
102
{ACAD_REACTORS
330
D
102
}
330
D
100
AcDbGroup
300

 70
     1
 71
     1
  0
GROUP
  5
13C47
102
{ACAD_REACTORS
330
D
102
}
330
D
100
AcDbGroup
300

 70
     1
 71
     1
  0
GROUP
  5
148EC
102
{ACAD_REACTORS
330
D
102
}
330
D
100
AcDbGroup
300

 70
     1
 71
     1
  0
GROUP
  5
10124
102
{ACAD_REACTORS
330
D
102
}
330
D
100
AcDbGroup
300

 70
     1
 71
     1
  0
GROUP
  5
2BCB
102
{ACAD_REACTORS
330
D
102
}
330
D
100
AcDbGroup
300

 70
     1
 71
     1
  0
GROUP
  5
13A60
102
{ACAD_REACTORS
330
D
102
}
330
D
100
AcDbGroup
300

 70
     1
 71
     1
  0
GROUP
  5
9112
102
{ACAD_REACTORS
330
D
102
}
330
D
100
AcDbGroup
300

 70
     1
 71
     1
  0
GROUP
  5
635C
102
{ACAD_REACTORS
330
D
102
}
330
D
100
AcDbGroup
300

 70
     1
 71
     1
  0
GROUP
  5
17969
102
{ACAD_REACTORS
330
D
102
}
330
D
100
AcDbGroup
300

 70
     1
 71
     1
  0
GROUP
  5
7BCE
102
{ACAD_REACTORS
330
D
102
}
330
D
100
AcDbGroup
300

 70
     1
 71
     1
  0
GROUP
  5
B308
102
{ACAD_REACTORS
330
D
102
}
330
D
100
AcDbGroup
300

 70
     1
 71
     1
  0
GROUP
  5
13983
102
{ACAD_REACTORS
330
D
102
}
330
D
100
AcDbGroup
300

 70
     1
 71
     1
  0
GROUP
  5
A77A
102
{ACAD_REACTORS
330
D
102
}
330
D
100
AcDbGroup
300

 70
     1
 71
     1
  0
GROUP
  5
7620
102
{ACAD_REACTORS
330
D
102
}
330
D
100
AcDbGroup
300

 70
     1
 71
     1
  0
GROUP
  5
707D
102
{ACAD_REACTORS
330
D
102
}
330
D
100
AcDbGroup
300

 70
     1
 71
     1
  0
GROUP
  5
6170
102
{ACAD_REACTORS
330
D
102
}
330
D
100
AcDbGroup
300

 70
     1
 71
     1
  0
GROUP
  5
11A5C
102
{ACAD_REACTORS
330
D
102
}
330
D
100
AcDbGroup
300

 70
     1
 71
     1
  0
GROUP
  5
14067
102
{ACAD_REACTORS
330
D
102
}
330
D
100
AcDbGroup
300

 70
     1
 71
     1
  0
GROUP
  5
196B4
102
{ACAD_REACTORS
330
D
102
}
330
D
100
AcDbGroup
300

 70
     1
 71
     1
  0
GROUP
  5
1966F
102
{ACAD_REACTORS
330
D
102
}
330
D
100
AcDbGroup
300

 70
     1
 71
     1
  0
GROUP
  5
13267
102
{ACAD_REACTORS
330
D
102
}
330
D
100
AcDbGroup
300

 70
     1
 71
     1
  0
GROUP
  5
11A5A
102
{ACAD_REACTORS
330
D
102
}
330
D
100
AcDbGroup
300

 70
     1
 71
     1
  0
GROUP
  5
1489D
102
{ACAD_REACTORS
330
D
102
}
330
D
100
AcDbGroup
300

 70
     1
 71
     1
  0
GROUP
  5
73A2
102
{ACAD_REACTORS
330
D
102
}
330
D
100
AcDbGroup
300

 70
     1
 71
     1
  0
GROUP
  5
13266
102
{ACAD_REACTORS
330
D
102
}
330
D
100
AcDbGroup
300

 70
     1
 71
     1
  0
GROUP
  5
172A9
102
{ACAD_REACTORS
330
D
102
}
330
D
100
AcDbGroup
300

 70
     1
 71
     1
  0
GROUP
  5
1355C
102
{ACAD_REACTORS
330
D
102
}
330
D
100
AcDbGroup
300

 70
     1
 71
     1
  0
GROUP
  5
DC41
102
{ACAD_REACTORS
330
D
102
}
330
D
100
AcDbGroup
300

 70
     1
 71
     1
  0
GROUP
  5
14066
102
{ACAD_REACTORS
330
D
102
}
330
D
100
AcDbGroup
300

 70
     1
 71
     1
  0
GROUP
  5
82E3
102
{ACAD_REACTORS
330
D
102
}
330
D
100
AcDbGroup
300

 70
     1
 71
     1
  0
GROUP
  5
196AE
102
{ACAD_REACTORS
330
D
102
}
330
D
100
AcDbGroup
300

 70
     1
 71
     1
  0
GROUP
  5
149AE
102
{ACAD_REACTORS
330
D
102
}
330
D
100
AcDbGroup
300

 70
     1
 71
     1
  0
GROUP
  5
7326
102
{ACAD_REACTORS
330
D
102
}
330
D
100
AcDbGroup
300

 70
     1
 71
     1
  0
GROUP
  5
B434
102
{ACAD_REACTORS
330
D
102
}
330
D
100
AcDbGroup
300

 70
     1
 71
     1
  0
GROUP
  5
9A63
102
{ACAD_REACTORS
330
D
102
}
330
D
100
AcDbGroup
300

 70
     1
 71
     1
  0
GROUP
  5
DC49
102
{ACAD_REACTORS
330
D
102
}
330
D
100
AcDbGroup
300

 70
     1
 71
     1
  0
GROUP
  5
73DC
102
{ACAD_REACTORS
330
D
102
}
330
D
100
AcDbGroup
300

 70
     1
 71
     1
  0
GROUP
  5
5BAB
102
{ACAD_REACTORS
330
D
102
}
330
D
100
AcDbGroup
300

 70
     1
 71
     1
  0
GROUP
  5
61ED
102
{ACAD_REACTORS
330
D
102
}
330
D
100
AcDbGroup
300

 70
     1
 71
     1
  0
GROUP
  5
6D93
102
{ACAD_REACTORS
330
D
102
}
330
D
100
AcDbGroup
300

 70
     1
 71
     1
  0
GROUP
  5
17953
102
{ACAD_REACTORS
330
D
102
}
330
D
100
AcDbGroup
300

 70
     1
 71
     1
  0
GROUP
  5
9847
102
{ACAD_REACTORS
330
D
102
}
330
D
100
AcDbGroup
300

 70
     1
 71
     1
  0
GROUP
  5
1290F
102
{ACAD_REACTORS
330
D
102
}
330
D
100
AcDbGroup
300

 70
     1
 71
     1
  0
GROUP
  5
17A21
102
{ACAD_REACTORS
330
D
102
}
330
D
100
AcDbGroup
300

 70
     1
 71
     1
  0
GROUP
  5
11400
102
{ACAD_REACTORS
330
D
102
}
330
D
100
AcDbGroup
300

 70
     1
 71
     1
  0
GROUP
  5
7C3D
102
{ACAD_REACTORS
330
D
102
}
330
D
100
AcDbGroup
300

 70
     1
 71
     1
  0
GROUP
  5
56AA
102
{ACAD_REACTORS
330
D
102
}
330
D
100
AcDbGroup
300

 70
     1
 71
     1
  0
GROUP
  5
DC3C
102
{ACAD_REACTORS
330
D
102
}
330
D
100
AcDbGroup
300

 70
     1
 71
     1
  0
GROUP
  5
5B42
102
{ACAD_REACTORS
330
D
102
}
330
D
100
AcDbGroup
300

 70
     1
 71
     1
  0
GROUP
  5
196C3
102
{ACAD_REACTORS
330
D
102
}
330
D
100
AcDbGroup
300

 70
     1
 71
     1
  0
GROUP
  5
735D
102
{ACAD_REACTORS
330
D
102
}
330
D
100
AcDbGroup
300

 70
     1
 71
     1
  0
GROUP
  5
17293
102
{ACAD_REACTORS
330
D
102
}
330
D
100
AcDbGroup
300

 70
     1
 71
     1
  0
GROUP
  5
A1BC
102
{ACAD_REACTORS
330
D
102
}
330
D
100
AcDbGroup
300

 70
     1
 71
     1
  0
GROUP
  5
17291
102
{ACAD_REACTORS
330
D
102
}
330
D
100
AcDbGroup
300

 70
     1
 71
     1
  0
GROUP
  5
63A7
102
{ACAD_REACTORS
330
D
102
}
330
D
100
AcDbGroup
300

 70
     1
 71
     1
  0
GROUP
  5
172CA
102
{ACAD_REACTORS
330
D
102
}
330
D
100
AcDbGroup
300

 70
     1
 71
     1
  0
GROUP
  5
13C69
102
{ACAD_REACTORS
330
D
102
}
330
D
100
AcDbGroup
300

 70
     1
 71
     1
  0
GROUP
  5
17951
102
{ACAD_REACTORS
330
D
102
}
330
D
100
AcDbGroup
300

 70
     1
 71
     1
  0
GROUP
  5
14B43
102
{ACAD_REACTORS
330
D
102
}
330
D
100
AcDbGroup
300

 70
     1
 71
     1
  0
GROUP
  5
A098
102
{ACAD_REACTORS
330
D
102
}
330
D
100
AcDbGroup
300

 70
     1
 71
     1
  0
GROUP
  5
DC2A
102
{ACAD_REACTORS
330
D
102
}
330
D
100
AcDbGroup
300

 70
     1
 71
     1
  0
GROUP
  5
E69A
102
{ACAD_REACTORS
330
D
102
}
330
D
100
AcDbGroup
300

 70
     1
 71
     1
  0
GROUP
  5
144E9
102
{ACAD_REACTORS
330
D
102
}
330
D
100
AcDbGroup
300

 70
     1
 71
     1
  0
GROUP
  5
A77D
102
{ACAD_REACTORS
330
D
102
}
330
D
100
AcDbGroup
300

 70
     1
 71
     1
  0
GROUP
  5
11EAC
102
{ACAD_REACTORS
330
D
102
}
330
D
100
AcDbGroup
300

 70
     1
 71
     1
  0
GROUP
  5
136EA
102
{ACAD_REACTORS
330
D
102
}
330
D
100
AcDbGroup
300

 70
     1
 71
     1
  0
GROUP
  5
A1B8
102
{ACAD_REACTORS
330
D
102
}
330
D
100
AcDbGroup
300

 70
     1
 71
     1
  0
GROUP
  5
6171
102
{ACAD_REACTORS
330
D
102
}
330
D
100
AcDbGroup
300

 70
     1
 71
     1
  0
GROUP
  5
14946
102
{ACAD_REACTORS
330
D
102
}
330
D
100
AcDbGroup
300

 70
     1
 71
     1
  0
GROUP
  5
56A9
102
{ACAD_REACTORS
330
D
102
}
330
D
100
AcDbGroup
300

 70
     1
 71
     1
  0
GROUP
  5
17287
102
{ACAD_REACTORS
330
D
102
}
330
D
100
AcDbGroup
300

 70
     1
 71
     1
  0
GROUP
  5
144F8
102
{ACAD_REACTORS
330
D
102
}
330
D
100
AcDbGroup
300

 70
     1
 71
     1
  0
GROUP
  5
148EE
102
{ACAD_REACTORS
330
D
102
}
330
D
100
AcDbGroup
300

 70
     1
 71
     1
  0
GROUP
  5
148EF
102
{ACAD_REACTORS
330
D
102
}
330
D
100
AcDbGroup
300

 70
     1
 71
     1
  0
GROUP
  5
1489B
102
{ACAD_REACTORS
330
D
102
}
330
D
100
AcDbGroup
300

 70
     1
 71
     1
  0
GROUP
  5
6341
102
{ACAD_REACTORS
330
D
102
}
330
D
100
AcDbGroup
300

 70
     1
 71
     1
  0
GROUP
  5
5A54
102
{ACAD_REACTORS
330
D
102
}
330
D
100
AcDbGroup
300

 70
     1
 71
     1
  0
GROUP
  5
1A1AD
102
{ACAD_REACTORS
330
D
102
}
330
D
100
AcDbGroup
300

 70
     1
 71
     1
  0
GROUP
  5
17280
102
{ACAD_REACTORS
330
D
102
}
330
D
100
AcDbGroup
300

 70
     1
 71
     1
  0
GROUP
  5
172B6
102
{ACAD_REACTORS
330
D
102
}
330
D
100
AcDbGroup
300

 70
     1
 71
     1
  0
GROUP
  5
172B4
102
{ACAD_REACTORS
330
D
102
}
330
D
100
AcDbGroup
300

 70
     1
 71
     1
  0
GROUP
  5
12620
102
{ACAD_REACTORS
330
D
102
}
330
D
100
AcDbGroup
300

 70
     1
 71
     1
  0
GROUP
  5
175C9
102
{ACAD_REACTORS
330
D
102
}
330
D
100
AcDbGroup
300

 70
     1
 71
     1
  0
GROUP
  5
74BF
102
{ACAD_REACTORS
330
D
102
}
330
D
100
AcDbGroup
300

 70
     1
 71
     1
  0
GROUP
  5
144F6
102
{ACAD_REACTORS
330
D
102
}
330
D
100
AcDbGroup
300

 70
     1
 71
     1
  0
GROUP
  5
6671
102
{ACAD_REACTORS
330
D
102
}
330
D
100
AcDbGroup
300

 70
     1
 71
     1
  0
GROUP
  5
1395D
102
{ACAD_REACTORS
330
D
102
}
330
D
100
AcDbGroup
300

 70
     1
 71
     1
  0
GROUP
  5
60B8
102
{ACAD_REACTORS
330
D
102
}
330
D
100
AcDbGroup
300

 70
     1
 71
     1
  0
GROUP
  5
9A03
102
{ACAD_REACTORS
330
D
102
}
330
D
100
AcDbGroup
300

 70
     1
 71
     1
  0
GROUP
  5
14B47
102
{ACAD_REACTORS
330
D
102
}
330
D
100
AcDbGroup
300

 70
     1
 71
     1
  0
GROUP
  5
A194
102
{ACAD_REACTORS
330
D
102
}
330
D
100
AcDbGroup
300

 70
     1
 71
     1
  0
GROUP
  5
13C6C
102
{ACAD_REACTORS
330
D
102
}
330
D
100
AcDbGroup
300

 70
     1
 71
     1
  0
GROUP
  5
DC42
102
{ACAD_REACTORS
330
D
102
}
330
D
100
AcDbGroup
300

 70
     1
 71
     1
  0
GROUP
  5
1489F
102
{ACAD_REACTORS
330
D
102
}
330
D
100
AcDbGroup
300

 70
     1
 71
     1
  0
GROUP
  5
9902
102
{ACAD_REACTORS
330
D
102
}
330
D
100
AcDbGroup
300

 70
     1
 71
     1
  0
GROUP
  5
19668
102
{ACAD_REACTORS
330
D
102
}
330
D
100
AcDbGroup
300

 70
     1
 71
     1
  0
GROUP
  5
172AB
102
{ACAD_REACTORS
330
D
102
}
330
D
100
AcDbGroup
300

 70
     1
 71
     1
  0
GROUP
  5
1966E
102
{ACAD_REACTORS
330
D
102
}
330
D
100
AcDbGroup
300

 70
     1
 71
     1
  0
GROUP
  5
1FC1
102
{ACAD_REACTORS
330
D
102
}
330
D
100
AcDbGroup
300

 70
     1
 71
     1
  0
GROUP
  5
11441
102
{ACAD_REACTORS
330
D
102
}
330
D
100
AcDbGroup
300

 70
     1
 71
     1
  0
GROUP
  5
13A5D
102
{ACAD_REACTORS
330
D
102
}
330
D
100
AcDbGroup
300

 70
     1
 71
     1
  0
GROUP
  5
7C2F
102
{ACAD_REACTORS
330
D
102
}
330
D
100
AcDbGroup
300

 70
     1
 71
     1
  0
GROUP
  5
1A83D
102
{ACAD_REACTORS
330
D
102
}
330
D
100
AcDbGroup
300

 70
     1
 71
     1
  0
GROUP
  5
7316
102
{ACAD_REACTORS
330
D
102
}
330
D
100
AcDbGroup
300

 70
     1
 71
     1
  0
GROUP
  5
172D5
102
{ACAD_REACTORS
330
D
102
}
330
D
100
AcDbGroup
300

 70
     1
 71
     1
  0
GROUP
  5
172D3
102
{ACAD_REACTORS
330
D
102
}
330
D
100
AcDbGroup
300

 70
     1
 71
     1
  0
GROUP
  5
13C41
102
{ACAD_REACTORS
330
D
102
}
330
D
100
AcDbGroup
300

 70
     1
 71
     1
  0
GROUP
  5
9CFF
102
{ACAD_REACTORS
330
D
102
}
330
D
100
AcDbGroup
300

 70
     1
 71
     1
  0
GROUP
  5
DC35
102
{ACAD_REACTORS
330
D
102
}
330
D
100
AcDbGroup
300

 70
     1
 71
     1
  0
GROUP
  5
19667
102
{ACAD_REACTORS
330
D
102
}
330
D
100
AcDbGroup
300

 70
     1
 71
     1
  0
GROUP
  5
E38E
102
{ACAD_REACTORS
330
D
102
}
330
D
100
AcDbGroup
300

 70
     1
 71
     1
  0
GROUP
  5
10129
102
{ACAD_REACTORS
330
D
102
}
330
D
100
AcDbGroup
300

 70
     1
 71
     1
  0
GROUP
  5
78E9
102
{ACAD_REACTORS
330
D
102
}
330
D
100
AcDbGroup
300

 70
     1
 71
     1
  0
GROUP
  5
7361
102
{ACAD_REACTORS
330
D
102
}
330
D
100
AcDbGroup
300

 70
     1
 71
     1
  0
GROUP
  5
118B2
102
{ACAD_REACTORS
330
D
102
}
330
D
100
AcDbGroup
300

 70
     1
 71
     1
  0
GROUP
  5
6FD7
102
{ACAD_REACTORS
330
D
102
}
330
D
100
AcDbGroup
300

 70
     1
 71
     1
  0
GROUP
  5
10F71
102
{ACAD_REACTORS
330
D
102
}
330
D
100
AcDbGroup
300

 70
     1
 71
     1
  0
GROUP
  5
732D
102
{ACAD_REACTORS
330
D
102
}
330
D
100
AcDbGroup
300

 70
     1
 71
     1
  0
GROUP
  5
11AA1
102
{ACAD_REACTORS
330
D
102
}
330
D
100
AcDbGroup
300

 70
     1
 71
     1
  0
GROUP
  5
1967F
102
{ACAD_REACTORS
330
D
102
}
330
D
100
AcDbGroup
300

 70
     1
 71
     1
  0
GROUP
  5
19685
102
{ACAD_REACTORS
330
D
102
}
330
D
100
AcDbGroup
300

 70
     1
 71
     1
  0
GROUP
  5
A127
102
{ACAD_REACTORS
330
D
102
}
330
D
100
AcDbGroup
300

 70
     1
 71
     1
  0
GROUP
  5
7215
102
{ACAD_REACTORS
330
D
102
}
330
D
100
AcDbGroup
300

 70
     1
 71
     1
  0
GROUP
  5
17279
102
{ACAD_REACTORS
330
D
102
}
330
D
100
AcDbGroup
300

 70
     1
 71
     1
  0
GROUP
  5
B3D3
102
{ACAD_REACTORS
330
D
102
}
330
D
100
AcDbGroup
300

 70
     1
 71
     1
  0
GROUP
  5
74BE
102
{ACAD_REACTORS
330
D
102
}
330
D
100
AcDbGroup
300

 70
     1
 71
     1
  0
GROUP
  5
144EA
102
{ACAD_REACTORS
330
D
102
}
330
D
100
AcDbGroup
300

 70
     1
 71
     1
  0
GROUP
  5
10F25
102
{ACAD_REACTORS
330
D
102
}
330
D
100
AcDbGroup
300

 70
     1
 71
     1
  0
GROUP
  5
12622
102
{ACAD_REACTORS
330
D
102
}
330
D
100
AcDbGroup
300

 70
     1
 71
     1
  0
GROUP
  5
1145A
102
{ACAD_REACTORS
330
D
102
}
330
D
100
AcDbGroup
300

 70
     1
 71
     1
  0
GROUP
  5
149AD
102
{ACAD_REACTORS
330
D
102
}
330
D
100
AcDbGroup
300

 70
     1
 71
     1
  0
GROUP
  5
1967E
102
{ACAD_REACTORS
330
D
102
}
330
D
100
AcDbGroup
300

 70
     1
 71
     1
  0
GROUP
  5
1727E
102
{ACAD_REACTORS
330
D
102
}
330
D
100
AcDbGroup
300

 70
     1
 71
     1
  0
GROUP
  5
98FF
102
{ACAD_REACTORS
330
D
102
}
330
D
100
AcDbGroup
300

 70
     1
 71
     1
  0
GROUP
  5
1C5E3
102
{ACAD_REACTORS
330
D
102
}
330
D
100
AcDbGroup
300

 70
     1
 71
     1
  0
GROUP
  5
9846
102
{ACAD_REACTORS
330
D
102
}
330
D
100
AcDbGroup
300

 70
     1
 71
     1
  0
GROUP
  5
1C5E4
102
{ACAD_REACTORS
330
D
102
}
330
D
100
AcDbGroup
300

 70
     1
 71
     1
  0
GROUP
  5
DC45
102
{ACAD_REACTORS
330
D
102
}
330
D
100
AcDbGroup
300

 70
     1
 71
     1
  0
GROUP
  5
13282
102
{ACAD_REACTORS
330
D
102
}
330
D
100
AcDbGroup
300

 70
     1
 71
     1
  0
GROUP
  5
11E8D
102
{ACAD_REACTORS
330
D
102
}
330
D
100
AcDbGroup
300

 70
     1
 71
     1
  0
GROUP
  5
19699
102
{ACAD_REACTORS
330
D
102
}
330
D
100
AcDbGroup
300

 70
     1
 71
     1
  0
GROUP
  5
5BB6
102
{ACAD_REACTORS
330
D
102
}
330
D
100
AcDbGroup
300

 70
     1
 71
     1
  0
GROUP
  5
572B
102
{ACAD_REACTORS
330
D
102
}
330
D
100
AcDbGroup
300

 70
     1
 71
     1
  0
GROUP
  5
1729E
102
{ACAD_REACTORS
330
D
102
}
330
D
100
AcDbGroup
300

 70
     1
 71
     1
  0
GROUP
  5
1C5E5
102
{ACAD_REACTORS
330
D
102
}
330
D
100
AcDbGroup
300

 70
     1
 71
     1
  0
GROUP
  5
A145
102
{ACAD_REACTORS
330
D
102
}
330
D
100
AcDbGroup
300

 70
     1
 71
     1
  0
GROUP
  5
14B48
102
{ACAD_REACTORS
330
D
102
}
330
D
100
AcDbGroup
300

 70
     1
 71
     1
  0
GROUP
  5
17954
102
{ACAD_REACTORS
330
D
102
}
330
D
100
AcDbGroup
300

 70
     1
 71
     1
  0
GROUP
  5
1C5E6
102
{ACAD_REACTORS
330
D
102
}
330
D
100
AcDbGroup
300

 70
     1
 71
     1
  0
GROUP
  5
1C5E7
102
{ACAD_REACTORS
330
D
102
}
330
D
100
AcDbGroup
300

 70
     1
 71
     1
  0
GROUP
  5
19692
102
{ACAD_REACTORS
330
D
102
}
330
D
100
AcDbGroup
300

 70
     1
 71
     1
  0
GROUP
  5
172A3
102
{ACAD_REACTORS
330
D
102
}
330
D
100
AcDbGroup
300

 70
     1
 71
     1
  0
GROUP
  5
74FA
102
{ACAD_REACTORS
330
D
102
}
330
D
100
AcDbGroup
300

 70
     1
 71
     1
  0
GROUP
  5
1C68D
102
{ACAD_REACTORS
330
D
102
}
330
D
100
AcDbGroup
300

 70
     1
 71
     1
  0
GROUP
  5
A14F
102
{ACAD_REACTORS
330
D
102
}
330
D
100
AcDbGroup
300

 70
     1
 71
     1
  0
GROUP
  5
1C6B5
102
{ACAD_REACTORS
330
D
102
}
330
D
100
AcDbGroup
300

 70
     1
 71
     1
  0
GROUP
  5
149B0
102
{ACAD_REACTORS
330
D
102
}
330
D
100
AcDbGroup
300

 70
     1
 71
     1
  0
GROUP
  5
A0AA
102
{ACAD_REACTORS
330
D
102
}
330
D
100
AcDbGroup
300

 70
     1
 71
     1
  0
GROUP
  5
10127
102
{ACAD_REACTORS
330
D
102
}
330
D
100
AcDbGroup
300

 70
     1
 71
     1
  0
GROUP
  5
196AB
102
{ACAD_REACTORS
330
D
102
}
330
D
100
AcDbGroup
300

 70
     1
 71
     1
  0
GROUP
  5
83B6
102
{ACAD_REACTORS
330
D
102
}
330
D
100
AcDbGroup
300

 70
     1
 71
     1
  0
GROUP
  5
172C0
102
{ACAD_REACTORS
330
D
102
}
330
D
100
AcDbGroup
300

 70
     1
 71
     1
  0
GROUP
  5
1C6C9
102
{ACAD_REACTORS
330
D
102
}
330
D
100
AcDbGroup
300

 70
     1
 71
     1
340
1C6B7
340
1C6B8
340
1C6B9
340
1C6BA
340
1C6BF
340
1C6C0
340
1C6C1
340
1C6C2
340
1C6C3
340
1C6C4
340
1C6C5
340
1C6C6
340
1C6C7
340
1C6C8
  0
GROUP
  5
1491B
102
{ACAD_REACTORS
330
D
102
}
330
D
100
AcDbGroup
300

 70
     1
 71
     1
  0
GROUP
  5
11D3E
102
{ACAD_REACTORS
330
D
102
}
330
D
100
AcDbGroup
300

 70
     1
 71
     1
  0
GROUP
  5
61EC
102
{ACAD_REACTORS
330
D
102
}
330
D
100
AcDbGroup
300

 70
     1
 71
     1
  0
GROUP
  5
1C868
102
{ACAD_REACTORS
330
D
102
}
330
D
100
AcDbGroup
300

 70
     1
 71
     1
  0
GROUP
  5
1C869
102
{ACAD_REACTORS
330
D
102
}
330
D
100
AcDbGroup
300

 70
     1
 71
     1
  0
GROUP
  5
196A4
102
{ACAD_REACTORS
330
D
102
}
330
D
100
AcDbGroup
300

 70
     1
 71
     1
  0
GROUP
  5
172C4
102
{ACAD_REACTORS
330
D
102
}
330
D
100
AcDbGroup
300

 70
     1
 71
     1
  0
GROUP
  5
1C86A
102
{ACAD_REACTORS
330
D
102
}
330
D
100
AcDbGroup
300

 70
     1
 71
     1
  0
GROUP
  5
5B3E
102
{ACAD_REACTORS
330
D
102
}
330
D
100
AcDbGroup
300

 70
     1
 71
     1
  0
GROUP
  5
61EB
102
{ACAD_REACTORS
330
D
102
}
330
D
100
AcDbGroup
300

 70
     1
 71
     1
  0
GROUP
  5
102BF
102
{ACAD_REACTORS
330
D
102
}
330
D
100
AcDbGroup
300

 70
     1
 71
     1
  0
GROUP
  5
1728C
102
{ACAD_REACTORS
330
D
102
}
330
D
100
AcDbGroup
300

 70
     1
 71
     1
  0
GROUP
  5
101C3
102
{ACAD_REACTORS
330
D
102
}
330
D
100
AcDbGroup
300

 70
     1
 71
     1
  0
GROUP
  5
196BB
102
{ACAD_REACTORS
330
D
102
}
330
D
100
AcDbGroup
300

 70
     1
 71
     1
  0
GROUP
  5
10F26
102
{ACAD_REACTORS
330
D
102
}
330
D
100
AcDbGroup
300

 70
     1
 71
     1
  0
GROUP
  5
172DE
102
{ACAD_REACTORS
330
D
102
}
330
D
100
AcDbGroup
300

 70
     1
 71
     1
  0
GROUP
  5
1C889
102
{ACAD_REACTORS
330
D
102
}
330
D
100
AcDbGroup
300

 70
     1
 71
     1
  0
GROUP
  5
5A3E
102
{ACAD_REACTORS
330
D
102
}
330
D
100
AcDbGroup
300

 70
     1
 71
     1
  0
GROUP
  5
19669
102
{ACAD_REACTORS
330
D
102
}
330
D
100
AcDbGroup
300

 70
     1
 71
     1
  0
GROUP
  5
1C88A
102
{ACAD_REACTORS
330
D
102
}
330
D
100
AcDbGroup
300

 70
     1
 71
     1
  0
GROUP
  5
1C88B
102
{ACAD_REACTORS
330
D
102
}
330
D
100
AcDbGroup
300

 70
     1
 71
     1
  0
GROUP
  5
196B5
102
{ACAD_REACTORS
330
D
102
}
330
D
100
AcDbGroup
300

 70
     1
 71
     1
  0
GROUP
  5
172E1
102
{ACAD_REACTORS
330
D
102
}
330
D
100
AcDbGroup
300

 70
     1
 71
     1
  0
GROUP
  5
1C892
102
{ACAD_REACTORS
330
D
102
}
330
D
100
AcDbGroup
300

 70
     1
 71
     1
  0
GROUP
  5
6CD1
102
{ACAD_REACTORS
330
D
102
}
330
D
100
AcDbGroup
300

 70
     1
 71
     1
  0
GROUP
  5
6FC5
102
{ACAD_REACTORS
330
D
102
}
330
D
100
AcDbGroup
300

 70
     1
 71
     1
  0
GROUP
  5
B17A
102
{ACAD_REACTORS
330
D
102
}
330
D
100
AcDbGroup
300

 70
     1
 71
     1
  0
GROUP
  5
1388D
102
{ACAD_REACTORS
330
D
102
}
330
D
100
AcDbGroup
300

 70
     1
 71
     1
  0
GROUP
  5
19CDD
102
{ACAD_REACTORS
330
D
102
}
330
D
100
AcDbGroup
300

 70
     1
 71
     1
  0
GROUP
  5
A0B3
102
{ACAD_REACTORS
330
D
102
}
330
D
100
AcDbGroup
300

 70
     1
 71
     1
  0
GROUP
  5
DC33
102
{ACAD_REACTORS
330
D
102
}
330
D
100
AcDbGroup
300

 70
     1
 71
     1
  0
GROUP
  5
1C89B
102
{ACAD_REACTORS
330
D
102
}
330
D
100
AcDbGroup
300

 70
     1
 71
     1
340
1C896
340
1C899
340
1C898
340
1C897
  0
GROUP
  5
115F
102
{ACAD_REACTORS
330
D
102
}
330
D
100
AcDbGroup
300

 70
     1
 71
     1
  0
GROUP
  5
19680
102
{ACAD_REACTORS
330
D
102
}
330
D
100
AcDbGroup
300

 70
     1
 71
     1
  0
GROUP
  5
1CC26
102
{ACAD_REACTORS
330
D
102
}
330
D
100
AcDbGroup
300

 70
     1
 71
     1
340
1CB97
340
1CB96
340
1CB95
340
1CB94
340
1CB93
340
1CB92
340
1CB98
  0
GROUP
  5
1CC2E
102
{ACAD_REACTORS
330
D
102
}
330
D
100
AcDbGroup
300

 70
     1
 71
     1
  0
GROUP
  5
196C4
102
{ACAD_REACTORS
330
D
102
}
330
D
100
AcDbGroup
300

 70
     1
 71
     1
  0
GROUP
  5
1CC30
102
{ACAD_REACTORS
330
D
102
}
330
D
100
AcDbGroup
300

 70
     1
 71
     1
  0
GROUP
  5
11442
102
{ACAD_REACTORS
330
D
102
}
330
D
100
AcDbGroup
300

 70
     1
 71
     1
  0
GROUP
  5
5867
102
{ACAD_REACTORS
330
D
102
}
330
D
100
AcDbGroup
300

 70
     1
 71
     1
  0
GROUP
  5
B2B7
102
{ACAD_REACTORS
330
D
102
}
330
D
100
AcDbGroup
300

 70
     1
 71
     1
  0
GROUP
  5
5846
102
{ACAD_REACTORS
330
D
102
}
330
D
100
AcDbGroup
300

 70
     1
 71
     1
  0
GROUP
  5
1A555
102
{ACAD_REACTORS
330
D
102
}
330
D
100
AcDbGroup
300

 70
     1
 71
     1
  0
GROUP
  5
9972
102
{ACAD_REACTORS
330
D
102
}
330
D
100
AcDbGroup
300

 70
     1
 71
     1
  0
GROUP
  5
17A24
102
{ACAD_REACTORS
330
D
102
}
330
D
100
AcDbGroup
300

 70
     1
 71
     1
  0
GROUP
  5
1CC3B
102
{ACAD_REACTORS
330
D
102
}
330
D
100
AcDbGroup
300

 70
     1
 71
     1
340
1CC31
340
1CC32
340
1CC33
340
1CC34
340
1CC35
340
1CC36
340
1CC37
340
1CC38
340
1CC39
340
1CC3A
  0
GROUP
  5
1387B
102
{ACAD_REACTORS
330
D
102
}
330
D
100
AcDbGroup
300

 70
     1
 71
     1
  0
GROUP
  5
1CC46
102
{ACAD_REACTORS
330
D
102
}
330
D
100
AcDbGroup
300

 70
     1
 71
     1
340
1CC3C
340
1CC3D
340
1CC3E
340
1CC3F
340
1CC40
340
1CC41
340
1CC42
340
1CC43
340
1CC44
340
1CC45
  0
GROUP
  5
DC20
102
{ACAD_REACTORS
330
D
102
}
330
D
100
AcDbGroup
300

 70
     1
 71
     1
  0
GROUP
  5
1A1AE
102
{ACAD_REACTORS
330
D
102
}
330
D
100
AcDbGroup
300

 70
     1
 71
     1
  0
GROUP
  5
12B3A
102
{ACAD_REACTORS
330
D
102
}
330
D
100
AcDbGroup
300

 70
     1
 71
     1
  0
GROUP
  5
97ED
102
{ACAD_REACTORS
330
D
102
}
330
D
100
AcDbGroup
300

 70
     1
 71
     1
  0
GROUP
  5
13981
102
{ACAD_REACTORS
330
D
102
}
330
D
100
AcDbGroup
300

 70
     1
 71
     1
  0
GROUP
  5
13864
102
{ACAD_REACTORS
330
D
102
}
330
D
100
AcDbGroup
300

 70
     1
 71
     1
  0
GROUP
  5
15648
102
{ACAD_REACTORS
330
D
102
}
330
D
100
AcDbGroup
300

 70
     1
 71
     1
  0
GROUP
  5
1A842
102
{ACAD_REACTORS
330
D
102
}
330
D
100
AcDbGroup
300

 70
     1
 71
     1
  0
GROUP
  5
7BCB
102
{ACAD_REACTORS
330
D
102
}
330
D
100
AcDbGroup
300

 70
     1
 71
     1
  0
GROUP
  5
17952
102
{ACAD_REACTORS
330
D
102
}
330
D
100
AcDbGroup
300

 70
     1
 71
     1
  0
GROUP
  5
B433
102
{ACAD_REACTORS
330
D
102
}
330
D
100
AcDbGroup
300

 70
     1
 71
     1
  0
GROUP
  5
97CA
102
{ACAD_REACTORS
330
D
102
}
330
D
100
AcDbGroup
300

 70
     1
 71
     1
  0
GROUP
  5
1FCA
102
{ACAD_REACTORS
330
D
102
}
330
D
100
AcDbGroup
300

 70
     1
 71
     1
  0
GROUP
  5
1A83E
102
{ACAD_REACTORS
330
D
102
}
330
D
100
AcDbGroup
300

 70
     1
 71
     1
  0
GROUP
  5
A77F
102
{ACAD_REACTORS
330
D
102
}
330
D
100
AcDbGroup
300

 70
     1
 71
     1
  0
GROUP
  5
A097
102
{ACAD_REACTORS
330
D
102
}
330
D
100
AcDbGroup
300

 70
     1
 71
     1
  0
GROUP
  5
5A40
102
{ACAD_REACTORS
330
D
102
}
330
D
100
AcDbGroup
300

 70
     1
 71
     1
  0
GROUP
  5
9873
102
{ACAD_REACTORS
330
D
102
}
330
D
100
AcDbGroup
300

 70
     1
 71
     1
  0
GROUP
  5
17297
102
{ACAD_REACTORS
330
D
102
}
330
D
100
AcDbGroup
300

 70
     1
 71
     1
  0
GROUP
  5
11AA3
102
{ACAD_REACTORS
330
D
102
}
330
D
100
AcDbGroup
300

 70
     1
 71
     1
  0
GROUP
  5
13C43
102
{ACAD_REACTORS
330
D
102
}
330
D
100
AcDbGroup
300

 70
     1
 71
     1
  0
GROUP
  5
73A3
102
{ACAD_REACTORS
330
D
102
}
330
D
100
AcDbGroup
300

 70
     1
 71
     1
  0
GROUP
  5
148F0
102
{ACAD_REACTORS
330
D
102
}
330
D
100
AcDbGroup
300

 70
     1
 71
     1
  0
GROUP
  5
15649
102
{ACAD_REACTORS
330
D
102
}
330
D
100
AcDbGroup
300

 70
     1
 71
     1
  0
GROUP
  5
1A849
102
{ACAD_REACTORS
330
D
102
}
330
D
100
AcDbGroup
300

 70
     1
 71
     1
  0
GROUP
  5
1CF56
102
{ACAD_REACTORS
330
D
102
}
330
D
100
AcDbGroup
300

 70
     1
 71
     1
  0
GROUP
  5
732E
102
{ACAD_REACTORS
330
D
102
}
330
D
100
AcDbGroup
300

 70
     1
 71
     1
  0
GROUP
  5
17286
102
{ACAD_REACTORS
330
D
102
}
330
D
100
AcDbGroup
300

 70
     1
 71
     1
  0
GROUP
  5
B432
102
{ACAD_REACTORS
330
D
102
}
330
D
100
AcDbGroup
300

 70
     1
 71
     1
  0
GROUP
  5
1CF57
102
{ACAD_REACTORS
330
D
102
}
330
D
100
AcDbGroup
300

 70
     1
 71
     1
  0
GROUP
  5
141F4
102
{ACAD_REACTORS
330
D
102
}
330
D
100
AcDbGroup
300

 70
     1
 71
     1
  0
GROUP
  5
1CF80
102
{ACAD_REACTORS
330
D
102
}
330
D
100
AcDbGroup
300

 70
     1
 71
     1
  0
GROUP
  5
17298
102
{ACAD_REACTORS
330
D
102
}
330
D
100
AcDbGroup
300

 70
     1
 71
     1
  0
GROUP
  5
DC1A
102
{ACAD_REACTORS
330
D
102
}
330
D
100
AcDbGroup
300

 70
     1
 71
     1
  0
GROUP
  5
1CF81
102
{ACAD_REACTORS
330
D
102
}
330
D
100
AcDbGroup
300

 70
     1
 71
     1
  0
GROUP
  5
136EB
102
{ACAD_REACTORS
330
D
102
}
330
D
100
AcDbGroup
300

 70
     1
 71
     1
  0
GROUP
  5
172AA
102
{ACAD_REACTORS
330
D
102
}
330
D
100
AcDbGroup
300

 70
     1
 71
     1
  0
GROUP
  5
141F3
102
{ACAD_REACTORS
330
D
102
}
330
D
100
AcDbGroup
300

 70
     1
 71
     1
  0
GROUP
  5
1CFAD
102
{ACAD_REACTORS
330
D
102
}
330
D
100
AcDbGroup
300

 70
     1
 71
     1
  0
GROUP
  5
1CFAE
102
{ACAD_REACTORS
330
D
102
}
330
D
100
AcDbGroup
300

 70
     1
 71
     1
  0
GROUP
  5
172BA
102
{ACAD_REACTORS
330
D
102
}
330
D
100
AcDbGroup
300

 70
     1
 71
     1
  0
GROUP
  5
60E2
102
{ACAD_REACTORS
330
D
102
}
330
D
100
AcDbGroup
300

 70
     1
 71
     1
  0
GROUP
  5
1CFD8
102
{ACAD_REACTORS
330
D
102
}
330
D
100
AcDbGroup
300

 70
     1
 71
     1
  0
GROUP
  5
13C6D
102
{ACAD_REACTORS
330
D
102
}
330
D
100
AcDbGroup
300

 70
     1
 71
     1
  0
GROUP
  5
172CB
102
{ACAD_REACTORS
330
D
102
}
330
D
100
AcDbGroup
300

 70
     1
 71
     1
  0
GROUP
  5
14B44
102
{ACAD_REACTORS
330
D
102
}
330
D
100
AcDbGroup
300

 70
     1
 71
     1
  0
GROUP
  5
1CFD9
102
{ACAD_REACTORS
330
D
102
}
330
D
100
AcDbGroup
300

 70
     1
 71
     1
  0
GROUP
  5
1CFDA
102
{ACAD_REACTORS
330
D
102
}
330
D
100
AcDbGroup
300

 70
     1
 71
     1
340
1CFB9
340
1CFBA
340
1CFB0
340
1CFD7
340
1CFB1
340
1CFC7
340
1CFB2
340
1CFB7
340
1CFB8
340
1CFB6
340
1CFB5
  0
GROUP
  5
172D8
102
{ACAD_REACTORS
330
D
102
}
330
D
100
AcDbGroup
300

 70
     1
 71
     1
  0
GROUP
  5
1CFEA
102
{ACAD_REACTORS
330
D
102
}
330
D
100
AcDbGroup
300

 70
     1
 71
     1
340
1CFB4
340
1CFBD
340
1CFB3
340
1CFBB
340
1CFB1
340
1CFB9
340
1CFBA
340
1CFB0
340
1CFD7
340
1CFC7
340
1CFB2
340
1CFB7
340
1CFB8
340
1CFB6
340
1CFB5
  0
GROUP
  5
63AB
102
{ACAD_REACTORS
330
D
102
}
330
D
100
AcDbGroup
300

 70
     1
 71
     1
  0
GROUP
  5
6528
102
{ACAD_REACTORS
330
D
102
}
330
D
100
AcDbGroup
300

 70
     1
 71
     1
  0
GROUP
  5
10556
102
{ACAD_REACTORS
330
D
102
}
330
D
100
AcDbGroup
300

 70
     1
 71
     1
  0
GROUP
  5
7BF1
102
{ACAD_REACTORS
330
D
102
}
330
D
100
AcDbGroup
300

 70
     1
 71
     1
  0
GROUP
  5
14BCD
102
{ACAD_REACTORS
330
D
102
}
330
D
100
AcDbGroup
300

 70
     1
 71
     1
  0
GROUP
  5
A779
102
{ACAD_REACTORS
330
D
102
}
330
D
100
AcDbGroup
300

 70
     1
 71
     1
  0
GROUP
  5
9974
102
{ACAD_REACTORS
330
D
102
}
330
D
100
AcDbGroup
300

 70
     1
 71
     1
  0
GROUP
  5
9CE1
102
{ACAD_REACTORS
330
D
102
}
330
D
100
AcDbGroup
300

 70
     1
 71
     1
  0
GROUP
  5
17905
102
{ACAD_REACTORS
330
D
102
}
330
D
100
AcDbGroup
300

 70
     1
 71
     1
  0
GROUP
  5
17282
102
{ACAD_REACTORS
330
D
102
}
330
D
100
AcDbGroup
300

 70
     1
 71
     1
  0
GROUP
  5
DC18
102
{ACAD_REACTORS
330
D
102
}
330
D
100
AcDbGroup
300

 70
     1
 71
     1
  0
GROUP
  5
17A1F
102
{ACAD_REACTORS
330
D
102
}
330
D
100
AcDbGroup
300

 70
     1
 71
     1
  0
GROUP
  5
74F8
102
{ACAD_REACTORS
330
D
102
}
330
D
100
AcDbGroup
300

 70
     1
 71
     1
  0
GROUP
  5
149B1
102
{ACAD_REACTORS
330
D
102
}
330
D
100
AcDbGroup
300

 70
     1
 71
     1
  0
GROUP
  5
144F1
102
{ACAD_REACTORS
330
D
102
}
330
D
100
AcDbGroup
300

 70
     1
 71
     1
  0
GROUP
  5
172A6
102
{ACAD_REACTORS
330
D
102
}
330
D
100
AcDbGroup
300

 70
     1
 71
     1
  0
GROUP
  5
1D157
102
{ACAD_REACTORS
330
D
102
}
330
D
100
AcDbGroup
300

 70
     1
 71
     1
340
1D151
340
1D150
340
1D152
340
1D153
340
1D154
340
1D155
340
1D156
  0
GROUP
  5
118B1
102
{ACAD_REACTORS
330
D
102
}
330
D
100
AcDbGroup
300

 70
     1
 71
     1
  0
GROUP
  5
E68F
102
{ACAD_REACTORS
330
D
102
}
330
D
100
AcDbGroup
300

 70
     1
 71
     1
  0
GROUP
  5
19661
102
{ACAD_REACTORS
330
D
102
}
330
D
100
AcDbGroup
300

 70
     1
 71
     1
  0
GROUP
  5
172C7
102
{ACAD_REACTORS
330
D
102
}
330
D
100
AcDbGroup
300

 70
     1
 71
     1
  0
GROUP
  5
A159
102
{ACAD_REACTORS
330
D
102
}
330
D
100
AcDbGroup
300

 70
     1
 71
     1
  0
GROUP
  5
1966C
102
{ACAD_REACTORS
330
D
102
}
330
D
100
AcDbGroup
300

 70
     1
 71
     1
  0
GROUP
  5
F622
102
{ACAD_REACTORS
330
D
102
}
330
D
100
AcDbGroup
300

 70
     1
 71
     1
  0
GROUP
  5
19679
102
{ACAD_REACTORS
330
D
102
}
330
D
100
AcDbGroup
300

 70
     1
 71
     1
  0
GROUP
  5
172E4
102
{ACAD_REACTORS
330
D
102
}
330
D
100
AcDbGroup
300

 70
     1
 71
     1
  0
GROUP
  5
12B38
102
{ACAD_REACTORS
330
D
102
}
330
D
100
AcDbGroup
300

 70
     1
 71
     1
  0
GROUP
  5
19683
102
{ACAD_REACTORS
330
D
102
}
330
D
100
AcDbGroup
300

 70
     1
 71
     1
  0
GROUP
  5
10F23
102
{ACAD_REACTORS
330
D
102
}
330
D
100
AcDbGroup
300

 70
     1
 71
     1
  0
GROUP
  5
12B39
102
{ACAD_REACTORS
330
D
102
}
330
D
100
AcDbGroup
300

 70
     1
 71
     1
  0
GROUP
  5
DC4E
102
{ACAD_REACTORS
330
D
102
}
330
D
100
AcDbGroup
300

 70
     1
 71
     1
  0
GROUP
  5
19697
102
{ACAD_REACTORS
330
D
102
}
330
D
100
AcDbGroup
300

 70
     1
 71
     1
  0
GROUP
  5
1D4EC
102
{ACAD_REACTORS
330
D
102
}
330
D
100
AcDbGroup
300

 70
     1
 71
     1
  0
GROUP
  5
118B0
102
{ACAD_REACTORS
330
D
102
}
330
D
100
AcDbGroup
300

 70
     1
 71
     1
  0
GROUP
  5
13985
102
{ACAD_REACTORS
330
D
102
}
330
D
100
AcDbGroup
300

 70
     1
 71
     1
  0
GROUP
  5
196A9
102
{ACAD_REACTORS
330
D
102
}
330
D
100
AcDbGroup
300

 70
     1
 71
     1
  0
GROUP
  5
B179
102
{ACAD_REACTORS
330
D
102
}
330
D
100
AcDbGroup
300

 70
     1
 71
     1
  0
GROUP
  5
6669
102
{ACAD_REACTORS
330
D
102
}
330
D
100
AcDbGroup
300

 70
     1
 71
     1
  0
GROUP
  5
107B
102
{ACAD_REACTORS
330
D
102
}
330
D
100
AcDbGroup
300

 70
     1
 71
     1
  0
GROUP
  5
1564B
102
{ACAD_REACTORS
330
D
102
}
330
D
100
AcDbGroup
300

 70
     1
 71
     1
  0
GROUP
  5
530F
102
{ACAD_REACTORS
330
D
102
}
330
D
100
AcDbGroup
300

 70
     1
 71
     1
  0
GROUP
  5
1728A
102
{ACAD_REACTORS
330
D
102
}
330
D
100
AcDbGroup
300

 70
     1
 71
     1
  0
GROUP
  5
1729A
102
{ACAD_REACTORS
330
D
102
}
330
D
100
AcDbGroup
300

 70
     1
 71
     1
  0
GROUP
  5
7317
102
{ACAD_REACTORS
330
D
102
}
330
D
100
AcDbGroup
300

 70
     1
 71
     1
  0
GROUP
  5
1D724
102
{ACAD_REACTORS
330
D
102
}
330
D
100
AcDbGroup
300

 70
     1
 71
     1
  0
GROUP
  5
1D74C
102
{ACAD_REACTORS
330
D
102
}
330
D
100
AcDbGroup
300

 70
     1
 71
     1
340
1CFB3
340
1CFB4
340
1CFBD
340
1CFBB
340
1CFB1
340
1CFB9
340
1CFBA
340
1CFB0
340
1CFD7
340
1CFC7
340
1CFB2
340
1CFB7
340
1CFB8
340
1CFB6
340
1CFB5
340
1D715
  0
GROUP
  5
1384D
102
{ACAD_REACTORS
330
D
102
}
330
D
100
AcDbGroup
300

 70
     1
 71
     1
  0
GROUP
  5
172AE
102
{ACAD_REACTORS
330
D
102
}
330
D
100
AcDbGroup
300

 70
     1
 71
     1
  0
GROUP
  5
172BC
102
{ACAD_REACTORS
330
D
102
}
330
D
100
AcDbGroup
300

 70
     1
 71
     1
  0
GROUP
  5
172CD
102
{ACAD_REACTORS
330
D
102
}
330
D
100
AcDbGroup
300

 70
     1
 71
     1
  0
GROUP
  5
172DA
102
{ACAD_REACTORS
330
D
102
}
330
D
100
AcDbGroup
300

 70
     1
 71
     1
  0
GROUP
  5
F567
102
{ACAD_REACTORS
330
D
102
}
330
D
100
AcDbGroup
300

 70
     1
 71
     1
  0
GROUP
  5
65BB
102
{ACAD_REACTORS
330
D
102
}
330
D
100
AcDbGroup
300

 70
     1
 71
     1
  0
LAYOUT
  5
685
102
{ACAD_REACTORS
330
683
102
}
330
683
100
AcDbPlotSettings
  1

  2
IBM Infoprint 1316J RPCS.pc3
  4
A4
  6

 40
5.873749732971191
 41
5.873747825622558
 42
5.873748779296875
 43
5.873748779296875
 44
209.9733276367187
 45
296.9259948730469
 46
1.889999999999999
 47
0.0
 48
3055.310560808333
 49
-1248.319068899633
140
3275.310560808333
141
-1098.319068899633
142
1.0
143
0.7714466600253781
 70
 11956
 72
     1
 73
     1
 74
     4
  7
monochrome.ctb
 75
     0
147
1.296265901218761
148
-3055.310560808333
149
1248.319068899633
100
AcDbLayout
  1
Model
 70
     1
 71
     0
 10
0.0
 20
0.0
 11
12.0
 21
9.0
 12
0.0
 22
0.0
 32
0.0
 14
0.0
 24
0.0
 34
0.0
 15
0.0
 25
0.0
 35
0.0
146
0.0
 13
0.0
 23
0.0
 33
0.0
 16
1.0
 26
0.0
 36
0.0
 17
0.0
 27
1.0
 37
0.0
 76
     0
330
18
  0
LAYOUT
  5
686
102
{ACAD_REACTORS
330
683
102
}
330
683
100
AcDbPlotSettings
  1

  2
SII LP-1010 (C2 VR)2R.pc3
  4
A4
  6

 40
5.78908348083496
 41
5.789087295532226
 42
5.7890625
 43
5.789077758789062
 44
296.9259948730469
 45
209.9733276367187
 46
0.0
 47
0.0
 48
0.0
 49
0.0
140
0.0
141
0.0
142
1.0
143
1.0
 70
   688
 72
     1
 73
     0
 74
     1
  7
monochrome.ctb
 75
    16
147
1.0
148
0.0190031145392595
149
0.0152025229918991
100
AcDbLayout
  1
外形図
 70
     0
 71
     1
 10
-5.80808659537422
 20
-5.804289818524125
 11
291.1179082776726
 21
204.1690378181946
 12
0.0
 22
0.0
 32
0.0
 14
-0.0178115221804092
 24
-0.0150818097844763
 34
-0.000000000000013
 15
288.0007659527953
 25
210.0001106076857
 35
0.0000000000000023
146
0.0
 13
0.0
 23
0.0
 33
0.0
 16
1.0
 26
0.0
 36
0.0
 17
0.0
 27
1.0
 37
0.0
 76
     0
330
15
331
23
  0
MLINESTYLE
  5
1C
102
{ACAD_REACTORS
330
1B
102
}
330
1B
100
AcDbMlineStyle
  2
STANDARD
 70
     0
  3

 62
   256
 51
90.0
 52
90.0
 71
     2
 49
0.5
 62
   256
  6
BYLAYER
 49
-0.5
 62
   256
  6
BYLAYER
  0
ACDBPLACEHOLDER
  5
682
102
{ACAD_REACTORS
330
681
102
}
330
681
  0
DICTIONARYVAR
  5
7921
102
{ACAD_REACTORS
330
7920
102
}
330
7920
100
DictionaryVariables
280
     0
  1
96
  0
XRECORD
  5
B191
102
{ACAD_REACTORS
330
B190
102
}
330
B190
100
AcDbXrecord
280
     1
  1
0
  1
*0
  1
*
  1
*
 70
     0
  1
*
  1
*
  0
XRECORD
  5
B192
102
{ACAD_REACTORS
330
B190
102
}
330
B190
100
AcDbXrecord
280
     1
  1
11
  1
*11
  1
*
  1
*
 70
     0
  1
*
  1
*
  0
XRECORD
  5
B193
102
{ACAD_REACTORS
330
B190
102
}
330
B190
100
AcDbXrecord
280
     1
  1
150_
  1
150_*
  1
*
  1
*
 70
     0
  1
*
  1
*
  0
XRECORD
  5
B194
102
{ACAD_REACTORS
330
B190
102
}
330
B190
100
AcDbXrecord
280
     1
  1
160_
  1
160_*
  1
*
  1
*
 70
     0
  1
*
  1
*
  0
XRECORD
  5
B195
102
{ACAD_REACTORS
330
B190
102
}
330
B190
100
AcDbXrecord
280
     1
  1
170_
  1
170_*
  1
*
  1
*
 70
     0
  1
*
  1
*
  0
XRECORD
  5
B196
102
{ACAD_REACTORS
330
B190
102
}
330
B190
100
AcDbXrecord
280
     1
  1
171_
  1
171_*
  1
*
  1
*
 70
     0
  1
*
  1
*
  0
XRECORD
  5
B197
102
{ACAD_REACTORS
330
B190
102
}
330
B190
100
AcDbXrecord
280
     1
  1
350_
  1
350_*
  1
*
  1
*
 70
     0
  1
*
  1
*
  0
XRECORD
  5
B198
102
{ACAD_REACTORS
330
B190
102
}
330
B190
100
AcDbXrecord
280
     1
  1
4
  1
*4
  1
*
  1
*
 70
     0
  1
*
  1
*
  0
XRECORD
  5
B199
102
{ACAD_REACTORS
330
B190
102
}
330
B190
100
AcDbXrecord
280
     1
  1
5
  1
*5
  1
*
  1
*
 70
     0
  1
*
  1
*
  0
XRECORD
  5
B19A
102
{ACAD_REACTORS
330
B190
102
}
330
B190
100
AcDbXrecord
280
     1
  1
7
  1
*7
  1
*
  1
*
 70
     0
  1
*
  1
*
  0
XRECORD
  5
B19B
102
{ACAD_REACTORS
330
B190
102
}
330
B190
100
AcDbXrecord
280
     1
  1
kiseki
  1
kiseki*
  1
*
  1
*
 70
     0
  1
*
  1
*
  0
ENDSEC
  0
EOF
