  0
SECTION
  2
HEADER
  9
$ACADVER
  1
AC1015
  9
$ACADMAINTVER
 70
    10
  9
$DWGCODEPAGE
  3
ANSI_932
  9
$INSBASE
 10
0.0
 20
0.0
 30
0.0
  9
$EXTMIN
 10
1308.430920518343
 20
-400.7903571252318
 30
0.0
  9
$EXTMAX
 10
1768.939601260652
 20
229.3360618844689
 30
0.0
  9
$LIMMIN
 10
0.0
 20
0.0
  9
$LIMMAX
 10
420.0
 20
297.0
  9
$ORTHOMODE
 70
     1
  9
$REGENMODE
 70
     1
  9
$FILLMODE
 70
     1
  9
$QTEXTMODE
 70
     0
  9
$MIRRTEXT
 70
     1
  9
$LTSCALE
 40
1.0
  9
$ATTMODE
 70
     1
  9
$TEXTSIZE
 40
2.5
  9
$TRACEWID
 40
1.0
  9
$TEXTSTYLE
  7
STANDARD
  9
$CLAYER
  8
0
  9
$CELTYPE
  6
BYLAYER
  9
$CECOLOR
 62
   256
  9
$CELTSCALE
 40
0.5
  9
$DISPSILH
 70
     0
  9
$DIMSCALE
 40
1.0
  9
$DIMASZ
 40
1.5
  9
$DIMEXO
 40
0.5
  9
$DIMDLI
 40
5.0
  9
$DIMRND
 40
0.0
  9
$DIMDLE
 40
0.0
  9
$DIMEXE
 40
0.75
  9
$DIMTP
 40
0.0
  9
$DIMTM
 40
0.0
  9
$DIMTXT
 40
3.0
  9
$DIMCEN
 40
2.5
  9
$DIMTSZ
 40
0.0
  9
$DIMTOL
 70
     0
  9
$DIMLIM
 70
     0
  9
$DIMTIH
 70
     0
  9
$DIMTOH
 70
     0
  9
$DIMSE1
 70
     0
  9
$DIMSE2
 70
     0
  9
$DIMTAD
 70
     1
  9
$DIMZIN
 70
     9
  9
$DIMBLK
  1

  9
$DIMASO
 70
     1
  9
$DIMSHO
 70
     1
  9
$DIMPOST
  1

  9
$DIMAPOST
  1

  9
$DIMALT
 70
     0
  9
$DIMALTD
 70
     4
  9
$DIMALTF
 40
0.0394
  9
$DIMLFAC
 40
1.0
  9
$DIMTOFL
 70
     1
  9
$DIMTVP
 40
0.0
  9
$DIMTIX
 70
     0
  9
$DIMSOXD
 70
     0
  9
$DIMSAH
 70
     1
  9
$DIMBLK1
  1
OPEN
  9
$DIMBLK2
  1
OPEN
  9
$DIMSTYLE
  2
STANDARD
  9
$DIMCLRD
 70
     0
  9
$DIMCLRE
 70
     0
  9
$DIMCLRT
 70
     7
  9
$DIMTFAC
 40
1.0
  9
$DIMGAP
 40
0.5
  9
$DIMJUST
 70
     0
  9
$DIMSD1
 70
     0
  9
$DIMSD2
 70
     0
  9
$DIMTOLJ
 70
     1
  9
$DIMTZIN
 70
     9
  9
$DIMALTZ
 70
     0
  9
$DIMALTTZ
 70
     0
  9
$DIMUPT
 70
     0
  9
$DIMDEC
 70
     4
  9
$DIMTDEC
 70
     4
  9
$DIMALTU
 70
     8
  9
$DIMALTTD
 70
     4
  9
$DIMTXSTY
  7
STANDARD
  9
$DIMAUNIT
 70
     0
  9
$DIMADEC
 70
     0
  9
$DIMALTRND
 40
0.0
  9
$DIMAZIN
 70
     2
  9
$DIMDSEP
 70
    46
  9
$DIMATFIT
 70
     3
  9
$DIMFRAC
 70
     0
  9
$DIMLDRBLK
  1
OPEN
  9
$DIMLUNIT
 70
     2
  9
$DIMLWD
 70
    -2
  9
$DIMLWE
 70
    -2
  9
$DIMTMOVE
 70
     0
  9
$LUNITS
 70
     2
  9
$LUPREC
 70
     4
  9
$SKETCHINC
 40
1.0
  9
$FILLETRAD
 40
0.5
  9
$AUNITS
 70
     0
  9
$AUPREC
 70
     0
  9
$MENU
  1
.
  9
$ELEVATION
 40
0.0
  9
$PELEVATION
 40
0.0
  9
$THICKNESS
 40
0.0
  9
$LIMCHECK
 70
     0
  9
$CHAMFERA
 40
0.5
  9
$CHAMFERB
 40
0.5
  9
$CHAMFERC
 40
20.0
  9
$CHAMFERD
 40
0.0
  9
$SKPOLY
 70
     0
  9
$TDCREATE
 40
2453095.611059641
  9
$TDUCREATE
 40
2453095.236059640
  9
$TDUPDATE
 40
2456072.550017361
  9
$TDUUPDATE
 40
2456072.175017361
  9
$TDINDWG
 40
3.3286745833
  9
$TDUSRTIMER
 40
3.3286735417
  9
$USRTIMER
 70
     1
  9
$ANGBASE
 50
0.0
  9
$ANGDIR
 70
     0
  9
$PDMODE
 70
     0
  9
$PDSIZE
 40
0.0
  9
$PLINEWID
 40
0.0
  9
$SPLFRAME
 70
     0
  9
$SPLINETYPE
 70
     6
  9
$SPLINESEGS
 70
     8
  9
$HANDSEED
  5
B614
  9
$SURFTAB1
 70
     6
  9
$SURFTAB2
 70
     6
  9
$SURFTYPE
 70
     6
  9
$SURFU
 70
     6
  9
$SURFV
 70
     6
  9
$UCSBASE
  2

  9
$UCSNAME
  2

  9
$UCSORG
 10
0.0
 20
0.0
 30
0.0
  9
$UCSXDIR
 10
1.0
 20
0.0
 30
0.0
  9
$UCSYDIR
 10
0.0
 20
1.0
 30
0.0
  9
$UCSORTHOREF
  2

  9
$UCSORTHOVIEW
 70
     0
  9
$UCSORGTOP
 10
0.0
 20
0.0
 30
0.0
  9
$UCSORGBOTTOM
 10
0.0
 20
0.0
 30
0.0
  9
$UCSORGLEFT
 10
0.0
 20
0.0
 30
0.0
  9
$UCSORGRIGHT
 10
0.0
 20
0.0
 30
0.0
  9
$UCSORGFRONT
 10
0.0
 20
0.0
 30
0.0
  9
$UCSORGBACK
 10
0.0
 20
0.0
 30
0.0
  9
$PUCSBASE
  2

  9
$PUCSNAME
  2

  9
$PUCSORG
 10
0.0
 20
0.0
 30
0.0
  9
$PUCSXDIR
 10
1.0
 20
0.0
 30
0.0
  9
$PUCSYDIR
 10
0.0
 20
1.0
 30
0.0
  9
$PUCSORTHOREF
  2

  9
$PUCSORTHOVIEW
 70
     0
  9
$PUCSORGTOP
 10
0.0
 20
0.0
 30
0.0
  9
$PUCSORGBOTTOM
 10
0.0
 20
0.0
 30
0.0
  9
$PUCSORGLEFT
 10
0.0
 20
0.0
 30
0.0
  9
$PUCSORGRIGHT
 10
0.0
 20
0.0
 30
0.0
  9
$PUCSORGFRONT
 10
0.0
 20
0.0
 30
0.0
  9
$PUCSORGBACK
 10
0.0
 20
0.0
 30
0.0
  9
$USERI1
 70
     0
  9
$USERI2
 70
     0
  9
$USERI3
 70
     0
  9
$USERI4
 70
     0
  9
$USERI5
 70
     0
  9
$USERR1
 40
0.0
  9
$USERR2
 40
0.0
  9
$USERR3
 40
0.0
  9
$USERR4
 40
0.0
  9
$USERR5
 40
0.0
  9
$WORLDVIEW
 70
     1
  9
$SHADEDGE
 70
     3
  9
$SHADEDIF
 70
    70
  9
$TILEMODE
 70
     0
  9
$MAXACTVP
 70
    48
  9
$PINSBASE
 10
0.0
 20
0.0
 30
0.0
  9
$PLIMCHECK
 70
     0
  9
$PEXTMIN
 10
-0.0179889788886385
 20
-0.0136861229544252
 30
-0.0015258207003583
  9
$PEXTMAX
 10
288.0126016165545
 20
210.0065061942487
 30
0.0000000349246037
  9
$PLIMMIN
 10
-3.181567207479702
 20
-3.178708649286818
  9
$PLIMMAX
 10
293.8502626265046
 20
206.7946189874319
  9
$UNITMODE
 70
     0
  9
$VISRETAIN
 70
     1
  9
$PLINEGEN
 70
     0
  9
$PSLTSCALE
 70
     0
  9
$TREEDEPTH
 70
  3020
  9
$CMLSTYLE
  2
STANDARD
  9
$CMLJUST
 70
     0
  9
$CMLSCALE
 40
20.0
  9
$PROXYGRAPHICS
 70
     1
  9
$MEASUREMENT
 70
     1
  9
$CELWEIGHT
370
    -1
  9
$ENDCAPS
280
     0
  9
$JOINSTYLE
280
     0
  9
$LWDISPLAY
290
     0
  9
$INSUNITS
 70
     0
  9
$HYPERLINKBASE
  1

  9
$STYLESHEET
  1

  9
$XEDIT
290
     1
  9
$CEPSNTYPE
380
     0
  9
$PSTYLEMODE
290
     1
  9
$FINGERPRINTGUID
  2
{0FC43A6F-16A9-11D5-BFD6-00004C030E53}
  9
$VERSIONGUID
  2
{C712C9AA-A571-4543-929C-4929A56CE85F}
  9
$EXTNAMES
290
     1
  9
$PSVPSCALE
 40
0.0
  9
$OLESTARTUP
290
     0
  0
ENDSEC
  0
SECTION
  2
CLASSES
  0
CLASS
  1
HATCH
  2
AcDbHatch
  3
AutoCAD 2000
 90
    32768
280
     0
281
     1
  0
CLASS
  1
LWPOLYLINE
  2
AcDbPolyline
  3
AutoCAD 2000
 90
    32768
280
     0
281
     1
  0
CLASS
  1
ACDBDICTIONARYWDFLT
  2
AcDbDictionaryWithDefault
  3
AutoCAD 2000
 90
        0
280
     0
281
     0
  0
CLASS
  1
ACDBPLACEHOLDER
  2
AcDbPlaceHolder
  3
AutoCAD 2000
 90
        0
280
     0
281
     0
  0
CLASS
  1
LAYOUT
  2
AcDbLayout
  3
AutoCAD 2000
 90
        0
280
     0
281
     0
  0
CLASS
  1
DICTIONARYVAR
  2
AcDbDictionaryVar
  3
AutoCAD 2000
 90
        0
280
     0
281
     0
  0
ENDSEC
  0
SECTION
  2
TABLES
  0
TABLE
  2
VPORT
  5
8
330
0
100
AcDbSymbolTable
 70
     2
  0
VPORT
  5
B613
330
8
100
AcDbSymbolTableRecord
100
AcDbViewportTableRecord
  2
*Active
 70
     0
 10
0.0
 20
0.0
 11
1.0
 21
1.0
 12
1650.631431498864
 22
158.5406403538223
 13
0.0
 23
0.0
 14
10.0
 24
10.0
 15
10.0
 25
10.0
 16
0.0
 26
0.0
 36
1.0
 17
0.0
 27
0.0
 37
0.0
 40
184.3540139390686
 41
1.471518987341772
 42
50.0
 43
0.0
 44
0.0
 50
0.0
 51
0.0
 71
     0
 72
   100
 73
     1
 74
     0
 75
     0
 76
     1
 77
     0
 78
     0
281
     0
 65
     1
110
0.0
120
0.0
130
0.0
111
1.0
121
0.0
131
0.0
112
0.0
122
1.0
132
0.0
 79
     0
146
0.0
  0
ENDTAB
  0
TABLE
  2
LTYPE
  5
5
330
0
100
AcDbSymbolTable
 70
     3
  0
LTYPE
  5
12
330
5
100
AcDbSymbolTableRecord
100
AcDbLinetypeTableRecord
  2
BYBLOCK
 70
     0
  3

 72
    65
 73
     0
 40
0.0
  0
LTYPE
  5
13
330
5
100
AcDbSymbolTableRecord
100
AcDbLinetypeTableRecord
  2
BYLAYER
 70
     0
  3

 72
    65
 73
     0
 40
0.0
  0
LTYPE
  5
14
330
5
100
AcDbSymbolTableRecord
100
AcDbLinetypeTableRecord
  2
CONTINUOUS
 70
     0
  3
Solid line
 72
    65
 73
     0
 40
0.0
  0
LTYPE
  5
82F
330
5
100
AcDbSymbolTableRecord
100
AcDbLinetypeTableRecord
  2
DASHED
 70
     0
  3
Dashed __ __ __ __ __ __ __ __ __ __ __ __ __ _
 72
    65
 73
     2
 40
19.04999999999999
 49
12.7
 74
     0
 49
-6.349999999999999
 74
     0
  0
LTYPE
  5
1DDA
330
5
100
AcDbSymbolTableRecord
100
AcDbLinetypeTableRecord
  2
CENTER
 70
     0
  3
____ _ ____ _ ____ _ ____ _ ____ _ ____ _ ____ 
 72
    65
 73
     4
 40
2.0
 49
1.25
 74
     0
 49
-0.25
 74
     0
 49
0.25
 74
     0
 49
-0.25
 74
     0
  0
ENDTAB
  0
TABLE
  2
LAYER
  5
2
102
{ACAD_XDICTIONARY
360
531A
102
}
330
0
100
AcDbSymbolTable
 70
    13
  0
LAYER
  5
E
330
2
100
AcDbSymbolTableRecord
100
AcDbLayerTableRecord
  2
0
 70
     0
 62
     7
  6
CONTINUOUS
370
    -3
390
682
  0
LAYER
  5
2C
330
2
100
AcDbSymbolTableRecord
100
AcDbLayerTableRecord
  2
M_VIEW
 70
     0
 62
    -1
  6
CONTINUOUS
370
    -3
390
682
  0
LAYER
  5
68C
330
2
100
AcDbSymbolTableRecord
100
AcDbLayerTableRecord
  2
wakumoji
 70
     0
 62
     7
  6
CONTINUOUS
370
    -3
390
682
  0
LAYER
  5
68D
330
2
100
AcDbSymbolTableRecord
100
AcDbLayerTableRecord
  2
wakumoji1
 70
     0
 62
    -7
  6
CONTINUOUS
370
    -3
390
682
  0
LAYER
  5
8BC
330
2
100
AcDbSymbolTableRecord
100
AcDbLayerTableRecord
  2
DEFPOINTS
 70
     0
 62
     7
  6
CONTINUOUS
290
     0
370
    -3
390
682
  0
LAYER
  5
A1B
330
2
100
AcDbSymbolTableRecord
100
AcDbLayerTableRecord
  2
ｾﾑｽ
 70
     0
 62
   -11
  6
CONTINUOUS
370
    -3
390
682
  0
LAYER
  5
C05
330
2
100
AcDbSymbolTableRecord
100
AcDbLayerTableRecord
  2
寸法
 70
     0
 62
     4
  6
CONTINUOUS
370
    13
390
682
  0
LAYER
  5
46D0
330
2
100
AcDbSymbolTableRecord
100
AcDbLayerTableRecord
  2
CIRCUIT
 70
     0
 62
     7
  6
CONTINUOUS
370
    -3
390
682
  0
LAYER
  5
46D1
330
2
100
AcDbSymbolTableRecord
100
AcDbLayerTableRecord
  2
A
 70
     0
 62
     7
  6
CONTINUOUS
370
    -3
390
682
  0
LAYER
  5
46D2
330
2
100
AcDbSymbolTableRecord
100
AcDbLayerTableRecord
  2
PIC11
 70
     0
 62
     7
  6
CONTINUOUS
370
    -3
390
682
  0
LAYER
  5
4B35
330
2
100
AcDbSymbolTableRecord
100
AcDbLayerTableRecord
  2
CENTER
 70
     0
 62
     1
  6
CENTER
370
    13
390
682
  0
LAYER
  5
4D39
330
2
100
AcDbSymbolTableRecord
100
AcDbLayerTableRecord
  2
文字
 70
     0
 62
    40
  6
CONTINUOUS
370
    13
390
682
  0
LAYER
  5
51A1
330
2
100
AcDbSymbolTableRecord
100
AcDbLayerTableRecord
  2
FRAME025
 70
     0
 62
    -7
  6
CONTINUOUS
370
    -3
390
682
  0
ENDTAB
  0
TABLE
  2
STYLE
  5
3
330
0
100
AcDbSymbolTable
 70
     4
  0
STYLE
  5
F
330
3
100
AcDbSymbolTableRecord
100
AcDbTextStyleTableRecord
  2
STANDARD
 70
     0
 40
0.0
 41
1.0
 50
0.0
 71
     0
 42
2.5
  3
isocp.shx
  4
bigfont.shx
  0
STYLE
  5
35
330
3
100
AcDbSymbolTableRecord
100
AcDbTextStyleTableRecord
  2
MSｺﾞｼｯｸ
 70
     0
 40
0.0
 41
1.0
 50
0.0
 71
     0
 42
5.0
  3
MS Gothic.ttf
  4

1001
ACAD
1000
MS Gothic
1071
    32817
  0
STYLE
  5
8BF
330
3
100
AcDbSymbolTableRecord
100
AcDbTextStyleTableRecord
  2
MSｺﾞｼｯｸ-0
 70
     0
 40
0.0
 41
1.0
 50
0.0
 71
     0
 42
4.0
  3
simplex.shx
  4
bigfont.shx
  0
STYLE
  5
51FA
330
3
100
AcDbSymbolTableRecord
100
AcDbTextStyleTableRecord
  2
MS明朝
 70
     0
 40
0.0
 41
1.0
 50
0.0
 71
     0
 42
2.5
  3
MS Mincho.ttf
  4

1001
ACAD
1000
MS Mincho
1071
    32785
  0
ENDTAB
  0
TABLE
  2
VIEW
  5
6
330
0
100
AcDbSymbolTable
 70
     0
  0
ENDTAB
  0
TABLE
  2
UCS
  5
7
330
0
100
AcDbSymbolTable
 70
     0
  0
ENDTAB
  0
TABLE
  2
APPID
  5
9
330
0
100
AcDbSymbolTable
 70
     1
  0
APPID
  5
10
330
9
100
AcDbSymbolTableRecord
100
AcDbRegAppTableRecord
  2
ACAD
 70
     0
  0
ENDTAB
  0
TABLE
  2
DIMSTYLE
  5
A
330
0
100
AcDbSymbolTable
 70
     2
100
AcDbDimStyleTable
 71
     1
340
1D
  0
DIMSTYLE
105
1D
102
{ACAD_REACTORS
330
ADBA
330
ADBE
330
ADC1
330
ADC8
330
ADE6
330
ADE9
330
ADEA
330
ADEB
330
ADF1
330
AE27
330
AE5C
330
AE5E
102
}
330
A
100
AcDbSymbolTableRecord
100
AcDbDimStyleTableRecord
  2
STANDARD
 70
     0
340
F
  0
DIMSTYLE
105
4CBC
330
A
100
AcDbSymbolTableRecord
100
AcDbDimStyleTableRecord
  2
ｺﾋﾟｰ - まこ-10
 70
     0
 40
0.8299999999999998
 41
2.0
 42
0.5
 44
0.8
 73
     0
 74
     0
 77
     3
 78
     8
 79
     2
140
3.0
141
0.0
147
0.5
176
     4
177
     4
178
    40
179
     7
271
     8
272
     8
340
8BF
341
83F
342
83F
371
    13
372
    13
  0
ENDTAB
  0
TABLE
  2
BLOCK_RECORD
  5
1
330
0
100
AcDbSymbolTable
 70
    14
  0
BLOCK_RECORD
  5
18
330
1
100
AcDbSymbolTableRecord
100
AcDbBlockTableRecord
  2
*MODEL_SPACE
340
685
  0
BLOCK_RECORD
  5
15
330
1
100
AcDbSymbolTableRecord
100
AcDbBlockTableRecord
  2
*PAPER_SPACE
340
686
  0
BLOCK_RECORD
  5
24
330
1
100
AcDbSymbolTableRecord
100
AcDbBlockTableRecord
  2
_OPEN
340
0
102
{BLKREFS
331
AF4E
331
AF4F
331
AF57
331
AF58
331
AF60
331
AF61
331
AF69
331
AF6A
331
AF90
331
AF91
331
AFA2
331
AFA3
331
AFAD
331
AFAE
331
B2C5
331
B2C6
331
B455
331
B456
331
B4E7
331
B4E8
331
B4F2
331
B4F3
331
B557
331
B558
331
B5AE
331
B5AF
331
B5B7
331
B5B8
331
B5C0
331
B5C1
331
B5C9
331
B5CA
331
B5D2
331
B5D3
331
B5DB
331
B5DC
331
B5E4
331
B5E5
331
B5EF
331
B5F0
331
B5F9
331
B5FA
331
B603
331
B604
331
B60D
331
B60E
102
}
  0
BLOCK_RECORD
  5
83F
330
1
100
AcDbSymbolTableRecord
100
AcDbBlockTableRecord
  2
_Open30
340
0
  0
BLOCK_RECORD
  5
AEAD
330
1
100
AcDbSymbolTableRecord
100
AcDbBlockTableRecord
  2
*D2
340
0
  0
BLOCK_RECORD
  5
AEB9
330
1
100
AcDbSymbolTableRecord
100
AcDbBlockTableRecord
  2
*D3
340
0
  0
BLOCK_RECORD
  5
AEC5
330
1
100
AcDbSymbolTableRecord
100
AcDbBlockTableRecord
  2
*D4
340
0
  0
BLOCK_RECORD
  5
AED1
330
1
100
AcDbSymbolTableRecord
100
AcDbBlockTableRecord
  2
*D5
340
0
  0
BLOCK_RECORD
  5
AEDD
330
1
100
AcDbSymbolTableRecord
100
AcDbBlockTableRecord
  2
*D6
340
0
  0
BLOCK_RECORD
  5
AEE9
330
1
100
AcDbSymbolTableRecord
100
AcDbBlockTableRecord
  2
*D7
340
0
  0
BLOCK_RECORD
  5
AEF6
330
1
100
AcDbSymbolTableRecord
100
AcDbBlockTableRecord
  2
*D8
340
0
  0
BLOCK_RECORD
  5
AF03
330
1
100
AcDbSymbolTableRecord
100
AcDbBlockTableRecord
  2
*D9
340
0
  0
BLOCK_RECORD
  5
AF10
330
1
100
AcDbSymbolTableRecord
100
AcDbBlockTableRecord
  2
*D10
340
0
  0
BLOCK_RECORD
  5
AF1C
330
1
100
AcDbSymbolTableRecord
100
AcDbBlockTableRecord
  2
*D11
340
0
  0
BLOCK_RECORD
  5
AF28
330
1
100
AcDbSymbolTableRecord
100
AcDbBlockTableRecord
  2
*D12
340
0
  0
BLOCK_RECORD
  5
AF34
330
1
100
AcDbSymbolTableRecord
100
AcDbBlockTableRecord
  2
*D13
340
0
  0
ENDTAB
  0
ENDSEC
  0
SECTION
  2
BLOCKS
  0
BLOCK
  5
19
330
18
100
AcDbEntity
  8
0
100
AcDbBlockBegin
  2
*MODEL_SPACE
 70
     0
 10
0.0
 20
0.0
 30
0.0
  3
*MODEL_SPACE
  1

  0
ENDBLK
  5
1A
330
18
100
AcDbEntity
  8
0
100
AcDbBlockEnd
  0
BLOCK
  5
16
330
15
100
AcDbEntity
 67
     1
  8
0
100
AcDbBlockBegin
  2
*PAPER_SPACE
 70
     0
 10
0.0
 20
0.0
 30
0.0
  3
*PAPER_SPACE
  1

  0
ENDBLK
  5
17
330
15
100
AcDbEntity
 67
     1
  8
0
100
AcDbBlockEnd
  0
BLOCK
  5
25
330
24
100
AcDbEntity
  8
0
100
AcDbBlockBegin
  2
_OPEN
 70
     0
 10
0.0
 20
0.0
 30
0.0
  3
_OPEN
  1

  0
LINE
  5
26
330
24
100
AcDbEntity
  8
0
  6
ByBlock
 62
     0
100
AcDbLine
 10
-1.0
 20
0.1666666666666666
 30
0.0
 11
0.0
 21
0.0
 31
0.0
  0
LINE
  5
27
330
24
100
AcDbEntity
  8
0
  6
ByBlock
 62
     0
100
AcDbLine
 10
0.0
 20
0.0
 30
0.0
 11
-1.0
 21
-0.1666666666666666
 31
0.0
  0
LINE
  5
28
330
24
100
AcDbEntity
  8
0
  6
ByBlock
 62
     0
100
AcDbLine
 10
0.0
 20
0.0
 30
0.0
 11
-1.0
 21
0.0
 31
0.0
  0
ENDBLK
  5
29
330
24
100
AcDbEntity
  8
0
100
AcDbBlockEnd
  0
BLOCK
  5
843
330
83F
100
AcDbEntity
  8
0
100
AcDbBlockBegin
  2
_Open30
 70
     0
 10
0.0
 20
0.0
 30
0.0
  3
_Open30
  1

  0
LINE
  5
840
330
83F
100
AcDbEntity
  8
0
  6
ByBlock
 62
     0
370
    -2
100
AcDbLine
 10
-1.0
 20
0.26794919
 30
0.0
 11
0.0
 21
0.0
 31
0.0
  0
LINE
  5
841
330
83F
100
AcDbEntity
  8
0
  6
ByBlock
 62
     0
370
    -2
100
AcDbLine
 10
0.0
 20
0.0
 30
0.0
 11
-1.0
 21
-0.26794919
 31
0.0
  0
LINE
  5
842
330
83F
100
AcDbEntity
  8
0
  6
ByBlock
 62
     0
370
    -2
100
AcDbLine
 10
0.0
 20
0.0
 30
0.0
 11
-1.0
 21
0.0
 31
0.0
  0
ENDBLK
  5
844
330
83F
100
AcDbEntity
  8
0
100
AcDbBlockEnd
  0
BLOCK
  5
AEB7
330
AEAD
100
AcDbEntity
  8
0
 48
0.5
100
AcDbBlockBegin
  2
*D2
 70
     1
 10
0.0
 20
0.0
 30
0.0
  3
*D2
  1

  0
LINE
  5
B554
330
AEAD
100
AcDbEntity
  8
寸法
 62
     0
 48
0.5
370
    -2
100
AcDbLine
 10
1697.169604291044
 20
177.1701255787025
 30
0.0
 11
1658.22971688446
 21
177.1701255787025
 31
0.0
  0
LINE
  5
B555
330
AEAD
100
AcDbEntity
  8
寸法
 62
     0
 48
0.5
370
    -2
100
AcDbLine
 10
1704.223693335612
 20
97.5865519991378
 30
0.0
 11
1658.22971688446
 21
97.58655199913782
 31
0.0
  0
LINE
  5
B556
330
AEAD
100
AcDbEntity
  8
寸法
 62
     0
 48
0.5
370
    -2
100
AcDbLine
 10
1658.97971688446
 20
175.6701255787026
 30
0.0
 11
1658.97971688446
 21
99.08655199913781
 31
0.0
  0
INSERT
  5
B557
330
AEAD
100
AcDbEntity
  8
寸法
 62
     0
 48
0.5
370
    -2
100
AcDbBlockReference
  2
_OPEN
 10
1658.97971688446
 20
177.1701255787025
 30
0.0
 41
1.5
 42
1.5
 43
1.5
 50
90.0
  0
INSERT
  5
B558
330
AEAD
100
AcDbEntity
  8
寸法
 62
     0
 48
0.5
370
    -2
100
AcDbBlockReference
  2
_OPEN
 10
1658.97971688446
 20
97.58655199913782
 30
0.0
 41
1.5
 42
1.5
 43
1.5
 50
270.0
  0
MTEXT
  5
B559
330
AEAD
100
AcDbEntity
  8
寸法
 62
     7
 48
0.5
100
AcDbMText
 10
1656.97971688446
 20
137.3783387889204
 30
0.0
 40
3.0
 41
0.0
 71
     5
 72
     1
  1
\A1;Ｌ ※
 11
0.0000000000000001
 21
1.0
 31
0.0
 73
     1
 44
1.0
  0
POINT
  5
B55A
330
AEAD
100
AcDbEntity
  8
DEFPOINTS
 62
     0
 48
0.5
100
AcDbPoint
 10
1697.669604291044
 20
177.1701255787025
 30
0.0
  0
POINT
  5
B55B
330
AEAD
100
AcDbEntity
  8
DEFPOINTS
 62
     0
 48
0.5
100
AcDbPoint
 10
1704.723693335612
 20
97.5865519991378
 30
0.0
  0
POINT
  5
B55C
330
AEAD
100
AcDbEntity
  8
DEFPOINTS
 62
     0
 48
0.5
100
AcDbPoint
 10
1658.97971688446
 20
97.58655199913782
 30
0.0
  0
ENDBLK
  5
AEB8
330
AEAD
100
AcDbEntity
  8
0
 48
0.5
100
AcDbBlockEnd
  0
BLOCK
  5
AEC3
330
AEB9
100
AcDbEntity
  8
0
 48
0.5
100
AcDbBlockBegin
  2
*D3
 70
     1
 10
0.0
 20
0.0
 30
0.0
  3
*D3
  1

  0
LINE
  5
B5B4
330
AEB9
100
AcDbEntity
  8
寸法
 62
     0
 48
0.5
370
    -2
100
AcDbLine
 10
1591.646007726559
 20
136.0865519991377
 30
0.0
 11
1591.646007726559
 21
152.6776718564415
 31
0.0
  0
LINE
  5
B5B5
330
AEB9
100
AcDbEntity
  8
寸法
 62
     0
 48
0.5
370
    -2
100
AcDbLine
 10
1555.646007726559
 20
136.0865519991377
 30
0.0
 11
1555.646007726559
 21
152.6776718564415
 31
0.0
  0
LINE
  5
B5B6
330
AEB9
100
AcDbEntity
  8
寸法
 62
     0
 48
0.5
370
    -2
100
AcDbLine
 10
1590.146007726559
 20
151.9276718564415
 30
0.0
 11
1557.146007726559
 21
151.9276718564415
 31
0.0
  0
INSERT
  5
B5B7
330
AEB9
100
AcDbEntity
  8
寸法
 62
     0
 48
0.5
370
    -2
100
AcDbBlockReference
  2
_OPEN
 10
1591.646007726559
 20
151.9276718564415
 30
0.0
 41
1.5
 42
1.5
 43
1.5
  0
INSERT
  5
B5B8
330
AEB9
100
AcDbEntity
  8
寸法
 62
     0
 48
0.5
370
    -2
100
AcDbBlockReference
  2
_OPEN
 10
1555.646007726559
 20
151.9276718564415
 30
0.0
 41
1.5
 42
1.5
 43
1.5
 50
180.0
  0
MTEXT
  5
B5B9
330
AEB9
100
AcDbEntity
  8
寸法
 62
     7
 48
0.5
100
AcDbMText
 10
1573.646007726559
 20
153.9276718564415
 30
0.0
 40
3.0
 41
0.0
 71
     5
 72
     1
  1
\A1;36
  7
MSｺﾞｼｯｸ
 73
     1
 44
1.0
  0
POINT
  5
B5BA
330
AEB9
100
AcDbEntity
  8
DEFPOINTS
 62
     0
 48
0.5
100
AcDbPoint
 10
1591.646007726559
 20
135.5865519991377
 30
0.0
  0
POINT
  5
B5BB
330
AEB9
100
AcDbEntity
  8
DEFPOINTS
 62
     0
 48
0.5
100
AcDbPoint
 10
1555.646007726559
 20
135.5865519991377
 30
0.0
  0
POINT
  5
B5BC
330
AEB9
100
AcDbEntity
  8
DEFPOINTS
 62
     0
 48
0.5
100
AcDbPoint
 10
1555.646007726559
 20
151.9276718564415
 30
0.0
  0
ENDBLK
  5
AEC4
330
AEB9
100
AcDbEntity
  8
0
 48
0.5
100
AcDbBlockEnd
  0
BLOCK
  5
AECF
330
AEC5
100
AcDbEntity
  8
0
 48
0.5
100
AcDbBlockBegin
  2
*D4
 70
     1
 10
0.0
 20
0.0
 30
0.0
  3
*D4
  1

  0
LINE
  5
B5AB
330
AEC5
100
AcDbEntity
  8
寸法
 62
     0
 48
0.5
370
    -2
100
AcDbLine
 10
1561.646007726557
 20
133.7865519991366
 30
0.0
 11
1561.646007726557
 21
145.4282175256578
 31
0.0
  0
LINE
  5
B5AC
330
AEC5
100
AcDbEntity
  8
寸法
 62
     0
 48
0.5
370
    -2
100
AcDbLine
 10
1585.646007726557
 20
133.7865519991366
 30
0.0
 11
1585.646007726557
 21
145.4282175256578
 31
0.0
  0
LINE
  5
B5AD
330
AEC5
100
AcDbEntity
  8
寸法
 62
     0
 48
0.5
370
    -2
100
AcDbLine
 10
1563.146007726557
 20
144.6782175256578
 30
0.0
 11
1584.146007726557
 21
144.6782175256578
 31
0.0
  0
INSERT
  5
B5AE
330
AEC5
100
AcDbEntity
  8
寸法
 62
     0
 48
0.5
370
    -2
100
AcDbBlockReference
  2
_OPEN
 10
1561.646007726557
 20
144.6782175256578
 30
0.0
 41
1.5
 42
1.5
 43
1.5
 50
180.0
  0
INSERT
  5
B5AF
330
AEC5
100
AcDbEntity
  8
寸法
 62
     0
 48
0.5
370
    -2
100
AcDbBlockReference
  2
_OPEN
 10
1585.646007726557
 20
144.6782175256578
 30
0.0
 41
1.5
 42
1.5
 43
1.5
  0
MTEXT
  5
B5B0
330
AEC5
100
AcDbEntity
  8
寸法
 62
     7
 48
0.5
100
AcDbMText
 10
1573.646007726557
 20
146.6782175256578
 30
0.0
 40
3.0
 41
0.0
 71
     5
 72
     1
  1
\A1;24
  7
MSｺﾞｼｯｸ
 73
     1
 44
1.0
  0
POINT
  5
B5B1
330
AEC5
100
AcDbEntity
  8
DEFPOINTS
 62
     0
 48
0.5
100
AcDbPoint
 10
1561.646007726557
 20
133.2865519991367
 30
0.0
  0
POINT
  5
B5B2
330
AEC5
100
AcDbEntity
  8
DEFPOINTS
 62
     0
 48
0.5
100
AcDbPoint
 10
1585.646007726557
 20
133.2865519991367
 30
0.0
  0
POINT
  5
B5B3
330
AEC5
100
AcDbEntity
  8
DEFPOINTS
 62
     0
 48
0.5
100
AcDbPoint
 10
1585.646007726557
 20
144.6782175256578
 30
0.0
  0
ENDBLK
  5
AED0
330
AEC5
100
AcDbEntity
  8
0
 48
0.5
100
AcDbBlockEnd
  0
BLOCK
  5
AEDB
330
AED1
100
AcDbEntity
  8
0
 48
0.5
100
AcDbBlockBegin
  2
*D5
 70
     1
 10
0.0
 20
0.0
 30
0.0
  3
*D5
  1

  0
LINE
  5
B5BD
330
AED1
100
AcDbEntity
  8
寸法
 62
     0
 48
0.5
370
    -2
100
AcDbLine
 10
1555.146007726559
 20
135.5865519991377
 30
0.0
 11
1535.72411019075
 21
135.5865519991377
 31
0.0
  0
LINE
  5
B5BE
330
AED1
100
AcDbEntity
  8
寸法
 62
     0
 48
0.5
370
    -2
100
AcDbLine
 10
1555.146007726559
 20
97.5865519991378
 30
0.0
 11
1535.72411019075
 21
97.5865519991378
 31
0.0
  0
LINE
  5
B5BF
330
AED1
100
AcDbEntity
  8
寸法
 62
     0
 48
0.5
370
    -2
100
AcDbLine
 10
1536.47411019075
 20
134.0865519991377
 30
0.0
 11
1536.47411019075
 21
99.08655199913781
 31
0.0
  0
INSERT
  5
B5C0
330
AED1
100
AcDbEntity
  8
寸法
 62
     0
 48
0.5
370
    -2
100
AcDbBlockReference
  2
_OPEN
 10
1536.47411019075
 20
135.5865519991377
 30
0.0
 41
1.5
 42
1.5
 43
1.5
 50
90.0
  0
INSERT
  5
B5C1
330
AED1
100
AcDbEntity
  8
寸法
 62
     0
 48
0.5
370
    -2
100
AcDbBlockReference
  2
_OPEN
 10
1536.47411019075
 20
97.5865519991378
 30
0.0
 41
1.5
 42
1.5
 43
1.5
 50
270.0
  0
MTEXT
  5
B5C2
330
AED1
100
AcDbEntity
  8
寸法
 62
     7
 48
0.5
100
AcDbMText
 10
1534.47411019075
 20
116.586551999138
 30
0.0
 40
3.0
 41
0.0
 71
     5
 72
     1
  1
\A1;38
  7
MSｺﾞｼｯｸ
 11
0.0000000000000001
 21
1.0
 31
0.0
 73
     1
 44
1.0
  0
POINT
  5
B5C3
330
AED1
100
AcDbEntity
  8
DEFPOINTS
 62
     0
 48
0.5
100
AcDbPoint
 10
1555.646007726559
 20
135.5865519991377
 30
0.0
  0
POINT
  5
B5C4
330
AED1
100
AcDbEntity
  8
DEFPOINTS
 62
     0
 48
0.5
100
AcDbPoint
 10
1555.646007726559
 20
97.5865519991378
 30
0.0
  0
POINT
  5
B5C5
330
AED1
100
AcDbEntity
  8
DEFPOINTS
 62
     0
 48
0.5
100
AcDbPoint
 10
1536.47411019075
 20
97.5865519991378
 30
0.0
  0
ENDBLK
  5
AEDC
330
AED1
100
AcDbEntity
  8
0
 48
0.5
100
AcDbBlockEnd
  0
BLOCK
  5
AEE7
330
AEDD
100
AcDbEntity
  8
0
 48
0.5
100
AcDbBlockBegin
  2
*D6
 70
     1
 10
0.0
 20
0.0
 30
0.0
  3
*D6
  1

  0
LINE
  5
B5C6
330
AEDD
100
AcDbEntity
  8
寸法
 62
     0
 48
0.5
370
    -2
100
AcDbLine
 10
1555.646007726559
 20
136.0865519991377
 30
0.0
 11
1555.646007726559
 21
145.4282175256578
 31
0.0
  0
LINE
  5
B5C7
330
AEDD
100
AcDbEntity
  8
寸法
 62
     0
 48
0.5
370
    -2
100
AcDbLine
 10
1561.646007726557
 20
133.7865519991366
 30
0.0
 11
1561.646007726557
 21
145.4282175256578
 31
0.0
  0
LINE
  5
B5C8
330
AEDD
100
AcDbEntity
  8
寸法
 62
     0
 48
0.5
370
    -2
100
AcDbLine
 10
1557.146007726559
 20
144.6782175256578
 30
0.0
 11
1560.146007726557
 21
144.6782175256578
 31
0.0
  0
INSERT
  5
B5C9
330
AEDD
100
AcDbEntity
  8
寸法
 62
     0
 48
0.5
370
    -2
100
AcDbBlockReference
  2
_OPEN
 10
1555.646007726559
 20
144.6782175256578
 30
0.0
 41
1.5
 42
1.5
 43
1.5
 50
180.0
  0
INSERT
  5
B5CA
330
AEDD
100
AcDbEntity
  8
寸法
 62
     0
 48
0.5
370
    -2
100
AcDbBlockReference
  2
_OPEN
 10
1561.646007726557
 20
144.6782175256578
 30
0.0
 41
1.5
 42
1.5
 43
1.5
  0
MTEXT
  5
B5CB
330
AEDD
100
AcDbEntity
  8
寸法
 62
     7
 48
0.5
100
AcDbMText
 10
1558.646007726558
 20
146.6782175256578
 30
0.0
 40
3.0
 41
0.0
 71
     5
 72
     1
  1
\A1;6
  7
MSｺﾞｼｯｸ
 73
     1
 44
1.0
  0
POINT
  5
B5CC
330
AEDD
100
AcDbEntity
  8
DEFPOINTS
 62
     0
 48
0.5
100
AcDbPoint
 10
1555.646007726559
 20
135.5865519991377
 30
0.0
  0
POINT
  5
B5CD
330
AEDD
100
AcDbEntity
  8
DEFPOINTS
 62
     0
 48
0.5
100
AcDbPoint
 10
1561.646007726557
 20
133.2865519991367
 30
0.0
  0
POINT
  5
B5CE
330
AEDD
100
AcDbEntity
  8
DEFPOINTS
 62
     0
 48
0.5
100
AcDbPoint
 10
1561.646007726557
 20
144.6782175256578
 30
0.0
  0
ENDBLK
  5
AEE8
330
AEDD
100
AcDbEntity
  8
0
 48
0.5
100
AcDbBlockEnd
  0
BLOCK
  5
AEF4
330
AEE9
100
AcDbEntity
  8
0
 48
0.5
100
AcDbBlockBegin
  2
*D7
 70
     1
 10
0.0
 20
0.0
 30
0.0
  3
*D7
  1

  0
LINE
  5
B5F5
330
AEE9
100
AcDbEntity
  8
寸法
 62
     0
 48
0.5
370
    -2
100
AcDbLine
 10
1703.385370225633
 20
97.5865519991378
 30
0.0
 11
1670.078452496321
 21
97.58655199913782
 31
0.0
  0
LINE
  5
B5F6
330
AEE9
100
AcDbEntity
  8
寸法
 62
     0
 48
0.5
370
    -2
100
AcDbLine
 10
1696.557868324688
 20
117.5865519991377
 30
0.0
 11
1670.078452496321
 21
117.5865519991378
 31
0.0
  0
LINE
  5
B5F7
330
AEE9
100
AcDbEntity
  8
寸法
 62
     0
 48
0.5
370
    -2
100
AcDbLine
 10
1670.828452496321
 20
99.08655199913781
 30
0.0
 11
1670.828452496321
 21
116.0865519991378
 31
0.0
  0
LINE
  5
B5F8
330
AEE9
100
AcDbEntity
  8
寸法
 62
     0
 48
0.5
370
    -2
100
AcDbLine
 10
1670.828452496321
 20
117.5865519991378
 30
0.0
 11
1670.828452496321
 21
162.9905601576391
 31
0.0
  0
INSERT
  5
B5F9
330
AEE9
100
AcDbEntity
  8
寸法
 62
     0
 48
0.5
370
    -2
100
AcDbBlockReference
  2
_OPEN
 10
1670.828452496321
 20
97.58655199913782
 30
0.0
 41
1.5
 42
1.5
 43
1.5
 50
270.0
  0
INSERT
  5
B5FA
330
AEE9
100
AcDbEntity
  8
寸法
 62
     0
 48
0.5
370
    -2
100
AcDbBlockReference
  2
_OPEN
 10
1670.828452496321
 20
117.5865519991378
 30
0.0
 41
1.5
 42
1.5
 43
1.5
 50
90.0
  0
MTEXT
  5
B5FB
330
AEE9
100
AcDbEntity
  8
寸法
 62
     7
 48
0.5
100
AcDbMText
 10
1668.523883968402
 20
143.7139104114465
 30
0.0
 40
3.0
 41
0.0
 71
     5
 72
     1
  1
\A1;(20)（曲げ起点MIN.）
  7
MSｺﾞｼｯｸ
 11
0.0000000000000001
 21
1.0
 31
0.0
 73
     1
 44
1.0
  0
POINT
  5
B5FC
330
AEE9
100
AcDbEntity
  8
DEFPOINTS
 62
     0
 48
0.5
100
AcDbPoint
 10
1703.885370225633
 20
97.5865519991378
 30
0.0
  0
POINT
  5
B5FD
330
AEE9
100
AcDbEntity
  8
DEFPOINTS
 62
     0
 48
0.5
100
AcDbPoint
 10
1697.057868324688
 20
117.5865519991377
 30
0.0
  0
POINT
  5
B5FE
330
AEE9
100
AcDbEntity
  8
DEFPOINTS
 62
     0
 48
0.5
100
AcDbPoint
 10
1670.828452496321
 20
117.5865519991378
 30
0.0
  0
ENDBLK
  5
AEF5
330
AEE9
100
AcDbEntity
  8
0
 48
0.5
100
AcDbBlockEnd
  0
BLOCK
  5
AF01
330
AEF6
100
AcDbEntity
  8
0
 48
0.5
100
AcDbBlockBegin
  2
*D8
 70
     1
 10
0.0
 20
0.0
 30
0.0
  3
*D8
  1

  0
LINE
  5
B609
330
AEF6
100
AcDbEntity
  8
寸法
 62
     0
 48
0.5
370
    -2
100
AcDbLine
 10
1696.496611026245
 20
115.8904492671508
 30
0.0
 11
1696.496611026245
 21
89.72313884553022
 31
0.0
  0
LINE
  5
B60A
330
AEF6
100
AcDbEntity
  8
寸法
 62
     0
 48
0.5
370
    -2
100
AcDbLine
 10
1704.723693335612
 20
97.0865519991378
 30
0.0
 11
1704.723693335612
 21
89.72313884553022
 31
0.0
  0
LINE
  5
B60B
330
AEF6
100
AcDbEntity
  8
寸法
 62
     0
 48
0.5
370
    -2
100
AcDbLine
 10
1703.223693335612
 20
90.47313884553023
 30
0.0
 11
1697.996611026245
 21
90.47313884553023
 31
0.0
  0
LINE
  5
B60C
330
AEF6
100
AcDbEntity
  8
寸法
 62
     0
 48
0.5
370
    -2
100
AcDbLine
 10
1696.496611026245
 20
90.47313884553023
 30
0.0
 11
1646.826789727652
 21
90.47313884553023
 31
0.0
  0
INSERT
  5
B60D
330
AEF6
100
AcDbEntity
  8
寸法
 62
     0
 48
0.5
370
    -2
100
AcDbBlockReference
  2
_OPEN
 10
1704.723693335612
 20
90.47313884553023
 30
0.0
 41
1.5
 42
1.5
 43
1.5
  0
INSERT
  5
B60E
330
AEF6
100
AcDbEntity
  8
寸法
 62
     0
 48
0.5
370
    -2
100
AcDbBlockReference
  2
_OPEN
 10
1696.496611026245
 20
90.47313884553023
 30
0.0
 41
1.5
 42
1.5
 43
1.5
 50
180.0
  0
MTEXT
  5
B60F
330
AEF6
100
AcDbEntity
  8
寸法
 62
     7
 48
0.5
100
AcDbMText
 10
1668.311561301256
 20
92.74725052065713
 30
0.0
 40
3.0
 41
0.0
 71
     5
 72
     1
  1
\A1;13以下（配線スペース）
  7
MSｺﾞｼｯｸ
 73
     1
 44
1.0
  0
POINT
  5
B610
330
AEF6
100
AcDbEntity
  8
DEFPOINTS
 62
     0
 48
0.5
100
AcDbPoint
 10
1696.496611026245
 20
116.3904492671508
 30
0.0
  0
POINT
  5
B611
330
AEF6
100
AcDbEntity
  8
DEFPOINTS
 62
     0
 48
0.5
100
AcDbPoint
 10
1704.723693335612
 20
97.5865519991378
 30
0.0
  0
POINT
  5
B612
330
AEF6
100
AcDbEntity
  8
DEFPOINTS
 62
     0
 48
0.5
100
AcDbPoint
 10
1704.723693335612
 20
90.47313884553023
 30
0.0
  0
ENDBLK
  5
AF02
330
AEF6
100
AcDbEntity
  8
0
 48
0.5
100
AcDbBlockEnd
  0
BLOCK
  5
AF0E
330
AF03
100
AcDbEntity
  8
0
 48
0.5
100
AcDbBlockBegin
  2
*D9
 70
     1
 10
0.0
 20
0.0
 30
0.0
  3
*D9
  1

  0
LINE
  5
B5FF
330
AF03
100
AcDbEntity
  8
寸法
 62
     0
 48
0.5
370
    -2
100
AcDbLine
 10
1697.934100949399
 20
126.4810719898255
 30
0.0
 11
1697.934100949399
 21
128.442757934931
 31
0.0
  0
LINE
  5
B600
330
AF03
100
AcDbEntity
  8
寸法
 62
     0
 48
0.5
370
    -2
100
AcDbLine
 10
1703.134100949398
 20
127.314063025404
 30
0.0
 11
1703.134100949398
 21
128.442757934931
 31
0.0
  0
LINE
  5
B601
330
AF03
100
AcDbEntity
  8
寸法
 62
     0
 48
0.5
370
    -2
100
AcDbLine
 10
1701.634100949399
 20
127.692757934931
 30
0.0
 11
1699.434100949399
 21
127.692757934931
 31
0.0
  0
LINE
  5
B602
330
AF03
100
AcDbEntity
  8
寸法
 62
     0
 48
0.5
370
    -2
100
AcDbLine
 10
1697.934100949399
 20
127.692757934931
 30
0.0
 11
1678.322029985153
 21
127.692757934931
 31
0.0
  0
INSERT
  5
B603
330
AF03
100
AcDbEntity
  8
寸法
 62
     0
 48
0.5
370
    -2
100
AcDbBlockReference
  2
_OPEN
 10
1703.134100949398
 20
127.692757934931
 30
0.0
 41
1.5
 42
1.5
 43
1.5
  0
INSERT
  5
B604
330
AF03
100
AcDbEntity
  8
寸法
 62
     0
 48
0.5
370
    -2
100
AcDbBlockReference
  2
_OPEN
 10
1697.934100949399
 20
127.692757934931
 30
0.0
 41
1.5
 42
1.5
 43
1.5
 50
180.0
  0
MTEXT
  5
B605
330
AF03
100
AcDbEntity
  8
寸法
 62
     7
 48
0.5
100
AcDbMText
 10
1686.002233030839
 20
129.951641183662
 30
0.0
 40
3.0
 41
0.0
 71
     5
 72
     1
  1
\A1;（φ5.2）
  7
MSｺﾞｼｯｸ
 73
     1
 44
1.0
  0
POINT
  5
B606
330
AF03
100
AcDbEntity
  8
DEFPOINTS
 62
     0
 48
0.5
100
AcDbPoint
 10
1697.934100949399
 20
125.9810719898255
 30
0.0
  0
POINT
  5
B607
330
AF03
100
AcDbEntity
  8
DEFPOINTS
 62
     0
 48
0.5
100
AcDbPoint
 10
1703.134100949398
 20
126.8140630254041
 30
0.0
  0
POINT
  5
B608
330
AF03
100
AcDbEntity
  8
DEFPOINTS
 62
     0
 48
0.5
100
AcDbPoint
 10
1703.134100949398
 20
127.692757934931
 30
0.0
  0
ENDBLK
  5
AF0F
330
AF03
100
AcDbEntity
  8
0
 48
0.5
100
AcDbBlockEnd
  0
BLOCK
  5
AF1A
330
AF10
100
AcDbEntity
  8
0
 48
0.5
100
AcDbBlockBegin
  2
*D10
 70
     1
 10
0.0
 20
0.0
 30
0.0
  3
*D10
  1

  0
LINE
  5
B5CF
330
AF10
100
AcDbEntity
  8
寸法
 62
     0
 48
0.5
370
    -2
100
AcDbLine
 10
1592.146007726559
 20
135.5865519991377
 30
0.0
 11
1602.025798344779
 21
135.5865519991377
 31
0.0
  0
LINE
  5
B5D0
330
AF10
100
AcDbEntity
  8
寸法
 62
     0
 48
0.5
370
    -2
100
AcDbLine
 10
1589.846007726558
 20
129.5865519991377
 30
0.0
 11
1602.025798344779
 21
129.5865519991377
 31
0.0
  0
LINE
  5
B5D1
330
AF10
100
AcDbEntity
  8
寸法
 62
     0
 48
0.5
370
    -2
100
AcDbLine
 10
1601.275798344779
 20
134.0865519991377
 30
0.0
 11
1601.275798344779
 21
131.0865519991377
 31
0.0
  0
INSERT
  5
B5D2
330
AF10
100
AcDbEntity
  8
寸法
 62
     0
 48
0.5
370
    -2
100
AcDbBlockReference
  2
_OPEN
 10
1601.275798344779
 20
135.5865519991377
 30
0.0
 41
1.5
 42
1.5
 43
1.5
 50
90.0
  0
INSERT
  5
B5D3
330
AF10
100
AcDbEntity
  8
寸法
 62
     0
 48
0.5
370
    -2
100
AcDbBlockReference
  2
_OPEN
 10
1601.275798344779
 20
129.5865519991377
 30
0.0
 41
1.5
 42
1.5
 43
1.5
 50
270.0
  0
MTEXT
  5
B5D4
330
AF10
100
AcDbEntity
  8
寸法
 62
     7
 48
0.5
100
AcDbMText
 10
1599.275798344779
 20
132.586551999138
 30
0.0
 40
3.0
 41
0.0
 71
     5
 72
     1
  1
\A1;6
  7
MSｺﾞｼｯｸ
 11
0.0000000000000001
 21
1.0
 31
0.0
 73
     1
 44
1.0
  0
POINT
  5
B5D5
330
AF10
100
AcDbEntity
  8
DEFPOINTS
 62
     0
 48
0.5
100
AcDbPoint
 10
1591.646007726559
 20
135.5865519991377
 30
0.0
  0
POINT
  5
B5D6
330
AF10
100
AcDbEntity
  8
DEFPOINTS
 62
     0
 48
0.5
100
AcDbPoint
 10
1589.346007726558
 20
129.5865519991377
 30
0.0
  0
POINT
  5
B5D7
330
AF10
100
AcDbEntity
  8
DEFPOINTS
 62
     0
 48
0.5
100
AcDbPoint
 10
1601.275798344779
 20
129.5865519991377
 30
0.0
  0
ENDBLK
  5
AF1B
330
AF10
100
AcDbEntity
  8
0
 48
0.5
100
AcDbBlockEnd
  0
BLOCK
  5
AF26
330
AF1C
100
AcDbEntity
  8
0
 48
0.5
100
AcDbBlockBegin
  2
*D11
 70
     1
 10
0.0
 20
0.0
 30
0.0
  3
*D11
  1

  0
LINE
  5
B5D8
330
AF1C
100
AcDbEntity
  8
寸法
 62
     0
 48
0.5
370
    -2
100
AcDbLine
 10
1592.146007726559
 20
181.4933356799041
 30
0.0
 11
1613.259896169552
 21
181.493335679904
 31
0.0
  0
LINE
  5
B5D9
330
AF1C
100
AcDbEntity
  8
寸法
 62
     0
 48
0.5
370
    -2
100
AcDbLine
 10
1562.146009531887
 20
168.4933356799041
 30
0.0
 11
1613.259896169552
 21
168.4933356799041
 31
0.0
  0
LINE
  5
B5DA
330
AF1C
100
AcDbEntity
  8
寸法
 62
     0
 48
0.5
370
    -2
100
AcDbLine
 10
1612.509896169552
 20
179.993335679904
 30
0.0
 11
1612.509896169552
 21
169.9933356799041
 31
0.0
  0
INSERT
  5
B5DB
330
AF1C
100
AcDbEntity
  8
寸法
 62
     0
 48
0.5
370
    -2
100
AcDbBlockReference
  2
_OPEN
 10
1612.509896169552
 20
181.493335679904
 30
0.0
 41
1.5
 42
1.5
 43
1.5
 50
90.0
  0
INSERT
  5
B5DC
330
AF1C
100
AcDbEntity
  8
寸法
 62
     0
 48
0.5
370
    -2
100
AcDbBlockReference
  2
_OPEN
 10
1612.509896169552
 20
168.4933356799041
 30
0.0
 41
1.5
 42
1.5
 43
1.5
 50
270.0
  0
MTEXT
  5
B5DD
330
AF1C
100
AcDbEntity
  8
寸法
 62
     7
 48
0.5
100
AcDbMText
 10
1610.258627134019
 20
174.9933356799044
 30
0.0
 40
3.0
 41
0.0
 71
     5
 72
     1
  1
\A1;(13)
  7
MSｺﾞｼｯｸ
 11
0.0000000000000001
 21
1.0
 31
0.0
 73
     1
 44
1.0
  0
POINT
  5
B5DE
330
AF1C
100
AcDbEntity
  8
DEFPOINTS
 62
     0
 48
0.5
100
AcDbPoint
 10
1591.646007726559
 20
181.4933356799041
 30
0.0
  0
POINT
  5
B5DF
330
AF1C
100
AcDbEntity
  8
DEFPOINTS
 62
     0
 48
0.5
100
AcDbPoint
 10
1561.646009531887
 20
168.4933356799041
 30
0.0
  0
POINT
  5
B5E0
330
AF1C
100
AcDbEntity
  8
DEFPOINTS
 62
     0
 48
0.5
100
AcDbPoint
 10
1612.509896169552
 20
168.4933356799041
 30
0.0
  0
ENDBLK
  5
AF27
330
AF1C
100
AcDbEntity
  8
0
 48
0.5
100
AcDbBlockEnd
  0
BLOCK
  5
AF32
330
AF28
100
AcDbEntity
  8
0
 48
0.5
100
AcDbBlockBegin
  2
*D12
 70
     1
 10
0.0
 20
0.0
 30
0.0
  3
*D12
  1

  0
LINE
  5
B5E1
330
AF28
100
AcDbEntity
  8
寸法
 62
     0
 48
0.5
370
    -2
100
AcDbLine
 10
1592.146007726559
 20
195.493335679904
 30
0.0
 11
1613.259896169552
 21
195.493335679904
 31
0.0
  0
LINE
  5
B5E2
330
AF28
100
AcDbEntity
  8
寸法
 62
     0
 48
0.5
370
    -2
100
AcDbLine
 10
1592.146007726559
 20
181.493335679904
 30
0.0
 11
1613.259896169552
 21
181.493335679904
 31
0.0
  0
LINE
  5
B5E3
330
AF28
100
AcDbEntity
  8
寸法
 62
     0
 48
0.5
370
    -2
100
AcDbLine
 10
1612.509896169552
 20
193.993335679904
 30
0.0
 11
1612.509896169552
 21
182.993335679904
 31
0.0
  0
INSERT
  5
B5E4
330
AF28
100
AcDbEntity
  8
寸法
 62
     0
 48
0.5
370
    -2
100
AcDbBlockReference
  2
_OPEN
 10
1612.509896169552
 20
195.493335679904
 30
0.0
 41
1.5
 42
1.5
 43
1.5
 50
90.0
  0
INSERT
  5
B5E5
330
AF28
100
AcDbEntity
  8
寸法
 62
     0
 48
0.5
370
    -2
100
AcDbBlockReference
  2
_OPEN
 10
1612.509896169552
 20
181.493335679904
 30
0.0
 41
1.5
 42
1.5
 43
1.5
 50
270.0
  0
MTEXT
  5
B5E6
330
AF28
100
AcDbEntity
  8
寸法
 62
     7
 48
0.5
100
AcDbMText
 10
1610.509896169552
 20
188.4933356799043
 30
0.0
 40
3.0
 41
0.0
 71
     5
 72
     1
  1
\A1;14
  7
MSｺﾞｼｯｸ
 11
0.0000000000000001
 21
1.0
 31
0.0
 73
     1
 44
1.0
  0
POINT
  5
B5E7
330
AF28
100
AcDbEntity
  8
DEFPOINTS
 62
     0
 48
0.5
100
AcDbPoint
 10
1591.646007726559
 20
195.493335679904
 30
0.0
  0
POINT
  5
B5E8
330
AF28
100
AcDbEntity
  8
DEFPOINTS
 62
     0
 48
0.5
100
AcDbPoint
 10
1591.646007726559
 20
181.493335679904
 30
0.0
  0
POINT
  5
B5E9
330
AF28
100
AcDbEntity
  8
DEFPOINTS
 62
     0
 48
0.5
100
AcDbPoint
 10
1612.509896169552
 20
181.493335679904
 30
0.0
  0
ENDBLK
  5
AF33
330
AF28
100
AcDbEntity
  8
0
 48
0.5
100
AcDbBlockEnd
  0
BLOCK
  5
AF40
330
AF34
100
AcDbEntity
  8
0
 48
0.5
100
AcDbBlockBegin
  2
*D13
 70
     1
 10
0.0
 20
0.0
 30
0.0
  3
*D13
  1

  0
LINE
  5
B5EA
330
AF34
100
AcDbEntity
  8
寸法
 62
     0
 48
0.5
370
    -2
100
AcDbLine
 10
1592.146007726559
 20
181.493335679904
 30
0.0
 11
1607.543199597753
 21
181.493335679904
 31
0.0
  0
LINE
  5
B5EB
330
AF34
100
AcDbEntity
  8
寸法
 62
     0
 48
0.5
370
    -2
100
AcDbLine
 10
1588.521009531887
 20
177.4933356799041
 30
0.0
 11
1607.543199597753
 21
177.493335679904
 31
0.0
  0
LINE
  5
B5EC
330
AF34
100
AcDbEntity
  8
寸法
 62
     0
 48
0.5
370
    -2
100
AcDbLine
 10
1606.793199597753
 20
182.993335679904
 30
0.0
 11
1606.793199597753
 21
184.493335679904
 31
0.0
  0
LINE
  5
B5ED
330
AF34
100
AcDbEntity
  8
寸法
 62
     0
 48
0.5
370
    -2
100
AcDbLine
 10
1606.793199597753
 20
175.993335679904
 30
0.0
 11
1606.793199597753
 21
169.4578026849802
 31
0.0
  0
LINE
  5
B5EE
330
AF34
100
AcDbEntity
  8
寸法
 62
     0
 48
0.5
370
    -2
100
AcDbLine
 10
1606.793199597753
 20
181.493335679904
 30
0.0
 11
1606.793199597753
 21
177.493335679904
 31
0.0
  0
INSERT
  5
B5EF
330
AF34
100
AcDbEntity
  8
寸法
 62
     0
 48
0.5
370
    -2
100
AcDbBlockReference
  2
_OPEN
 10
1606.793199597753
 20
181.493335679904
 30
0.0
 41
1.5
 42
1.5
 43
1.5
 50
270.0
  0
INSERT
  5
B5F0
330
AF34
100
AcDbEntity
  8
寸法
 62
     0
 48
0.5
370
    -2
100
AcDbBlockReference
  2
_OPEN
 10
1606.793199597753
 20
177.493335679904
 30
0.0
 41
1.5
 42
1.5
 43
1.5
 50
90.0
  0
MTEXT
  5
B5F1
330
AF34
100
AcDbEntity
  8
寸法
 62
     7
 48
0.5
100
AcDbMText
 10
1604.54193056222
 20
171.9755691824424
 30
0.0
 40
3.0
 41
0.0
 71
     5
 72
     1
  1
\A1;(4)
  7
MSｺﾞｼｯｸ
 11
0.0000000000000001
 21
1.0
 31
0.0
 73
     1
 44
1.0
  0
POINT
  5
B5F2
330
AF34
100
AcDbEntity
  8
DEFPOINTS
 62
     0
 48
0.5
100
AcDbPoint
 10
1591.646007726559
 20
181.493335679904
 30
0.0
  0
POINT
  5
B5F3
330
AF34
100
AcDbEntity
  8
DEFPOINTS
 62
     0
 48
0.5
100
AcDbPoint
 10
1588.021009531887
 20
177.4933356799041
 30
0.0
  0
POINT
  5
B5F4
330
AF34
100
AcDbEntity
  8
DEFPOINTS
 62
     0
 48
0.5
100
AcDbPoint
 10
1606.793199597753
 20
177.493335679904
 30
0.0
  0
ENDBLK
  5
AF41
330
AF34
100
AcDbEntity
  8
0
 48
0.5
100
AcDbBlockEnd
  0
ENDSEC
  0
SECTION
  2
ENTITIES
  0
TEXT
  5
51B8
330
18
100
AcDbEntity
  8
FRAME025
  6
Continuous
100
AcDbText
 10
1637.141110797246
 20
151.4908330331489
 30
0.0
 40
2.5
  1
A
 11
1637.141110797246
 21
152.7408330331489
 31
0.0
100
AcDbText
 73
     2
  0
TEXT
  5
51BE
330
18
100
AcDbEntity
  8
FRAME025
  6
Continuous
100
AcDbText
 10
1673.936340609981
 20
226.9610618844688
 30
0.0
 40
2.5
  1
A
 11
1673.936340609981
 21
228.2110618844689
 31
0.0
100
AcDbText
 73
     2
  0
TEXT
  5
51C1
330
18
100
AcDbEntity
  8
FRAME025
  6
Continuous
100
AcDbText
 10
1734.127384934081
 20
155.1049010345269
 30
0.0
 40
2.5
  1
A
 11
1734.127384934081
 21
156.3549010345269
 31
0.0
100
AcDbText
 73
     2
  0
TEXT
  5
51C3
330
18
100
AcDbEntity
  8
FRAME025
  6
Continuous
100
AcDbText
 10
1676.063233679084
 20
181.8915165495499
 30
0.0
 40
2.5
  1
A
 11
1676.063233679084
 21
183.1415165495499
 31
0.0
100
AcDbText
 73
     2
  0
TEXT
  5
51C6
330
18
100
AcDbEntity
  8
FRAME025
  6
Continuous
100
AcDbText
 10
1535.475671081152
 20
94.30353402747584
 30
0.0
 40
2.5
  1
A
 11
1535.475671081152
 21
95.55353402747584
 31
0.0
100
AcDbText
 73
     2
  0
TEXT
  5
51C7
330
18
100
AcDbEntity
  8
FRAME025
  6
Continuous
100
AcDbText
 10
1533.986847701949
 20
216.7566371337822
 30
0.0
 40
2.5
  1
A
 11
1533.986847701949
 21
218.0066371337821
 31
0.0
100
AcDbText
 73
     2
  0
TEXT
  5
525C
330
18
100
AcDbEntity
  8
FRAME025
  6
Continuous
100
AcDbText
 10
1672.330467809466
 20
97.13765315817193
 30
0.0
 40
2.5
  1
A
 11
1672.330467809466
 21
98.38765315817193
 31
0.0
100
AcDbText
 73
     2
  0
TEXT
  5
52E5
330
18
100
AcDbEntity
  8
FRAME025
  6
Continuous
100
AcDbText
 10
1680.588879050045
 20
147.2407267438915
 30
0.0
 40
2.5
  1
A
 11
1680.588879050045
 21
148.4907267438915
 31
0.0
100
AcDbText
 73
     2
  0
TEXT
  5
ABB6
330
18
100
AcDbEntity
  8
FRAME025
  6
Continuous
100
AcDbText
 10
1411.210183613641
 20
-343.7280581195587
 30
0.0
 40
2.5
  1
A
 11
1411.210183613641
 21
-342.4780581195587
 31
0.0
100
AcDbText
 73
     2
  0
TEXT
  5
ABB9
330
18
100
AcDbEntity
  8
FRAME025
  6
Continuous
100
AcDbText
 10
1448.005413426376
 20
-268.2578292682388
 30
0.0
 40
2.5
  1
A
 11
1448.005413426376
 21
-267.0078292682388
 31
0.0
100
AcDbText
 73
     2
  0
TEXT
  5
ABBB
330
18
100
AcDbEntity
  8
FRAME025
  6
Continuous
100
AcDbText
 10
1308.055920518343
 20
-278.4622540189256
 30
0.0
 40
2.5
  1
A
 11
1308.055920518343
 21
-277.2122540189255
 31
0.0
100
AcDbText
 73
     2
  0
TEXT
  5
ABBE
330
18
100
AcDbEntity
  8
FRAME025
  6
Continuous
100
AcDbText
 10
1309.544743897547
 20
-400.9153571252319
 30
0.0
 40
2.5
  1
A
 11
1309.544743897547
 21
-399.6653571252319
 31
0.0
100
AcDbText
 73
     2
  0
TEXT
  5
ABC2
330
18
100
AcDbEntity
  8
FRAME025
  6
Continuous
100
AcDbText
 10
1446.39954062586
 20
-398.0812379945358
 30
0.0
 40
2.5
  1
A
 11
1446.39954062586
 21
-396.8312379945358
 31
0.0
100
AcDbText
 73
     2
  0
TEXT
  5
ABC4
330
18
100
AcDbEntity
  8
FRAME025
  6
Continuous
100
AcDbText
 10
1508.196457750475
 20
-340.1139901181808
 30
0.0
 40
2.5
  1
A
 11
1508.196457750475
 21
-338.8639901181808
 31
0.0
100
AcDbText
 73
     2
  0
TEXT
  5
ABC6
330
18
100
AcDbEntity
  8
FRAME025
  6
Continuous
100
AcDbText
 10
1450.132306495479
 20
-313.3273746031578
 30
0.0
 40
2.5
  1
A
 11
1450.132306495479
 21
-312.0773746031578
 31
0.0
100
AcDbText
 73
     2
  0
TEXT
  5
ABCA
330
18
100
AcDbEntity
  8
FRAME025
  6
Continuous
100
AcDbText
 10
1454.657951866439
 20
-347.9781644088162
 30
0.0
 40
2.5
  1
A
 11
1454.657951866439
 21
-346.7281644088162
 31
0.0
100
AcDbText
 73
     2
  0
DIMENSION
  5
ADBA
330
18
100
AcDbEntity
  8
寸法
 48
0.5
100
AcDbDimension
  2
*D2
 10
1658.97971688446
 20
97.58655199913782
 30
0.0
 11
1656.97971688446
 21
137.3783387889204
 31
0.0
 70
    32
  1
Ｌ ※
 71
     5
 42
79.58357357956479
  3
STANDARD
100
AcDbAlignedDimension
 13
1697.669604291044
 23
177.1701255787025
 33
0.0
 14
1704.723693335612
 24
97.5865519991378
 34
0.0
 50
90.0
100
AcDbRotatedDimension
1001
ACAD
1000
DSTYLE
1002
{
1070
    41
1040
1.5
1070
    42
1040
0.5
1070
    43
1040
5.0
1070
    44
1040
0.75
1070
    73
1070
     0
1070
    74
1070
     0
1070
    77
1070
     1
1070
    78
1070
     9
1070
    79
1070
     2
1070
   140
1040
3.0
1070
   141
1040
2.5
1070
   143
1040
0.0394
1070
   147
1040
0.5
1070
   171
1070
     4
1070
   172
1070
     1
1070
   173
1070
     1
1070
   178
1070
     7
1070
   273
1070
     8
1070
   274
1070
     4
1070
   284
1070
     9
1070
   341
1005
24
1070
   343
1005
24
1070
   344
1005
24
1002
}
  0
LEADER
  5
ADBB
330
18
100
AcDbEntity
  8
寸法
100
AcDbLeader
  3
STANDARD
 76
     3
 10
1707.6367612313
 20
167.7838721943046
 30
0.0
 10
1716.196037653278
 20
154.2926301598734
 30
0.0
 10
1751.919450242916
 20
154.2926301598734
 30
0.0
1001
ACAD
1000
DSTYLE
1002
{
1070
    41
1040
1.5
1070
    42
1040
0.5
1070
    43
1040
5.0
1070
    44
1040
0.75
1070
    73
1070
     0
1070
    74
1070
     0
1070
    77
1070
     0
1070
    78
1070
     9
1070
    79
1070
     2
1070
   140
1040
3.0
1070
   141
1040
2.5
1070
   143
1040
0.0394
1070
   147
1040
0.5
1070
   171
1070
     4
1070
   172
1070
     1
1070
   173
1070
     1
1070
   178
1070
     7
1070
   273
1070
     8
1070
   274
1070
     4
1070
   279
1070
     2
1070
   284
1070
     9
1070
   341
1005
24
1070
   343
1005
24
1070
   344
1005
24
1002
}
  0
LINE
  5
ADBC
330
18
100
AcDbEntity
  8
A
 62
     7
100
AcDbLine
 10
1704.344606560936
 20
152.9200917525973
 30
0.0
 11
1704.344606560936
 21
157.9200917525973
 31
0.0
  0
LINE
  5
ADBD
330
18
100
AcDbEntity
  8
A
 62
     7
100
AcDbLine
 10
1696.744606560936
 20
152.9200917525974
 30
0.0
 11
1696.744606560936
 21
157.9200917525973
 31
0.0
  0
DIMENSION
  5
ADBE
330
18
100
AcDbEntity
  8
寸法
100
AcDbDimension
  2
*D3
 10
1555.646007726559
 20
151.9276718564415
 30
0.0
 11
1573.646007726559
 21
153.9276718564415
 31
0.0
 70
    32
 71
     5
 42
36.0
  3
STANDARD
100
AcDbAlignedDimension
 13
1591.646007726559
 23
135.5865519991377
 33
0.0
 14
1555.646007726559
 24
135.5865519991377
 34
0.0
100
AcDbRotatedDimension
1001
ACAD
1000
DSTYLE
1002
{
1070
   340
1005
35
1070
    41
1040
1.5
1070
    42
1040
0.5
1070
    43
1040
5.0
1070
    44
1040
0.75
1070
    73
1070
     0
1070
    74
1070
     0
1070
    77
1070
     1
1070
    78
1070
     9
1070
    79
1070
     2
1070
   140
1040
3.0
1070
   141
1040
2.5
1070
   143
1040
0.0394
1070
   147
1040
0.5
1070
   171
1070
     4
1070
   172
1070
     1
1070
   173
1070
     1
1070
   178
1070
     7
1070
   273
1070
     8
1070
   274
1070
     4
1070
   279
1070
     2
1070
   284
1070
     9
1070
   341
1005
24
1070
   343
1005
24
1070
   344
1005
24
1002
}
  0
CIRCLE
  5
ADBF
330
18
100
AcDbEntity
  8
0
 48
0.5
100
AcDbCircle
 10
1568.649309733163
 20
109.1837579935497
 30
0.0
 40
2.999999999999999
  0
LWPOLYLINE
  5
ADC0
330
18
100
AcDbEntity
  8
0
 62
     3
 48
5.0
370
    30
100
AcDbPolyline
 90
        4
 70
     0
 43
0.0
 10
1591.646007726559
 20
104.1865519991381
 10
1591.646007726559
 20
135.5865519991377
 10
1555.646007726559
 20
135.5865519991377
 10
1555.646007726559
 20
135.5865519991377
  0
DIMENSION
  5
ADC1
330
18
100
AcDbEntity
  8
寸法
100
AcDbDimension
  2
*D4
 10
1585.646007726557
 20
144.6782175256578
 30
0.0
 11
1573.646007726557
 21
146.6782175256578
 31
0.0
 70
    32
 71
     5
 42
24.0
  3
STANDARD
100
AcDbAlignedDimension
 13
1561.646007726557
 23
133.2865519991367
 33
0.0
 14
1585.646007726557
 24
133.2865519991367
 34
0.0
100
AcDbRotatedDimension
1001
ACAD
1000
DSTYLE
1002
{
1070
   340
1005
35
1070
    41
1040
1.5
1070
    42
1040
0.5
1070
    43
1040
5.0
1070
    44
1040
0.75
1070
    73
1070
     0
1070
    74
1070
     0
1070
    77
1070
     1
1070
    78
1070
     9
1070
    79
1070
     2
1070
   140
1040
3.0
1070
   141
1040
2.5
1070
   143
1040
0.0394
1070
   147
1040
0.5
1070
   171
1070
     4
1070
   172
1070
     1
1070
   173
1070
     1
1070
   178
1070
     7
1070
   273
1070
     8
1070
   274
1070
     4
1070
   279
1070
     2
1070
   284
1070
     9
1070
   341
1005
24
1070
   343
1005
24
1070
   344
1005
24
1002
}
  0
LINE
  5
ADC2
330
18
100
AcDbEntity
  8
CENTER
 48
5.0
100
AcDbLine
 10
1557.396007726557
 20
129.5865519991377
 30
0.0
 11
1589.346007726558
 21
129.5865519991377
 31
0.0
  0
LINE
  5
ADC3
330
18
100
AcDbEntity
  8
0
 62
     3
 48
5.0
370
    30
100
AcDbLine
 10
1564.315361825247
 20
104.1865519991381
 30
0.0
 11
1591.646007726559
 21
104.1865519991381
 31
0.0
  0
LWPOLYLINE
  5
ADC4
330
18
100
AcDbEntity
  8
0
 62
     4
370
    30
100
AcDbPolyline
 90
        4
 70
     1
 43
0.0
 10
1556.646007726559
 20
97.5865519991378
 10
1591.646007726559
 20
97.5865519991378
 10
1591.646007726559
 20
99.18655199913635
 10
1556.646007726559
 20
99.18655199913635
  0
CIRCLE
  5
ADC5
330
18
100
AcDbEntity
  8
ｾﾑｽ
370
    30
100
AcDbCircle
 10
1568.649309733163
 20
109.1837579935497
 30
0.0
 40
3.0
  0
LINE
  5
ADC6
330
18
100
AcDbEntity
  8
0
 48
0.5
100
AcDbLine
 10
1556.649706759967
 20
114.9361148796365
 30
0.0
 11
1554.597803821613
 21
125.4922403815249
 31
0.0
  0
LINE
  5
ADC7
330
18
100
AcDbEntity
  8
0
 48
0.5
100
AcDbLine
 10
1561.584343263207
 20
116.8019947732146
 30
0.0
 11
1559.702265175541
 21
126.4844471574829
 31
0.0
  0
DIMENSION
  5
ADC8
330
18
100
AcDbEntity
  8
寸法
100
AcDbDimension
  2
*D5
 10
1536.47411019075
 20
97.5865519991378
 30
0.0
 11
1534.47411019075
 21
116.586551999138
 31
0.0
 70
    32
 71
     5
 42
37.99999999999998
  3
STANDARD
100
AcDbAlignedDimension
 13
1555.646007726559
 23
135.5865519991377
 33
0.0
 14
1555.646007726559
 24
97.5865519991378
 34
0.0
 50
270.0
100
AcDbRotatedDimension
1001
ACAD
1000
DSTYLE
1002
{
1070
   340
1005
35
1070
    41
1040
1.5
1070
    42
1040
0.5
1070
    43
1040
5.0
1070
    44
1040
0.75
1070
    73
1070
     0
1070
    74
1070
     0
1070
    77
1070
     1
1070
    78
1070
     9
1070
    79
1070
     2
1070
   140
1040
3.0
1070
   141
1040
2.5
1070
   143
1040
0.0394
1070
   147
1040
0.5
1070
   171
1070
     4
1070
   172
1070
     1
1070
   173
1070
     1
1070
   178
1070
     7
1070
   273
1070
     8
1070
   274
1070
     4
1070
   279
1070
     2
1070
   284
1070
     9
1070
   341
1005
24
1070
   343
1005
24
1070
   344
1005
24
1002
}
  0
LINE
  5
ADC9
330
18
100
AcDbEntity
  8
0
 62
     3
 48
5.0
370
    30
100
AcDbLine
 10
1555.646007726559
 20
114.9564768577558
 30
0.0
 11
1555.646007726559
 21
111.5934752684655
 31
0.0
  0
LINE
  5
ADCA
330
18
100
AcDbEntity
  8
0
 48
0.5
100
AcDbLine
 10
1562.334170840656
 20
112.9444662983602
 30
0.0
 11
1562.238920864836
 21
113.4344849439896
 31
0.0
  0
LINE
  5
ADCB
330
18
100
AcDbEntity
  8
0
 48
0.5
100
AcDbLine
 10
1557.529262114448
 20
110.4111948484735
 30
0.0
 11
1557.417630271001
 21
110.9854908969874
 31
0.0
  0
LINE
  5
ADCC
330
18
100
AcDbEntity
  8
0
 48
0.5
100
AcDbLine
 10
1563.70919347291
 20
105.8705880935476
 30
0.0
 11
1563.839668742244
 21
105.1993510227095
 31
0.0
  0
LINE
  5
ADCD
330
18
100
AcDbEntity
  8
0
 48
0.5
100
AcDbLine
 10
1558.604732118983
 20
104.8783813175896
 30
0.0
 11
1558.735207388317
 21
104.2071442467515
 31
0.0
  0
LWPOLYLINE
  5
ADCE
330
18
100
AcDbEntity
  8
0
 62
     3
 48
5.0
370
    30
100
AcDbPolyline
 90
        3
 70
     0
 43
0.0
 10
1555.646007726559
 20
111.5934752684655
 10
1555.646007726559
 20
97.5865519991378
 10
1556.646007726559
 20
97.5865519991378
  0
SPLINE
  5
ADCF
330
18
100
AcDbEntity
  8
0
100
AcDbSpline
210
0.0
220
0.0
230
1.0
 70
     8
 71
     3
 72
    15
 73
    11
 74
     0
 42
0.0000000001
 43
0.0000000001
 40
0.1983766661127965
 40
0.1983766661127965
 40
0.1983766661127965
 40
0.1983766661127965
 40
1.274914188311766
 40
1.566720045715917
 40
2.192433922491996
 40
5.075371887794163
 40
7.113242543302737
 40
9.019439180965294
 40
9.641900015417622
 40
10.01585154105508
 40
10.01585154105508
 40
10.01585154105508
 40
10.01585154105508
 10
1561.432125374061
 20
117.5850879261199
 30
0.0
 10
1562.703300017073
 20
117.5576968106586
 30
0.0
 10
1562.358914084148
 20
117.0435456271166
 30
0.0
 10
1561.740398520892
 20
116.8456337235468
 30
0.0
 10
1560.911065046205
 20
116.6164952335993
 30
0.0
 10
1559.023222095461
 20
115.8103734867966
 30
0.0
 10
1557.452341000551
 20
115.2504548128802
 30
0.0
 10
1556.168321313674
 20
114.7451680602132
 30
0.0
 10
1555.708312327021
 20
114.5834149705253
 30
0.0
 10
1555.624973516103
 20
114.1034074220635
 30
0.0
 10
1555.729832798651
 20
113.7469114155426
 30
0.0
  0
LINE
  5
ADD0
330
18
100
AcDbEntity
  8
0
100
AcDbLine
 10
1556.586412591329
 20
110.1684446834524
 30
0.0
 11
1555.729832798651
 21
113.7469114155426
 31
0.0
  0
LINE
  5
ADD1
330
18
100
AcDbEntity
  8
0
100
AcDbLine
 10
1563.048376346193
 20
114.3469428615064
 30
0.0
 11
1562.37418339454
 21
117.2462054206352
 31
0.0
  0
SPLINE
  5
ADD2
330
18
100
AcDbEntity
  8
0
100
AcDbSpline
210
0.0
220
0.0
230
1.0
 70
     8
 71
     3
 72
    15
 73
    11
 74
     0
 42
0.0000000001
 43
0.0000000001
 40
0.9108348581654215
 40
0.9108348581654215
 40
0.9108348581654215
 40
0.9108348581654215
 40
3.537641503673328
 40
3.829447361078385
 40
4.455161237845277
 40
10.19568190587928
 40
12.23355256139139
 40
14.12255319454766
 40
14.79133878296947
 40
15.14619599669295
 40
15.14619599669295
 40
15.14619599669295
 40
15.14619599669295
 10
1557.24667618482
 20
110.2069338251524
 30
0.0
 10
1556.866854644032
 20
109.9891545226357
 30
0.0
 10
1556.389263567209
 20
110.017658993768
 30
0.0
 10
1556.748188034108
 20
110.4856782768908
 30
0.0
 10
1557.339614653597
 20
111.0178309716409
 30
0.0
 10
1558.970253667452
 20
111.870963924244
 30
0.0
 10
1560.220594532987
 20
112.3465923120827
 30
0.0
 10
1562.019224703551
 20
113.2382587204558
 30
0.0
 10
1562.567267039223
 20
113.6822506399878
 30
0.0
 10
1563.048376346193
 20
114.0481931899178
 30
0.0
 10
1563.048376346193
 20
114.3469428615064
 30
0.0
  0
SPLINE
  5
ADD3
330
18
100
AcDbEntity
  8
0
100
AcDbSpline
210
0.0
220
0.0
230
1.0
 70
     8
 71
     3
 72
    15
 73
    11
 74
     0
 42
0.0000000001
 43
0.0000000001
 40
0.5671782524325932
 40
0.5671782524325932
 40
0.5671782524325932
 40
0.5671782524325932
 40
1.133765210141229
 40
1.425571067547805
 40
2.051284944314595
 40
4.934222909624325
 40
6.972093565136463
 40
11.94688127401595
 40
12.56934210846959
 40
12.94329363411303
 40
12.94329363411303
 40
12.94329363411303
 40
12.94329363411303
 10
1563.044901444004
 20
114.1663024518077
 30
0.0
 10
1563.211805068981
 20
113.9316598171328
 30
0.0
 10
1563.256523853886
 20
113.5590807300311
 30
0.0
 10
1562.622986792531
 20
113.1343423510277
 30
0.0
 10
1562.145971977543
 20
112.8064716993897
 30
0.0
 10
1560.796904028113
 20
112.0836693913368
 30
0.0
 10
1560.01147214625
 20
111.7043383776933
 30
0.0
 10
1558.792825681606
 20
111.1698745987121
 30
0.0
 10
1557.297369895062
 20
110.274509136833
 30
0.0
 10
1556.900269164834
 20
109.9450823771246
 30
0.0
 10
1556.807330696058
 20
109.3200148651287
 30
0.0
  0
LINE
  5
ADD4
330
18
100
AcDbEntity
  8
0
100
AcDbLine
 10
1557.563208851465
 20
106.2634234316047
 30
0.0
 11
1556.807330696058
 21
109.3200148651287
 31
0.0
  0
LINE
  5
ADD5
330
18
100
AcDbEntity
  8
0
100
AcDbLine
 10
1563.723373930053
 20
110.5574504647854
 30
0.0
 11
1563.182967876631
 21
113.845672025614
 31
0.0
  0
SPLINE
  5
ADD6
330
18
100
AcDbEntity
  8
0
100
AcDbSpline
210
0.0
220
0.0
230
1.0
 70
     8
 71
     3
 72
    15
 73
    11
 74
     0
 42
0.0000000001
 43
0.0000000001
 40
1.922971047561783
 40
1.922971047561783
 40
1.922971047561783
 40
1.922971047561783
 40
4.028252846041668
 40
4.320058703446814
 40
4.945772580216695
 40
10.89689091983162
 40
12.9347615753438
 40
14.8237622084996
 40
15.49254779692579
 40
15.84740501064507
 40
15.84740501064507
 40
15.84740501064507
 40
15.84740501064507
 10
1558.472874712452
 20
105.6237735632451
 30
0.0
 10
1558.014248282614
 20
105.8130516914691
 30
0.0
 10
1557.51264485176
 20
106.019542616799
 30
0.0
 10
1557.571657529837
 20
106.5111870491389
 30
0.0
 10
1558.240459215778
 20
107.1798255870983
 30
0.0
 10
1560.099336911207
 20
108.0549583472268
 30
0.0
 10
1562.164754647107
 20
109.0972474450056
 30
0.0
 10
1563.050382430623
 20
109.5909919638727
 30
0.0
 10
1563.370762346556
 20
109.9112963697041
 30
0.0
 10
1563.668260768149
 20
110.2773609026819
 30
0.0
 10
1563.72360360386
 20
110.5562145427331
 30
0.0
  0
LINE
  5
ADD7
330
18
100
AcDbEntity
  8
0
 48
0.5
100
AcDbLine
 10
1566.485627715162
 20
107.1056626817361
 30
0.0
 11
1563.604168622123
 21
106.7007000156396
 31
0.0
  0
LINE
  5
ADD8
330
18
100
AcDbEntity
  8
0
 48
0.5
100
AcDbLine
 10
1565.988927643161
 20
110.5702525428355
 30
0.0
 11
1563.613319299527
 21
110.2363825632952
 31
0.0
  0
LINE
  5
ADD9
330
18
100
AcDbEntity
  8
0
 48
0.5
100
AcDbLine
 10
1559.362101866647
 20
100.9642513598776
 30
0.0
 11
1558.18953272658
 21
107.0143970192019
 31
0.0
  0
LINE
  5
ADDA
330
18
100
AcDbEntity
  8
0
 48
0.5
100
AcDbLine
 10
1564.46795950004
 20
101.9567295450696
 30
0.0
 11
1562.986733556363
 21
109.5873221585991
 31
0.0
  0
LINE
  5
ADDB
330
18
100
AcDbEntity
  8
0
 48
0.5
100
AcDbLine
 10
1559.362101866647
 20
100.9642513598776
 30
0.0
 11
1564.466563220575
 21
101.9564581358356
 31
0.0
  0
LWPOLYLINE
  5
ADDC
330
18
100
AcDbEntity
  8
0
 62
     3
 48
5.0
370
    30
100
AcDbPolyline
 90
        2
 70
     0
 43
0.0
 10
1555.646007726559
 20
120.099698772782
 10
1555.646007726559
 20
114.9564768577558
  0
ARC
  5
ADDD
330
18
100
AcDbEntity
  8
0
 48
0.5
100
AcDbCircle
 10
1563.239475887986
 20
102.1172481842703
 30
0.0
 40
2.933089142260735
100
AcDbArc
 50
198.6799288682888
 51
272.3145788958499
  0
ARC
  5
ADDE
330
18
100
AcDbEntity
  8
0
 48
0.5
100
AcDbCircle
 10
1565.328478728215
 20
103.0231001059126
 30
0.0
 40
2.402481680980087
100
AcDbArc
 50
212.5530947932545
 51
265.860706918236
  0
LINE
  5
ADDF
330
18
100
AcDbEntity
  8
0
 62
     3
 48
5.0
370
    30
100
AcDbLine
 10
1556.646007726559
 20
97.5865519991378
 30
0.0
 11
1556.646007726559
 21
99.18655199913816
 31
0.0
  0
LINE
  5
ADE0
330
18
100
AcDbEntity
  8
0
 62
     3
 48
5.0
370
    30
100
AcDbLine
 10
1556.646007726559
 20
99.18655199913816
 30
0.0
 11
1562.146007726559
 21
99.18655199913816
 31
0.0
  0
LINE
  5
ADE1
330
18
100
AcDbEntity
  8
0
 62
     3
 48
5.0
370
    30
100
AcDbLine
 10
1562.146007726559
 20
99.18655199913816
 30
0.0
 11
1562.146007726559
 21
99.39560542733218
 31
0.0
  0
LINE
  5
ADE3
330
18
100
AcDbEntity
  8
0
 62
     3
 48
5.0
370
    30
100
AcDbLine
 10
1555.646007726559
 20
135.5865519991377
 30
0.0
 11
1555.646007726559
 21
132.4690481753038
 31
0.0
  0
LINE
  5
ADE4
330
18
100
AcDbEntity
  8
0
 48
0.5
100
AcDbLine
 10
1554.597803821613
 20
125.4922403815249
 30
0.0
 11
1553.358280403509
 21
131.8690355600234
 31
0.0
  0
LINE
  5
ADE5
330
18
100
AcDbEntity
  8
0
 48
0.5
100
AcDbLine
 10
1559.702265175541
 20
126.4844471574829
 30
0.0
 11
1558.462741757437
 21
132.8612423359815
 31
0.0
  0
DIMENSION
  5
ADE6
330
18
100
AcDbEntity
  8
寸法
100
AcDbDimension
  2
*D6
 10
1561.646007726557
 20
144.6782175256578
 30
0.0
 11
1558.646007726558
 21
146.6782175256578
 31
0.0
 70
    32
 71
     5
 42
5.999999999998181
  3
STANDARD
100
AcDbAlignedDimension
 13
1555.646007726559
 23
135.5865519991377
 33
0.0
 14
1561.646007726557
 24
133.2865519991367
 34
0.0
100
AcDbRotatedDimension
1001
ACAD
1000
DSTYLE
1002
{
1070
   340
1005
35
1070
    41
1040
1.5
1070
    42
1040
0.5
1070
    43
1040
5.0
1070
    44
1040
0.75
1070
    73
1070
     0
1070
    74
1070
     0
1070
    77
1070
     1
1070
    78
1070
     9
1070
    79
1070
     2
1070
   140
1040
3.0
1070
   141
1040
2.5
1070
   143
1040
0.0394
1070
   147
1040
0.5
1070
   171
1070
     4
1070
   172
1070
     1
1070
   173
1070
     1
1070
   178
1070
     7
1070
   273
1070
     8
1070
   274
1070
     4
1070
   279
1070
     2
1070
   284
1070
     9
1070
   341
1005
24
1070
   343
1005
24
1070
   344
1005
24
1002
}
  0
LINE
  5
ADE7
330
18
100
AcDbEntity
  8
CENTER
 48
5.0
100
AcDbLine
 10
1561.646007726557
 20
133.2865519991367
 30
0.0
 11
1561.646007726557
 21
125.886551999137
 31
0.0
  0
CIRCLE
  5
ADE8
330
18
100
AcDbEntity
  8
0
 62
     3
 48
5.0
370
    30
100
AcDbCircle
 10
1561.646007726557
 20
129.5865519991377
 30
0.0
 40
2.25
  0
DIMENSION
  5
ADE9
330
18
100
AcDbEntity
  8
寸法
 48
0.5
100
AcDbDimension
  2
*D7
 10
1670.828452496321
 20
117.5865519991378
 30
0.0
 11
1670.828452496321
 21
143.7139104114465
 31
0.0
 70
   160
  1
(<>)（曲げ起点MIN.）
 71
     5
 42
20.0
  3
STANDARD
100
AcDbAlignedDimension
 13
1703.885370225633
 23
97.5865519991378
 33
0.0
 14
1697.057868324688
 24
117.5865519991377
 34
0.0
 50
90.0
100
AcDbRotatedDimension
1001
ACAD
1000
DSTYLE
1002
{
1070
   340
1005
35
1070
   170
1070
     0
1070
   146
1040
1.0
1070
   283
1070
     1
1070
    47
1040
2.0
1070
    48
1040
0.0
1070
    72
1070
     0
1070
    71
1070
     0
1070
    41
1040
1.5
1070
    42
1040
0.5
1070
    43
1040
5.0
1070
    44
1040
0.75
1070
    73
1070
     0
1070
    74
1070
     0
1070
    77
1070
     1
1070
    78
1070
     9
1070
    79
1070
     2
1070
   140
1040
3.0
1070
   141
1040
2.5
1070
   143
1040
0.0394
1070
   147
1040
0.5
1070
   171
1070
     4
1070
   172
1070
     1
1070
   173
1070
     1
1070
   178
1070
     7
1070
   273
1070
     8
1070
   274
1070
     4
1070
   284
1070
     9
1070
   341
1005
24
1070
   343
1005
24
1070
   344
1005
24
1002
}
  0
DIMENSION
  5
ADEA
330
18
100
AcDbEntity
  8
寸法
 48
0.5
100
AcDbDimension
  2
*D8
 10
1704.723693335612
 20
90.47313884553023
 30
0.0
 11
1668.311561301256
 21
90.47313884553023
 31
0.0
 70
   160
  1
13以下（配線スペース）
 71
     5
 42
8.227082309366778
  3
STANDARD
100
AcDbAlignedDimension
 13
1696.496611026245
 23
116.3904492671508
 33
0.0
 14
1704.723693335612
 24
97.5865519991378
 34
0.0
100
AcDbRotatedDimension
1001
ACAD
1000
DSTYLE
1002
{
1070
   340
1005
35
1070
    41
1040
1.5
1070
    42
1040
0.5
1070
    43
1040
5.0
1070
    44
1040
0.75
1070
    73
1070
     0
1070
    74
1070
     0
1070
    77
1070
     1
1070
    78
1070
     9
1070
    79
1070
     2
1070
   140
1040
3.0
1070
   141
1040
2.5
1070
   143
1040
0.0394
1070
   147
1040
0.5
1070
   171
1070
     4
1070
   172
1070
     1
1070
   173
1070
     1
1070
   178
1070
     7
1070
   273
1070
     8
1070
   274
1070
     4
1070
   284
1070
     9
1070
   341
1005
24
1070
   343
1005
24
1070
   344
1005
24
1002
}
  0
DIMENSION
  5
ADEB
330
18
100
AcDbEntity
  8
寸法
100
AcDbDimension
  2
*D9
 10
1703.134100949398
 20
127.692757934931
 30
0.0
 11
1686.002233030839
 21
127.692757934931
 31
0.0
 70
   160
 71
     5
 42
5.200000000000045
  3
STANDARD
100
AcDbAlignedDimension
 13
1697.934100949399
 23
125.9810719898255
 33
0.0
 14
1703.134100949398
 24
126.8140630254041
 34
0.0
100
AcDbRotatedDimension
1001
ACAD
1000
DSTYLE
1002
{
1070
   340
1005
35
1070
     3
1000
（φ<>）
1070
    41
1040
1.5
1070
    42
1040
0.5
1070
    43
1040
5.0
1070
    44
1040
0.75
1070
    73
1070
     0
1070
    74
1070
     0
1070
    77
1070
     1
1070
    78
1070
     9
1070
    79
1070
     2
1070
   140
1040
3.0
1070
   141
1040
2.5
1070
   143
1040
0.0394
1070
   147
1040
0.5
1070
   171
1070
     4
1070
   172
1070
     1
1070
   173
1070
     1
1070
   178
1070
     7
1070
   273
1070
     8
1070
   274
1070
     4
1070
   284
1070
     9
1070
   341
1005
24
1070
   343
1005
24
1070
   344
1005
24
1002
}
  0
LEADER
  5
ADEC
330
18
100
AcDbEntity
  8
文字
 48
0.5
100
AcDbLeader
  3
ｺﾋﾟｰ - まこ-10
 40
3.578680203045685
 41
21.1979695431472
 76
     3
 10
1586.80085633008
 20
127.6555355044019
 30
0.0
 10
1601.106260752305
 20
103.7355413000345
 30
0.0
 10
1626.827724303247
 20
103.7355413000345
 30
0.0
211
-1.0
221
0.0
231
0.0
210
0.0
220
0.0
230
-1.0
213
-27.29070383634825
223
-4.291760789555265
233
0.0
1001
ACAD
1000
DSTYLE
1002
{
1070
   147
1040
0.5
1070
    77
1070
     0
1002
}
  0
MTEXT
  5
ADED
330
18
100
AcDbEntity
  8
文字
 62
    40
 48
0.5
100
AcDbMText
 10
1604.178023413913
 20
108.0493679577521
 30
0.0
 40
3.0
 41
0.0
 71
     1
 72
     1
  1
2-φ4.5貫通
  7
MSｺﾞｼｯｸ
 73
     1
 44
1.0
  0
LINE
  5
ADEE
330
18
100
AcDbEntity
  8
0
370
    30
100
AcDbLine
 10
1591.646007726559
 20
104.1865519991381
 30
0.0
 11
1591.646007726559
 21
99.18655199913635
 31
0.0
  0
LINE
  5
ADEF
330
18
100
AcDbEntity
  8
ｾﾑｽ
370
    30
100
AcDbLine
 10
1569.709969904942
 20
110.2444181653297
 30
0.0
 11
1567.588649561382
 21
108.1230978217697
 31
0.0
  0
LINE
  5
ADF0
330
18
100
AcDbEntity
  8
ｾﾑｽ
370
    30
100
AcDbLine
 10
1567.588649561382
 20
110.2444181653297
 30
0.0
 11
1569.709969904942
 21
108.1230978217697
 31
0.0
  0
DIMENSION
  5
ADF1
330
18
100
AcDbEntity
  8
寸法
100
AcDbDimension
  2
*D10
 10
1601.275798344779
 20
129.5865519991377
 30
0.0
 11
1599.275798344779
 21
132.586551999138
 31
0.0
 70
    32
 71
     5
 42
6.0
  3
STANDARD
100
AcDbAlignedDimension
 13
1591.646007726559
 23
135.5865519991377
 33
0.0
 14
1589.346007726558
 24
129.5865519991377
 34
0.0
 50
270.0
100
AcDbRotatedDimension
1001
ACAD
1000
DSTYLE
1002
{
1070
   340
1005
35
1070
    41
1040
1.5
1070
    42
1040
0.5
1070
    43
1040
5.0
1070
    44
1040
0.75
1070
    73
1070
     0
1070
    74
1070
     0
1070
    77
1070
     1
1070
    78
1070
     9
1070
    79
1070
     2
1070
   140
1040
3.0
1070
   141
1040
2.5
1070
   143
1040
0.0394
1070
   147
1040
0.5
1070
   171
1070
     4
1070
   172
1070
     1
1070
   173
1070
     1
1070
   178
1070
     7
1070
   273
1070
     8
1070
   274
1070
     4
1070
   279
1070
     2
1070
   284
1070
     9
1070
   341
1005
24
1070
   343
1005
24
1070
   344
1005
24
1002
}
  0
LINE
  5
ADF2
330
18
100
AcDbEntity
  8
CENTER
 48
5.0
100
AcDbLine
 10
1585.646007726557
 20
133.2865519991367
 30
0.0
 11
1585.646007726557
 21
125.886551999137
 31
0.0
  0
CIRCLE
  5
ADF3
330
18
100
AcDbEntity
  8
0
 62
     3
 48
5.0
370
    30
100
AcDbCircle
 10
1585.646007726557
 20
129.5865519991377
 30
0.0
 40
2.25
  0
MTEXT
  5
ADF4
330
18
100
AcDbEntity
  8
寸法
 62
     7
100
AcDbMText
 10
1716.190518945136
 20
145.5890672031504
 30
0.0
 40
2.5
 41
0.0
 71
     7
 72
     1
  1
{\fＭＳ Ｐゴシック|b0|i0|c128|p50;装置銘板，検査証}
  7
MSｺﾞｼｯｸ
 73
     1
 44
1.0
  0
LEADER
  5
ADF5
330
18
100
AcDbEntity
  8
寸法
100
AcDbLeader
  3
STANDARD
 76
     3
 10
1709.846296470104
 20
140.9979979228386
 30
0.0
 10
1716.069619097798
 20
144.8767300855232
 30
0.0
 10
1745.77317028156
 20
144.8767300855232
 30
0.0
1001
ACAD
1000
DSTYLE
1002
{
1070
    41
1040
1.5
1070
    42
1040
0.5
1070
    43
1040
5.0
1070
    44
1040
0.75
1070
    73
1070
     0
1070
    74
1070
     0
1070
    77
1070
     0
1070
    78
1070
     9
1070
    79
1070
     2
1070
   140
1040
3.0
1070
   141
1040
2.5
1070
   143
1040
0.0394
1070
   147
1040
0.5
1070
   171
1070
     4
1070
   172
1070
     1
1070
   173
1070
     1
1070
   178
1070
     7
1070
   273
1070
     8
1070
   274
1070
     4
1070
   279
1070
     2
1070
   284
1070
     9
1070
   341
1005
24
1070
   343
1005
24
1070
   344
1005
24
1002
}
  0
LWPOLYLINE
  5
ADF6
330
18
100
AcDbEntity
  8
0
 62
     3
370
    30
100
AcDbPolyline
 90
        6
 70
     0
 43
0.0
 10
1704.723693335612
 20
101.3915589727154
 10
1704.723693335612
 20
135.5865519991377
 10
1718.723693335612
 20
135.5865519991377
 10
1718.723693335612
 20
97.5865519991378
 10
1704.723693335612
 20
97.5865519991378
 10
1704.723693335612
 20
99.36128990391601
  0
LINE
  5
ADF7
330
18
100
AcDbEntity
  8
0
 48
0.5
100
AcDbLine
 10
1703.134100949398
 20
129.1994462115546
 30
0.0
 11
1703.134100949398
 21
117.1234652471291
 31
0.0
  0
LINE
  5
ADF8
330
18
100
AcDbEntity
  8
0
 48
0.5
100
AcDbLine
 10
1697.934100949399
 20
129.1994462115546
 30
0.0
 11
1697.934100949399
 21
117.3747028099871
 31
0.0
  0
LWPOLYLINE
  5
ADF9
330
18
100
AcDbEntity
  8
0
 48
0.5
100
AcDbPolyline
 90
        2
 70
     0
 43
0.0
 10
1703.134100949398
 20
135.0317711365922
 10
1703.134100949398
 20
120.0898105489139
  0
LWPOLYLINE
  5
ADFA
330
18
100
AcDbEntity
  8
0
 48
0.5
100
AcDbPolyline
 90
        2
 70
     0
 43
0.0
 10
1697.934100949399
 20
118.0559834448003
 10
1697.934100949399
 20
135.3174342857468
  0
SPLINE
  5
ADFD
330
18
100
AcDbEntity
  8
0
100
AcDbSpline
210
0.0
220
0.0
230
1.0
 70
     8
 71
     3
 72
    12
 73
     8
 74
     0
 42
0.0000000001
 43
0.0000000001
 40
1.314305502331761
 40
1.314305502331761
 40
1.314305502331761
 40
1.314305502331761
 40
4.028252846041668
 40
4.320058703446814
 40
4.945772580216695
 40
10.89689091983162
 40
12.57223653407684
 40
12.57223653407684
 40
12.57223653407684
 40
12.57223653407684
 10
1698.202879516519
 20
106.42318606919
 30
0.0
 10
1697.717403241765
 20
106.3794751183903
 30
0.0
 10
1697.117078146131
 20
106.520405324627
 30
0.0
 10
1696.743311741127
 20
107.1307584623362
 30
0.0
 10
1697.4784904711
 20
107.3735703970654
 30
0.0
 10
1699.756140563955
 20
107.5769031873496
 30
0.0
 10
1701.246786435802
 20
107.6787416128532
 30
0.0
 10
1701.60318433953
 20
107.7088402186288
 30
0.0
  0
ARC
  5
ADFE
330
18
100
AcDbEntity
  8
0
 48
0.5
100
AcDbCircle
 10
1706.31586824931
 20
107.1160519531157
 30
0.0
 40
7.91652419913684
100
AcDbArc
 50
226.3514642907323
 51
276.8697420838709
  0
LINE
  5
ADFF
330
18
100
AcDbEntity
  8
0
 48
0.5
100
AcDbLine
 10
1699.124256667308
 20
100.9454394503296
 30
0.0
 11
1698.006229597068
 21
107.3834961476237
 31
0.0
  0
SPLINE
  5
AE01
330
18
100
AcDbEntity
  8
0
100
AcDbSpline
210
0.0
220
0.0
230
1.0
 70
     8
 71
     3
 72
    12
 73
     8
 74
     0
 42
0.0000000001
 43
0.0000000001
 40
3.775412523393207
 40
3.775412523393207
 40
3.775412523393207
 40
3.775412523393207
 40
5.075371887794163
 40
7.113242543302737
 40
9.019439180965294
 40
9.641900015417622
 40
10.01585154105508
 40
10.01585154105508
 40
10.01585154105508
 40
10.01585154105508
 10
1702.079860367998
 20
117.5865519991377
 30
0.0
 10
1701.605704343163
 20
117.5791603604891
 30
0.0
 10
1701.04802085913
 20
117.5549221137923
 30
0.0
 10
1700.405102312239
 20
117.5173910911189
 30
0.0
 10
1699.148659319728
 20
117.4498897114399
 30
0.0
 10
1698.227309556332
 20
117.3893328868457
 30
0.0
 10
1696.749170922304
 20
117.3105270189216
 30
0.0
 10
1696.495458157756
 20
116.5842581932533
 30
0.0
  0
SPLINE
  5
AE02
330
18
100
AcDbEntity
  8
0
100
AcDbSpline
210
0.0
220
0.0
230
1.0
 70
     8
 71
     3
 72
    12
 73
     8
 74
     0
 42
0.0000000001
 43
0.0000000001
 40
0.2008920701870816
 40
0.2008920701870816
 40
0.2008920701870816
 40
0.2008920701870816
 40
3.537641503673328
 40
3.829447361078385
 40
4.455161237845277
 40
10.19568190587928
 40
12.03630025172743
 40
12.03630025172743
 40
12.03630025172743
 40
12.03630025172743
 10
1696.598748535853
 20
111.3992396614228
 30
0.0
 10
1696.211937687807
 20
111.7823746959112
 30
0.0
 10
1697.001783140062
 20
112.1900492146798
 30
0.0
 10
1697.940608835445
 20
112.3111435266156
 30
0.0
 10
1699.333704817699
 20
112.4927849196762
 30
0.0
 10
1700.711658822861
 20
112.6138793812984
 30
0.0
 10
1701.77162313688
 20
112.6895633449691
 30
0.0
 10
1702.286462966561
 20
112.7652473086398
 30
0.0
  0
SPLINE
  5
AE04
330
18
100
AcDbEntity
  8
0
100
AcDbSpline
210
0.0
220
0.0
230
1.0
 70
     8
 71
     3
 72
    15
 73
    11
 74
     0
 42
0.0000000001
 43
0.0000000001
 40
0.5410266164626938
 40
0.5410266164626938
 40
0.5410266164626938
 40
0.5410266164626938
 40
1.133765210141229
 40
1.425571067547805
 40
2.051284944314595
 40
4.934222909624325
 40
6.972093565136463
 40
11.94688127401595
 40
12.56934210846959
 40
12.94329363411303
 40
12.94329363411303
 40
12.94329363411303
 40
12.94329363411303
 10
1703.777801100927
 20
113.8183154703038
 30
0.0
 10
1704.591817086743
 20
113.4852257188649
 30
0.0
 10
1704.768060672412
 20
112.7965266608364
 30
0.0
 10
1704.447618220828
 20
112.4041296339453
 30
0.0
 10
1703.177249803697
 20
112.2463488779505
 30
0.0
 10
1701.660850546695
 20
112.1392928068967
 30
0.0
 10
1700.104425587765
 20
112.0408303611321
 30
0.0
 10
1698.940915009695
 20
111.922270046133
 30
0.0
 10
1697.641249543703
 20
111.7918377007429
 30
0.0
 10
1696.540762105871
 20
111.6186497287506
 30
0.0
 10
1696.594757911086
 20
111.2625984044787
 30
0.0
  0
LINE
  5
AE05
330
18
100
AcDbEntity
  8
0
 48
0.5
100
AcDbLine
 10
1697.934100949399
 20
111.8211751715483
 30
0.0
 11
1697.934100949399
 21
112.3103687838597
 31
0.0
  0
LINE
  5
AE08
330
18
100
AcDbEntity
  8
0
 48
0.5
100
AcDbLine
 10
1696.495458157756
 20
116.5842581932533
 30
0.0
 11
1696.524270124675
 21
111.7406733274294
 31
0.0
  0
ARC
  5
AE0A
330
18
100
AcDbEntity
  8
0
 48
0.5
100
AcDbCircle
 10
1704.223693335612
 20
109.1692965176848
 30
0.0
 40
3.0
100
AcDbArc
 50
90.0
 51
270.0
  0
LWPOLYLINE
  5
AE0B
330
18
100
AcDbEntity
  8
0
 48
0.5
100
AcDbPolyline
 90
        4
 70
     1
 43
0.0
 10
1704.223693335612
 20
112.1692965176848
 10
1704.723693335612
 20
112.1692965176848
 10
1704.723693335612
 20
106.1692965176848
 10
1704.223693335612
 20
106.1692965176848
  0
LINE
  5
AE0C
330
18
100
AcDbEntity
  8
0
 48
0.5
100
AcDbLine
 10
1704.219661386843
 20
102.2699431368239
 30
0.0
 11
1703.584389452345
 21
106.2382061838944
 31
0.0
  0
ARC
  5
AE0F
330
18
100
AcDbEntity
  8
0
 48
0.5
100
AcDbCircle
 10
1706.958331040111
 20
106.1378783008799
 30
0.0
 40
5.246060696873343
100
AcDbArc
 50
230.4069070869586
 51
272.8414722197868
  0
LINE
  5
AE10
330
18
100
AcDbEntity
  8
0
 62
     3
370
    30
100
AcDbLine
 10
1704.723693335612
 20
99.18655199913816
 30
0.0
 11
1718.723693335612
 21
99.18655199913816
 31
0.0
  0
LINE
  5
AE11
330
18
100
AcDbEntity
  8
0
 62
     3
370
    30
100
AcDbLine
 10
1704.723693335612
 20
104.1865519991381
 30
0.0
 11
1718.723693335612
 21
104.1865519991381
 31
0.0
  0
LWPOLYLINE
  5
AE12
330
18
100
AcDbEntity
  8
0
100
AcDbPolyline
 90
        4
 70
     1
 43
0.0
 10
1704.844606560936
 20
136.6106377992838
 10
1704.844606560936
 20
146.6106377992838
 10
1709.844606560936
 20
146.6106377992838
 10
1709.844606560936
 20
136.6106377992838
  0
ARC
  5
AE13
330
18
100
AcDbEntity
  8
A
 62
     7
100
AcDbCircle
 10
1703.844606560936
 20
152.9200917525973
 30
0.0
 40
0.5
100
AcDbArc
 50
270.0
 51
0.0
  0
ARC
  5
AE14
330
18
100
AcDbEntity
  8
A
 62
     7
100
AcDbCircle
 10
1703.844606560936
 20
151.9200917525973
 30
0.0
 40
0.5
100
AcDbArc
 50
90.0
 51
179.9999999999951
  0
ARC
  5
AE15
330
18
100
AcDbEntity
  8
A
 62
     7
100
AcDbCircle
 10
1697.244606560936
 20
151.9200917525974
 30
0.0
 40
0.5
100
AcDbArc
 50
0.0
 51
90.0
  0
ARC
  5
AE16
330
18
100
AcDbEntity
  8
A
 62
     7
100
AcDbCircle
 10
1697.244606560936
 20
152.9200917525974
 30
0.0
 40
0.5
100
AcDbArc
 50
180.0
 51
270.0
  0
LWPOLYLINE
  5
AE17
330
18
100
AcDbEntity
  8
0
100
AcDbPolyline
 90
        2
 70
     0
 43
0.0
 10
1703.144606560936
 20
141.1106377992839
 10
1703.144606560936
 20
136.0394899537123
  0
LWPOLYLINE
  5
AE18
330
18
100
AcDbEntity
  8
0
100
AcDbPolyline
 90
        2
 70
     0
 43
0.0
 10
1697.944606560936
 20
141.1106377992839
 10
1697.944606560936
 20
136.3244426891611
  0
LWPOLYLINE
  5
AE19
330
18
100
AcDbEntity
  8
0
100
AcDbPolyline
 90
        2
 70
     0
 43
0.0
 10
1697.944606560936
 20
144.2281418898564
 10
1697.944606560936
 20
142.1106377992838
  0
LWPOLYLINE
  5
AE1A
330
18
100
AcDbEntity
  8
0
100
AcDbPolyline
 90
        2
 70
     0
 43
0.0
 10
1703.144606560936
 20
143.9431891544077
 10
1703.144606560936
 20
142.1106377992838
  0
LINE
  5
AE1B
330
18
100
AcDbEntity
  8
0
100
AcDbLine
 10
1697.944606560936
 20
147.1700917525974
 30
0.0
 11
1703.144606560936
 21
147.1700917525974
 31
0.0
  0
LWPOLYLINE
  5
AE1C
330
18
100
AcDbEntity
  8
0
100
AcDbPolyline
 90
        2
 70
     0
 43
0.0
 10
1697.944606560936
 20
147.1700917525974
 10
1697.944606560936
 20
145.2281418898564
  0
LWPOLYLINE
  5
AE1D
330
18
100
AcDbEntity
  8
0
100
AcDbPolyline
 90
        2
 70
     0
 43
0.0
 10
1703.144606560936
 20
147.1700917525974
 10
1703.144606560936
 20
144.9431891544077
  0
SPLINE
  5
AE1E
330
18
100
AcDbEntity
  8
0
100
AcDbSpline
210
0.0
220
0.0
230
1.0
 70
     8
 71
     3
 72
    11
 73
     7
 74
     5
 42
0.0000000001
 43
0.0000000001
 44
0.0000000001
 40
0.0
 40
0.0
 40
0.0
 40
0.0
 40
1.397542485937368
 40
2.795084971874737
 40
4.747807430392501
 40
6.14534991632987
 40
6.14534991632987
 40
6.14534991632987
 40
6.14534991632987
 10
1703.344604983903
 20
145.0929194351509
 30
0.0
 10
1702.926012788107
 20
144.7768403337268
 30
0.0
 10
1702.088828396514
 20
144.1446821308786
 30
0.0
 10
1700.706013270748
 20
145.2671197379347
 30
0.0
 10
1699.135018108253
 20
146.0397753411102
 30
0.0
 10
1698.153880516404
 20
145.3716315303736
 30
0.0
 10
1697.744604983903
 20
145.0929194351509
 30
0.0
 11
1703.344604983903
 21
145.0929194351509
 31
0.0
 11
1702.094604983903
 21
144.4679194351509
 31
0.0
 11
1700.844604983903
 21
145.0929194351509
 31
0.0
 11
1698.994604983903
 21
145.7179194351509
 31
0.0
 11
1697.744604983903
 21
145.0929194351509
 31
0.0
  0
SPLINE
  5
AE1F
330
18
100
AcDbEntity
  8
0
100
AcDbSpline
210
0.0
220
0.0
230
1.0
 70
     8
 71
     3
 72
    11
 73
     7
 74
     5
 42
0.0000000001
 43
0.0000000001
 44
0.0000000001
 40
0.0
 40
0.0
 40
0.0
 40
0.0
 40
1.397542485937368
 40
2.795084971874737
 40
4.747807430392501
 40
6.14534991632987
 40
6.14534991632987
 40
6.14534991632987
 40
6.14534991632987
 10
1703.344604983903
 20
144.0929194351509
 30
0.0
 10
1702.926012788107
 20
143.7768403337268
 30
0.0
 10
1702.088828396514
 20
143.1446821308786
 30
0.0
 10
1700.706013270748
 20
144.2671197379347
 30
0.0
 10
1699.135018108253
 20
145.0397753411102
 30
0.0
 10
1698.153880516404
 20
144.3716315303736
 30
0.0
 10
1697.744604983903
 20
144.0929194351509
 30
0.0
 11
1703.344604983903
 21
144.0929194351509
 31
0.0
 11
1702.094604983903
 21
143.4679194351509
 31
0.0
 11
1700.844604983903
 21
144.0929194351509
 31
0.0
 11
1698.994604983903
 21
144.7179194351509
 31
0.0
 11
1697.744604983903
 21
144.0929194351509
 31
0.0
  0
LWPOLYLINE
  5
AE20
330
18
100
AcDbEntity
  8
0
100
AcDbPolyline
 90
        4
 70
     1
 43
0.0
 10
1697.744606560936
 20
141.1106377992839
 10
1697.744606560936
 20
142.1106377992838
 10
1704.844606560936
 20
142.1106377992838
 10
1704.844606560936
 20
141.1106377992839
  0
LINE
  5
AE21
330
18
100
AcDbEntity
  8
A
 62
     7
100
AcDbLine
 10
1697.744606560936
 20
147.1700917525974
 30
0.0
 11
1703.344606560936
 21
147.1700917525973
 31
0.0
  0
LINE
  5
AE22
330
18
100
AcDbEntity
  8
A
 62
     7
100
AcDbLine
 10
1697.744606560936
 20
151.9200917525974
 30
0.0
 11
1697.744606560936
 21
147.1700917525973
 31
0.0
  0
LINE
  5
AE23
330
18
100
AcDbEntity
  8
A
 62
     7
100
AcDbLine
 10
1703.344606560936
 20
147.1700917525973
 30
0.0
 11
1703.344606560936
 21
151.9200917525974
 31
0.0
  0
SPLINE
  5
AE24
330
18
100
AcDbEntity
  8
0
100
AcDbSpline
210
0.0
220
0.0
230
1.0
 70
     8
 71
     3
 72
    11
 73
     7
 74
     5
 42
0.0000000001
 43
0.0000000001
 44
0.0000000001
 40
0.0
 40
0.0
 40
0.0
 40
0.0
 40
1.397542485937368
 40
2.795084971874737
 40
4.747807430392501
 40
6.14534991632987
 40
6.14534991632987
 40
6.14534991632987
 40
6.14534991632987
 10
1703.344604983903
 20
135.1892202344554
 30
0.0
 10
1702.926012788107
 20
134.8731411330313
 30
0.0
 10
1702.088828396514
 20
134.2409829301832
 30
0.0
 10
1700.706013270748
 20
135.3634205372393
 30
0.0
 10
1699.135018108253
 20
136.1360761404147
 30
0.0
 10
1698.153880516404
 20
135.4679323296782
 30
0.0
 10
1697.744604983903
 20
135.1892202344554
 30
0.0
 11
1703.344604983903
 21
135.1892202344554
 31
0.0
 11
1702.094604983903
 21
134.5642202344554
 31
0.0
 11
1700.844604983903
 21
135.1892202344554
 31
0.0
 11
1698.994604983903
 21
135.8142202344554
 31
0.0
 11
1697.744604983903
 21
135.1892202344554
 31
0.0
  0
SPLINE
  5
AE25
330
18
100
AcDbEntity
  8
0
100
AcDbSpline
210
0.0
220
0.0
230
1.0
 70
     8
 71
     3
 72
    11
 73
     7
 74
     5
 42
0.0000000001
 43
0.0000000001
 44
0.0000000001
 40
0.0
 40
0.0
 40
0.0
 40
0.0
 40
1.397542485937368
 40
2.795084971874737
 40
4.747807430392501
 40
6.14534991632987
 40
6.14534991632987
 40
6.14534991632987
 40
6.14534991632987
 10
1703.344604983903
 20
136.1892202344554
 30
0.0
 10
1702.926012788107
 20
135.8731411330313
 30
0.0
 10
1702.088828396514
 20
135.2409829301832
 30
0.0
 10
1700.706013270748
 20
136.3634205372392
 30
0.0
 10
1699.135018108253
 20
137.1360761404147
 30
0.0
 10
1698.153880516404
 20
136.4679323296782
 30
0.0
 10
1697.744604983903
 20
136.1892202344554
 30
0.0
 11
1703.344604983903
 21
136.1892202344554
 31
0.0
 11
1702.094604983903
 21
135.5642202344554
 31
0.0
 11
1700.844604983903
 21
136.1892202344554
 31
0.0
 11
1698.994604983903
 21
136.8142202344554
 31
0.0
 11
1697.744604983903
 21
136.1892202344554
 31
0.0
  0
LINE
  5
AE26
330
18
100
AcDbEntity
  8
0
 48
0.5
100
AcDbLine
 10
1702.832765731483
 20
135.0819742608776
 30
0.0
 11
1702.832765731483
 21
135.081974260878
 31
0.0
  0
DIMENSION
  5
AE27
330
18
100
AcDbEntity
  8
寸法
 48
0.5
100
AcDbDimension
  2
*D11
 10
1612.509896169552
 20
168.4933356799041
 30
0.0
 11
1610.258627134019
 21
174.9933356799044
 31
0.0
 70
    32
  1
(<>)
 71
     5
 42
12.99999999999994
  3
STANDARD
100
AcDbAlignedDimension
 13
1591.646007726559
 23
181.4933356799041
 33
0.0
 14
1561.646009531887
 24
168.4933356799041
 34
0.0
 50
90.0
100
AcDbRotatedDimension
1001
ACAD
1000
DSTYLE
1002
{
1070
   340
1005
35
1070
    41
1040
1.5
1070
    42
1040
0.5
1070
    43
1040
5.0
1070
    44
1040
0.75
1070
    73
1070
     0
1070
    74
1070
     0
1070
    77
1070
     1
1070
    78
1070
     9
1070
    79
1070
     2
1070
   140
1040
3.0
1070
   141
1040
2.5
1070
   143
1040
0.0394
1070
   147
1040
0.5
1070
   171
1070
     4
1070
   172
1070
     1
1070
   173
1070
     1
1070
   178
1070
     7
1070
   273
1070
     8
1070
   274
1070
     4
1070
   279
1070
     2
1070
   284
1070
     9
1070
   341
1005
24
1070
   343
1005
24
1070
   344
1005
24
1002
}
  0
LWPOLYLINE
  5
AE28
330
18
100
AcDbEntity
  8
0
 48
0.5
100
AcDbPolyline
 90
        4
 70
     1
 43
0.0
 10
1565.646007726559
 20
180.9933356799039
 10
1565.646007726559
 20
181.493335679904
 10
1571.646007726559
 20
181.493335679904
 10
1571.646007726559
 20
180.993335679904
  0
ARC
  5
AE29
330
18
100
AcDbEntity
  8
0
 48
0.5
100
AcDbCircle
 10
1568.646007726559
 20
180.9933356799039
 30
0.0
 40
3.0
100
AcDbArc
 50
180.0
 51
0.0
  0
SPLINE
  5
AE2A
330
18
100
AcDbEntity
  8
0
 48
0.5
100
AcDbSpline
210
0.0
220
0.0
230
1.0
 70
     8
 71
     3
 72
     9
 73
     5
 74
     0
 42
0.0000000001
 43
0.0000000001
 40
8.878684915660222
 40
8.878684915660222
 40
8.878684915660222
 40
8.878684915660222
 40
22.36067977499789
 40
44.72135954999505
 40
44.72135954999505
 40
44.72135954999505
 40
44.72135954999579
 10
1539.646007726557
 20
219.8618105518506
 30
0.0
 10
1543.665561990261
 20
222.8513144233673
 30
0.0
 10
1554.351782920631
 20
235.5174746403652
 30
0.0
 10
1565.038003851004
 20
217.3508990587349
 30
0.0
 10
1571.704670517671
 20
218.0175657254005
 30
0.0
  0
LINE
  5
AE2B
330
18
100
AcDbEntity
  8
0
  6
DASHED
 48
0.2
100
AcDbLine
 10
1544.646007726557
 20
195.493335679904
 30
0.0
 11
1624.646007726557
 21
195.493335679904
 31
0.0
  0
LINE
  5
AE2C
330
18
100
AcDbEntity
  8
0
 62
     3
 48
0.5
370
    30
100
AcDbLine
 10
1555.646007726559
 20
195.493335679904
 30
0.0
 11
1591.646007726559
 21
195.493335679904
 31
0.0
  0
LINE
  5
AE2D
330
18
100
AcDbEntity
  8
0
 62
     3
 48
0.5
370
    30
100
AcDbLine
 10
1555.646007726559
 20
181.493335679904
 30
0.0
 11
1591.646007726559
 21
181.4933356799041
 31
0.0
  0
LINE
  5
AE2E
330
18
100
AcDbEntity
  8
0
  6
DASHED
 48
0.2
100
AcDbLine
 10
1562.646007726557
 20
222.2669983594462
 30
0.0
 11
1562.646007726557
 21
195.493335679904
 31
0.0
  0
LINE
  5
AE2F
330
18
100
AcDbEntity
  8
0
  6
DASHED
 48
0.2
100
AcDbLine
 10
1544.646007726557
 20
224.0584102602569
 30
0.0
 11
1544.646007726557
 21
195.493335679904
 31
0.0
  0
LINE
  5
AE30
330
18
100
AcDbEntity
  8
0
  6
DASHED
 48
0.2
100
AcDbLine
 10
1554.396007726557
 20
191.493335679904
 30
0.0
 11
1554.396007726557
 21
169.493335679904
 31
0.0
  0
LINE
  5
AE31
330
18
100
AcDbEntity
  8
0
  6
DASHED
 48
0.2
100
AcDbLine
 10
1546.896007726557
 20
191.493335679904
 30
0.0
 11
1546.896007726557
 21
169.493335679904
 31
0.0
  0
LINE
  5
AE32
330
18
100
AcDbEntity
  8
0
 62
     3
 48
0.5
370
    30
100
AcDbLine
 10
1555.646007726559
 20
181.493335679904
 30
0.0
 11
1555.646007726559
 21
195.493335679904
 31
0.0
  0
LEADER
  5
AE33
330
18
100
AcDbEntity
  8
文字
 48
0.5
100
AcDbLeader
  3
ｺﾋﾟｰ - まこ-10
 40
3.578680203045685
 41
21.1979695431472
 76
     3
 10
1546.888851724492
 20
179.7634116298136
 30
0.0
 10
1541.804005821682
 20
189.4798730217608
 30
0.0
 10
1522.517158630196
 20
189.4798730217608
 30
0.0
211
1.0
221
-0.0000000000000001
231
0.0
210
0.0
220
0.0
230
-1.0
213
27.29070383634825
223
4.291760789555262
233
0.0
1001
ACAD
1000
DSTYLE
1002
{
1070
   147
1040
0.5
1070
    77
1070
     0
1002
}
  0
MTEXT
  5
AE34
330
18
100
AcDbEntity
  8
文字
 62
    40
 48
0.5
100
AcDbMText
 10
1549.461266241253
 20
163.6113547374719
 30
0.0
 40
3.0
 41
0.0
 71
     6
 72
     1
  1
磁極センサ線
  7
MSｺﾞｼｯｸ
 73
     1
 44
1.0
  0
LEADER
  5
AE35
330
18
100
AcDbEntity
  8
文字
 48
0.5
100
AcDbLeader
  3
ｺﾋﾟｰ - まこ-10
 40
3.563451776649745
 41
34.70558375634517
 76
     3
 10
1559.207484629746
 20
169.280888895069
 30
0.0
 10
1550.540741480581
 20
161.1711148279436
 30
0.0
 10
1523.986273019019
 20
161.1711148279436
 30
0.0
211
-1.0
221
0.0
231
0.0
213
38.96210073493603
223
-2.603406172255745
233
0.0
1001
ACAD
1000
DSTYLE
1002
{
1070
   147
1040
0.5
1070
    77
1070
     0
1002
}
  0
CIRCLE
  5
AE37
102
{ACAD_REACTORS
330
B4ED
102
}
330
18
100
AcDbEntity
  8
0
 48
0.5
100
AcDbCircle
 10
1561.646009531887
 20
172.593335679904
 30
0.0
 40
4.099999999999909
  0
HATCH
  5
AE38
330
18
100
AcDbEntity
  8
0
 48
0.5
370
    30
100
AcDbHatch
 10
0.0
 20
0.0
 30
0.0
210
0.0
220
0.0
230
1.0
  2
SOLID
 70
     1
 71
     1
 91
        2
 92
        7
 72
     1
 73
     1
 93
        3
 10
1561.646009531887
 20
175.193335679904
 42
0.0
 10
1561.646009531887
 20
172.5933356799041
 42
0.0
 10
1564.246009531887
 20
172.593335679904
 42
0.4142135623730842
 97
        3
330
AE3A
330
AE39
330
AE3B
 92
        7
 72
     1
 73
     1
 93
        3
 10
1561.646009531887
 20
169.993335679904
 42
0.0
 10
1561.646009531887
 20
172.5933356799041
 42
0.0
 10
1559.046009531887
 20
172.593335679904
 42
0.4142135623730842
 97
        3
330
AE39
330
AE3B
330
AE3A
 75
     0
 76
     1
 47
0.0208363459206186
 98
        2
 10
1562.846707713181
 20
173.6735173782662
 10
1560.512589856854
 20
171.3398466232453
  0
LINE
  5
AE39
102
{ACAD_REACTORS
330
AE38
102
}
330
18
100
AcDbEntity
  8
0
 48
0.5
100
AcDbLine
 10
1559.046009531887
 20
172.593335679904
 30
0.0
 11
1564.246009531887
 21
172.593335679904
 31
0.0
  0
LINE
  5
AE3A
102
{ACAD_REACTORS
330
AE38
102
}
330
18
100
AcDbEntity
  8
0
 48
0.5
100
AcDbLine
 10
1561.646009531887
 20
169.993335679904
 30
0.0
 11
1561.646009531887
 21
175.193335679904
 31
0.0
  0
CIRCLE
  5
AE3B
102
{ACAD_REACTORS
330
AE38
330
B4ED
102
}
330
18
100
AcDbEntity
  8
0
 48
0.5
100
AcDbCircle
 10
1561.646009531887
 20
172.593335679904
 30
0.0
 40
2.6
  0
LINE
  5
AE3C
330
18
100
AcDbEntity
  8
0
  6
DASHED
 48
0.05
100
AcDbLine
 10
1559.021009531886
 20
177.993335679904
 30
0.0
 11
1559.021007726556
 21
181.493335679904
 31
0.0
  0
LINE
  5
AE3D
330
18
100
AcDbEntity
  8
0
  6
DASHED
 48
0.05
100
AcDbLine
 10
1559.021009531886
 20
177.993335679904
 30
0.0
 11
1559.271009531887
 21
177.4933358303486
 31
0.0
  0
LINE
  5
AE3E
330
18
100
AcDbEntity
  8
0
  6
DASHED
 48
0.05
100
AcDbLine
 10
1564.271009231
 20
177.993335679904
 30
0.0
 11
1564.271007726557
 21
181.493335679904
 31
0.0
  0
LINE
  5
AE3F
330
18
100
AcDbEntity
  8
0
  6
DASHED
 48
0.05
100
AcDbLine
 10
1564.271009531888
 20
177.993335679904
 30
0.0
 11
1564.021009531887
 21
177.493335679904
 31
0.0
  0
LINE
  5
AE40
330
18
100
AcDbEntity
  8
0
  6
DASHED
 48
0.05
100
AcDbLine
 10
1559.271009531887
 20
177.4933358303486
 30
0.0
 11
1564.021009531887
 21
177.493335679904
 31
0.0
  0
LINE
  5
AE41
330
18
100
AcDbEntity
  8
0
  6
DASHED
 48
0.05
100
AcDbLine
 10
1559.021009531886
 20
177.993335679904
 30
0.0
 11
1564.271009531888
 21
177.993335679904
 31
0.0
  0
MTEXT
  5
AE42
330
18
100
AcDbEntity
  8
文字
 62
    40
 48
0.5
100
AcDbMText
 10
1523.858340324122
 20
193.7713635960715
 30
0.0
 40
3.0
 41
0.0
 71
     1
 72
     1
  1
ﾓｰﾀ動力線
  7
MSｺﾞｼｯｸ
 73
     1
 44
1.0
  0
LINE
  5
AE43
330
18
100
AcDbEntity
  8
0
  6
DASHED
 48
0.2
100
AcDbLine
 10
1546.896007726557
 20
191.493335679904
 30
0.0
 11
1554.396007726557
 21
191.493335679904
 31
0.0
  0
LINE
  5
AE44
330
18
100
AcDbEntity
  8
0
  6
DASHED
 48
0.2
100
AcDbLine
 10
1546.646007726557
 20
191.493335679904
 30
0.0
 11
1546.646007726557
 21
195.493335679904
 31
0.0
  0
LINE
  5
AE45
330
18
100
AcDbEntity
  8
0
  6
DASHED
 48
0.2
100
AcDbLine
 10
1554.646007726557
 20
195.493335679904
 30
0.0
 11
1554.646007726557
 21
191.493335679904
 31
0.0
  0
LINE
  5
AE46
330
18
100
AcDbEntity
  8
0
  6
DASHED
 48
0.05
100
AcDbLine
 10
1559.896007726557
 20
195.493335679904
 30
0.0
 11
1559.896007726557
 21
203.4933356799041
 31
0.0
  0
LINE
  5
AE47
330
18
100
AcDbEntity
  8
0
  6
DASHED
 48
0.05
100
AcDbLine
 10
1559.646007726557
 20
195.493335679904
 30
0.0
 11
1559.646007726557
 21
201.4933356799041
 31
0.0
  0
LINE
  5
AE48
330
18
100
AcDbEntity
  8
0
  6
DASHED
 48
0.05
100
AcDbLine
 10
1563.396007726557
 20
195.493335679904
 30
0.0
 11
1563.396007726557
 21
203.4933356799041
 31
0.0
  0
LINE
  5
AE49
330
18
100
AcDbEntity
  8
0
  6
DASHED
 48
0.05
100
AcDbLine
 10
1563.646007726557
 20
195.493335679904
 30
0.0
 11
1563.646007726557
 21
201.4933356799041
 31
0.0
  0
LINE
  5
AE4A
330
18
100
AcDbEntity
  8
0
  6
DASHED
 48
0.05
100
AcDbLine
 10
1559.646007726557
 20
201.4933356799041
 30
0.0
 11
1559.896007726557
 21
201.9263483817961
 31
0.0
  0
LINE
  5
AE4B
330
18
100
AcDbEntity
  8
0
  6
DASHED
 48
0.05
100
AcDbLine
 10
1563.646007726557
 20
201.4933356799041
 30
0.0
 11
1563.396007726557
 21
201.9263483817961
 31
0.0
  0
LINE
  5
AE4C
330
18
100
AcDbEntity
  8
0
  6
DASHED
 48
0.05
100
AcDbLine
 10
1559.646007726557
 20
201.4933356799041
 30
0.0
 11
1563.646007726557
 21
201.4933356799041
 31
0.0
  0
LINE
  5
AE4D
330
18
100
AcDbEntity
  8
0
  6
DASHED
 48
0.05
100
AcDbLine
 10
1559.896007726557
 20
203.4933356799041
 30
0.0
 11
1563.396007726557
 21
203.4933356799041
 31
0.0
  0
LINE
  5
AE4E
330
18
100
AcDbEntity
  8
0
  6
DASHED
 48
0.05
100
AcDbLine
 10
1561.646007726557
 20
204.2150235163911
 30
0.0
 11
1563.396007726557
 21
203.4933356799041
 31
0.0
  0
LINE
  5
AE4F
330
18
100
AcDbEntity
  8
0
  6
DASHED
 48
0.05
100
AcDbLine
 10
1561.646007726557
 20
204.2150235163911
 30
0.0
 11
1559.896007726557
 21
203.4933356799041
 31
0.0
  0
MTEXT
  5
AE50
330
18
100
AcDbEntity
  8
CIRCUIT
 62
     7
100
AcDbMText
 10
1643.516050224406
 20
182.0223537369016
 30
0.0
 40
3.0
 41
0.0
 71
     7
 72
     1
  1
\U+203B本センサのケーブルは固定用です。\P  ケーブル最小曲げ半径：R21mm
  7
MSｺﾞｼｯｸ
 73
     1
 44
1.0
  0
LWPOLYLINE
  5
AE51
330
18
100
AcDbEntity
  8
0
 48
0.5
100
AcDbPolyline
 90
        4
 70
     1
 43
0.0
 10
1640.091384540012
 20
192.1053608987073
 10
1740.160760307355
 20
192.1053608987073
 10
1740.160760307355
 20
181.1534642887543
 10
1640.091384540012
 20
181.1534642887543
  0
MTEXT
  5
AE52
330
18
100
AcDbEntity
  8
CIRCUIT
 62
     7
100
AcDbMText
 10
1647.835563558582
 20
209.2463946117541
 30
0.0
 40
3.0
 41
0.0
 71
     7
 72
     1
  1
1m未満の場合、Ｌ＝製品型式長さ＋30 ±20mm
  7
MSｺﾞｼｯｸ
 73
     1
 44
1.0
  0
MTEXT
  5
AE53
330
18
100
AcDbEntity
  8
CIRCUIT
 62
     7
100
AcDbMText
 10
1647.835563558582
 20
214.1910423622039
 30
0.0
 40
3.0
 41
0.0
 71
     7
 72
     1
  1
1m以上の場合、Ｌ＝製品型式長さ±50mm
  7
MSｺﾞｼｯｸ
 73
     1
 44
1.0
  0
MTEXT
  5
AE54
330
18
100
AcDbEntity
  8
CIRCUIT
 62
     7
100
AcDbMText
 10
1643.528308144852
 20
222.5517625140101
 30
0.0
 40
3.0
 41
0.0
 71
     7
 72
     1
  1
{\L\U+203BＬ寸法は以下の通りになります。}
  7
MSｺﾞｼｯｸ
 73
     1
 44
1.0
  0
MTEXT
  5
AE55
330
18
100
AcDbEntity
  8
CIRCUIT
 62
     7
100
AcDbMText
 10
1655.333035404019
 20
195.3046907813134
 30
0.0
 40
3.0
 41
0.0
 71
     7
 72
     1
  1
Ｌ寸法：330±20mm　（300+30±20）
  7
MSｺﾞｼｯｸ
 73
     1
 44
1.0
  0
MTEXT
  5
AE56
330
18
100
AcDbEntity
  8
CIRCUIT
 62
     7
100
AcDbMText
 10
1647.580423290744
 20
204.6733710295048
 30
0.0
 40
3.0
 41
0.0
 71
     7
 72
     1
  1
例：NSR-PAA4D1A-030 \U+2192 製品型式長さ：300mm
  7
MSｺﾞｼｯｸ
 73
     1
 44
1.0
  0
LWPOLYLINE
  5
AE57
330
18
100
AcDbEntity
  8
0
 48
0.5
100
AcDbPolyline
 90
        4
 70
     1
 43
0.0
 10
1640.305816347135
 20
228.1880929950803
 10
1740.375192114479
 20
228.1880929950803
 10
1740.375192114479
 20
193.935468671627
 10
1640.305816347135
 20
193.935468671627
  0
LINE
  5
AE58
330
18
100
AcDbEntity
  8
0
  6
DASHED
 48
0.2
100
AcDbLine
 10
1624.646007726557
 20
224.0584102602542
 30
0.0
 11
1624.646007726557
 21
195.493335679904
 31
0.0
  0
LINE
  5
AE59
330
18
100
AcDbEntity
  8
0
  6
DASHED
 48
0.2
100
AcDbLine
 10
1606.646007726557
 20
219.4264510841961
 30
0.0
 11
1606.646007726557
 21
195.493335679904
 31
0.0
  0
MTEXT
  5
AE5A
330
18
100
AcDbEntity
  8
文字
 62
    40
 48
0.5
100
AcDbMText
 10
1629.326918583629
 20
163.7229125042595
 30
0.0
 40
3.0
 41
0.0
 71
     6
 72
     1
  1
M4×20六角ﾎﾞﾙﾄ取付
  7
MSｺﾞｼｯｸ
 73
     1
 44
1.0
  0
LEADER
  5
AE5B
330
18
100
AcDbEntity
  8
文字
 48
0.5
100
AcDbLeader
  3
ｺﾋﾟｰ - まこ-10
 40
3.563451776649745
 41
34.70558375634517
 76
     3
 10
1585.814656601122
 20
177.4100390860451
 30
0.0
 10
1592.555495994344
 20
161.2826725947311
 30
0.0
 10
1631.673039026269
 20
161.2826725947311
 30
0.0
211
-1.0
221
0.0
231
0.0
213
38.96210073493603
223
-2.603406172255745
233
0.0
1001
ACAD
1000
DSTYLE
1002
{
1070
   147
1040
0.5
1070
    77
1070
     0
1002
}
  0
DIMENSION
  5
AE5C
330
18
100
AcDbEntity
  8
寸法
 48
0.5
100
AcDbDimension
  2
*D12
 10
1612.509896169552
 20
181.493335679904
 30
0.0
 11
1610.509896169552
 21
188.4933356799043
 31
0.0
 70
    32
 71
     5
 42
13.99999999999997
  3
STANDARD
100
AcDbAlignedDimension
 13
1591.646007726559
 23
195.493335679904
 33
0.0
 14
1591.646007726559
 24
181.493335679904
 34
0.0
 50
90.0
100
AcDbRotatedDimension
1001
ACAD
1000
DSTYLE
1002
{
1070
   340
1005
35
1070
    41
1040
1.5
1070
    42
1040
0.5
1070
    43
1040
5.0
1070
    44
1040
0.75
1070
    73
1070
     0
1070
    74
1070
     0
1070
    77
1070
     1
1070
    78
1070
     9
1070
    79
1070
     2
1070
   140
1040
3.0
1070
   141
1040
2.5
1070
   143
1040
0.0394
1070
   147
1040
0.5
1070
   171
1070
     4
1070
   172
1070
     1
1070
   173
1070
     1
1070
   178
1070
     7
1070
   273
1070
     8
1070
   274
1070
     4
1070
   279
1070
     2
1070
   284
1070
     9
1070
   341
1005
24
1070
   343
1005
24
1070
   344
1005
24
1002
}
  0
LINE
  5
AE5D
330
18
100
AcDbEntity
  8
0
 62
     3
 48
0.5
370
    30
100
AcDbLine
 10
1591.646007726559
 20
181.493335679904
 30
0.0
 11
1591.646007726559
 21
195.493335679904
 31
0.0
  0
DIMENSION
  5
AE5E
330
18
100
AcDbEntity
  8
寸法
 48
0.5
100
AcDbDimension
  2
*D13
 10
1606.793199597753
 20
177.493335679904
 30
0.0
 11
1606.793199597753
 21
171.9755691824424
 31
0.0
 70
   160
 71
     5
 42
3.999999999999971
  3
STANDARD
100
AcDbAlignedDimension
 13
1591.646007726559
 23
181.493335679904
 33
0.0
 14
1588.021009531887
 24
177.4933356799041
 34
0.0
 50
90.0
100
AcDbRotatedDimension
1001
ACAD
1000
DSTYLE
1002
{
1070
   340
1005
35
1070
     3
1000
(<>)
1070
    41
1040
1.5
1070
    42
1040
0.5
1070
    43
1040
5.0
1070
    44
1040
0.75
1070
    73
1070
     0
1070
    74
1070
     0
1070
    77
1070
     1
1070
    78
1070
     9
1070
    79
1070
     2
1070
   140
1040
3.0
1070
   141
1040
2.5
1070
   143
1040
0.0394
1070
   147
1040
0.5
1070
   171
1070
     4
1070
   172
1070
     1
1070
   173
1070
     1
1070
   178
1070
     7
1070
   273
1070
     8
1070
   274
1070
     4
1070
   279
1070
     0
1070
   284
1070
     9
1070
   341
1005
24
1070
   343
1005
24
1070
   344
1005
24
1002
}
  0
LINE
  5
AE5F
330
18
100
AcDbEntity
  8
0
  6
DASHED
 48
0.05
100
AcDbLine
 10
1583.271009531887
 20
177.4933358303486
 30
0.0
 11
1588.021009531887
 21
177.4933356799041
 31
0.0
  0
LINE
  5
AE60
330
18
100
AcDbEntity
  8
0
  6
DASHED
 48
0.05
100
AcDbLine
 10
1583.021009531886
 20
177.9933356799041
 30
0.0
 11
1588.271009531888
 21
177.9933356799041
 31
0.0
  0
LINE
  5
AE61
330
18
100
AcDbEntity
  8
0
  6
DASHED
 48
0.05
100
AcDbLine
 10
1588.271009531888
 20
177.9933356799041
 30
0.0
 11
1588.021009531887
 21
177.4933356799041
 31
0.0
  0
LINE
  5
AE62
330
18
100
AcDbEntity
  8
0
  6
DASHED
 48
0.05
100
AcDbLine
 10
1583.021009531886
 20
177.9933356799041
 30
0.0
 11
1583.271009531887
 21
177.4933358303486
 31
0.0
  0
LINE
  5
AE63
330
18
100
AcDbEntity
  8
0
  6
DASHED
 48
0.05
100
AcDbLine
 10
1588.271009231
 20
177.9933356799041
 30
0.0
 11
1588.271007726557
 21
181.4933356799041
 31
0.0
  0
LINE
  5
AE64
330
18
100
AcDbEntity
  8
0
  6
DASHED
 48
0.05
100
AcDbLine
 10
1583.021009531886
 20
177.9933356799041
 30
0.0
 11
1583.021007726556
 21
181.4933356799041
 31
0.0
  0
MTEXT
  5
AE65
330
18
100
AcDbEntity
  8
文字
100
AcDbMText
 10
1571.608636934772
 20
206.7803574148681
 30
0.0
 40
5.0
 41
0.0
 71
     7
 72
     1
  1
{\fＭＳ Ｐゴシック|b0|i0|c128|p50;ｺｲﾙﾕﾆｯﾄ}
  7
MSｺﾞｼｯｸ
 73
     1
 44
1.0
  0
LINE
  5
AE66
330
18
100
AcDbEntity
  8
0
  6
DASHED
 48
0.05
100
AcDbLine
 10
1583.896007726557
 20
195.493335679904
 30
0.0
 11
1583.896007726557
 21
203.4933356799041
 31
0.0
  0
LINE
  5
AE67
330
18
100
AcDbEntity
  8
0
  6
DASHED
 48
0.05
100
AcDbLine
 10
1583.646007726557
 20
195.493335679904
 30
0.0
 11
1583.646007726557
 21
201.4933356799041
 31
0.0
  0
LINE
  5
AE68
330
18
100
AcDbEntity
  8
0
  6
DASHED
 48
0.05
100
AcDbLine
 10
1583.646007726557
 20
201.4933356799041
 30
0.0
 11
1583.896007726557
 21
201.9263483817961
 31
0.0
  0
LINE
  5
AE69
330
18
100
AcDbEntity
  8
0
  6
DASHED
 48
0.05
100
AcDbLine
 10
1587.396007726557
 20
195.493335679904
 30
0.0
 11
1587.396007726557
 21
203.4933356799041
 31
0.0
  0
LINE
  5
AE6A
330
18
100
AcDbEntity
  8
0
  6
DASHED
 48
0.05
100
AcDbLine
 10
1587.646007726557
 20
195.493335679904
 30
0.0
 11
1587.646007726557
 21
201.4933356799041
 31
0.0
  0
LINE
  5
AE6B
330
18
100
AcDbEntity
  8
0
  6
DASHED
 48
0.05
100
AcDbLine
 10
1587.646007726557
 20
201.4933356799041
 30
0.0
 11
1587.396007726557
 21
201.9263483817961
 31
0.0
  0
LINE
  5
AE6C
330
18
100
AcDbEntity
  8
0
  6
DASHED
 48
0.05
100
AcDbLine
 10
1585.646007726557
 20
204.2150235163911
 30
0.0
 11
1587.396007726557
 21
203.4933356799041
 31
0.0
  0
LINE
  5
AE6D
330
18
100
AcDbEntity
  8
0
  6
DASHED
 48
0.05
100
AcDbLine
 10
1583.646007726557
 20
201.4933356799041
 30
0.0
 11
1587.646007726557
 21
201.4933356799041
 31
0.0
  0
LINE
  5
AE6E
330
18
100
AcDbEntity
  8
0
  6
DASHED
 48
0.05
100
AcDbLine
 10
1585.646007726557
 20
204.2150235163911
 30
0.0
 11
1583.896007726557
 21
203.4933356799041
 31
0.0
  0
LINE
  5
AE6F
330
18
100
AcDbEntity
  8
0
  6
DASHED
 48
0.05
100
AcDbLine
 10
1583.896007726557
 20
203.4933356799041
 30
0.0
 11
1587.396007726557
 21
203.4933356799041
 31
0.0
  0
SPLINE
  5
AE70
330
18
100
AcDbEntity
  8
0
 48
0.5
100
AcDbSpline
210
0.0
220
0.0
230
1.0
 70
     8
 71
     3
 72
     8
 73
     4
 74
     0
 42
0.0000000001
 43
0.0000000001
 40
0.0
 40
0.0
 40
0.0
 40
0.0
 40
20.05902480315754
 40
20.05902480315754
 40
20.05902480315754
 40
20.05902480315754
 10
1611.704670517672
 20
218.0175657254
 30
0.0
 10
1617.685116253968
 20
215.0273428572522
 30
0.0
 10
1623.665561990262
 20
224.912783222823
 30
0.0
 10
1629.646007726557
 20
227.4608079339951
 30
0.0
  0
SPLINE
  5
AE71
330
18
100
AcDbEntity
  8
0
 48
0.5
100
AcDbSpline
210
0.0
220
0.0
230
1.0
 70
     8
 71
     3
 72
     9
 73
     5
 74
     0
 42
0.0000000001
 43
0.0000000001
 40
0.0
 40
0.0
 40
0.0
 40
0.0
 40
22.36067977499789
 40
44.72135954999505
 40
44.72135954999505
 40
44.72135954999505
 40
44.72135954999579
 10
1571.704670517671
 20
218.0175657254005
 30
0.0
 10
1578.371337184338
 20
214.684232392067
 30
0.0
 10
1591.704670517668
 20
240.0175657254009
 30
0.0
 10
1605.038003851005
 20
217.3508990587344
 30
0.0
 10
1611.704670517672
 20
218.0175657254
 30
0.0
  0
MTEXT
  5
AE72
330
18
100
AcDbEntity
  8
CIRCUIT
 62
     7
100
AcDbMText
 10
1645.835563558582
 20
218.6541462787072
 30
0.0
 40
3.0
 41
0.0
 71
     7
 72
     1
  1
製品型式長さが
  7
MSｺﾞｼｯｸ
 73
     1
 44
1.0
  0
LINE
  5
AE73
330
18
100
AcDbEntity
  8
CIRCUIT
 62
     7
100
AcDbLine
 10
1768.939601260651
 20
222.348867729796
 30
0.0
 11
1768.939601260652
 21
189.8488677297959
 31
0.0
  0
TEXT
  5
AE74
330
18
100
AcDbEntity
  8
CIRCUIT
 62
     7
100
AcDbText
 10
1755.186504028905
 20
213.2488544235938
 30
0.0
 40
2.7
  1
ＥＰ５
  7
MSｺﾞｼｯｸ
 72
     1
 11
1760.449448191342
 21
214.5988544235938
 31
0.0
100
AcDbText
 73
     2
  0
TEXT
  5
AE75
330
18
100
AcDbEntity
  8
CIRCUIT
 62
     7
100
AcDbText
 10
1747.294805083023
 20
213.2488544235938
 30
0.0
 40
2.7
  1
1
  7
MSｺﾞｼｯｸ
 72
     1
 11
1748.171962443429
 21
214.5988544235938
 31
0.0
100
AcDbText
 73
     2
  0
LINE
  5
AE76
330
18
100
AcDbEntity
  8
CIRCUIT
 62
     7
100
AcDbLine
 10
1744.439604504381
 20
189.8488677297959
 30
0.0
 11
1744.43961621785
 21
222.348867729796
 31
0.0
  0
LINE
  5
AE77
330
18
100
AcDbEntity
  8
CIRCUIT
 62
     7
100
AcDbLine
 10
1751.93961621785
 20
189.8488677297959
 30
0.0
 11
1751.93961621785
 21
222.348867729796
 31
0.0
  0
MTEXT
  5
AE78
330
18
100
AcDbEntity
  8
文字
 62
     7
100
AcDbMText
 10
1716.758299608521
 20
155.2554853478495
 30
0.0
 40
2.5
 41
0.0
 71
     7
 72
     1
  1
{\fＭＳ Ｐゴシック|b0|i0|c128|p50;ｺﾝﾀｸﾄ：AMP 170363-1\Pｷｬｯﾌﾟ：AMP 172168-1}
  7
MSｺﾞｼｯｸ
 73
     1
 44
1.0
  0
LINE
  5
AE79
330
18
100
AcDbEntity
  8
PIC11
  6
Continuous
100
AcDbLine
 10
1704.869608830828
 20
168.1489380025956
 30
0.0
 11
1706.482108830828
 21
164.3450917525966
 31
0.0
  0
LINE
  5
AE7A
330
18
100
AcDbEntity
  8
PIC11
  6
Continuous
100
AcDbLine
 10
1706.332108830828
 20
172.7825917525966
 30
0.0
 11
1705.345471080826
 21
172.7825917525966
 31
0.0
  0
LINE
  5
AE7B
330
18
100
AcDbEntity
  8
A
 62
     7
100
AcDbLine
 10
1703.094609587457
 20
159.9200917525973
 30
0.0
 11
1703.094609587457
 21
157.9200917525973
 31
0.0
  0
LINE
  5
AE7C
330
18
100
AcDbEntity
  8
A
 62
     7
100
AcDbLine
 10
1702.094609587457
 20
159.9200917525973
 30
0.0
 11
1702.094609587457
 21
157.9200917525973
 31
0.0
  0
LINE
  5
AE7D
330
18
100
AcDbEntity
  8
A
 62
     7
100
AcDbLine
 10
1701.094609587457
 20
159.9200917525973
 30
0.0
 11
1701.094609587457
 21
157.9200917525973
 31
0.0
  0
LINE
  5
AE7E
330
18
100
AcDbEntity
  8
A
 62
     7
100
AcDbLine
 10
1700.094609587457
 20
159.9200917525973
 30
0.0
 11
1700.094609587457
 21
157.9200917525973
 31
0.0
  0
LINE
  5
AE7F
330
18
100
AcDbEntity
  8
A
 62
     7
100
AcDbLine
 10
1699.094609587457
 20
159.9200917525973
 30
0.0
 11
1699.094609587457
 21
157.9200917525973
 31
0.0
  0
LINE
  5
AE80
330
18
100
AcDbEntity
  8
A
 62
     7
100
AcDbLine
 10
1698.094609587457
 20
159.9200917525973
 30
0.0
 11
1698.094609587457
 21
157.9200917525973
 31
0.0
  0
LINE
  5
AE81
330
18
100
AcDbEntity
  8
A
 62
     7
100
AcDbLine
 10
1704.344606560936
 20
157.9200917525973
 30
0.0
 11
1696.744606560936
 21
157.9200917525973
 31
0.0
  0
LINE
  5
AE82
330
18
100
AcDbEntity
  8
0
100
AcDbLine
 10
1704.869608830828
 20
168.1489380025956
 30
0.0
 11
1704.269604291045
 21
168.1489380025956
 31
0.0
  0
LINE
  5
AE83
330
18
100
AcDbEntity
  8
A
 62
     7
100
AcDbLine
 10
1704.269608830828
 20
160.6700917525973
 30
0.0
 11
1705.019608830828
 21
160.6700917525973
 31
0.0
  0
LINE
  5
AE84
330
18
100
AcDbEntity
  8
A
 62
     7
100
AcDbLine
 10
1704.269608830828
 20
159.9200917525973
 30
0.0
 11
1705.019608830828
 21
159.9200917525973
 31
0.0
  0
LINE
  5
AE85
330
18
100
AcDbEntity
  8
A
 62
     7
100
AcDbLine
 10
1705.019604291045
 20
159.9201255787026
 30
0.0
 11
1705.019604291045
 21
160.6701255787025
 31
0.0
  0
LINE
  5
AE86
330
18
100
AcDbEntity
  8
A
 62
     7
100
AcDbLine
 10
1696.919608830827
 20
159.9200917525973
 30
0.0
 11
1704.269604291045
 21
159.9200917525973
 31
0.0
  0
LINE
  5
AE87
330
18
100
AcDbEntity
  8
A
 62
     7
100
AcDbLine
 10
1696.919604291044
 20
159.9201255787026
 30
0.0
 11
1696.919604291044
 21
170.4201255787026
 31
0.0
  0
LINE
  5
AE88
330
18
100
AcDbEntity
  8
A
 62
     7
100
AcDbLine
 10
1704.269604291045
 20
159.9201255787026
 30
0.0
 11
1704.269604291045
 21
170.4201255787026
 31
0.0
  0
LINE
  5
AE89
330
18
100
AcDbEntity
  8
A
 62
     7
100
AcDbLine
 10
1696.169604291045
 20
159.9201255787026
 30
0.0
 11
1696.169604291045
 21
160.6701255787025
 31
0.0
  0
LINE
  5
AE8A
330
18
100
AcDbEntity
  8
A
 62
     7
100
AcDbLine
 10
1696.169608830827
 20
159.9200917525973
 30
0.0
 11
1696.919608830827
 21
159.9200917525973
 31
0.0
  0
LINE
  5
AE8B
330
18
100
AcDbEntity
  8
A
 62
     7
100
AcDbLine
 10
1696.169608830827
 20
160.6700917525973
 30
0.0
 11
1696.919608830827
 21
160.6700917525973
 31
0.0
  0
LINE
  5
AE8C
330
18
100
AcDbEntity
  8
0
100
AcDbLine
 10
1705.019608830828
 20
170.4200917525955
 30
0.0
 11
1704.269604291045
 21
170.4201255787026
 31
0.0
  0
LINE
  5
AE8D
330
18
100
AcDbEntity
  8
PIC11
  6
Continuous
100
AcDbLine
 10
1705.345471080826
 20
172.7825917525966
 30
0.0
 11
1705.019608830828
 21
170.4200917525955
 31
0.0
  0
LWPOLYLINE
  5
AE8E
330
18
100
AcDbEntity
  8
0
100
AcDbPolyline
 90
        4
 70
     1
 43
0.0
 10
1697.669604291044
 20
170.4201255787026
 10
1697.669604291044
 20
177.1701255787025
 10
1700.294604291044
 20
177.1701255787025
 10
1700.294604291044
 20
170.4201255787026
  0
LINE
  5
AE8F
330
18
100
AcDbEntity
  8
A
 62
     7
100
AcDbLine
 10
1696.919608830827
 20
170.4200917525955
 30
0.0
 11
1704.269608830828
 21
170.4200917525955
 31
0.0
  0
LWPOLYLINE
  5
AE90
330
18
100
AcDbEntity
  8
0
100
AcDbPolyline
 90
        4
 70
     1
 43
0.0
 10
1703.519613370609
 20
170.4201255787026
 10
1703.519613370609
 20
177.1701255787025
 10
1700.894613370609
 20
177.1701255787025
 10
1700.894613370609
 20
170.4201255787026
  0
LINE
  5
AE91
330
18
100
AcDbEntity
  8
PIC11
  6
Continuous
100
AcDbLine
 10
1706.482108830825
 20
164.3450917525966
 30
0.0
 11
1707.794608830826
 21
164.007591752597
 31
0.0
  0
LINE
  5
AE92
330
18
100
AcDbEntity
  8
PIC11
  6
Continuous
100
AcDbLine
 10
1707.794608830826
 20
164.007591752597
 30
0.0
 11
1706.332108830828
 21
172.7825917525966
 31
0.0
  0
MTEXT
  5
AE93
330
18
100
AcDbEntity
  8
CIRCUIT
 62
     7
100
AcDbMText
 10
1690.99987652089
 20
200.1709564979365
 30
0.0
 40
3.0
 41
0.0
 71
     7
 72
     1
  1
10mm単位
  7
MSｺﾞｼｯｸ
 73
     1
 44
1.0
  0
LINE
  5
AE94
330
18
100
AcDbEntity
  8
0
100
AcDbLine
 10
1686.721282307043
 20
201.0965966294552
 30
0.0
 11
1689.721282307043
 21
201.0965966294552
 31
0.0
  0
LINE
  5
AE95
330
18
100
AcDbEntity
  8
0
100
AcDbLine
 10
1686.721282307043
 20
204.1619755912088
 30
0.0
 11
1686.721282307043
 21
201.1619755912088
 31
0.0
  0
LINE
  5
AE96
330
18
100
AcDbEntity
  8
0
100
AcDbLine
 10
1682.956893113848
 20
204.1619755912088
 30
0.0
 11
1689.455297364525
 21
204.1619755912088
 31
0.0
  0
LINE
  5
AE97
330
18
100
AcDbEntity
  8
CIRCUIT
 62
     7
100
AcDbLine
 10
1744.439601260651
 20
198.848867729796
 30
0.0
 11
1768.939601260651
 21
198.848867729796
 31
0.0
  0
LINE
  5
AE98
330
18
100
AcDbEntity
  8
CIRCUIT
 62
     7
100
AcDbLine
 10
1744.439601260651
 20
194.3488677297959
 30
0.0
 11
1768.939601260651
 21
194.3488677297959
 31
0.0
  0
LINE
  5
AE99
330
18
100
AcDbEntity
  8
CIRCUIT
 62
     7
100
AcDbLine
 10
1744.439601260651
 20
189.8488677297959
 30
0.0
 11
1768.939601260651
 21
189.8488677297959
 31
0.0
  0
LINE
  5
AE9A
330
18
100
AcDbEntity
  8
CIRCUIT
 62
     7
100
AcDbLine
 10
1744.439601260651
 20
212.3488677297959
 30
0.0
 11
1768.939601260651
 21
212.3488677297959
 31
0.0
  0
LINE
  5
AE9B
330
18
100
AcDbEntity
  8
CIRCUIT
 62
     7
100
AcDbLine
 10
1744.439601260651
 20
207.848867729796
 30
0.0
 11
1768.939601260651
 21
207.848867729796
 31
0.0
  0
LINE
  5
AE9C
330
18
100
AcDbEntity
  8
CIRCUIT
 62
     7
100
AcDbLine
 10
1744.439601260651
 20
203.3488677297959
 30
0.0
 11
1768.939601260651
 21
203.3488677297959
 31
0.0
  0
TEXT
  5
AE9D
330
18
100
AcDbEntity
  8
CIRCUIT
 62
     7
100
AcDbText
 10
1747.294805083023
 20
199.7273981467377
 30
0.0
 40
2.7
  1
4
  7
MSｺﾞｼｯｸ
 72
     1
 11
1748.171962443429
 21
201.0773981467377
 31
0.0
100
AcDbText
 73
     2
  0
TEXT
  5
AE9E
330
18
100
AcDbEntity
  8
CIRCUIT
 62
     7
100
AcDbText
 10
1747.294805083023
 20
204.2703107004462
 30
0.0
 40
2.7
  1
3
  7
MSｺﾞｼｯｸ
 72
     1
 11
1748.171962443429
 21
205.6203107004462
 31
0.0
100
AcDbText
 73
     2
  0
TEXT
  5
AE9F
330
18
100
AcDbEntity
  8
CIRCUIT
 62
     7
100
AcDbText
 10
1747.294805083023
 20
190.7488544235938
 30
0.0
 40
2.7
  1
6
  7
MSｺﾞｼｯｸ
 72
     1
 11
1748.171962443429
 21
192.0988544235938
 31
0.0
100
AcDbText
 73
     2
  0
TEXT
  5
AEA0
330
18
100
AcDbEntity
  8
CIRCUIT
 62
     7
100
AcDbText
 10
1747.294805083023
 20
195.4137087472344
 30
0.0
 40
2.7
  1
5
  7
MSｺﾞｼｯｸ
 72
     1
 11
1748.171962443429
 21
196.7637087472344
 31
0.0
100
AcDbText
 73
     2
  0
TEXT
  5
AEA1
330
18
100
AcDbEntity
  8
CIRCUIT
 62
     7
100
AcDbText
 10
1747.294805083023
 20
208.8025113643424
 30
0.0
 40
2.7
  1
2
  7
MSｺﾞｼｯｸ
 72
     1
 11
1748.171962443429
 21
210.1525113643424
 31
0.0
100
AcDbText
 73
     2
  0
TEXT
  5
AEA2
330
18
100
AcDbEntity
  8
CIRCUIT
 62
     7
100
AcDbText
 10
1755.186504028905
 20
190.7488544235938
 30
0.0
 40
2.7
  1
ＰＣ＊
  7
MSｺﾞｼｯｸ
 72
     1
 11
1760.449448191342
 21
192.0988544235938
 31
0.0
100
AcDbText
 73
     2
  0
TEXT
  5
AEA3
330
18
100
AcDbEntity
  8
CIRCUIT
 62
     7
100
AcDbText
 10
1755.186504028905
 20
195.4137087472344
 30
0.0
 40
2.7
  1
ＰＳ＊
  7
MSｺﾞｼｯｸ
 72
     1
 11
1760.449448191342
 21
196.7637087472344
 31
0.0
100
AcDbText
 73
     2
  0
TEXT
  5
AEA4
330
18
100
AcDbEntity
  8
CIRCUIT
 62
     7
100
AcDbText
 10
1756.940818749717
 20
204.2703107004462
 30
0.0
 40
2.7
  1
ＰＣ
  7
MSｺﾞｼｯｸ
 72
     1
 11
1760.449448191342
 21
205.6203107004462
 31
0.0
100
AcDbText
 73
     2
  0
TEXT
  5
AEA5
330
18
100
AcDbEntity
  8
CIRCUIT
 62
     7
100
AcDbText
 10
1755.186504028905
 20
199.7273981467377
 30
0.0
 40
2.7
  1
ＧＮＤ
  7
MSｺﾞｼｯｸ
 72
     1
 11
1760.449448191342
 21
201.0773981467377
 31
0.0
100
AcDbText
 73
     2
  0
TEXT
  5
AEA6
330
18
100
AcDbEntity
  8
CIRCUIT
 62
     7
100
AcDbText
 10
1756.940818749717
 20
208.8025113643424
 30
0.0
 40
2.7
  1
ＰＳ
  7
MSｺﾞｼｯｸ
 72
     1
 11
1760.449448191342
 21
210.1525113643424
 31
0.0
100
AcDbText
 73
     2
  0
LINE
  5
AEA7
330
18
100
AcDbEntity
  8
CIRCUIT
 62
     7
100
AcDbLine
 10
1744.439601260651
 20
217.8488677297959
 30
0.0
 11
1768.939601260651
 21
217.8488677297959
 31
0.0
  0
LINE
  5
AEA8
330
18
100
AcDbEntity
  8
CIRCUIT
 62
     7
100
AcDbLine
 10
1744.439601260651
 20
216.8488677297959
 30
0.0
 11
1768.939601260651
 21
216.8488677297959
 31
0.0
  0
LINE
  5
AEA9
330
18
100
AcDbEntity
  8
CIRCUIT
 62
     7
100
AcDbLine
 10
1744.43961621785
 20
222.348867729796
 30
0.0
 11
1768.939601260651
 21
222.348867729796
 31
0.0
  0
TEXT
  5
AEAA
330
18
100
AcDbEntity
  8
CIRCUIT
 62
     7
100
AcDbText
 10
1747.915706101067
 20
224.0040126724387
 30
0.0
 40
2.7
  1
ﾋﾟﾝ配置表
  7
MSｺﾞｼｯｸ
 72
     1
 11
1755.810122344722
 21
225.3540126724387
 31
0.0
100
AcDbText
 73
     2
  0
TEXT
  5
AEAB
330
18
100
AcDbEntity
  8
CIRCUIT
 62
     7
100
AcDbText
 10
1745.540490362211
 20
218.7488544235938
 30
0.0
 40
2.7
  1
ﾋﾟﾝ
  7
MSｺﾞｼｯｸ
 72
     1
 11
1748.171962443429
 21
220.0988544235938
 31
0.0
100
AcDbText
 73
     2
  0
TEXT
  5
AEAC
330
18
100
AcDbEntity
  8
CIRCUIT
 62
     7
100
AcDbText
 10
1756.522086428904
 20
218.7488544235938
 30
0.0
 40
2.7
  1
信号
  7
MSｺﾞｼｯｸ
 72
     1
 11
1760.030715870528
 21
220.0988544235938
 31
0.0
100
AcDbText
 73
     2
  0
LINE
  5
AFF9
330
18
100
AcDbEntity
  8
0
 48
0.5
100
AcDbLine
 10
1704.618465822283
 20
112.6355316075306
 30
0.0
 11
1704.620887918351
 21
112.1692965176848
 31
0.0
  0
LINE
  5
AFFB
330
18
100
AcDbEntity
  8
0
 48
0.5
100
AcDbLine
 10
1696.594748245473
 20
111.2628021125187
 30
0.0
 11
1696.792707039587
 21
107.0907131845639
 31
0.0
  0
LINE
  5
B2CE
330
18
100
AcDbEntity
  8
0
 48
0.5
100
AcDbLine
 10
1703.133664285467
 20
113.1523765357826
 30
0.0
 11
1703.134100949398
 21
112.2581829253509
 31
0.0
  0
SPLINE
  5
B2D5
330
18
100
AcDbEntity
  8
0
 48
0.5
100
AcDbSpline
210
0.0
220
0.0
230
1.0
 70
     8
 71
     3
 72
    24
 73
    20
 74
    18
 42
0.0000000001
 43
0.0000000001
 44
0.0000000001
 40
0.0
 40
0.0
 40
0.0
 40
0.0
 40
0.8556609935912556
 40
1.398003514279163
 40
1.790507341243882
 40
2.125372664261032
 40
2.441714237658962
 40
2.759114165173206
 40
3.059145633721078
 40
3.381800916830318
 40
3.729107392108531
 40
4.04963174710592
 40
4.303282088732355
 40
4.541827752436848
 40
4.92765322492327
 40
5.298578289024534
 40
5.663243059613245
 40
6.160144958081965
 40
6.708052032746988
 40
6.708052032746988
 40
6.708052032746988
 40
6.708052032746988
 10
1702.079860367997
 20
117.5865519991377
 30
0.0
 10
1702.363950393313
 20
117.5205277561343
 30
0.0
 10
1702.828104838518
 20
117.4126554510535
 30
0.0
 10
1703.274461370658
 20
116.9983155036167
 30
0.0
 10
1703.569855514279
 20
116.6973040686805
 30
0.0
 10
1703.768049935868
 20
116.4060628396268
 30
0.0
 10
1703.869948634614
 20
116.0979211727091
 30
0.0
 10
1704.017440828907
 20
115.8227171816848
 30
0.0
 10
1704.099721795753
 20
115.5170524145002
 30
0.0
 10
1704.120213509955
 20
115.1943165215079
 30
0.0
 10
1704.149630193462
 20
114.8636124935825
 30
0.0
 10
1704.095717134829
 20
114.5591233338768
 30
0.0
 10
1704.027934296028
 20
114.2961534147535
 30
0.0
 10
1703.90164896569
 20
114.0307513186189
 30
0.0
 10
1703.738248174382
 20
113.7430357572937
 30
0.0
 10
1703.52226038162
 20
113.4324356884679
 30
0.0
 10
1703.189310818484
 20
113.1866044830608
 30
0.0
 10
1702.796277407832
 20
112.9243570292539
 30
0.0
 10
1702.461843216872
 20
112.8199823266569
 30
0.0
 10
1702.286462966561
 20
112.7652473086398
 30
0.0
 11
1702.079860367997
 21
117.5865519991377
 31
0.0
 11
1702.888807764171
 21
117.307697474024
 31
0.0
 11
1703.306577983878
 21
116.9618601520473
 31
0.0
 11
1703.574209769132
 21
116.6747495780452
 31
0.0
 11
1703.756983795321
 21
116.3941636911759
 31
0.0
 11
1703.878167129771
 21
116.1019538513153
 31
0.0
 11
1704.00869288585
 21
115.8126344067802
 31
0.0
 11
1704.088142623861
 21
115.5233134409845
 31
0.0
 11
1704.121025005499
 21
115.2023380825905
 31
0.0
 11
1704.134494039069
 21
114.85529287962
 31
0.0
 11
1704.087350048595
 21
114.5382545439117
 31
0.0
 11
1704.018775677189
 21
114.2940496066285
 31
0.0
 11
1703.920978059058
 21
114.0764728165977
 31
0.0
 11
1703.73020946379
 21
113.7411093745249
 31
0.0
 11
1703.506551367945
 21
113.4451998286474
 31
0.0
 11
1703.22368979808
 21
113.2150482976894
 31
0.0
 11
1702.800754322776
 21
112.95420911269
 31
0.0
 11
1702.286462966561
 21
112.7652473086398
 31
0.0
  0
LINE
  5
B2DE
330
18
100
AcDbEntity
  8
0
 48
0.5
100
AcDbLine
 10
1704.225768887595
 20
102.2517489356734
 30
0.0
 11
1699.124256667308
 21
100.9454394503296
 31
0.0
  0
HATCH
  5
B4ED
330
18
100
AcDbEntity
  8
0
 48
0.5
100
AcDbHatch
 10
0.0
 20
0.0
 30
0.0
210
0.0
220
0.0
230
1.0
  2
ANSI31
 70
     0
 71
     1
 91
        2
 92
        1
 93
        1
 72
     2
 10
1561.646009531887
 20
172.593335679904
 40
4.099999999999909
 50
0.0
 51
360.0
 73
     1
 97
        1
330
AE37
 92
       16
 93
        1
 72
     2
 10
1561.646009531887
 20
172.593335679904
 40
2.6
 50
0.0
 51
360.0
 73
     1
 97
        1
330
AE3B
 75
     0
 76
     1
 52
0.0
 41
0.5
 77
     0
 78
     1
 53
45.0
 43
0.0
 44
0.0
 45
-1.122532015133643
 46
1.122532015133644
 79
     0
 98
        1
 10
0.0
 20
0.0
  0
VIEWPORT
  5
23
330
15
100
AcDbEntity
 67
     1
  8
0
100
AcDbViewport
 10
109.5750265972948
 20
76.75279996669257
 30
0.0
 40
348.5036058852306
 41
236.8325579779201
 68
     1
 69
     1
 12
109.5750265972948
 22
76.75279996669257
 13
0.0
 23
0.0
 14
10.0
 24
10.0
 15
10.0
 25
10.0
 16
0.0
 26
0.0
 36
1.0
 17
0.0
 27
0.0
 37
0.0
 42
50.0
 43
0.0
 44
0.0
 45
236.8325579779201
 50
0.0
 51
0.0
 72
   100
 90
    32768
  1

281
     0
 71
     1
 74
     0
110
0.0
120
0.0
130
0.0
111
1.0
121
0.0
131
0.0
112
0.0
122
1.0
132
0.0
 79
     0
146
0.0
  0
VIEWPORT
  5
2E
330
15
100
AcDbEntity
 67
     1
  8
M_VIEW
100
AcDbViewport
 10
144.0
 20
105.0
 30
0.0
 40
288.0
 41
210.0
 68
     2
 69
     2
 12
1644.225123159149
 22
150.9190644139052
 13
0.0
 23
0.0
 14
10.0
 24
10.0
 15
10.0
 25
10.0
 16
0.0
 26
0.0
 36
1.0
 17
0.0
 27
0.0
 37
0.0
 42
50.0
 43
0.0
 44
0.0
 45
209.9999996338261
 50
0.0
 51
0.0
 72
   100
 90
    32768
  1

281
     0
 71
     1
 74
     0
110
0.0
120
0.0
130
0.0
111
1.0
121
0.0
131
0.0
112
0.0
122
1.0
132
0.0
 79
     0
146
0.0
  0
TEXT
  5
5D0
330
15
100
AcDbEntity
 67
     1
  8
wakumoji1
  6
Continuous
100
AcDbText
 10
8.865235070261704
 20
10.96666666666598
 30
0.0
 40
4.0
  1
Ｒ＊－
 41
0.625
100
AcDbText
  0
TEXT
  5
5D4
330
15
100
AcDbEntity
 67
     1
  8
wakumoji1
  6
Continuous
100
AcDbText
 10
9.866692070452764
 20
15.78333333333638
 30
0.0
 40
3.5
  1
Ａ
 72
     1
 11
11.50002540378609
 21
15.78333333333638
 31
0.0
100
AcDbText
  0
TEXT
  5
5D9
330
15
100
AcDbEntity
 67
     1
  8
wakumoji1
  6
Continuous
100
AcDbText
 10
17.86523507026169
 20
15.96666666666598
 30
0.0
 40
4.0
  1
１～＊
 41
0.625
100
AcDbText
  0
TEXT
  5
5EF
330
15
100
AcDbEntity
 67
     1
  8
wakumoji1
  6
Continuous
100
AcDbText
 10
33.89605408586112
 20
16.35134447262123
 30
0.0
 40
3.5
  1
＊＊＊＊＊
100
AcDbText
  0
TEXT
  5
5FE
330
15
100
AcDbEntity
 67
     1
  8
wakumoji
  6
Continuous
100
AcDbText
 10
210.8022848534179
 20
5.8315805819974
 30
0.0
 40
7.0
  1
ＳＥ－３５４０２
 41
0.9529999999999999
  7
MSｺﾞｼｯｸ
100
AcDbText
  0
TEXT
  5
651
330
15
100
AcDbEntity
 67
     1
  8
wakumoji1
  6
Continuous
100
AcDbText
 10
275.402284853418
 20
5.981155417998706
 30
0.0
 40
7.0
  1
Ａ
 41
0.9529999999999999
100
AcDbText
  0
TEXT
  5
673
330
15
100
AcDbEntity
 67
     1
  8
wakumoji1
  6
Continuous
100
AcDbText
 10
105.8652350702616
 20
10.96666666666598
 30
0.0
 40
3.0
  1
'99.**.**
 41
0.6
100
AcDbText
  0
TEXT
  5
122E
330
15
100
AcDbEntity
 67
     1
  8
wakumoji
  6
Continuous
100
AcDbText
 10
258.2652350702616
 20
35.46666666666598
 30
0.0
 40
4.0
  1

 41
0.625
100
AcDbText
  0
TEXT
  5
51A8
330
15
100
AcDbEntity
 67
     1
  8
FRAME025
  6
Continuous
100
AcDbText
 10
9.771302305565228
 20
15.78915074620694
 30
0.0
 40
2.5
  1
A
 11
9.771302305565228
 21
17.03915074620694
 31
0.0
100
AcDbText
 73
     2
  0
TEXT
  5
51A9
330
15
100
AcDbEntity
 67
     1
  8
FRAME025
  6
Continuous
100
AcDbText
 10
14.69137332006167
 20
15.62936482113607
 30
0.0
 40
2.5
  1
１－８
 11
14.69137332006167
 21
16.87936482113607
 31
0.0
100
AcDbText
 73
     2
  0
MTEXT
  5
51AF
330
15
100
AcDbEntity
 67
     1
  8
FRAME025
100
AcDbMText
 10
32.84624968267385
 20
18.82393689611282
 30
0.0
 40
2.5
 41
51.2
 71
     1
 72
     5
  1
1:ｹｰﾌﾞﾙ長変更　　2-6:各種説明追記
 73
     1
 44
1.0
  0
MTEXT
  5
51F0
330
15
100
AcDbEntity
 67
     1
  8
FRAME025
100
AcDbMText
 10
32.84624968267385
 20
13.82393689611282
 30
0.0
 40
2.5
 41
51.2
 71
     1
 72
     5
  1
7:ｺｲﾙﾕﾆｯﾄ取付図追加　8:不要寸法削除
 73
     1
 44
1.0
  0
MTEXT
  5
5201
330
15
100
AcDbEntity
 67
     1
  8
FRAME025
100
AcDbMText
 10
124.7022011776973
 20
22.92840157357358
 30
0.0
 40
6.0
 41
20.0
 71
     5
 72
     5
  1
大湊
  7
MS明朝
 73
     1
 44
1.0
  0
MTEXT
  5
5202
330
15
100
AcDbEntity
 67
     1
  8
FRAME025
100
AcDbMText
 10
144.7022011776973
 20
22.92840157357358
 30
0.0
 40
6.0
 41
20.0
 71
     5
 72
     5
  1
渡邊
  7
MS明朝
 73
     1
 44
1.0
  0
MTEXT
  5
5203
330
15
100
AcDbEntity
 67
     1
  8
FRAME025
100
AcDbMText
 10
164.7022011776973
 20
22.92840157357358
 30
0.0
 40
6.0
 41
20.0
 71
     5
 72
     5
  1
渡邊
  7
MS明朝
 73
     1
 44
1.0
  0
TEXT
  5
5209
330
15
100
AcDbEntity
 67
     1
  8
FRAME025
  6
Continuous
100
AcDbText
 10
117.3032209649895
 20
11.47689678353586
 30
0.0
 40
3.0
  1
'05.01.13
 72
     4
 11
124.4903529993455
 21
12.915355300361
 31
0.0
100
AcDbText
  0
TEXT
  5
520A
330
15
100
AcDbEntity
 67
     1
  8
FRAME025
  6
Continuous
100
AcDbText
 10
137.2752644166683
 20
11.40219205912641
 30
0.0
 40
3.0
  1
'05.01.12
 72
     4
 11
144.4903529993455
 21
12.915355300361
 31
0.0
100
AcDbText
  0
TEXT
  5
520B
330
15
100
AcDbEntity
 67
     1
  8
FRAME025
  6
Continuous
100
AcDbText
 10
157.2752644166683
 20
11.40219205912641
 30
0.0
 40
3.0
  1
'05.01.12
 72
     4
 11
164.4903529993455
 21
12.915355300361
 31
0.0
100
AcDbText
  0
TEXT
  5
52FA
330
15
100
AcDbEntity
 67
     1
  8
FRAME025
  6
Continuous
100
AcDbText
 10
8.323062438778748
 20
10.43821557457016
 30
0.0
 40
4.0
  1
Ｒ１－６８６７１
 41
0.625
100
AcDbText
  0
MTEXT
  5
B5A3
330
15
100
AcDbEntity
 67
     1
  8
0
 48
0.5
100
AcDbMText
 10
92.65122704479939
 20
24.99048462391312
 30
0.0
 40
6.0
 41
195.3291476804703
 71
     1
 72
     5
  1
{\fＭＳ ゴシック|b0|i0|c128|p49;τﾘﾆｱﾓｰﾀ　NLA-MA/NA用磁極ｾﾝｻﾕﾆｯﾄ NSR-PAA7D1B-***}
 73
     1
 44
1.0
  0
ENDSEC
  0
SECTION
  2
OBJECTS
  0
DICTIONARY
  5
C
330
0
100
AcDbDictionary
281
     1
  3
ACAD_GROUP
350
D
  3
ACAD_LAYOUT
350
683
  3
ACAD_MLINESTYLE
350
1B
  3
ACAD_PLOTSETTINGS
350
684
  3
ACAD_PLOTSTYLENAME
350
681
  3
AcDbVariableDictionary
350
5623
  0
DICTIONARY
  5
531A
330
2
100
AcDbDictionary
280
     1
281
     1
  3
ACAD_LAYERFILTERS
360
531B
  3
ACAD_LAYERSTATES
360
5327
  0
DICTIONARY
  5
D
102
{ACAD_REACTORS
330
C
102
}
330
C
100
AcDbDictionary
281
     1
  3
*A1
350
EB3
  3
*A10
350
5CF8
  3
*A11
350
5605
  3
*A12
350
6CC0
  3
*A13
350
59F1
  3
*A14
350
4032
  3
*A15
350
460C
  3
*A16
350
4622
  3
*A17
350
7E14
  3
*A18
350
542A
  3
*A19
350
7E16
  3
*A2
350
5A78
  3
*A20
350
140A
  3
*A21
350
6CBD
  3
*A22
350
6CBE
  3
*A23
350
6CBF
  3
*A24
350
45EF
  3
*A25
350
13DE
  3
*A26
350
107B
  3
*A27
350
5BD9
  3
*A28
350
6CF2
  3
*A29
350
6CF3
  3
*A3
350
6CF4
  3
*A30
350
6CF5
  3
*A31
350
3F60
  3
*A32
350
5A9A
  3
*A33
350
4882
  3
*A34
350
6D6C
  3
*A35
350
554E
  3
*A36
350
4883
  3
*A37
350
4889
  3
*A38
350
554D
  3
*A39
350
6CC1
  3
*A4
350
4624
  3
*A40
350
7E15
  3
*A41
350
7E17
  3
*A42
350
ECA
  3
*A43
350
59F6
  3
*A44
350
6D22
  3
*A45
350
ECB
  3
*A46
350
115F
  3
*A47
350
5A1A
  3
*A48
350
45F0
  3
*A5
350
EB4
  3
*A6
350
460B
  3
*A7
350
5BD8
  3
*A8
350
5CCC
  3
*A9
350
5BF2
  0
DICTIONARY
  5
683
102
{ACAD_REACTORS
330
C
102
}
330
C
100
AcDbDictionary
281
     1
  3
Model
350
685
  3
ﾚｲｱｳﾄ1
350
686
  0
DICTIONARY
  5
1B
102
{ACAD_REACTORS
330
C
102
}
330
C
100
AcDbDictionary
281
     1
  3
STANDARD
350
1C
  0
DICTIONARY
  5
684
102
{ACAD_REACTORS
330
C
102
}
330
C
100
AcDbDictionary
281
     1
  0
ACDBDICTIONARYWDFLT
  5
681
102
{ACAD_REACTORS
330
C
102
}
330
C
100
AcDbDictionary
281
     1
  3
Normal
350
682
100
AcDbDictionaryWithDefault
340
682
  0
DICTIONARY
  5
5623
102
{ACAD_REACTORS
330
C
102
}
330
C
100
AcDbDictionary
281
     1
  3
DIMASSOC
350
7E4F
  3
SORTENTS
350
5624
  0
DICTIONARY
  5
531B
102
{ACAD_REACTORS
330
531A
102
}
330
531A
100
AcDbDictionary
280
     1
281
     1
  3
0
360
531C
  3
11
360
531D
  3
150_
360
531E
  3
160_
360
531F
  3
170_
360
5320
  3
171_
360
5321
  3
350_
360
5322
  3
4
360
5323
  3
5
360
5324
  3
7
360
5325
  3
kiseki
360
5326
  0
DICTIONARY
  5
5327
102
{ACAD_REACTORS
330
531A
102
}
330
531A
100
AcDbDictionary
281
     1
  0
GROUP
  5
EB3
102
{ACAD_REACTORS
330
D
102
}
330
D
100
AcDbGroup
300

 70
     1
 71
     1
  0
GROUP
  5
5CF8
102
{ACAD_REACTORS
330
D
102
}
330
D
100
AcDbGroup
300

 70
     1
 71
     1
  0
GROUP
  5
5605
102
{ACAD_REACTORS
330
D
102
}
330
D
100
AcDbGroup
300

 70
     1
 71
     1
  0
GROUP
  5
6CC0
102
{ACAD_REACTORS
330
D
102
}
330
D
100
AcDbGroup
300

 70
     1
 71
     1
  0
GROUP
  5
59F1
102
{ACAD_REACTORS
330
D
102
}
330
D
100
AcDbGroup
300

 70
     1
 71
     1
  0
GROUP
  5
4032
102
{ACAD_REACTORS
330
D
102
}
330
D
100
AcDbGroup
300

 70
     1
 71
     1
  0
GROUP
  5
460C
102
{ACAD_REACTORS
330
D
102
}
330
D
100
AcDbGroup
300

 70
     1
 71
     1
  0
GROUP
  5
4622
102
{ACAD_REACTORS
330
D
102
}
330
D
100
AcDbGroup
300

 70
     1
 71
     1
  0
GROUP
  5
7E14
102
{ACAD_REACTORS
330
D
102
}
330
D
100
AcDbGroup
300

 70
     1
 71
     1
  0
GROUP
  5
542A
102
{ACAD_REACTORS
330
D
102
}
330
D
100
AcDbGroup
300

 70
     1
 71
     1
  0
GROUP
  5
7E16
102
{ACAD_REACTORS
330
D
102
}
330
D
100
AcDbGroup
300

 70
     1
 71
     1
  0
GROUP
  5
5A78
102
{ACAD_REACTORS
330
D
102
}
330
D
100
AcDbGroup
300

 70
     1
 71
     1
  0
GROUP
  5
140A
102
{ACAD_REACTORS
330
D
102
}
330
D
100
AcDbGroup
300

 70
     1
 71
     1
  0
GROUP
  5
6CBD
102
{ACAD_REACTORS
330
D
102
}
330
D
100
AcDbGroup
300

 70
     1
 71
     1
  0
GROUP
  5
6CBE
102
{ACAD_REACTORS
330
D
102
}
330
D
100
AcDbGroup
300

 70
     1
 71
     1
  0
GROUP
  5
6CBF
102
{ACAD_REACTORS
330
D
102
}
330
D
100
AcDbGroup
300

 70
     1
 71
     1
  0
GROUP
  5
45EF
102
{ACAD_REACTORS
330
D
102
}
330
D
100
AcDbGroup
300

 70
     1
 71
     1
  0
GROUP
  5
13DE
102
{ACAD_REACTORS
330
D
102
}
330
D
100
AcDbGroup
300

 70
     1
 71
     1
  0
GROUP
  5
107B
102
{ACAD_REACTORS
330
D
102
}
330
D
100
AcDbGroup
300

 70
     1
 71
     1
  0
GROUP
  5
5BD9
102
{ACAD_REACTORS
330
D
102
}
330
D
100
AcDbGroup
300

 70
     1
 71
     1
  0
GROUP
  5
6CF2
102
{ACAD_REACTORS
330
D
102
}
330
D
100
AcDbGroup
300

 70
     1
 71
     1
  0
GROUP
  5
6CF3
102
{ACAD_REACTORS
330
D
102
}
330
D
100
AcDbGroup
300

 70
     1
 71
     1
  0
GROUP
  5
6CF4
102
{ACAD_REACTORS
330
D
102
}
330
D
100
AcDbGroup
300

 70
     1
 71
     1
  0
GROUP
  5
6CF5
102
{ACAD_REACTORS
330
D
102
}
330
D
100
AcDbGroup
300

 70
     1
 71
     1
  0
GROUP
  5
3F60
102
{ACAD_REACTORS
330
D
102
}
330
D
100
AcDbGroup
300

 70
     1
 71
     1
  0
GROUP
  5
5A9A
102
{ACAD_REACTORS
330
D
102
}
330
D
100
AcDbGroup
300

 70
     1
 71
     1
  0
GROUP
  5
4882
102
{ACAD_REACTORS
330
D
102
}
330
D
100
AcDbGroup
300

 70
     1
 71
     1
  0
GROUP
  5
6D6C
102
{ACAD_REACTORS
330
D
102
}
330
D
100
AcDbGroup
300

 70
     1
 71
     1
  0
GROUP
  5
554E
102
{ACAD_REACTORS
330
D
102
}
330
D
100
AcDbGroup
300

 70
     1
 71
     1
  0
GROUP
  5
4883
102
{ACAD_REACTORS
330
D
102
}
330
D
100
AcDbGroup
300

 70
     1
 71
     1
  0
GROUP
  5
4889
102
{ACAD_REACTORS
330
D
102
}
330
D
100
AcDbGroup
300

 70
     1
 71
     1
  0
GROUP
  5
554D
102
{ACAD_REACTORS
330
D
102
}
330
D
100
AcDbGroup
300

 70
     1
 71
     1
  0
GROUP
  5
6CC1
102
{ACAD_REACTORS
330
D
102
}
330
D
100
AcDbGroup
300

 70
     1
 71
     1
  0
GROUP
  5
4624
102
{ACAD_REACTORS
330
D
102
}
330
D
100
AcDbGroup
300

 70
     1
 71
     1
  0
GROUP
  5
7E15
102
{ACAD_REACTORS
330
D
102
}
330
D
100
AcDbGroup
300

 70
     1
 71
     1
  0
GROUP
  5
7E17
102
{ACAD_REACTORS
330
D
102
}
330
D
100
AcDbGroup
300

 70
     1
 71
     1
  0
GROUP
  5
ECA
102
{ACAD_REACTORS
330
D
102
}
330
D
100
AcDbGroup
300

 70
     1
 71
     1
  0
GROUP
  5
59F6
102
{ACAD_REACTORS
330
D
102
}
330
D
100
AcDbGroup
300

 70
     1
 71
     1
  0
GROUP
  5
6D22
102
{ACAD_REACTORS
330
D
102
}
330
D
100
AcDbGroup
300

 70
     1
 71
     1
  0
GROUP
  5
ECB
102
{ACAD_REACTORS
330
D
102
}
330
D
100
AcDbGroup
300

 70
     1
 71
     1
  0
GROUP
  5
115F
102
{ACAD_REACTORS
330
D
102
}
330
D
100
AcDbGroup
300

 70
     1
 71
     1
  0
GROUP
  5
5A1A
102
{ACAD_REACTORS
330
D
102
}
330
D
100
AcDbGroup
300

 70
     1
 71
     1
  0
GROUP
  5
45F0
102
{ACAD_REACTORS
330
D
102
}
330
D
100
AcDbGroup
300

 70
     1
 71
     1
  0
GROUP
  5
EB4
102
{ACAD_REACTORS
330
D
102
}
330
D
100
AcDbGroup
300

 70
     1
 71
     1
  0
GROUP
  5
460B
102
{ACAD_REACTORS
330
D
102
}
330
D
100
AcDbGroup
300

 70
     1
 71
     1
  0
GROUP
  5
5BD8
102
{ACAD_REACTORS
330
D
102
}
330
D
100
AcDbGroup
300

 70
     1
 71
     1
  0
GROUP
  5
5CCC
102
{ACAD_REACTORS
330
D
102
}
330
D
100
AcDbGroup
300

 70
     1
 71
     1
  0
GROUP
  5
5BF2
102
{ACAD_REACTORS
330
D
102
}
330
D
100
AcDbGroup
300

 70
     1
 71
     1
  0
LAYOUT
  5
685
102
{ACAD_REACTORS
330
683
102
}
330
683
100
AcDbPlotSettings
  1

  2
IBM Infoprint 1316J RPCS-A4.pc3
  4
A4
  6

 40
5.873749732971191
 41
5.873747825622558
 42
5.873748779296875
 43
5.873748779296875
 44
296.9259948730469
 45
209.9733276367187
 46
0.0
 47
0.0
 48
0.0
 49
0.0
140
0.0
141
0.0
142
1.0
143
0.7565413888618794
 70
 11952
 72
     1
 73
     0
 74
     0
  7

 75
     0
147
1.321804748190146
148
-431.0099514821218
149
-81.72130883030979
100
AcDbLayout
  1
Model
 70
     1
 71
     0
 10
0.0
 20
0.0
 11
12.0
 21
9.0
 12
0.0
 22
0.0
 32
0.0
 14
0.0
 24
0.0
 34
0.0
 15
0.0
 25
0.0
 35
0.0
146
0.0
 13
0.0
 23
0.0
 33
0.0
 16
1.0
 26
0.0
 36
0.0
 17
0.0
 27
1.0
 37
0.0
 76
     0
330
18
  0
LAYOUT
  5
686
102
{ACAD_REACTORS
330
683
102
}
330
683
100
AcDbPlotSettings
  1

  2
Adobe PDF
  4
A4
  6

 40
3.174999952316284
 41
3.174999952316284
 42
3.175003051757812
 43
3.17498779296875
 44
209.9733276367187
 45
297.0318298339843
 46
0.0
 47
0.0
 48
0.0
 49
0.0
140
0.0
141
0.0
142
1.0
143
1.0
 70
   688
 72
     1
 73
     1
 74
     1
  7
monochrome.ctb
 75
    16
147
1.0
148
0.0065794145109521
149
0.0037086969705342
100
AcDbLayout
  1
ﾚｲｱｳﾄ1
 70
     0
 71
     1
 10
-3.181567207479702
 20
-3.178708649286818
 11
293.8502626265046
 21
206.7946189874319
 12
0.0
 22
0.0
 32
0.0
 14
-0.0179889788886385
 24
-0.0136861229544252
 34
-0.0015258207003583
 15
288.0126016165545
 25
210.0065061942487
 35
0.0000000349246037
146
0.0
 13
0.0
 23
0.0
 33
0.0
 16
1.0
 26
0.0
 36
0.0
 17
0.0
 27
1.0
 37
0.0
 76
     0
330
15
331
23
  0
MLINESTYLE
  5
1C
102
{ACAD_REACTORS
330
1B
102
}
330
1B
100
AcDbMlineStyle
  2
STANDARD
 70
     0
  3

 62
   256
 51
90.0
 52
90.0
 71
     2
 49
0.5
 62
   256
  6
BYLAYER
 49
-0.5
 62
   256
  6
BYLAYER
  0
ACDBPLACEHOLDER
  5
682
102
{ACAD_REACTORS
330
681
102
}
330
681
  0
DICTIONARYVAR
  5
7E4F
102
{ACAD_REACTORS
330
5623
102
}
330
5623
100
DictionaryVariables
280
     0
  1
1
  0
DICTIONARYVAR
  5
5624
102
{ACAD_REACTORS
330
5623
102
}
330
5623
100
DictionaryVariables
280
     0
  1
96
  0
XRECORD
  5
531C
102
{ACAD_REACTORS
330
531B
102
}
330
531B
100
AcDbXrecord
280
     1
  1
0
  1
*0
  1
*
  1
*
 70
     0
  1
*
  1
*
  0
XRECORD
  5
531D
102
{ACAD_REACTORS
330
531B
102
}
330
531B
100
AcDbXrecord
280
     1
  1
11
  1
*11
  1
*
  1
*
 70
     0
  1
*
  1
*
  0
XRECORD
  5
531E
102
{ACAD_REACTORS
330
531B
102
}
330
531B
100
AcDbXrecord
280
     1
  1
150_
  1
150_*
  1
*
  1
*
 70
     0
  1
*
  1
*
  0
XRECORD
  5
531F
102
{ACAD_REACTORS
330
531B
102
}
330
531B
100
AcDbXrecord
280
     1
  1
160_
  1
160_*
  1
*
  1
*
 70
     0
  1
*
  1
*
  0
XRECORD
  5
5320
102
{ACAD_REACTORS
330
531B
102
}
330
531B
100
AcDbXrecord
280
     1
  1
170_
  1
170_*
  1
*
  1
*
 70
     0
  1
*
  1
*
  0
XRECORD
  5
5321
102
{ACAD_REACTORS
330
531B
102
}
330
531B
100
AcDbXrecord
280
     1
  1
171_
  1
171_*
  1
*
  1
*
 70
     0
  1
*
  1
*
  0
XRECORD
  5
5322
102
{ACAD_REACTORS
330
531B
102
}
330
531B
100
AcDbXrecord
280
     1
  1
350_
  1
350_*
  1
*
  1
*
 70
     0
  1
*
  1
*
  0
XRECORD
  5
5323
102
{ACAD_REACTORS
330
531B
102
}
330
531B
100
AcDbXrecord
280
     1
  1
4
  1
*4
  1
*
  1
*
 70
     0
  1
*
  1
*
  0
XRECORD
  5
5324
102
{ACAD_REACTORS
330
531B
102
}
330
531B
100
AcDbXrecord
280
     1
  1
5
  1
*5
  1
*
  1
*
 70
     0
  1
*
  1
*
  0
XRECORD
  5
5325
102
{ACAD_REACTORS
330
531B
102
}
330
531B
100
AcDbXrecord
280
     1
  1
7
  1
*7
  1
*
  1
*
 70
     0
  1
*
  1
*
  0
XRECORD
  5
5326
102
{ACAD_REACTORS
330
531B
102
}
330
531B
100
AcDbXrecord
280
     1
  1
kiseki
  1
kiseki*
  1
*
  1
*
 70
     0
  1
*
  1
*
  0
ENDSEC
  0
EOF
