  0
SECTION
  2
HEADER
  9
$ACADVER
  1
AC1014
  9
$ACADMAINTVER
 70
     9
  9
$DWGCODEPAGE
  3
ANSI_932
  9
$INSBASE
 10
0.0
 20
0.0
 30
0.0
  9
$EXTMIN
 10
317.1731820099378
 20
-2122.280491227665
 30
0.0
  9
$EXTMAX
 10
1073.091408489057
 20
-1560.376535765013
 30
0.0
  9
$LIMMIN
 10
0.0
 20
0.0
  9
$LIMMAX
 10
420.0
 20
297.0
  9
$ORTHOMODE
 70
     0
  9
$REGENMODE
 70
     1
  9
$FILLMODE
 70
     1
  9
$QTEXTMODE
 70
     0
  9
$MIRRTEXT
 70
     0
  9
$DRAGMODE
 70
     2
  9
$LTSCALE
 40
20.0
  9
$OSMODE
 70
   959
  9
$ATTMODE
 70
     2
  9
$TEXTSIZE
 40
10.0
  9
$TRACEWID
 40
1.0
  9
$TEXTSTYLE
  7
ｽﾀｲﾙ3
  9
$CLAYER
  8
DIMENSION
  9
$CELTYPE
  6
BYLAYER
  9
$CECOLOR
 62
   256
  9
$CELTSCALE
 40
1.0
  9
$DELOBJ
 70
     1
  9
$DISPSILH
 70
     0
  9
$DIMSCALE
 40
2.0
  9
$DIMASZ
 40
2.5
  9
$DIMEXO
 40
0.8
  9
$DIMDLI
 40
0.38
  9
$DIMRND
 40
0.0
  9
$DIMDLE
 40
0.0
  9
$DIMEXE
 40
0.18
  9
$DIMTP
 40
0.0
  9
$DIMTM
 40
0.0
  9
$DIMTXT
 40
3.0
  9
$DIMCEN
 40
0.0
  9
$DIMTSZ
 40
0.0
  9
$DIMTOL
 70
     0
  9
$DIMLIM
 70
     0
  9
$DIMTIH
 70
     0
  9
$DIMTOH
 70
     0
  9
$DIMSE1
 70
     0
  9
$DIMSE2
 70
     0
  9
$DIMTAD
 70
     3
  9
$DIMZIN
 70
     8
  9
$DIMBLK
  1
OPEN30
  9
$DIMASO
 70
     1
  9
$DIMSHO
 70
     1
  9
$DIMPOST
  1

  9
$DIMAPOST
  1

  9
$DIMALT
 70
     0
  9
$DIMALTD
 70
     2
  9
$DIMALTF
 40
25.4
  9
$DIMLFAC
 40
1.0
  9
$DIMTOFL
 70
     0
  9
$DIMTVP
 40
0.0
  9
$DIMTIX
 70
     0
  9
$DIMSOXD
 70
     0
  9
$DIMSAH
 70
     0
  9
$DIMBLK1
  1

  9
$DIMBLK2
  1

  9
$DIMSTYLE
  2
まこ
  9
$DIMCLRD
 70
     4
  9
$DIMCLRE
 70
     4
  9
$DIMCLRT
 70
   256
  9
$DIMTFAC
 40
1.0
  9
$DIMGAP
 40
0.5
  9
$DIMJUST
 70
     0
  9
$DIMSD1
 70
     0
  9
$DIMSD2
 70
     0
  9
$DIMTOLJ
 70
     1
  9
$DIMTZIN
 70
     0
  9
$DIMALTZ
 70
     0
  9
$DIMALTTZ
 70
     0
  9
$DIMFIT
 70
     1
  9
$DIMUPT
 70
     0
  9
$DIMUNIT
 70
     2
  9
$DIMDEC
 70
     8
  9
$DIMTDEC
 70
     8
  9
$DIMALTU
 70
     2
  9
$DIMALTTD
 70
     2
  9
$DIMTXSTY
  7
まこ
  9
$DIMAUNIT
 70
     0
  9
$LUNITS
 70
     2
  9
$LUPREC
 70
     4
  9
$SKETCHINC
 40
1.0
  9
$FILLETRAD
 40
2.0
  9
$AUNITS
 70
     0
  9
$AUPREC
 70
     0
  9
$MENU
  1
.
  9
$ELEVATION
 40
0.0
  9
$PELEVATION
 40
0.0
  9
$THICKNESS
 40
0.0
  9
$LIMCHECK
 70
     0
  9
$BLIPMODE
 70
     0
  9
$CHAMFERA
 40
0.5
  9
$CHAMFERB
 40
0.5
  9
$CHAMFERC
 40
20.0
  9
$CHAMFERD
 40
0.0
  9
$SKPOLY
 70
     0
  9
$TDCREATE
 40
2451224.660162384
  9
$TDUPDATE
 40
2455601.360911273
  9
$TDINDWG
 40
16.6118280440
  9
$TDUSRTIMER
 40
16.6118276852
  9
$USRTIMER
 70
     1
  9
$ANGBASE
 50
0.0
  9
$ANGDIR
 70
     0
  9
$PDMODE
 70
     0
  9
$PDSIZE
 40
0.0
  9
$PLINEWID
 40
0.0
  9
$COORDS
 70
     1
  9
$SPLFRAME
 70
     0
  9
$SPLINETYPE
 70
     6
  9
$SPLINESEGS
 70
     8
  9
$ATTDIA
 70
     0
  9
$ATTREQ
 70
     1
  9
$HANDLING
 70
-16383
  9
$HANDSEED
  5
25CAD
  9
$SURFTAB1
 70
     6
  9
$SURFTAB2
 70
     6
  9
$SURFTYPE
 70
     6
  9
$SURFU
 70
     6
  9
$SURFV
 70
     6
  9
$UCSNAME
  2

  9
$UCSORG
 10
0.0
 20
0.0
 30
0.0
  9
$UCSXDIR
 10
1.0
 20
0.0
 30
0.0
  9
$UCSYDIR
 10
0.0
 20
1.0
 30
0.0
  9
$PUCSNAME
  2

  9
$PUCSORG
 10
0.0
 20
0.0
 30
0.0
  9
$PUCSXDIR
 10
1.0
 20
0.0
 30
0.0
  9
$PUCSYDIR
 10
0.0
 20
1.0
 30
0.0
  9
$USERI1
 70
     0
  9
$USERI2
 70
     0
  9
$USERI3
 70
     0
  9
$USERI4
 70
     0
  9
$USERI5
 70
     0
  9
$USERR1
 40
245.9999999999999
  9
$USERR2
 40
0.0
  9
$USERR3
 40
0.0
  9
$USERR4
 40
0.0
  9
$USERR5
 40
0.0
  9
$WORLDVIEW
 70
     1
  9
$SHADEDGE
 70
     3
  9
$SHADEDIF
 70
    70
  9
$TILEMODE
 70
     0
  9
$MAXACTVP
 70
    48
  9
$PINSBASE
 10
0.0
 20
0.0
 30
0.0
  9
$PLIMCHECK
 70
     0
  9
$PEXTMIN
 10
0.0
 20
0.0
 30
0.0
  9
$PEXTMAX
 10
400.0
 20
288.0
 30
0.0
  9
$PLIMMIN
 10
-5.1557203732614
 20
-1.893140382298889
  9
$PLIMMAX
 10
411.0356095979915
 20
292.4135858116585
  9
$UNITMODE
 70
     0
  9
$VISRETAIN
 70
     1
  9
$PLINEGEN
 70
     0
  9
$PSLTSCALE
 70
     0
  9
$TREEDEPTH
 70
  3020
  9
$PICKSTYLE
 70
     0
  9
$CMLSTYLE
  2
STANDARD
  9
$CMLJUST
 70
     0
  9
$CMLSCALE
 40
20.0
  9
$PROXYGRAPHICS
 70
     1
  9
$MEASUREMENT
 70
     0
  0
ENDSEC
  0
SECTION
  2
CLASSES
  0
CLASS
  1
HATCH
  2
AcDbHatch
  3
AutoCAD 2000
 90
        0
280
     0
281
     1
  0
CLASS
  1
LWPOLYLINE
  2
AcDbPolyline
  3
AutoCAD 2000
 90
        0
280
     0
281
     1
  0
CLASS
  1
ACDBDICTIONARYWDFLT
  2
AcDbDictionaryWithDefault
  3
AutoCAD 2000
 90
        0
280
     0
281
     0
  0
CLASS
  1
ACDBPLACEHOLDER
  2
AcDbPlaceHolder
  3
AutoCAD 2000
 90
        0
280
     0
281
     0
  0
CLASS
  1
LAYOUT
  2
AcDbLayout
  3
AutoCAD 2000
 90
        0
280
     0
281
     0
  0
CLASS
  1
LONG_TRANSACTION
  2
AcDbLongTransaction
  3
AutoCAD 2000
 90
        0
280
     0
281
     0
  0
CLASS
  1
LWPOLYLINE
  2
AcDbPolyline
  3
AutoCAD 2000
 90
        0
280
     0
281
     1
  0
CLASS
  1
HATCH
  2
AcDbHatch
  3
AutoCAD 2000
 90
        0
280
     0
281
     1
  0
CLASS
  1
XRECORD
  2
AcDbXrecord
  3
AutoCAD 2000
 90
        0
280
     0
281
     0
  0
CLASS
  1
DICTIONARYVAR
  2
AcDbDictionaryVar
  3
AutoCAD 2000
 90
        0
280
     0
281
     0
  0
CLASS
  1
LONG_TRANSACTION
  2
AcDbLongTransaction
  3
AutoCAD 2000
 90
        0
280
     0
281
     0
  0
CLASS
  1
LWPOLYLINE
  2
AcDbPolyline
  3
AutoCAD 2000
 90
        0
280
     0
281
     1
  0
CLASS
  1
HATCH
  2
AcDbHatch
  3
AutoCAD 2000
 90
        0
280
     0
281
     1
  0
CLASS
  1
XRECORD
  2
AcDbXrecord
  3
AutoCAD 2000
 90
        0
280
     0
281
     0
  0
ENDSEC
  0
SECTION
  2
TABLES
  0
TABLE
  2
VPORT
  5
8
330
0
100
AcDbSymbolTable
 70
     4
  0
VPORT
  5
25C6D
330
8
100
AcDbSymbolTableRecord
100
AcDbViewportTableRecord
  2
*ACTIVE
 70
     0
 10
0.0
 20
0.0
 11
1.0
 21
1.0
 12
665.8549434213382
 22
-2025.256895845356
 13
0.0
 23
0.0
 14
10.0
 24
10.0
 15
10.0
 25
10.0
 16
0.0
 26
0.0
 36
1.0
 17
0.0
 27
0.0
 37
0.0
 40
325.0781836619496
 41
2.184834123222748
 42
50.0
 43
0.0
 44
0.0
 50
0.0
 51
0.0
 71
     0
 72
   100
 73
     1
 74
     0
 75
     0
 76
     0
 77
     0
 78
     0
  0
ENDTAB
  0
TABLE
  2
LTYPE
  5
5
330
0
100
AcDbSymbolTable
 70
     5
  0
LTYPE
  5
12
330
5
100
AcDbSymbolTableRecord
100
AcDbLinetypeTableRecord
  2
BYBLOCK
 70
     0
  3

 72
    65
 73
     0
 40
0.0
  0
LTYPE
  5
13
330
5
100
AcDbSymbolTableRecord
100
AcDbLinetypeTableRecord
  2
BYLAYER
 70
     0
  3

 72
    65
 73
     0
 40
0.0
  0
LTYPE
  5
14
330
5
100
AcDbSymbolTableRecord
100
AcDbLinetypeTableRecord
  2
CONTINUOUS
 70
     0
  3
Solid line
 72
    65
 73
     0
 40
0.0
  0
LTYPE
  5
126C
330
5
100
AcDbSymbolTableRecord
100
AcDbLinetypeTableRecord
  2
CENTER
 70
     0
  3
____ _ ____ _ ____ _ ____ _ ____ _ ____ _ ____
 72
    65
 73
     4
 40
2.0
 49
1.25
 74
     0
 49
-0.25
 74
     0
 49
0.25
 74
     0
 49
-0.25
 74
     0
  0
LTYPE
  5
126E
330
5
100
AcDbSymbolTableRecord
100
AcDbLinetypeTableRecord
  2
DASHDOT
 70
     0
  3
__ . __ . __ . __ . __ . __ . __ . __ . __ . __
 72
    65
 73
     4
 40
1.0
 49
0.5
 74
     0
 49
-0.25
 74
     0
 49
0.0
 74
     0
 49
-0.25
 74
     0
  0
LTYPE
  5
1541F
330
5
100
AcDbSymbolTableRecord
100
AcDbLinetypeTableRecord
  2
HIDDEN
 70
     0
  3
_ _ _ _ _ _ _ _ _ _ _ _ _ _ _ _ _ _ _ _ _ _ _
 72
    65
 73
     2
 40
0.375
 49
0.25
 74
     0
 49
-0.125
 74
     0
  0
LTYPE
  5
1615D
330
5
100
AcDbSymbolTableRecord
100
AcDbLinetypeTableRecord
  2
PHANTOM
 70
     0
  3
Phantom ______  __  __  ______  __  __  ______
 72
    65
 73
     6
 40
2.5
 49
1.25
 74
     0
 49
-0.25
 74
     0
 49
0.25
 74
     0
 49
-0.25
 74
     0
 49
0.25
 74
     0
 49
-0.25
 74
     0
  0
ENDTAB
  0
TABLE
  2
LAYER
  5
2
102
{ACAD_XDICTIONARY
360
25504
102
}
330
0
100
AcDbSymbolTable
 70
    11
  0
LAYER
  5
E
330
2
100
AcDbSymbolTableRecord
100
AcDbLayerTableRecord
  2
0
 70
     2
 62
     7
  6
CONTINUOUS
  0
LAYER
  5
2C
330
2
100
AcDbSymbolTableRecord
100
AcDbLayerTableRecord
  2
M_VIEW
 70
     4
 62
    -1
  6
CONTINUOUS
  0
LAYER
  5
30
330
2
100
AcDbSymbolTableRecord
100
AcDbLayerTableRecord
  2
FRAME025
 70
     0
 62
     7
  6
CONTINUOUS
  0
LAYER
  5
12B
330
2
100
AcDbSymbolTableRecord
100
AcDbLayerTableRecord
  2
DEFPOINTS
 70
     4
 62
    -7
  6
CONTINUOUS
  0
LAYER
  5
651
330
2
100
AcDbSymbolTableRecord
100
AcDbLayerTableRecord
  2
FRAME020
 70
     0
 62
     7
  6
CONTINUOUS
  0
LAYER
  5
1271
330
2
100
AcDbSymbolTableRecord
100
AcDbLayerTableRecord
  2
A
 70
     0
 62
     7
  6
CONTINUOUS
  0
LAYER
  5
A9BB
330
2
100
AcDbSymbolTableRecord
100
AcDbLayerTableRecord
  2
文字
 70
     0
 62
     7
  6
CONTINUOUS
  0
LAYER
  5
122DE
330
2
100
AcDbSymbolTableRecord
100
AcDbLayerTableRecord
  2
DIMENSION
 70
     0
 62
     7
  6
CONTINUOUS
  0
LAYER
  5
15422
330
2
100
AcDbSymbolTableRecord
100
AcDbLayerTableRecord
  2
細線
 70
     0
 62
     7
  6
CONTINUOUS
  0
LAYER
  5
1A846
330
2
100
AcDbSymbolTableRecord
100
AcDbLayerTableRecord
  2
実線
 70
     0
 62
     7
  6
CONTINUOUS
  0
LAYER
  5
1BB4F
330
2
100
AcDbSymbolTableRecord
100
AcDbLayerTableRecord
  2
隠れ線
 70
     0
 62
     7
  6
HIDDEN
  0
ENDTAB
  0
TABLE
  2
STYLE
  5
3
330
0
100
AcDbSymbolTable
 70
     8
  0
STYLE
  5
F
330
3
100
AcDbSymbolTableRecord
100
AcDbTextStyleTableRecord
  2
STANDARD
 70
     0
 40
0.0
 41
1.0
 50
0.0
 71
     0
 42
2.5
  3
isocp.shx
  4
bigfont.shx
  0
STYLE
  5
35
330
3
100
AcDbSymbolTableRecord
100
AcDbTextStyleTableRecord
  2
MSｺ_ｼｯｸ
 70
     0
 40
0.0
 41
1.0
 50
0.0
 71
     0
 42
5.0
  3
MS Gothic.ttf
  4

1001
ACAD
1000
MS Gothic
1071
    32817
  0
STYLE
  5
1275
330
3
100
AcDbSymbolTableRecord
100
AcDbTextStyleTableRecord
  2
BIGFONT
 70
     0
 40
2.0
 41
1.0
 50
0.0
 71
     0
 42
2.0
  3
txt.shx
  4
bigfont.shx
  0
STYLE
  5
1A849
330
3
100
AcDbSymbolTableRecord
100
AcDbTextStyleTableRecord
  2
まこ
 70
     0
 40
0.0
 41
1.0
 50
0.0
 71
     0
 42
2.5
  3
simplex.shx
  4
bigfont.shx
  0
STYLE
  5
1A84A
330
3
100
AcDbSymbolTableRecord
100
AcDbTextStyleTableRecord
  2
ｽﾀｲﾙ3
 70
     0
 40
10.0
 41
1.0
 50
0.0
 71
     0
 42
10.0
  3
isocp.shx
  4
extfont.shx
  0
ENDTAB
  0
TABLE
  2
VIEW
  5
6
330
0
100
AcDbSymbolTable
 70
     0
  0
ENDTAB
  0
TABLE
  2
UCS
  5
7
330
0
100
AcDbSymbolTable
 70
     0
  0
ENDTAB
  0
TABLE
  2
APPID
  5
9
330
0
100
AcDbSymbolTable
 70
     4
  0
APPID
  5
10
330
9
100
AcDbSymbolTableRecord
100
AcDbRegAppTableRecord
  2
ACAD
 70
     0
  0
APPID
  5
F013
330
9
100
AcDbSymbolTableRecord
100
AcDbRegAppTableRecord
  2
CONTENTBLOCKDESCRIPTION
 70
     0
  0
APPID
  5
F014
330
9
100
AcDbSymbolTableRecord
100
AcDbRegAppTableRecord
  2
CONTENTBLOCKICON
 70
     0
  0
APPID
  5
1A9A0
330
9
100
AcDbSymbolTableRecord
100
AcDbRegAppTableRecord
  2
DCO15
 70
     0
  0
ENDTAB
  0
TABLE
  2
DIMSTYLE
  5
A
330
0
100
AcDbSymbolTable
 70
     2
  0
DIMSTYLE
105
1D
330
A
100
AcDbSymbolTableRecord
100
AcDbDimStyleTableRecord
  2
STANDARD
 70
     0
  3

  4

  5

  6

  7

 40
1.0
 41
0.18
 42
0.0625
 43
0.38
 44
0.18
 45
0.0
 46
0.0
 47
0.0
 48
0.0
140
0.18
141
0.09
142
0.0
143
25.4
144
1.0
145
0.0
146
1.0
147
0.09
 71
     0
 72
     0
 73
     1
 74
     1
 75
     0
 76
     0
 77
     0
 78
     0
170
     0
171
     2
172
     0
173
     0
174
     0
175
     0
176
     0
177
     0
178
     0
270
     2
271
     4
272
     4
273
     2
274
     2
340
F
275
     0
280
     0
281
     0
282
     0
283
     1
284
     0
285
     0
286
     0
287
     3
288
     0
  0
DIMSTYLE
105
1A84D
102
{ACAD_REACTORS
330
23DAF
330
23DDD
330
23F24
330
253A8
330
253BF
330
253B9
330
253C5
330
253C0
330
253C1
330
253C4
330
253CF
330
253D3
330
253D4
330
253B6
330
253B7
102
}
330
A
100
AcDbSymbolTableRecord
100
AcDbDimStyleTableRecord
  2
まこ
 70
     0
  3

  4

  5
OPEN30
  6

  7

 40
2.0
 41
2.5
 42
0.8
 43
0.38
 44
0.18
 45
0.0
 46
0.0
 47
0.0
 48
0.0
140
3.0
141
0.0
142
0.0
143
25.4
144
1.0
145
0.0
146
1.0
147
0.5
 71
     0
 72
     0
 73
     0
 74
     0
 75
     0
 76
     0
 77
     3
 78
     8
170
     0
171
     2
172
     0
173
     0
174
     0
175
     0
176
     4
177
     4
178
   256
270
     2
271
     8
272
     8
273
     2
274
     2
340
1A849
275
     0
280
     0
281
     0
282
     0
283
     1
284
     0
285
     0
286
     0
287
     1
288
     0
  0
ENDTAB
  0
TABLE
  2
BLOCK_RECORD
  5
1
330
0
100
AcDbSymbolTable
 70
    36
  0
BLOCK_RECORD
  5
18
102
{ACAD_XDICTIONARY
360
EFC6
102
}
330
1
100
AcDbSymbolTableRecord
100
AcDbBlockTableRecord
  2
*MODEL_SPACE
  0
BLOCK_RECORD
  5
15
102
{ACAD_XDICTIONARY
360
EFC4
102
}
330
1
100
AcDbSymbolTableRecord
100
AcDbBlockTableRecord
  2
*PAPER_SPACE
  0
BLOCK_RECORD
  5
115C
330
1
100
AcDbSymbolTableRecord
100
AcDbBlockTableRecord
  2
機械A4横_LBP
  0
BLOCK_RECORD
  5
1215D
330
1
100
AcDbSymbolTableRecord
100
AcDbBlockTableRecord
  2
_OPEN30
  0
BLOCK_RECORD
  5
253FD
330
1
100
AcDbSymbolTableRecord
100
AcDbBlockTableRecord
  2
*D12
  0
BLOCK_RECORD
  5
25409
330
1
100
AcDbSymbolTableRecord
100
AcDbBlockTableRecord
  2
*D13
  0
BLOCK_RECORD
  5
25416
330
1
100
AcDbSymbolTableRecord
100
AcDbBlockTableRecord
  2
*D14
  0
BLOCK_RECORD
  5
25422
330
1
100
AcDbSymbolTableRecord
100
AcDbBlockTableRecord
  2
*D15
  0
BLOCK_RECORD
  5
2542F
330
1
100
AcDbSymbolTableRecord
100
AcDbBlockTableRecord
  2
*D16
  0
BLOCK_RECORD
  5
2543B
330
1
100
AcDbSymbolTableRecord
100
AcDbBlockTableRecord
  2
*D17
  0
BLOCK_RECORD
  5
25448
330
1
100
AcDbSymbolTableRecord
100
AcDbBlockTableRecord
  2
*D18
  0
BLOCK_RECORD
  5
25455
330
1
100
AcDbSymbolTableRecord
100
AcDbBlockTableRecord
  2
*D19
  0
BLOCK_RECORD
  5
25461
330
1
100
AcDbSymbolTableRecord
100
AcDbBlockTableRecord
  2
*D20
  0
BLOCK_RECORD
  5
2546D
330
1
100
AcDbSymbolTableRecord
100
AcDbBlockTableRecord
  2
*D21
  0
BLOCK_RECORD
  5
25479
330
1
100
AcDbSymbolTableRecord
100
AcDbBlockTableRecord
  2
*D22
  0
BLOCK_RECORD
  5
25485
330
1
100
AcDbSymbolTableRecord
100
AcDbBlockTableRecord
  2
*D23
  0
ENDTAB
  0
ENDSEC
  0
SECTION
  2
BLOCKS
  0
BLOCK
  5
19
330
18
100
AcDbEntity
  8
0
100
AcDbBlockBegin
  2
*MODEL_SPACE
 70
     0
 10
0.0
 20
0.0
 30
0.0
  3
*MODEL_SPACE
  1

  0
ENDBLK
  5
1A
330
18
100
AcDbEntity
  8
0
100
AcDbBlockEnd
  0
BLOCK
  5
16
330
15
100
AcDbEntity
 67
     1
  8
0
100
AcDbBlockBegin
  2
*PAPER_SPACE
 70
     0
 10
0.0
 20
0.0
 30
0.0
  3
*PAPER_SPACE
  1

  0
ENDBLK
  5
17
330
15
100
AcDbEntity
 67
     1
  8
0
100
AcDbBlockEnd
  0
BLOCK
  5
115D
330
115C
100
AcDbEntity
  8
0
100
AcDbBlockBegin
  2
機械A4横_LBP
 70
     0
 10
0.0
 20
0.0
 30
0.0
  3
機械A4横_LBP
  1

  0
ENDBLK
  5
115E
330
115C
100
AcDbEntity
  8
0
100
AcDbBlockEnd
  0
BLOCK
  5
12161
330
1215D
100
AcDbEntity
  8
0
100
AcDbBlockBegin
  2
_OPEN30
 70
     0
 10
0.0
 20
0.0
 30
0.0
  3
_OPEN30
  1

  0
LINE
  5
1215E
330
1215D
100
AcDbEntity
  8
0
  6
BYBLOCK
 62
     0
100
AcDbLine
 10
-1.0
 20
0.26794919
 30
0.0
 11
0.0
 21
0.0
 31
0.0
  0
LINE
  5
1215F
330
1215D
100
AcDbEntity
  8
0
  6
BYBLOCK
 62
     0
100
AcDbLine
 10
0.0
 20
0.0
 30
0.0
 11
-1.0
 21
-0.26794919
 31
0.0
  0
LINE
  5
12160
330
1215D
100
AcDbEntity
  8
0
  6
BYBLOCK
 62
     0
100
AcDbLine
 10
0.0
 20
0.0
 30
0.0
 11
-1.0
 21
0.0
 31
0.0
  0
ENDBLK
  5
12162
330
1215D
100
AcDbEntity
  8
0
100
AcDbBlockEnd
  0
BLOCK
  5
25407
330
253FD
100
AcDbEntity
  8
0
100
AcDbBlockBegin
  2
*D12
 70
     1
 10
0.0
 20
0.0
 30
0.0
  3
*D12
  1

  0
LINE
  5
25492
330
253FD
100
AcDbEntity
  8
文字
 62
     4
100
AcDbLine
 10
945.8202641403728
 20
-1624.676148197291
 30
0.0
 11
919.7756786758864
 21
-1624.676148197291
 31
0.0
  0
LINE
  5
25493
330
253FD
100
AcDbEntity
  8
文字
 62
     4
100
AcDbLine
 10
945.8202553558466
 20
-1642.676148197292
 30
0.0
 11
919.7756786758864
 21
-1642.676148197292
 31
0.0
  0
LINE
  5
25494
330
253FD
100
AcDbEntity
  8
文字
 62
     4
100
AcDbLine
 10
920.1356786758864
 20
-1629.676148197293
 30
0.0
 11
920.1356786758864
 21
-1637.676148197292
 31
0.0
  0
INSERT
  5
25495
330
253FD
100
AcDbEntity
  8
文字
 62
     4
100
AcDbBlockReference
  2
_OPEN30
 10
920.1356786758864
 20
-1624.676148197291
 30
0.0
 41
5.0
 42
5.0
 43
5.0
 50
90.0
  0
INSERT
  5
25496
330
253FD
100
AcDbEntity
  8
文字
 62
     4
100
AcDbBlockReference
  2
_OPEN30
 10
920.1356786758864
 20
-1642.676148197292
 30
0.0
 41
5.0
 42
5.0
 43
5.0
 50
270.0
  0
MTEXT
  5
25497
330
253FD
100
AcDbEntity
  8
文字
100
AcDbMText
 10
916.1356786758867
 20
-1633.676148197292
 30
0.0
 40
6.0
 41
0.0
 71
     5
 72
     1
  1
\A1;（18）
  7
まこ
 11
0.0000000000000001
 21
1.0
 31
0.0
1001
ACAD
1000
MTEXTBEGIN
1070
    73
1070
     1
1070
    44
1040
1.0
1070
    74
1070
     0
1000
MTEXTEND
  0
POINT
  5
25498
330
253FD
100
AcDbEntity
  8
DEFPOINTS
 62
     0
100
AcDbPoint
 10
947.4202641403728
 20
-1624.676148197291
 30
0.0
  0
POINT
  5
25499
330
253FD
100
AcDbEntity
  8
DEFPOINTS
 62
     0
100
AcDbPoint
 10
947.4202553558468
 20
-1642.676148197292
 30
0.0
  0
POINT
  5
2549A
330
253FD
100
AcDbEntity
  8
DEFPOINTS
 62
     0
100
AcDbPoint
 10
920.1356786758864
 20
-1642.676148197292
 30
0.0
  0
ENDBLK
  5
25408
330
253FD
100
AcDbEntity
  8
0
100
AcDbBlockEnd
  0
BLOCK
  5
25414
330
25409
100
AcDbEntity
  8
0
100
AcDbBlockBegin
  2
*D13
 70
     1
 10
0.0
 20
0.0
 30
0.0
  3
*D13
  1

  0
LINE
  5
2549B
330
25409
100
AcDbEntity
  8
文字
 62
     4
100
AcDbLine
 10
947.4202641403726
 20
-1644.287393339599
 30
0.0
 11
947.4202641403726
 21
-1656.11164444176
 31
0.0
  0
LINE
  5
2549C
330
25409
100
AcDbEntity
  8
文字
 62
     4
100
AcDbLine
 10
947.9202641403727
 20
-1644.287393339599
 30
0.0
 11
947.9202641403727
 21
-1656.11164444176
 31
0.0
  0
LINE
  5
2549D
330
25409
100
AcDbEntity
  8
文字
 62
     4
100
AcDbLine
 10
952.9202641403728
 20
-1655.75164444176
 30
0.0
 11
957.9202641403727
 21
-1655.75164444176
 31
0.0
  0
LINE
  5
2549E
330
25409
100
AcDbEntity
  8
文字
 62
     4
100
AcDbLine
 10
942.4202641403722
 20
-1655.75164444176
 30
0.0
 11
922.8488355689439
 21
-1655.75164444176
 31
0.0
  0
INSERT
  5
2549F
330
25409
100
AcDbEntity
  8
文字
 62
     4
100
AcDbBlockReference
  2
_OPEN30
 10
947.9202641403727
 20
-1655.75164444176
 30
0.0
 41
5.0
 42
5.0
 43
5.0
 50
180.0
  0
INSERT
  5
254A0
330
25409
100
AcDbEntity
  8
文字
 62
     4
100
AcDbBlockReference
  2
_OPEN30
 10
947.4202641403726
 20
-1655.75164444176
 30
0.0
 41
5.0
 42
5.0
 43
5.0
  0
MTEXT
  5
254A1
330
25409
100
AcDbEntity
  8
文字
100
AcDbMText
 10
930.1345498546583
 20
-1651.751644441759
 30
0.0
 40
6.0
 41
0.0
 71
     5
 72
     1
  1
\A1;0.5
  7
まこ
1001
ACAD
1000
MTEXTBEGIN
1070
    73
1070
     1
1070
    44
1040
1.0
1070
    74
1070
     0
1000
MTEXTEND
  0
POINT
  5
254A2
330
25409
100
AcDbEntity
  8
DEFPOINTS
 62
     0
100
AcDbPoint
 10
947.4202641403726
 20
-1642.687393339599
 30
0.0
  0
POINT
  5
254A3
330
25409
100
AcDbEntity
  8
DEFPOINTS
 62
     0
100
AcDbPoint
 10
947.9202641403727
 20
-1642.687393339599
 30
0.0
  0
POINT
  5
254A4
330
25409
100
AcDbEntity
  8
DEFPOINTS
 62
     0
100
AcDbPoint
 10
947.9202641403727
 20
-1655.75164444176
 30
0.0
  0
ENDBLK
  5
25415
330
25409
100
AcDbEntity
  8
0
100
AcDbBlockEnd
  0
BLOCK
  5
25420
330
25416
100
AcDbEntity
  8
0
100
AcDbBlockBegin
  2
*D14
 70
     1
 10
0.0
 20
0.0
 30
0.0
  3
*D14
  1

  0
LINE
  5
254A5
330
25416
100
AcDbEntity
  8
文字
 62
     4
100
AcDbLine
 10
947.4202641403728
 20
-1623.076192061546
 30
0.0
 11
947.4202641403728
 21
-1588.305542817749
 31
0.0
  0
LINE
  5
254A6
330
25416
100
AcDbEntity
  8
文字
 62
     4
100
AcDbLine
 10
987.4202641403726
 20
-1623.076192061546
 30
0.0
 11
987.4202641403726
 21
-1588.305542817749
 31
0.0
  0
LINE
  5
254A7
330
25416
100
AcDbEntity
  8
文字
 62
     4
100
AcDbLine
 10
952.4202641403727
 20
-1588.665542817748
 30
0.0
 11
982.4202641403728
 21
-1588.665542817748
 31
0.0
  0
INSERT
  5
254A8
330
25416
100
AcDbEntity
  8
文字
 62
     4
100
AcDbBlockReference
  2
_OPEN30
 10
947.4202641403728
 20
-1588.665542817748
 30
0.0
 41
5.0
 42
5.0
 43
5.0
 50
180.0
  0
INSERT
  5
254A9
330
25416
100
AcDbEntity
  8
文字
 62
     4
100
AcDbBlockReference
  2
_OPEN30
 10
987.4202641403726
 20
-1588.665542817748
 30
0.0
 41
5.0
 42
5.0
 43
5.0
  0
MTEXT
  5
254AA
330
25416
100
AcDbEntity
  8
文字
100
AcDbMText
 10
967.4202641403727
 20
-1584.66554281775
 30
0.0
 40
6.0
 41
0.0
 71
     5
 72
     1
  1
\A1;40
  7
まこ
1001
ACAD
1000
MTEXTBEGIN
1070
    73
1070
     1
1070
    44
1040
1.0
1070
    74
1070
     0
1000
MTEXTEND
  0
POINT
  5
254AB
330
25416
100
AcDbEntity
  8
DEFPOINTS
 62
     0
100
AcDbPoint
 10
947.4202641403728
 20
-1624.676192061547
 30
0.0
  0
POINT
  5
254AC
330
25416
100
AcDbEntity
  8
DEFPOINTS
 62
     0
100
AcDbPoint
 10
987.4202641403726
 20
-1624.676192061547
 30
0.0
  0
POINT
  5
254AD
330
25416
100
AcDbEntity
  8
DEFPOINTS
 62
     0
100
AcDbPoint
 10
987.4202641403726
 20
-1588.665542817748
 30
0.0
  0
ENDBLK
  5
25421
330
25416
100
AcDbEntity
  8
0
100
AcDbBlockEnd
  0
BLOCK
  5
2542D
330
25422
100
AcDbEntity
  8
0
100
AcDbBlockBegin
  2
*D15
 70
     1
 10
0.0
 20
0.0
 30
0.0
  3
*D15
  1

  0
LINE
  5
254AE
330
25422
100
AcDbEntity
  8
文字
 62
     4
100
AcDbLine
 10
947.4202641403728
 20
-1623.076192061546
 30
0.0
 11
947.4202641403728
 21
-1567.016535765014
 31
0.0
  0
LINE
  5
254AF
330
25422
100
AcDbEntity
  8
文字
 62
     4
100
AcDbLine
 10
1003.42026414037
 20
-1623.076192061546
 30
0.0
 11
1003.42026414037
 21
-1567.016535765014
 31
0.0
  0
LINE
  5
254B0
330
25422
100
AcDbEntity
  8
文字
 62
     4
100
AcDbLine
 10
942.4202641403727
 20
-1567.376535765014
 30
0.0
 11
937.4202641403726
 21
-1567.376535765014
 31
0.0
  0
LINE
  5
254B1
330
25422
100
AcDbEntity
  8
文字
 62
     4
100
AcDbLine
 10
1008.420264140371
 20
-1567.376535765014
 30
0.0
 11
1013.420264140372
 21
-1567.376535765014
 31
0.0
  0
INSERT
  5
254B2
330
25422
100
AcDbEntity
  8
文字
 62
     4
100
AcDbBlockReference
  2
_OPEN30
 10
947.4202641403728
 20
-1567.376535765014
 30
0.0
 41
5.0
 42
5.0
 43
5.0
  0
INSERT
  5
254B3
330
25422
100
AcDbEntity
  8
文字
 62
     4
100
AcDbBlockReference
  2
_OPEN30
 10
1003.42026414037
 20
-1567.376535765014
 30
0.0
 41
5.0
 42
5.0
 43
5.0
 50
180.0
  0
MTEXT
  5
254B4
330
25422
100
AcDbEntity
  8
文字
100
AcDbMText
 10
975.4202597481096
 20
-1563.376535765014
 30
0.0
 40
6.0
 41
0.0
 71
     5
 72
     1
  1
\A1;56（取付寸法）
  7
まこ
1001
ACAD
1000
MTEXTBEGIN
1070
    73
1070
     1
1070
    44
1040
1.0
1070
    74
1070
     0
1000
MTEXTEND
  0
POINT
  5
254B5
330
25422
100
AcDbEntity
  8
DEFPOINTS
 62
     0
100
AcDbPoint
 10
947.4202641403728
 20
-1624.676192061547
 30
0.0
  0
POINT
  5
254B6
330
25422
100
AcDbEntity
  8
DEFPOINTS
 62
     0
100
AcDbPoint
 10
1003.42026414037
 20
-1624.676192061547
 30
0.0
  0
POINT
  5
254B7
330
25422
100
AcDbEntity
  8
DEFPOINTS
 62
     0
100
AcDbPoint
 10
1003.42026414037
 20
-1567.376535765014
 30
0.0
  0
ENDBLK
  5
2542E
330
25422
100
AcDbEntity
  8
0
100
AcDbBlockEnd
  0
BLOCK
  5
25439
330
2542F
100
AcDbEntity
  8
0
100
AcDbBlockBegin
  2
*D16
 70
     1
 10
0.0
 20
0.0
 30
0.0
  3
*D16
  1

  0
LINE
  5
254B8
330
2542F
100
AcDbEntity
  8
文字
 62
     4
100
AcDbLine
 10
988.4202641403728
 20
-1638.101237239197
 30
0.0
 11
988.4202641403728
 21
-1588.305542817749
 31
0.0
  0
LINE
  5
254B9
330
2542F
100
AcDbEntity
  8
文字
 62
     4
100
AcDbLine
 10
1003.42026414037
 20
-1623.076192061546
 30
0.0
 11
1003.42026414037
 21
-1588.305542817749
 31
0.0
  0
LINE
  5
254BA
330
2542F
100
AcDbEntity
  8
文字
 62
     4
100
AcDbLine
 10
993.4202641403727
 20
-1588.665542817748
 30
0.0
 11
998.4202641403728
 21
-1588.665542817748
 31
0.0
  0
INSERT
  5
254BB
330
2542F
100
AcDbEntity
  8
文字
 62
     4
100
AcDbBlockReference
  2
_OPEN30
 10
988.4202641403728
 20
-1588.665542817748
 30
0.0
 41
5.0
 42
5.0
 43
5.0
 50
180.0
  0
INSERT
  5
254BC
330
2542F
100
AcDbEntity
  8
文字
 62
     4
100
AcDbBlockReference
  2
_OPEN30
 10
1003.42026414037
 20
-1588.665542817748
 30
0.0
 41
5.0
 42
5.0
 43
5.0
  0
MTEXT
  5
254BD
330
2542F
100
AcDbEntity
  8
文字
100
AcDbMText
 10
995.9202641403727
 20
-1584.66554281775
 30
0.0
 40
6.0
 41
0.0
 71
     5
 72
     1
  1
\A1;15
  7
まこ
1001
ACAD
1000
MTEXTBEGIN
1070
    73
1070
     1
1070
    44
1040
1.0
1070
    74
1070
     0
1000
MTEXTEND
  0
POINT
  5
254BE
330
2542F
100
AcDbEntity
  8
DEFPOINTS
 62
     0
100
AcDbPoint
 10
988.4202641403728
 20
-1639.701237239195
 30
0.0
  0
POINT
  5
254BF
330
2542F
100
AcDbEntity
  8
DEFPOINTS
 62
     0
100
AcDbPoint
 10
1003.42026414037
 20
-1624.676192061547
 30
0.0
  0
POINT
  5
254C0
330
2542F
100
AcDbEntity
  8
DEFPOINTS
 62
     0
100
AcDbPoint
 10
1003.42026414037
 20
-1588.665542817748
 30
0.0
  0
ENDBLK
  5
2543A
330
2542F
100
AcDbEntity
  8
0
100
AcDbBlockEnd
  0
BLOCK
  5
25446
330
2543B
100
AcDbEntity
  8
0
100
AcDbBlockBegin
  2
*D17
 70
     1
 10
0.0
 20
0.0
 30
0.0
  3
*D17
  1

  0
LINE
  5
25CA3
330
2543B
100
AcDbEntity
  8
文字
 62
     4
100
AcDbLine
 10
987.4202641403726
 20
-1623.076192061547
 30
0.0
 11
987.4202641403726
 21
-1588.305542817748
 31
0.0
  0
LINE
  5
25CA4
330
2543B
100
AcDbEntity
  8
文字
 62
     4
100
AcDbLine
 10
988.4202641403728
 20
-1638.101237239196
 30
0.0
 11
988.4202641403728
 21
-1588.305542817748
 31
0.0
  0
LINE
  5
25CA5
330
2543B
100
AcDbEntity
  8
文字
 62
     4
100
AcDbLine
 10
982.4202641403726
 20
-1588.665542817748
 30
0.0
 11
977.4202641403727
 21
-1588.665542817748
 31
0.0
  0
LINE
  5
25CA6
330
2543B
100
AcDbEntity
  8
文字
 62
     4
100
AcDbLine
 10
993.4202641403727
 20
-1588.665542817748
 30
0.0
 11
998.4202641403728
 21
-1588.665542817748
 31
0.0
  0
MTEXT
  5
25CA7
330
2543B
100
AcDbEntity
  8
文字
100
AcDbMText
 10
1007.437583961147
 20
-1573.23388034183
 30
0.0
 40
6.0
 41
0.0
 71
     5
 72
     1
  1
\A1;1
  7
まこ
  0
INSERT
  5
25CA8
330
2543B
100
AcDbEntity
  8
文字
 62
     4
100
AcDbBlockReference
  2
_OPEN30
 10
987.4202641403726
 20
-1588.665542817748
 30
0.0
 41
5.0
 42
5.0
 43
5.0
  0
INSERT
  5
25CA9
330
2543B
100
AcDbEntity
  8
文字
 62
     4
100
AcDbBlockReference
  2
_OPEN30
 10
988.4202641403728
 20
-1588.665542817748
 30
0.0
 41
5.0
 42
5.0
 43
5.0
 50
180.0
  0
POINT
  5
25CAA
330
2543B
100
AcDbEntity
  8
DEFPOINTS
 62
     0
100
AcDbPoint
 10
987.4202641403726
 20
-1624.676192061547
 30
0.0
  0
POINT
  5
25CAB
330
2543B
100
AcDbEntity
  8
DEFPOINTS
 62
     0
100
AcDbPoint
 10
988.4202641403728
 20
-1639.701237239195
 30
0.0
  0
POINT
  5
25CAC
330
2543B
100
AcDbEntity
  8
DEFPOINTS
 62
     0
100
AcDbPoint
 10
988.4202641403728
 20
-1588.665542817748
 30
0.0
  0
ENDBLK
  5
25447
330
2543B
100
AcDbEntity
  8
0
100
AcDbBlockEnd
  0
BLOCK
  5
25453
330
25448
100
AcDbEntity
  8
0
100
AcDbBlockBegin
  2
*D18
 70
     1
 10
0.0
 20
0.0
 30
0.0
  3
*D18
  1

  0
LINE
  5
254CB
330
25448
100
AcDbEntity
  8
文字
 62
     4
100
AcDbLine
 10
993.6202641403728
 20
-1623.076192061546
 30
0.0
 11
993.6202641403728
 21
-1600.792806850003
 31
0.0
  0
LINE
  5
254CC
330
25448
100
AcDbEntity
  8
文字
 62
     4
100
AcDbLine
 10
1003.42026414037
 20
-1623.076192061546
 30
0.0
 11
1003.42026414037
 21
-1600.792806850003
 31
0.0
  0
LINE
  5
254CD
330
25448
100
AcDbEntity
  8
文字
 62
     4
100
AcDbLine
 10
988.6202641403727
 20
-1601.152806850004
 30
0.0
 11
983.6202641403728
 21
-1601.152806850004
 31
0.0
  0
LINE
  5
254CE
330
25448
100
AcDbEntity
  8
文字
 62
     4
100
AcDbLine
 10
1008.420264140371
 20
-1601.152806850004
 30
0.0
 11
1027.991692711801
 21
-1601.152806850004
 31
0.0
  0
INSERT
  5
254CF
330
25448
100
AcDbEntity
  8
文字
 62
     4
100
AcDbBlockReference
  2
_OPEN30
 10
993.6202641403728
 20
-1601.152806850004
 30
0.0
 41
5.0
 42
5.0
 43
5.0
  0
INSERT
  5
254D0
330
25448
100
AcDbEntity
  8
文字
 62
     4
100
AcDbBlockReference
  2
_OPEN30
 10
1003.42026414037
 20
-1601.152806850004
 30
0.0
 41
5.0
 42
5.0
 43
5.0
 50
180.0
  0
MTEXT
  5
254D1
330
25448
100
AcDbEntity
  8
文字
100
AcDbMText
 10
1020.705978426087
 20
-1597.152806850004
 30
0.0
 40
6.0
 41
0.0
 71
     5
 72
     1
  1
\A1;9.8
  7
まこ
1001
ACAD
1000
MTEXTBEGIN
1070
    73
1070
     1
1070
    44
1040
1.0
1070
    74
1070
     0
1000
MTEXTEND
  0
POINT
  5
254D2
330
25448
100
AcDbEntity
  8
DEFPOINTS
 62
     0
100
AcDbPoint
 10
993.6202641403728
 20
-1624.676192061547
 30
0.0
  0
POINT
  5
254D3
330
25448
100
AcDbEntity
  8
DEFPOINTS
 62
     0
100
AcDbPoint
 10
1003.42026414037
 20
-1624.676192061547
 30
0.0
  0
POINT
  5
254D4
330
25448
100
AcDbEntity
  8
DEFPOINTS
 62
     0
100
AcDbPoint
 10
1003.42026414037
 20
-1601.152806850004
 30
0.0
  0
ENDBLK
  5
25454
330
25448
100
AcDbEntity
  8
0
100
AcDbBlockEnd
  0
BLOCK
  5
2545F
330
25455
100
AcDbEntity
  8
0
100
AcDbBlockBegin
  2
*D19
 70
     1
 10
0.0
 20
0.0
 30
0.0
  3
*D19
  1

  0
LINE
  5
254D5
330
25455
100
AcDbEntity
  8
0
 62
     4
100
AcDbLine
 10
945.8202553558466
 20
-1704.676182825653
 30
0.0
 11
930.2004907843263
 21
-1704.676182825653
 31
0.0
  0
LINE
  5
254D6
330
25455
100
AcDbEntity
  8
0
 62
     4
100
AcDbLine
 10
945.8202553558466
 20
-1687.676182825653
 30
0.0
 11
930.2004907843263
 21
-1687.676182825653
 31
0.0
  0
LINE
  5
254D7
330
25455
100
AcDbEntity
  8
0
 62
     4
100
AcDbLine
 10
930.5604907843264
 20
-1699.676182825653
 30
0.0
 11
930.5604907843264
 21
-1692.676182825653
 31
0.0
  0
INSERT
  5
254D8
330
25455
100
AcDbEntity
  8
0
 62
     4
100
AcDbBlockReference
  2
_OPEN30
 10
930.5604907843264
 20
-1704.676182825653
 30
0.0
 41
5.0
 42
5.0
 43
5.0
 50
270.0
  0
INSERT
  5
254D9
330
25455
100
AcDbEntity
  8
0
 62
     4
100
AcDbBlockReference
  2
_OPEN30
 10
930.5604907843264
 20
-1687.676182825653
 30
0.0
 41
5.0
 42
5.0
 43
5.0
 50
90.0
  0
MTEXT
  5
254DA
330
25455
100
AcDbEntity
  8
0
100
AcDbMText
 10
926.5604907843266
 20
-1696.176182825653
 30
0.0
 40
6.0
 41
0.0
 71
     5
 72
     1
  1
\A1;17
  7
まこ
 11
0.0000000000000001
 21
1.0
 31
0.0
1001
ACAD
1000
MTEXTBEGIN
1070
    73
1070
     1
1070
    44
1040
1.0
1070
    74
1070
     0
1000
MTEXTEND
  0
POINT
  5
254DB
330
25455
100
AcDbEntity
  8
DEFPOINTS
 62
     0
100
AcDbPoint
 10
947.4202553558468
 20
-1704.676182825653
 30
0.0
  0
POINT
  5
254DC
330
25455
100
AcDbEntity
  8
DEFPOINTS
 62
     0
100
AcDbPoint
 10
947.4202553558468
 20
-1687.676182825653
 30
0.0
  0
POINT
  5
254DD
330
25455
100
AcDbEntity
  8
DEFPOINTS
 62
     0
100
AcDbPoint
 10
930.5604907843264
 20
-1687.676182825653
 30
0.0
  0
ENDBLK
  5
25460
330
25455
100
AcDbEntity
  8
0
100
AcDbBlockEnd
  0
BLOCK
  5
2546B
330
25461
100
AcDbEntity
  8
0
100
AcDbBlockBegin
  2
*D20
 70
     1
 10
0.0
 20
0.0
 30
0.0
  3
*D20
  1

  0
LINE
  5
25C9A
330
25461
100
AcDbEntity
  8
0
 62
     4
100
AcDbLine
 10
945.8202553558466
 20
-1687.676182825653
 30
0.0
 11
930.2004907843263
 21
-1687.676182825653
 31
0.0
  0
LINE
  5
25C9B
330
25461
100
AcDbEntity
  8
0
 62
     4
100
AcDbLine
 10
945.8202553558466
 20
-1663.676182825653
 30
0.0
 11
930.2004907843263
 21
-1663.676182825653
 31
0.0
  0
LINE
  5
25C9C
330
25461
100
AcDbEntity
  8
0
 62
     4
100
AcDbLine
 10
930.5604907843264
 20
-1682.676182825653
 30
0.0
 11
930.5604907843264
 21
-1668.676182825653
 31
0.0
  0
INSERT
  5
25C9D
330
25461
100
AcDbEntity
  8
0
 62
     4
100
AcDbBlockReference
  2
_OPEN30
 10
930.5604907843264
 20
-1687.676182825653
 30
0.0
 41
5.0
 42
5.0
 43
5.0
 50
270.0
  0
INSERT
  5
25C9E
330
25461
100
AcDbEntity
  8
0
 62
     4
100
AcDbBlockReference
  2
_OPEN30
 10
930.5604907843264
 20
-1663.676182825653
 30
0.0
 41
5.0
 42
5.0
 43
5.0
 50
90.0
  0
MTEXT
  5
25C9F
330
25461
100
AcDbEntity
  8
0
100
AcDbMText
 10
926.5604907843266
 20
-1675.676182825653
 30
0.0
 40
6.0
 41
0.0
 71
     5
 72
     1
  1
\A1;24
  7
まこ
 11
0.0000000000000001
 21
1.0
 31
0.0
  0
POINT
  5
25CA0
330
25461
100
AcDbEntity
  8
DEFPOINTS
 62
     0
100
AcDbPoint
 10
947.4202553558468
 20
-1687.676182825653
 30
0.0
  0
POINT
  5
25CA1
330
25461
100
AcDbEntity
  8
DEFPOINTS
 62
     0
100
AcDbPoint
 10
947.4202553558468
 20
-1663.676182825653
 30
0.0
  0
POINT
  5
25CA2
330
25461
100
AcDbEntity
  8
DEFPOINTS
 62
     0
100
AcDbPoint
 10
930.5604907843264
 20
-1663.676182825653
 30
0.0
  0
ENDBLK
  5
2546C
330
25461
100
AcDbEntity
  8
0
100
AcDbBlockEnd
  0
BLOCK
  5
25477
330
2546D
100
AcDbEntity
  8
0
100
AcDbBlockBegin
  2
*D21
 70
     1
 10
0.0
 20
0.0
 30
0.0
  3
*D21
  1

  0
LINE
  5
25C91
330
2546D
100
AcDbEntity
  8
文字
 62
     4
100
AcDbLine
 10
945.8202555332075
 20
-1642.676148197157
 30
0.0
 11
919.7756786758864
 21
-1642.676148197157
 31
0.0
  0
LINE
  5
25C92
330
2546D
100
AcDbEntity
  8
文字
 62
     4
100
AcDbLine
 10
945.8202553558466
 20
-1686.676148197292
 30
0.0
 11
919.7756786758864
 21
-1686.676148197292
 31
0.0
  0
LINE
  5
25C93
330
2546D
100
AcDbEntity
  8
文字
 62
     4
100
AcDbLine
 10
920.1356786758864
 20
-1647.676148197157
 30
0.0
 11
920.1356786758864
 21
-1681.676148197291
 31
0.0
  0
MTEXT
  5
25C94
330
2546D
100
AcDbEntity
  8
文字
100
AcDbMText
 10
915.0518735737016
 20
-1664.547413908173
 30
0.0
 40
6.0
 41
0.0
 71
     5
 72
     1
  1
\A1;44
  7
まこ
 11
0.0000000000000001
 21
1.0
 31
0.0
  0
INSERT
  5
25C95
330
2546D
100
AcDbEntity
  8
文字
 62
     4
100
AcDbBlockReference
  2
_OPEN30
 10
920.1356786758864
 20
-1642.676148197157
 30
0.0
 41
5.0
 42
5.0
 43
5.0
 50
90.0
  0
INSERT
  5
25C96
330
2546D
100
AcDbEntity
  8
文字
 62
     4
100
AcDbBlockReference
  2
_OPEN30
 10
920.1356786758864
 20
-1686.676148197292
 30
0.0
 41
5.0
 42
5.0
 43
5.0
 50
270.0
  0
POINT
  5
25C97
330
2546D
100
AcDbEntity
  8
DEFPOINTS
 62
     0
100
AcDbPoint
 10
947.4202555332075
 20
-1642.676148197157
 30
0.0
  0
POINT
  5
25C98
330
2546D
100
AcDbEntity
  8
DEFPOINTS
 62
     0
100
AcDbPoint
 10
947.4202553558468
 20
-1686.676148197292
 30
0.0
  0
POINT
  5
25C99
330
2546D
100
AcDbEntity
  8
DEFPOINTS
 62
     0
100
AcDbPoint
 10
920.1356786758864
 20
-1686.676148197292
 30
0.0
  0
ENDBLK
  5
25478
330
2546D
100
AcDbEntity
  8
0
100
AcDbBlockEnd
  0
BLOCK
  5
25483
330
25479
100
AcDbEntity
  8
0
100
AcDbBlockBegin
  2
*D22
 70
     1
 10
0.0
 20
0.0
 30
0.0
  3
*D22
  1

  0
LINE
  5
254F0
330
25479
100
AcDbEntity
  8
文字
 62
     4
100
AcDbLine
 10
945.8202553558466
 20
-1686.676148197292
 30
0.0
 11
919.7756786758864
 21
-1686.676148197292
 31
0.0
  0
LINE
  5
254F1
330
25479
100
AcDbEntity
  8
文字
 62
     4
100
AcDbLine
 10
945.8202553558466
 20
-1704.676148197291
 30
0.0
 11
919.7756786758864
 21
-1704.676148197291
 31
0.0
  0
LINE
  5
254F2
330
25479
100
AcDbEntity
  8
文字
 62
     4
100
AcDbLine
 10
920.1356786758864
 20
-1691.676148197293
 30
0.0
 11
920.1356786758864
 21
-1699.676148197291
 31
0.0
  0
INSERT
  5
254F3
330
25479
100
AcDbEntity
  8
文字
 62
     4
100
AcDbBlockReference
  2
_OPEN30
 10
920.1356786758864
 20
-1686.676148197292
 30
0.0
 41
5.0
 42
5.0
 43
5.0
 50
90.0
  0
INSERT
  5
254F4
330
25479
100
AcDbEntity
  8
文字
 62
     4
100
AcDbBlockReference
  2
_OPEN30
 10
920.1356786758864
 20
-1704.676148197291
 30
0.0
 41
5.0
 42
5.0
 43
5.0
 50
270.0
  0
MTEXT
  5
254F5
330
25479
100
AcDbEntity
  8
文字
100
AcDbMText
 10
916.1356786758867
 20
-1695.676148197291
 30
0.0
 40
6.0
 41
0.0
 71
     5
 72
     1
  1
\A1;（18）
  7
まこ
 11
0.0000000000000001
 21
1.0
 31
0.0
1001
ACAD
1000
MTEXTBEGIN
1070
    73
1070
     1
1070
    44
1040
1.0
1070
    74
1070
     0
1000
MTEXTEND
  0
POINT
  5
254F6
330
25479
100
AcDbEntity
  8
DEFPOINTS
 62
     0
100
AcDbPoint
 10
947.4202553558468
 20
-1686.676148197292
 30
0.0
  0
POINT
  5
254F7
330
25479
100
AcDbEntity
  8
DEFPOINTS
 62
     0
100
AcDbPoint
 10
947.4202553558468
 20
-1704.676148197291
 30
0.0
  0
POINT
  5
254F8
330
25479
100
AcDbEntity
  8
DEFPOINTS
 62
     0
100
AcDbPoint
 10
920.1356786758864
 20
-1704.676148197291
 30
0.0
  0
ENDBLK
  5
25484
330
25479
100
AcDbEntity
  8
0
100
AcDbBlockEnd
  0
BLOCK
  5
25490
330
25485
100
AcDbEntity
  8
0
100
AcDbBlockBegin
  2
*D23
 70
     1
 10
0.0
 20
0.0
 30
0.0
  3
*D23
  1

  0
LINE
  5
254F9
330
25485
100
AcDbEntity
  8
0
 62
     4
100
AcDbLine
 10
947.4202641403728
 20
-1706.276148197292
 30
0.0
 11
947.4202641403728
 21
-1740.377384814622
 31
0.0
  0
LINE
  5
254FA
330
25485
100
AcDbEntity
  8
0
 62
     4
100
AcDbLine
 10
955.4202641403728
 20
-1694.353042491647
 30
0.0
 11
955.4202641403728
 21
-1740.377384814622
 31
0.0
  0
LINE
  5
254FB
330
25485
100
AcDbEntity
  8
0
 62
     4
100
AcDbLine
 10
942.4202641403727
 20
-1740.017384814622
 30
0.0
 11
937.4202641403726
 21
-1740.017384814622
 31
0.0
  0
LINE
  5
254FC
330
25485
100
AcDbEntity
  8
0
 62
     4
100
AcDbLine
 10
960.4202641403727
 20
-1740.017384814622
 30
0.0
 11
965.4202641403728
 21
-1740.017384814622
 31
0.0
  0
INSERT
  5
254FD
330
25485
100
AcDbEntity
  8
0
 62
     4
100
AcDbBlockReference
  2
_OPEN30
 10
947.4202641403728
 20
-1740.017384814622
 30
0.0
 41
5.0
 42
5.0
 43
5.0
  0
INSERT
  5
254FE
330
25485
100
AcDbEntity
  8
0
 62
     4
100
AcDbBlockReference
  2
_OPEN30
 10
955.4202641403728
 20
-1740.017384814622
 30
0.0
 41
5.0
 42
5.0
 43
5.0
 50
180.0
  0
MTEXT
  5
254FF
330
25485
100
AcDbEntity
  8
0
100
AcDbMText
 10
951.4202641403727
 20
-1736.017384814623
 30
0.0
 40
6.0
 41
0.0
 71
     5
 72
     1
  1
\A1;8
  7
まこ
1001
ACAD
1000
MTEXTBEGIN
1070
    73
1070
     1
1070
    44
1040
1.0
1070
    74
1070
     0
1000
MTEXTEND
  0
POINT
  5
25500
330
25485
100
AcDbEntity
  8
DEFPOINTS
 62
     0
100
AcDbPoint
 10
947.4202641403728
 20
-1704.676148197291
 30
0.0
  0
POINT
  5
25501
330
25485
100
AcDbEntity
  8
DEFPOINTS
 62
     0
100
AcDbPoint
 10
955.4202641403728
 20
-1692.753042491648
 30
0.0
  0
POINT
  5
25502
330
25485
100
AcDbEntity
  8
DEFPOINTS
 62
     0
100
AcDbPoint
 10
955.4202641403728
 20
-1740.017384814622
 30
0.0
  0
ENDBLK
  5
25491
330
25485
100
AcDbEntity
  8
0
100
AcDbBlockEnd
  0
ENDSEC
  0
SECTION
  2
ENTITIES
  0
MTEXT
  5
176FC
330
18
100
AcDbEntity
  8
DIMENSION
 62
     2
100
AcDbMText
 10
-100.7823601383244
 20
171.6213144128388
 30
0.0
 40
8.0
 41
0.0
 71
     4
 72
     1
  1

1001
ACAD
1000
MTEXTBEGIN
1070
    73
1070
     1
1070
    44
1040
1.0
1070
    74
1070
     0
1000
MTEXTEND
  0
TEXT
  5
187C8
330
18
100
AcDbEntity
  8
A
100
AcDbText
 10
27.08248755054501
 20
1784.547672862094
 30
0.0
 40
2.5
  1

  7
MSｺ_ｼｯｸ
100
AcDbText
  0
TEXT
  5
187C9
330
18
100
AcDbEntity
  8
A
100
AcDbText
 10
19.25748755054502
 20
1784.547672862094
 30
0.0
 40
2.5
  1

 41
0.5
  7
MSｺ_ｼｯｸ
100
AcDbText
  0
TEXT
  5
187CA
330
18
100
AcDbEntity
  8
A
100
AcDbText
 10
167.1825875009164
 20
2214.514692980458
 30
0.0
 40
3.524999999999999
  1
�    
100
AcDbText
  0
MTEXT
  5
187CB
330
18
100
AcDbEntity
  8
0
  6
BYBLOCK
100
AcDbMText
 10
325.4874764241681
 20
2232.511722574347
 30
0.0
 40
2.0
 41
0.0
 71
     4
 72
     5
  1

 11
-0.0000000000000002
 21
-1.0
 31
0.0
1001
ACAD
1000
MTEXTBEGIN
1070
    73
1070
     1
1070
    44
1040
1.0
1070
    74
1070
     0
1000
MTEXTEND
1000
MTEXTBEGIN
1070
    73
1070
     1
1070
    44
1040
1.0
1070
    74
1070
     0
1000
MTEXTEND
  0
MTEXT
  5
187CC
330
18
100
AcDbEntity
  8
0
  6
BYBLOCK
100
AcDbMText
 10
360.9528647873208
 20
2221.718414215929
 30
0.0
 40
2.0
 41
0.0
 71
     7
 72
     5
  1

 11
0.0000000000000001
 21
1.0
 31
0.0
1001
ACAD
1000
MTEXTBEGIN
1070
    73
1070
     1
1070
    44
1040
1.0
1070
    74
1070
     0
1000
MTEXTEND
1000
MTEXTBEGIN
1070
    73
1070
     1
1070
    44
1040
1.0
1070
    74
1070
     0
1000
MTEXTEND
  0
MTEXT
  5
187CD
330
18
100
AcDbEntity
  8
0
100
AcDbMText
 10
325.1733668026532
 20
2146.938903673639
 30
0.0
 40
2.0
 41
10.1453
 71
     1
 72
     5
  1

 11
-0.0000000000000002
 21
-1.0
 31
0.0
1001
ACAD
1000
MTEXTBEGIN
1070
    73
1070
     1
1070
    44
1040
1.0
1070
    74
1070
     0
1000
MTEXTEND
1000
MTEXTBEGIN
1070
    73
1070
     1
1070
    44
1040
1.0
1070
    74
1070
     0
1000
MTEXTEND
  0
MTEXT
  5
187CE
330
18
100
AcDbEntity
  8
0
100
AcDbMText
 10
280.7738750495033
 20
2115.30742008065
 30
0.0
 40
2.0
 41
0.0
 71
     1
 72
     5
  1

1001
ACAD
1000
MTEXTBEGIN
1070
    73
1070
     1
1070
    44
1040
1.0
1070
    74
1070
     0
1000
MTEXTEND
1000
MTEXTBEGIN
1070
    73
1070
     1
1070
    44
1040
1.0
1070
    74
1070
     0
1000
MTEXTEND
  0
MTEXT
  5
187CF
330
18
100
AcDbEntity
  8
0
  6
CENTER
100
AcDbMText
 10
606.3621522332661
 20
2216.239946825076
 30
0.0
 40
2.0
 41
15.6417
 71
     1
 72
     5
  1

  7
BIGFONT
1001
ACAD
1000
MTEXTBEGIN
1070
    73
1070
     1
1070
    44
1040
1.0
1070
    74
1070
     0
1000
MTEXTEND
1000
MTEXTBEGIN
1070
    73
1070
     1
1070
    44
1040
1.0
1070
    74
1070
     0
1000
MTEXTEND
  0
MTEXT
  5
187D0
330
18
100
AcDbEntity
  8
0
  6
DASHDOT
100
AcDbMText
 10
368.6842112890943
 20
2323.029441652852
 30
0.0
 40
1.0
 41
2.0
 71
     1
 72
     5
  1

  7
BIGFONT
1001
ACAD
1000
MTEXTBEGIN
1070
    73
1070
     1
1070
    44
1040
1.0
1070
    74
1070
     0
1000
MTEXTEND
1000
MTEXTBEGIN
1070
    73
1070
     1
1070
    44
1040
1.0
1070
    74
1070
     0
1000
MTEXTEND
  0
MTEXT
  5
187D1
330
18
100
AcDbEntity
  8
0
  6
BYBLOCK
100
AcDbMText
 10
325.4873894192176
 20
2232.511722574347
 30
0.0
 40
2.0
 41
0.0
 71
     4
 72
     5
  1

 11
-0.0000000000000002
 21
-1.0
 31
0.0
1001
ACAD
1000
MTEXTBEGIN
1070
    73
1070
     1
1070
    44
1040
1.0
1070
    74
1070
     0
1000
MTEXTEND
1000
MTEXTBEGIN
1070
    73
1070
     1
1070
    44
1040
1.0
1070
    74
1070
     0
1000
MTEXTEND
  0
MTEXT
  5
187D2
330
18
100
AcDbEntity
  8
0
  6
BYBLOCK
100
AcDbMText
 10
360.9527777823706
 20
2221.718414215929
 30
0.0
 40
2.0
 41
0.0
 71
     7
 72
     5
  1

 11
0.0000000000000001
 21
1.0
 31
0.0
1001
ACAD
1000
MTEXTBEGIN
1070
    73
1070
     1
1070
    44
1040
1.0
1070
    74
1070
     0
1000
MTEXTEND
1000
MTEXTBEGIN
1070
    73
1070
     1
1070
    44
1040
1.0
1070
    74
1070
     0
1000
MTEXTEND
  0
MTEXT
  5
187D3
330
18
100
AcDbEntity
  8
0
100
AcDbMText
 10
325.1732797977028
 20
2146.938903673639
 30
0.0
 40
2.0
 41
10.1453
 71
     1
 72
     5
  1

 11
-0.0000000000000002
 21
-1.0
 31
0.0
1001
ACAD
1000
MTEXTBEGIN
1070
    73
1070
     1
1070
    44
1040
1.0
1070
    74
1070
     0
1000
MTEXTEND
1000
MTEXTBEGIN
1070
    73
1070
     1
1070
    44
1040
1.0
1070
    74
1070
     0
1000
MTEXTEND
  0
MTEXT
  5
187D4
330
18
100
AcDbEntity
  8
0
100
AcDbMText
 10
280.7737880445529
 20
2115.30742008065
 30
0.0
 40
2.0
 41
0.0
 71
     1
 72
     5
  1

1001
ACAD
1000
MTEXTBEGIN
1070
    73
1070
     1
1070
    44
1040
1.0
1070
    74
1070
     0
1000
MTEXTEND
1000
MTEXTBEGIN
1070
    73
1070
     1
1070
    44
1040
1.0
1070
    74
1070
     0
1000
MTEXTEND
  0
MTEXT
  5
187D5
330
18
100
AcDbEntity
  8
0
  6
CENTER
100
AcDbMText
 10
606.3620652283159
 20
2216.239946825076
 30
0.0
 40
2.0
 41
15.6417
 71
     1
 72
     5
  1

  7
BIGFONT
1001
ACAD
1000
MTEXTBEGIN
1070
    73
1070
     1
1070
    44
1040
1.0
1070
    74
1070
     0
1000
MTEXTEND
1000
MTEXTBEGIN
1070
    73
1070
     1
1070
    44
1040
1.0
1070
    74
1070
     0
1000
MTEXTEND
  0
MTEXT
  5
187D6
330
18
100
AcDbEntity
  8
0
  6
DASHDOT
100
AcDbMText
 10
368.6841242841442
 20
2323.029441652852
 30
0.0
 40
1.0
 41
2.0
 71
     1
 72
     5
  1

  7
BIGFONT
1001
ACAD
1000
MTEXTBEGIN
1070
    73
1070
     1
1070
    44
1040
1.0
1070
    74
1070
     0
1000
MTEXTEND
1000
MTEXTBEGIN
1070
    73
1070
     1
1070
    44
1040
1.0
1070
    74
1070
     0
1000
MTEXTEND
  0
INSERT
  5
187D7
330
18
100
AcDbEntity
  8
FRAME025
100
AcDbBlockReference
  2
機械A4横_LBP
 10
271.0019941658661
 20
2006.88884056487
 30
0.0
  0
TEXT
  5
216E7
330
18
100
AcDbEntity
  8
FRAME020
  6
CONTINUOUS
100
AcDbText
 10
1272.84444499335
 20
-2736.187561819853
 30
0.0
 40
3.0
  1

 50
270.0
100
AcDbText
  0
MTEXT
  5
21ACC
330
18
100
AcDbEntity
  8
0
100
AcDbMText
 10
62.91095225984047
 20
-1280.130762802907
 30
0.0
 40
2.5
 41
0.625
 71
     9
 72
     1
  1

1001
ACAD
1000
MTEXTBEGIN
1070
    73
1070
     1
1070
    44
1040
1.0
1070
    74
1070
     0
1000
MTEXTEND
1000
MTEXTBEGIN
1070
    73
1070
     1
1070
    44
1040
1.0
1070
    74
1070
     0
1000
MTEXTEND
1000
MTEXTBEGIN
1070
    73
1070
     1
1070
    44
1040
1.0
1070
    74
1070
     0
1000
MTEXTEND
1000
MTEXTBEGIN
1070
    73
1070
     1
1070
    44
1040
1.0
1070
    74
1070
     0
1000
MTEXTEND
1000
MTEXTBEGIN
1070
    73
1070
     1
1070
    44
1040
1.0
1070
    74
1070
     0
1000
MTEXTEND
1000
MTEXTBEGIN
1070
    73
1070
     1
1070
    44
1040
1.0
1070
    74
1070
     0
1000
MTEXTEND
1000
MTEXTBEGIN
1070
    73
1070
     1
1070
    44
1040
1.0
1070
    74
1070
     0
1000
MTEXTEND
  0
LINE
  5
23DB4
330
18
100
AcDbEntity
  8
0
100
AcDbLine
 10
351.0510631210806
 20
-1952.071402129076
 30
0.0
 11
351.0510631210806
 21
-1987.071402129076
 31
0.0
  0
LINE
  5
23DB5
330
18
100
AcDbEntity
  8
0
100
AcDbLine
 10
358.0510631210807
 20
-1986.571402129076
 30
0.0
 11
358.0510631210807
 21
-1952.571402129076
 31
0.0
  0
LINE
  5
23DB6
330
18
100
AcDbEntity
  8
0
100
AcDbLine
 10
351.0510631210806
 20
-1952.071402129076
 30
0.0
 11
351.0510631210806
 21
-1987.071402129076
 31
0.0
  0
LINE
  5
23DB7
330
18
100
AcDbEntity
  8
0
100
AcDbLine
 10
358.0510631210807
 20
-1986.571402129076
 30
0.0
 11
358.0510631210807
 21
-1952.571402129076
 31
0.0
  0
LINE
  5
23DB8
330
18
100
AcDbEntity
  8
0
100
AcDbLine
 10
346.0510631210806
 20
-1952.571402129076
 30
0.0
 11
346.0510631210806
 21
-1986.571402129076
 31
0.0
  0
LINE
  5
23DB9
330
18
100
AcDbEntity
  8
0
100
AcDbLine
 10
346.0510631210806
 20
-1952.571402129076
 30
0.0
 11
346.0510631210806
 21
-1986.571402129076
 31
0.0
  0
LINE
  5
23DBC
330
18
100
AcDbEntity
  8
0
 48
0.3
100
AcDbLine
 10
341.0510631210807
 20
-1929.571362882768
 30
0.0
 11
341.0510631210807
 21
-2009.571397511129
 31
0.0
  0
LWPOLYLINE
  5
23DBD
330
18
100
AcDbEntity
  8
0
  6
HIDDEN
 48
0.6
100
AcDbPolyline
 90
        4
 70
     1
 43
0.0
 10
367.0510719056067
 20
-1933.599362882768
 10
379.0510719056066
 20
-1933.599362882768
 10
379.0510719056066
 20
-2005.599362882767
 10
367.0510719056067
 20
-2005.599362882767
  0
LINE
  5
23DBE
330
18
100
AcDbEntity
  8
0
 48
0.3
100
AcDbLine
 10
380.5510631210806
 20
-1947.582608025075
 30
0.0
 11
380.5510631210806
 21
-1991.588152368822
 31
0.0
  0
LWPOLYLINE
  5
23DBF
102
{ACAD_REACTORS
330
240F0
102
}
330
18
100
AcDbEntity
  8
0
  6
PHANTOM
 48
0.6
100
AcDbPolyline
 90
        4
 70
     1
 43
0.0
 10
339.8510631210807
 20
-1944.596451924672
 10
334.8510631210803
 20
-1944.596451924672
 10
334.8510631210803
 20
-1994.571935607677
 10
339.8510631210807
 20
-1994.571935607677
  0
LINE
  5
23DC0
102
{ACAD_REACTORS
330
240F0
102
}
330
18
100
AcDbEntity
  8
0
  6
PHANTOM
 48
0.6
100
AcDbLine
 10
327.0510631210806
 20
-1929.571406747023
 30
0.0
 11
327.0510631210806
 21
-2009.571406747022
 31
0.0
  0
LINE
  5
23DC1
102
{ACAD_REACTORS
330
240F0
102
}
330
18
100
AcDbEntity
  8
0
  6
PHANTOM
 48
0.6
100
AcDbLine
 10
334.8510631210803
 20
-2009.571406747022
 30
0.0
 11
334.8510631210803
 21
-1929.571406747023
 31
0.0
  0
LINE
  5
23DC9
330
18
100
AcDbEntity
  8
0
100
AcDbLine
 10
811.3212781866895
 20
-2009.571362882768
 30
0.0
 11
811.3212781866897
 21
-1929.571362882768
 31
0.0
  0
LINE
  5
23DCA
330
18
100
AcDbEntity
  8
0
100
AcDbLine
 10
463.3212781866896
 20
-2009.571362882768
 30
0.0
 11
463.3212781866896
 21
-1929.571362882768
 31
0.0
  0
LINE
  5
23DCC
330
18
100
AcDbEntity
  8
0
100
AcDbLine
 10
811.3212781866895
 20
-2122.280491227665
 30
0.0
 11
463.3212781866896
 21
-2122.280491227665
 31
0.0
  0
LINE
  5
23DCD
330
18
100
AcDbEntity
  8
0
100
AcDbLine
 10
463.3212781866896
 20
-2082.280491227665
 30
0.0
 11
811.3212781866895
 21
-2082.280491227665
 31
0.0
  0
LWPOLYLINE
  5
23DCE
330
18
100
AcDbEntity
  8
0
100
AcDbPolyline
 90
        2
 70
     0
 43
0.0
 10
637.3434612064674
 20
-2082.280491227665
 10
797.3435005866897
 20
-2082.280491227665
  0
LINE
  5
23DD1
330
18
100
AcDbEntity
  8
0
  6
CENTER
 48
0.6
100
AcDbLine
 10
449.9054743276847
 20
-1969.571362882769
 30
0.0
 11
825.7510174175163
 21
-1969.571362882769
 31
0.0
  0
LWPOLYLINE
  5
23DD3
330
18
100
AcDbEntity
  8
0
100
AcDbPolyline
 90
        2
 70
     0
 43
0.0
 10
797.3435005866897
 20
-1991.574135054642
 10
637.3434612064674
 20
-1991.574135054642
  0
LINE
  5
23DD4
330
18
100
AcDbEntity
  8
0
  6
CENTER
 48
0.6
100
AcDbLine
 10
317.1731820099378
 20
-2002.072062882768
 30
0.0
 11
344.1334874790133
 21
-2002.072062882768
 31
0.0
  0
LINE
  5
23DD7
102
{ACAD_REACTORS
330
240F0
102
}
330
18
100
AcDbEntity
  8
0
  6
PHANTOM
 48
0.6
100
AcDbLine
 10
327.0510631210806
 20
-2009.571406747022
 30
0.0
 11
334.8510631210803
 21
-2009.571406747022
 31
0.0
  0
LINE
  5
23DD8
330
18
100
AcDbEntity
  8
0
  6
CENTER
 48
0.6
100
AcDbLine
 10
385.9737970943354
 20
-1969.571362882767
 30
0.0
 11
318.1584260474568
 21
-1969.571362882767
 31
0.0
  0
LINE
  5
23DDE
330
18
100
AcDbEntity
  8
0
100
AcDbLine
 10
346.5510631210806
 20
-1987.071402129076
 30
0.0
 11
357.5510631210807
 21
-1987.071402129076
 31
0.0
  0
LINE
  5
23DDF
330
18
100
AcDbEntity
  8
0
100
AcDbLine
 10
346.5510631210806
 20
-1987.071402129076
 30
0.0
 11
357.5510631210807
 21
-1987.071402129076
 31
0.0
  0
LINE
  5
23DE0
330
18
100
AcDbEntity
  8
0
 48
0.3
100
AcDbLine
 10
341.0510631210807
 20
-2009.571362882768
 30
0.0
 11
381.0510631210807
 21
-2009.571362882768
 31
0.0
  0
LINE
  5
23DE2
330
18
100
AcDbEntity
  8
0
100
AcDbLine
 10
357.0510631210804
 20
-2006.571402129075
 30
0.0
 11
357.0510631210804
 21
-1992.571402129075
 31
0.0
  0
LINE
  5
23DE5
330
18
100
AcDbEntity
  8
0
100
AcDbLine
 10
347.0510631210808
 20
-1992.571402129075
 30
0.0
 11
347.0510631210804
 21
-2006.571402129075
 31
0.0
  0
LINE
  5
23DE6
330
18
100
AcDbEntity
  8
0
100
AcDbLine
 10
353.0510631210808
 20
-1992.071402129075
 30
0.0
 11
353.0510631210808
 21
-2007.071402129076
 31
0.0
  0
LINE
  5
23DE9
330
18
100
AcDbEntity
  8
0
100
AcDbLine
 10
356.5510631210804
 20
-1992.071402129075
 30
0.0
 11
347.5510631210807
 21
-1992.071402129075
 31
0.0
  0
ARC
  5
23DEB
330
18
100
AcDbEntity
  8
0
100
AcDbCircle
 10
347.5510631210807
 20
-1992.571402129075
 30
0.0
 40
0.5
100
AcDbArc
 50
89.99999999999998
 51
180.0
  0
LINE
  5
23DEF
330
18
100
AcDbEntity
  8
0
100
AcDbLine
 10
347.5510631210803
 20
-2007.071402129076
 30
0.0
 11
356.5510631210804
 21
-2007.071402129076
 31
0.0
  0
ARC
  5
23DF3
330
18
100
AcDbEntity
  8
0
100
AcDbCircle
 10
347.5510631210803
 20
-2006.571402129075
 30
0.0
 40
0.5
100
AcDbArc
 50
180.0
 51
270.0
  0
ARC
  5
23DF5
330
18
100
AcDbEntity
  8
0
100
AcDbCircle
 10
356.5510631210804
 20
-1992.571402129075
 30
0.0
 40
0.5
100
AcDbArc
 50
0.0
 51
89.99999999999998
  0
ARC
  5
23DF6
330
18
100
AcDbEntity
  8
0
100
AcDbCircle
 10
356.5510631210804
 20
-2006.571402129075
 30
0.0
 40
0.5
100
AcDbArc
 50
270.0
 51
0.0
  0
ARC
  5
23DF7
330
18
100
AcDbEntity
  8
0
100
AcDbCircle
 10
346.5510631210806
 20
-1986.571402129076
 30
0.0
 40
0.5
100
AcDbArc
 50
180.0
 51
270.0
  0
ARC
  5
23DF8
330
18
100
AcDbEntity
  8
0
100
AcDbCircle
 10
346.5510631210806
 20
-1986.571402129076
 30
0.0
 40
0.5
100
AcDbArc
 50
180.0
 51
270.0
  0
CIRCLE
  5
23DFB
330
18
100
AcDbEntity
  8
0
  6
HIDDEN
 48
0.6
100
AcDbCircle
 10
373.0514433117493
 20
-1999.583489921597
 30
0.0
 40
4.0
  0
LINE
  5
23E01
330
18
100
AcDbEntity
  8
0
  6
CENTER
 48
0.6
100
AcDbLine
 10
384.7307082043236
 20
-2002.067254637
 30
0.0
 11
362.0209099095311
 21
-2002.067254637
 31
0.0
  0
ARC
  5
23E02
330
18
100
AcDbEntity
  8
0
100
AcDbCircle
 10
357.5510631210806
 20
-1986.571402129076
 30
0.0
 40
0.5
100
AcDbArc
 50
270.0
 51
0.0
  0
ARC
  5
23E03
330
18
100
AcDbEntity
  8
0
100
AcDbCircle
 10
357.5510631210806
 20
-1986.571402129076
 30
0.0
 40
0.5
100
AcDbArc
 50
270.0
 51
0.0
  0
LINE
  5
23E0B
330
18
100
AcDbEntity
  8
0
 48
0.3
100
AcDbLine
 10
380.5510631210807
 20
-1991.588152368822
 30
0.0
 11
381.0510719056066
 21
-1991.588152368822
 31
0.0
  0
LINE
  5
23E11
330
18
100
AcDbEntity
  8
0
100
AcDbLine
 10
463.3212781866896
 20
-2082.280491227665
 30
0.0
 11
463.3212781866896
 21
-2122.280491227665
 31
0.0
  0
LINE
  5
23E14
330
18
100
AcDbEntity
  8
0
100
AcDbLine
 10
463.3212781866896
 20
-2084.271898754525
 30
0.0
 11
478.3434612064673
 21
-2084.271898754525
 31
0.0
  0
LINE
  5
23E15
330
18
100
AcDbEntity
  8
0
100
AcDbLine
 10
478.3434612064673
 20
-2082.280491227665
 30
0.0
 11
478.3434612064673
 21
-2108.280491227665
 31
0.0
  0
LINE
  5
23E16
330
18
100
AcDbEntity
  8
0
100
AcDbLine
 10
463.3212781866896
 20
-2009.571362882768
 30
0.0
 11
811.3212781866895
 21
-2009.571362882768
 31
0.0
  0
LINE
  5
23E17
330
18
100
AcDbEntity
  8
0
100
AcDbLine
 10
463.3212781866896
 20
-1991.574135054642
 30
0.0
 11
637.3434612064674
 21
-1991.574135054642
 31
0.0
  0
LINE
  5
23E18
330
18
100
AcDbEntity
  8
0
100
AcDbLine
 10
478.3434612064673
 20
-1991.574135054642
 30
0.0
 11
478.3434612064673
 21
-2009.571362882768
 31
0.0
  0
LINE
  5
23E1A
330
18
100
AcDbEntity
  8
0
  6
CENTER
 48
0.6
100
AcDbLine
 10
509.3212781866895
 20
-2096.048025196433
 30
0.0
 11
509.3212781866895
 21
-2080.530178525523
 31
0.0
  0
LINE
  5
23E1B
330
18
100
AcDbEntity
  8
隠れ線
 48
0.6
100
AcDbLine
 10
507.3205422668316
 20
-2092.280491227665
 30
0.0
 11
511.3130647576376
 21
-2092.280491227665
 31
0.0
  0
LINE
  5
23E1D
330
18
100
AcDbEntity
  8
隠れ線
 48
0.6
100
AcDbLine
 10
507.8205422668315
 20
-2082.280491227665
 30
0.0
 11
507.8205422668315
 21
-2093.780491227664
 31
0.0
  0
LINE
  5
23E1E
330
18
100
AcDbEntity
  8
隠れ線
 48
0.6
100
AcDbLine
 10
507.3205422668316
 20
-2082.280491227665
 30
0.0
 11
507.3205422668316
 21
-2092.280491227665
 31
0.0
  0
LINE
  5
23E20
330
18
100
AcDbEntity
  8
隠れ線
 48
0.6
100
AcDbLine
 10
510.8205422668316
 20
-2082.280491227665
 30
0.0
 11
510.8205422668316
 21
-2093.780491227664
 31
0.0
  0
LINE
  5
23E21
330
18
100
AcDbEntity
  8
隠れ線
 48
0.6
100
AcDbLine
 10
511.3130647576376
 20
-2092.280491227665
 30
0.0
 11
511.3130647576376
 21
-2082.280491227665
 31
0.0
  0
LINE
  5
23E23
330
18
100
AcDbEntity
  8
隠れ線
 48
0.6
100
AcDbLine
 10
507.3205422668316
 20
-2092.280491227665
 30
0.0
 11
507.8205422668315
 21
-2092.969183881936
 31
0.0
  0
LINE
  5
23E24
330
18
100
AcDbEntity
  8
隠れ線
 48
0.6
100
AcDbLine
 10
510.8205422668316
 20
-2092.969183881936
 30
0.0
 11
511.3130647576376
 21
-2092.280491227665
 31
0.0
  0
LINE
  5
23E27
330
18
100
AcDbEntity
  8
0
  6
CENTER
 48
0.3
100
AcDbLine
 10
505.0729726427503
 20
-2002.071362882769
 30
0.0
 11
513.3599126147523
 21
-2002.071362882769
 31
0.0
  0
LINE
  5
23E28
330
18
100
AcDbEntity
  8
0
  6
CENTER
 48
0.3
100
AcDbLine
 10
509.3212781866895
 20
-2005.741576073676
 30
0.0
 11
509.3212781866895
 21
-1998.638270909525
 31
0.0
  0
CIRCLE
  5
23E29
330
18
100
AcDbEntity
  8
0
100
AcDbCircle
 10
509.3212781866895
 20
-2002.071362882769
 30
0.0
 40
2.5
  0
CIRCLE
  5
23E2A
330
18
100
AcDbEntity
  8
0
100
AcDbCircle
 10
509.3212781866895
 20
-2002.079497678612
 30
0.0
 40
2.0
  0
LWPOLYLINE
  5
23E43
330
18
100
AcDbEntity
  8
0
100
AcDbPolyline
 90
        4
 70
     0
 43
0.0
 10
854.7660663055399
 20
-2103.179770578534
 10
815.4835394579503
 20
-2103.179770578534
 10
815.4835394579503
 20
-2095.702352829682
 10
857.0999107943633
 20
-2095.702352829682
  0
LINE
  5
23E44
330
18
100
AcDbEntity
  8
0
  6
CENTER
 48
0.6
100
AcDbLine
 10
807.2035062290687
 20
-2099.441061704108
 30
0.0
 11
875.3654160725472
 21
-2099.441061704108
 31
0.0
  0
LINE
  5
23E45
330
18
100
AcDbEntity
  8
0
  6
CENTER
 48
0.6
100
AcDbLine
 10
807.1898506716607
 20
-2001.797852798563
 30
0.0
 11
875.3517605151392
 21
-2001.797852798563
 31
0.0
  0
LWPOLYLINE
  5
23E46
330
18
100
AcDbEntity
  8
0
100
AcDbPolyline
 90
        4
 70
     0
 43
0.0
 10
854.83227479399
 20
-2005.536561672987
 10
815.4835394579503
 20
-2005.536561672987
 10
815.4835394579503
 20
-1998.059143924137
 10
857.1661192828134
 20
-1998.059143924137
  0
LINE
  5
23E5D
330
18
100
AcDbEntity
  8
0
100
AcDbLine
 10
811.3212781866895
 20
-2082.280491227665
 30
0.0
 11
811.3212781866895
 21
-2122.280491227665
 31
0.0
  0
LINE
  5
23E5E
330
18
100
AcDbEntity
  8
0
100
AcDbLine
 10
796.3435005866897
 20
-2084.271898754525
 30
0.0
 11
811.3212781866895
 21
-2084.271898754525
 31
0.0
  0
LINE
  5
23E5F
330
18
100
AcDbEntity
  8
0
100
AcDbLine
 10
796.3435005866897
 20
-2082.280491227665
 30
0.0
 11
796.3435005866897
 21
-2108.280491227665
 31
0.0
  0
LINE
  5
23E61
330
18
100
AcDbEntity
  8
0
100
AcDbLine
 10
797.3634612064675
 20
-1991.574135054642
 30
0.0
 11
811.3212781866897
 21
-1991.574135054642
 31
0.0
  0
LINE
  5
23E62
330
18
100
AcDbEntity
  8
0
100
AcDbLine
 10
796.3634612064675
 20
-1991.574135054642
 30
0.0
 11
796.3435005866897
 21
-2009.571362882768
 31
0.0
  0
LWPOLYLINE
  5
23E63
330
18
100
AcDbEntity
  8
0
100
AcDbPolyline
 90
        4
 70
     1
 43
0.0
 10
893.5154869656795
 20
-2095.246698443382
 10
902.5154869656796
 20
-2095.246698443382
 10
902.5154869656796
 20
-2098.7428023036
 10
893.5154869656795
 20
-2098.7428023036
  0
LWPOLYLINE
  5
23E64
330
18
100
AcDbEntity
  8
0
100
AcDbPolyline
 90
        4
 70
     1
 43
0.0
 10
893.5154869656795
 20
-2099.754777430005
 10
902.5154869656796
 20
-2099.754777430005
 10
902.5154869656796
 20
-2103.243784957404
 10
893.5154869656795
 20
-2103.243784957404
  0
LWPOLYLINE
  5
23E65
330
18
100
AcDbEntity
  8
0
100
AcDbPolyline
 90
        5
 70
     0
 43
0.0
 10
898.5303956841482
 20
-2002.11156852446
 10
902.5154869656796
 20
-2002.11156852446
 10
902.5154869656796
 20
-2005.600576051859
 10
893.5154869656795
 20
-2005.600576051859
 10
893.5154869656795
 20
-2004.725812666835
  0
LWPOLYLINE
  5
23E66
330
18
100
AcDbEntity
  8
0
100
AcDbPolyline
 90
        5
 70
     0
 43
0.0
 10
893.5154869656795
 20
-1998.439209020577
 10
893.5154869656795
 20
-1997.603489537835
 10
902.5154869656796
 20
-1997.603489537835
 10
902.5154869656796
 20
-2001.099593398057
 10
898.5303956841482
 20
-2001.099593398057
  0
LINE
  5
23E67
330
18
100
AcDbEntity
  8
0
100
AcDbLine
 10
893.5154869656795
 20
-2094.24669844338
 30
0.0
 11
893.5154869656795
 21
-2104.243784957405
 31
0.0
  0
LWPOLYLINE
  5
23E68
330
18
100
AcDbEntity
  8
0
100
AcDbPolyline
 90
        4
 70
     0
 43
0.0
 10
880.5211917123774
 20
-2105.246698443381
 10
879.5154869656792
 20
-2105.246698443381
 10
879.5154869656792
 20
-2093.246698443381
 10
880.5211917123774
 20
-2093.246698443381
  0
LINE
  5
23E69
330
18
100
AcDbEntity
  8
0
  6
CENTER
 48
0.6
100
AcDbLine
 10
864.8193714872205
 20
-2086.008494059671
 30
0.0
 11
856.2256651705242
 21
-2113.541919036618
 31
0.0
  0
LINE
  5
23E6A
330
18
100
AcDbEntity
  8
0
  6
CENTER
 48
0.6
100
AcDbLine
 10
860.1255487385984
 20
-2086.008494059671
 30
0.0
 11
851.5318424219021
 21
-2113.541919036618
 31
0.0
  0
LWPOLYLINE
  5
23E6B
330
18
100
AcDbEntity
  8
0
100
AcDbPolyline
 90
        4
 70
     0
 43
0.0
 10
861.7937335429854
 20
-2095.702352829682
 10
874.4948176467092
 20
-2095.702352829682
 10
874.4948176467092
 20
-2103.179770578534
 10
859.459889054162
 20
-2103.179770578534
  0
LINE
  5
23E6C
330
18
100
AcDbEntity
  8
0
100
AcDbLine
 10
880.5211917123774
 20
-2104.243784957405
 30
0.0
 11
893.5154869656795
 21
-2104.243784957405
 31
0.0
  0
LINE
  5
23E6D
330
18
100
AcDbEntity
  8
0
100
AcDbLine
 10
880.5211917123774
 20
-2105.246698443381
 30
0.0
 11
880.5211917123774
 21
-2104.243784957405
 31
0.0
  0
LWPOLYLINE
  5
23E6E
330
18
100
AcDbEntity
  8
0
100
AcDbPolyline
 90
        4
 70
     0
 43
0.0
 10
861.8599420314355
 20
-1998.059143924137
 10
874.4948176467092
 20
-1998.059143924137
 10
874.4948176467092
 20
-2005.536561672987
 10
859.5260975426121
 20
-2005.536561672987
  0
LINE
  5
23E6F
330
18
100
AcDbEntity
  8
0
  6
CENTER
 48
0.6
100
AcDbLine
 10
864.8193714872205
 20
-1988.577410910162
 30
0.0
 11
856.2256651705242
 21
-2016.110835887109
 31
0.0
  0
LINE
  5
23E70
330
18
100
AcDbEntity
  8
0
  6
CENTER
 48
0.6
100
AcDbLine
 10
860.1255487385984
 20
-1988.577410910162
 30
0.0
 11
851.5318424219021
 21
-2016.110835887109
 31
0.0
  0
LINE
  5
23E71
330
18
100
AcDbEntity
  8
0
100
AcDbLine
 10
885.5272872309514
 20
-2090.267920747611
 30
0.0
 11
886.5252978730476
 21
-2090.267920747611
 31
0.0
  0
LINE
  5
23E72
330
18
100
AcDbEntity
  8
0
100
AcDbLine
 10
885.5272872309514
 20
-2091.783156873098
 30
0.0
 11
891.571124180527
 21
-2092.751673307188
 31
0.0
  0
LINE
  5
23E73
330
18
100
AcDbEntity
  8
0
100
AcDbLine
 10
880.5211917123774
 20
-2094.24669844338
 30
0.0
 11
891.3711241805271
 21
-2094.24669844338
 31
0.0
  0
LINE
  5
23E74
330
18
100
AcDbEntity
  8
0
100
AcDbLine
 10
885.5272872309514
 20
-2090.267920747611
 30
0.0
 11
885.5272872309514
 21
-2091.783156873098
 31
0.0
  0
LINE
  5
23E75
330
18
100
AcDbEntity
  8
0
100
AcDbLine
 10
874.4948176467092
 20
-2100.505386959484
 30
0.0
 11
879.5154869656792
 21
-2100.505386959484
 31
0.0
  0
LINE
  5
23E76
330
18
100
AcDbEntity
  8
0
100
AcDbLine
 10
874.4948176467092
 20
-2099.188588687501
 30
0.0
 11
879.5057647000838
 21
-2099.188588687501
 31
0.0
  0
LINE
  5
23E77
330
18
100
AcDbEntity
  8
0
100
AcDbLine
 10
874.4948176467092
 20
-2097.917197906563
 30
0.0
 11
879.5154869656792
 21
-2097.917197906563
 31
0.0
  0
LINE
  5
23E78
330
18
100
AcDbEntity
  8
0
100
AcDbLine
 10
880.5211917123774
 20
-2093.246698443381
 30
0.0
 11
880.5211917123774
 21
-2094.24669844338
 31
0.0
  0
LWPOLYLINE
  5
23E79
330
18
100
AcDbEntity
  8
0
100
AcDbPolyline
 90
        4
 70
     1
 43
0.0
 10
874.481162089301
 20
-2096.602906720419
 10
879.5057647000838
 20
-2096.602906720419
 10
879.5057647000838
 20
-2101.894169925466
 10
874.481162089301
 20
-2101.894169925466
  0
LINE
  5
23E7A
330
18
100
AcDbEntity
  8
0
100
AcDbLine
 10
893.0711240303761
 20
-2091.519154088083
 30
0.0
 11
895.5271760482183
 21
-2091.519154088083
 31
0.0
  0
LINE
  5
23E7B
330
18
100
AcDbEntity
  8
0
100
AcDbLine
 10
895.5271760482183
 20
-2092.751673307188
 30
0.0
 11
893.0711240303761
 21
-2092.751673307188
 31
0.0
  0
LINE
  5
23E7C
330
18
100
AcDbEntity
  8
0
100
AcDbLine
 10
893.0711240303761
 20
-2092.751673307188
 30
0.0
 11
893.0711240303761
 21
-2091.519154088083
 31
0.0
  0
LINE
  5
23E7D
330
18
100
AcDbEntity
  8
0
100
AcDbLine
 10
893.0711240303761
 20
-2094.046698443381
 30
0.0
 11
893.271124030376
 21
-2094.24669844338
 31
0.0
  0
LINE
  5
23E7E
330
18
100
AcDbEntity
  8
0
100
AcDbLine
 10
893.0711240303761
 20
-2092.751673307188
 30
0.0
 11
893.0711240303761
 21
-2094.046698443381
 31
0.0
  0
LINE
  5
23E7F
330
18
100
AcDbEntity
  8
0
100
AcDbLine
 10
893.271124030376
 20
-2094.24669844338
 30
0.0
 11
893.5154869656795
 21
-2094.24669844338
 31
0.0
  0
LINE
  5
23E80
330
18
100
AcDbEntity
  8
0
100
AcDbLine
 10
898.5303956841482
 20
-2091.775739954092
 30
0.0
 11
898.5303956841482
 21
-2092.246698443382
 31
0.0
  0
LINE
  5
23E81
330
18
100
AcDbEntity
  8
0
100
AcDbLine
 10
897.5303956841482
 20
-2093.246698443381
 30
0.0
 11
898.5303956841482
 21
-2092.246698443382
 31
0.0
  0
LINE
  5
23E82
330
18
100
AcDbEntity
  8
0
100
AcDbLine
 10
895.5271760482183
 20
-2093.246698443381
 30
0.0
 11
895.5271760482183
 21
-2092.751673307188
 31
0.0
  0
LINE
  5
23E83
330
18
100
AcDbEntity
  8
0
100
AcDbLine
 10
897.5303956841482
 20
-2093.246698443381
 30
0.0
 11
895.5271760482183
 21
-2093.246698443381
 31
0.0
  0
LINE
  5
23E84
330
18
100
AcDbEntity
  8
0
100
AcDbLine
 10
895.5271760482183
 20
-2091.519154088083
 30
0.0
 11
895.5271760482183
 21
-2090.775739954092
 31
0.0
  0
LINE
  5
23E85
330
18
100
AcDbEntity
  8
0
100
AcDbLine
 10
895.3271760482182
 20
-2090.267920747611
 30
0.0
 11
895.5271760482183
 21
-2090.467920747612
 31
0.0
  0
LINE
  5
23E86
330
18
100
AcDbEntity
  8
0
100
AcDbLine
 10
897.5303956841482
 20
-2090.775739954092
 30
0.0
 11
898.5303956841482
 21
-2091.775739954092
 31
0.0
  0
LINE
  5
23E87
330
18
100
AcDbEntity
  8
0
100
AcDbLine
 10
895.5271760482183
 20
-2090.467920747612
 30
0.0
 11
895.5271760482183
 21
-2090.775739954092
 31
0.0
  0
LINE
  5
23E88
330
18
100
AcDbEntity
  8
0
100
AcDbLine
 10
891.571124180527
 20
-2094.046698443383
 30
0.0
 11
891.3711241805271
 21
-2094.24669844338
 31
0.0
  0
LINE
  5
23E89
330
18
100
AcDbEntity
  8
0
100
AcDbLine
 10
891.571124180527
 20
-2093.246698443381
 30
0.0
 11
891.571124180527
 21
-2094.046698443383
 31
0.0
  0
LINE
  5
23E8A
330
18
100
AcDbEntity
  8
0
100
AcDbLine
 10
891.571124180527
 20
-2092.751673307188
 30
0.0
 11
891.571124180527
 21
-2093.246698443381
 31
0.0
  0
LINE
  5
23E8B
330
18
100
AcDbEntity
  8
0
100
AcDbLine
 10
891.3711241805271
 20
-2094.24669844338
 30
0.0
 11
893.271124030376
 21
-2094.24669844338
 31
0.0
  0
LINE
  5
23E8C
330
18
100
AcDbEntity
  8
0
100
AcDbLine
 10
886.5252978730476
 20
-2090.267920747611
 30
0.0
 11
886.5252978730476
 21
-2090.775739954092
 31
0.0
  0
LINE
  5
23E8D
330
18
100
AcDbEntity
  8
0
100
AcDbLine
 10
886.5252978730476
 20
-2090.267920747611
 30
0.0
 11
895.3271760482182
 21
-2090.267920747611
 31
0.0
  0
LINE
  5
23E8E
330
18
100
AcDbEntity
  8
0
100
AcDbLine
 10
886.5252978730476
 20
-2090.775739954092
 30
0.0
 11
897.5303956841482
 21
-2090.775739954092
 31
0.0
  0
LINE
  5
23E8F
330
18
100
AcDbEntity
  8
0
100
AcDbLine
 10
885.5272872309514
 20
-2005.077765618378
 30
0.0
 11
893.0711240303761
 21
-2005.077765618378
 31
0.0
  0
LINE
  5
23E90
330
18
100
AcDbEntity
  8
0
100
AcDbLine
 10
893.0711240303761
 20
-1998.097607602066
 30
0.0
 11
885.5272872309514
 21
-1998.097607602066
 31
0.0
  0
LINE
  5
23E91
330
18
100
AcDbEntity
  8
0
100
AcDbLine
 10
880.5211917123774
 20
-2006.600576051859
 30
0.0
 11
893.5154869656795
 21
-2006.600576051859
 31
0.0
  0
LINE
  5
23E92
330
18
100
AcDbEntity
  8
0
100
AcDbLine
 10
880.5211917123774
 20
-1996.603489537836
 30
0.0
 11
891.3711241805271
 21
-1996.603489537836
 31
0.0
  0
LINE
  5
23E93
330
18
100
AcDbEntity
  8
0
100
AcDbLine
 10
885.5272872309514
 20
-1998.097607602066
 30
0.0
 11
885.5272872309514
 21
-2005.077765618378
 31
0.0
  0
LWPOLYLINE
  5
23E94
330
18
100
AcDbEntity
  8
0
100
AcDbPolyline
 90
        4
 70
     0
 43
0.0
 10
880.5211917123774
 20
-2007.603489537836
 10
879.5154869656792
 20
-2007.603489537836
 10
879.5154869656792
 20
-1995.603489537836
 10
880.5211917123774
 20
-1995.603489537836
  0
LWPOLYLINE
  5
23E95
330
18
100
AcDbEntity
  8
0
100
AcDbPolyline
 90
        4
 70
     1
 43
0.0
 10
874.481162089301
 20
-1998.959697814873
 10
879.5057647000838
 20
-1998.959697814873
 10
879.5057647000838
 20
-2004.250961019919
 10
874.481162089301
 20
-2004.250961019919
  0
LINE
  5
23E96
330
18
100
AcDbEntity
  8
0
100
AcDbLine
 10
880.5211917123774
 20
-2007.603489537836
 30
0.0
 11
880.5211917123774
 21
-2006.600576051859
 31
0.0
  0
LINE
  5
23E97
330
18
100
AcDbEntity
  8
0
100
AcDbLine
 10
874.4948176467092
 20
-2002.862178053937
 30
0.0
 11
879.5154869656792
 21
-2002.862178053937
 31
0.0
  0
LINE
  5
23E98
330
18
100
AcDbEntity
  8
0
100
AcDbLine
 10
874.4948176467092
 20
-2001.545379781956
 30
0.0
 11
879.5057647000838
 21
-2001.545379781956
 31
0.0
  0
LINE
  5
23E99
330
18
100
AcDbEntity
  8
0
100
AcDbLine
 10
874.4948176467092
 20
-2000.273989001017
 30
0.0
 11
879.5154869656792
 21
-2000.273989001017
 31
0.0
  0
LINE
  5
23E9A
330
18
100
AcDbEntity
  8
0
100
AcDbLine
 10
880.5211917123774
 20
-1995.603489537836
 30
0.0
 11
880.5211917123774
 21
-1996.603489537836
 31
0.0
  0
LINE
  5
23E9B
330
18
100
AcDbEntity
  8
0
100
AcDbLine
 10
893.5154869656795
 20
-1996.603489537836
 30
0.0
 11
893.5154869656795
 21
-1998.439209020577
 31
0.0
  0
LWPOLYLINE
  5
23E9C
330
18
100
AcDbEntity
  8
0
100
AcDbPolyline
 90
        2
 70
     0
 43
0.0
 10
893.5154869656795
 20
-2002.11156852446
 10
895.5271760482183
 20
-2002.11156852446
  0
LWPOLYLINE
  5
23E9D
330
18
100
AcDbEntity
  8
0
100
AcDbPolyline
 90
        2
 70
     0
 43
0.0
 10
895.5271760482183
 20
-2001.099593398057
 10
893.5154869656795
 20
-2001.099593398057
  0
LINE
  5
23E9E
330
18
100
AcDbEntity
  8
0
100
AcDbLine
 10
895.5271760482183
 20
-1999.985683286547
 30
0.0
 11
893.0711240303761
 21
-1998.097607602066
 31
0.0
  0
LINE
  5
23E9F
330
18
100
AcDbEntity
  8
0
100
AcDbLine
 10
893.0711240303761
 20
-2005.077765618378
 30
0.0
 11
895.5271760482183
 21
-2003.132475657962
 31
0.0
  0
LINE
  5
23EA0
330
18
100
AcDbEntity
  8
0
100
AcDbLine
 10
893.5154869656795
 20
-2004.725812666835
 30
0.0
 11
893.5154869656795
 21
-2006.600576051859
 31
0.0
  0
LINE
  5
23EA1
330
18
100
AcDbEntity
  8
0
100
AcDbLine
 10
898.5303956841482
 20
-2003.132475657962
 30
0.0
 11
898.5303956841482
 21
-1999.985683286547
 31
0.0
  0
LINE
  5
23EA2
330
18
100
AcDbEntity
  8
0
100
AcDbLine
 10
895.5271760482183
 20
-2003.132475657962
 30
0.0
 11
898.5303956841482
 21
-2003.132475657962
 31
0.0
  0
LINE
  5
23EA3
330
18
100
AcDbEntity
  8
0
100
AcDbLine
 10
895.5271760482183
 20
-2001.099593398057
 30
0.0
 11
895.5271760482183
 21
-2002.11156852446
 31
0.0
  0
LINE
  5
23EA4
330
18
100
AcDbEntity
  8
0
100
AcDbLine
 10
898.5303956841482
 20
-1999.985683286547
 30
0.0
 11
895.5271760482183
 21
-1999.985683286547
 31
0.0
  0
LINE
  5
23EA5
330
18
100
AcDbEntity
  8
0
100
AcDbLine
 10
891.3711241805271
 20
-1996.603489537836
 30
0.0
 11
893.5154869656795
 21
-1996.603489537836
 31
0.0
  0
LINE
  5
23EA6
330
18
100
AcDbEntity
  8
0
100
AcDbLine
 10
886.5252978730476
 20
-2002.11156852446
 30
0.0
 11
886.5252978730476
 21
-2005.077765618378
 31
0.0
  0
LINE
  5
23EA7
330
18
100
AcDbEntity
  8
0
100
AcDbLine
 10
886.5252978730476
 20
-1998.097607602066
 30
0.0
 11
886.5252978730476
 21
-2001.099593398057
 31
0.0
  0
LINE
  5
23EA8
330
18
100
AcDbEntity
  8
0
100
AcDbLine
 10
895.5271760482183
 20
-2002.11156852446
 30
0.0
 11
886.5252978730476
 21
-2002.11156852446
 31
0.0
  0
LINE
  5
23EA9
330
18
100
AcDbEntity
  8
0
100
AcDbLine
 10
886.5252978730476
 20
-2001.099593398057
 30
0.0
 11
895.5271760482183
 21
-2001.099593398057
 31
0.0
  0
LWPOLYLINE
  5
23EDE
330
18
100
AcDbEntity
  8
0
100
AcDbPolyline
 90
        2
 70
     0
 43
0.0
 10
797.3435005866897
 20
-1947.568590710895
 10
637.3434612064674
 20
-1947.568590710895
  0
LINE
  5
23EDF
330
18
100
AcDbEntity
  8
0
  6
CENTER
 48
0.6
100
AcDbLine
 10
317.1731820099378
 20
-1937.072062882768
 30
0.0
 11
344.0913433552202
 21
-1937.072062882768
 31
0.0
  0
LINE
  5
23EE2
102
{ACAD_REACTORS
330
240F0
102
}
330
18
100
AcDbEntity
  8
0
  6
PHANTOM
 48
0.6
100
AcDbLine
 10
334.8510631210803
 20
-1929.571406747023
 30
0.0
 11
327.0510631210806
 21
-1929.571406747023
 31
0.0
  0
LINE
  5
23EE8
330
18
100
AcDbEntity
  8
0
100
AcDbLine
 10
357.5510631210807
 20
-1952.071402129076
 30
0.0
 11
346.5510631210806
 21
-1952.071402129076
 31
0.0
  0
LINE
  5
23EE9
330
18
100
AcDbEntity
  8
0
100
AcDbLine
 10
357.5510631210807
 20
-1952.071402129076
 30
0.0
 11
346.5510631210806
 21
-1952.071402129076
 31
0.0
  0
LINE
  5
23EEA
330
18
100
AcDbEntity
  8
0
 48
0.3
100
AcDbLine
 10
381.0510631210806
 20
-1929.571362882768
 30
0.0
 11
341.0510631210807
 21
-1929.571362882768
 31
0.0
  0
ARC
  5
23EFF
330
18
100
AcDbEntity
  8
0
100
AcDbCircle
 10
346.5510631210806
 20
-1952.571402129076
 30
0.0
 40
0.5
100
AcDbArc
 50
89.99999999999998
 51
180.0
  0
ARC
  5
23F00
330
18
100
AcDbEntity
  8
0
100
AcDbCircle
 10
346.5510631210806
 20
-1952.571402129076
 30
0.0
 40
0.5
100
AcDbArc
 50
89.99999999999998
 51
180.0
  0
CIRCLE
  5
23F03
330
18
100
AcDbEntity
  8
0
  6
HIDDEN
 48
0.6
100
AcDbCircle
 10
373.0514433117493
 20
-1939.583489921597
 30
0.0
 40
4.0
  0
LINE
  5
23F09
330
18
100
AcDbEntity
  8
0
  6
CENTER
 48
0.6
100
AcDbLine
 10
384.7307082043236
 20
-1937.095389432843
 30
0.0
 11
362.7546562992459
 21
-1937.095389432843
 31
0.0
  0
ARC
  5
23F0A
330
18
100
AcDbEntity
  8
0
100
AcDbCircle
 10
357.5510631210806
 20
-1952.571402129076
 30
0.0
 40
0.5
100
AcDbArc
 50
0.0
 51
89.99999999999998
  0
ARC
  5
23F0B
330
18
100
AcDbEntity
  8
0
100
AcDbCircle
 10
357.5510631210806
 20
-1952.571402129076
 30
0.0
 40
0.5
100
AcDbArc
 50
0.0
 51
89.99999999999998
  0
LINE
  5
23F13
330
18
100
AcDbEntity
  8
0
 48
0.3
100
AcDbLine
 10
381.0510719056066
 20
-1947.582608025075
 30
0.0
 11
380.5510631210806
 21
-1947.582608025076
 31
0.0
  0
LINE
  5
23F16
330
18
100
AcDbEntity
  8
0
100
AcDbLine
 10
463.3212781866896
 20
-1947.568590710895
 30
0.0
 11
637.3434612064674
 21
-1947.568590710895
 31
0.0
  0
LINE
  5
23F17
330
18
100
AcDbEntity
  8
0
100
AcDbLine
 10
811.3212781866897
 20
-1929.571362882768
 30
0.0
 11
463.3212781866896
 21
-1929.571362882768
 31
0.0
  0
LINE
  5
23F18
330
18
100
AcDbEntity
  8
0
100
AcDbLine
 10
478.3434612064673
 20
-1929.585345568588
 30
0.0
 11
478.3434612064673
 21
-1947.568590710895
 31
0.0
  0
LINE
  5
23F19
330
18
100
AcDbEntity
  8
0
  6
CENTER
 48
0.3
100
AcDbLine
 10
505.0729726427503
 20
-1937.071362882769
 30
0.0
 11
513.3599126147523
 21
-1937.071362882769
 31
0.0
  0
LINE
  5
23F1A
330
18
100
AcDbEntity
  8
0
  6
CENTER
 48
0.3
100
AcDbLine
 10
509.3212781866895
 20
-1940.741576073676
 30
0.0
 11
509.3212781866895
 21
-1933.638270909526
 31
0.0
  0
CIRCLE
  5
23F1B
330
18
100
AcDbEntity
  8
0
100
AcDbCircle
 10
509.3212781866895
 20
-1937.071362882769
 30
0.0
 40
2.5
  0
CIRCLE
  5
23F1C
330
18
100
AcDbEntity
  8
0
100
AcDbCircle
 10
509.3212781866895
 20
-1937.091281187075
 30
0.0
 40
2.0
  0
LINE
  5
23F2C
330
18
100
AcDbEntity
  8
0
100
AcDbLine
 10
797.3435005866897
 20
-1947.568590710895
 30
0.0
 11
811.3212781866895
 21
-1947.568590710895
 31
0.0
  0
LINE
  5
23F2D
330
18
100
AcDbEntity
  8
0
100
AcDbLine
 10
796.3435005866897
 20
-1929.585345568588
 30
0.0
 11
796.3435005866897
 21
-1947.568590710895
 31
0.0
  0
LINE
  5
2418A
330
18
100
AcDbEntity
  8
0
  6
CENTER
 48
0.3
100
AcDbLine
 10
569.0729726427502
 20
-1937.071362882769
 30
0.0
 11
577.3599126147522
 21
-1937.071362882769
 31
0.0
  0
LINE
  5
2418B
330
18
100
AcDbEntity
  8
0
  6
CENTER
 48
0.3
100
AcDbLine
 10
573.3212781866893
 20
-1940.741576073676
 30
0.0
 11
573.3212781866893
 21
-1933.638270909526
 31
0.0
  0
CIRCLE
  5
2418C
330
18
100
AcDbEntity
  8
0
100
AcDbCircle
 10
573.3212781866893
 20
-1937.071362882769
 30
0.0
 40
2.5
  0
CIRCLE
  5
2418D
330
18
100
AcDbEntity
  8
0
100
AcDbCircle
 10
573.3212781866893
 20
-1937.091281187075
 30
0.0
 40
2.0
  0
LINE
  5
2418E
330
18
100
AcDbEntity
  8
0
  6
CENTER
 48
0.3
100
AcDbLine
 10
569.0729726427502
 20
-2002.071362882769
 30
0.0
 11
577.3599126147522
 21
-2002.071362882769
 31
0.0
  0
LINE
  5
2418F
330
18
100
AcDbEntity
  8
0
  6
CENTER
 48
0.3
100
AcDbLine
 10
573.3212781866893
 20
-2005.741576073676
 30
0.0
 11
573.3212781866893
 21
-1998.638270909525
 31
0.0
  0
CIRCLE
  5
24190
330
18
100
AcDbEntity
  8
0
100
AcDbCircle
 10
573.3212781866893
 20
-2002.071362882769
 30
0.0
 40
2.5
  0
CIRCLE
  5
24191
330
18
100
AcDbEntity
  8
0
100
AcDbCircle
 10
573.3212781866893
 20
-2002.079497678612
 30
0.0
 40
2.0
  0
LINE
  5
24192
330
18
100
AcDbEntity
  8
0
  6
CENTER
 48
0.3
100
AcDbLine
 10
633.0729726427501
 20
-1937.071362882769
 30
0.0
 11
641.3599126147524
 21
-1937.071362882769
 31
0.0
  0
LINE
  5
24193
330
18
100
AcDbEntity
  8
0
  6
CENTER
 48
0.3
100
AcDbLine
 10
637.3212781866896
 20
-1940.741576073676
 30
0.0
 11
637.3212781866896
 21
-1933.638270909526
 31
0.0
  0
CIRCLE
  5
24194
330
18
100
AcDbEntity
  8
0
100
AcDbCircle
 10
637.3212781866896
 20
-1937.071362882769
 30
0.0
 40
2.5
  0
CIRCLE
  5
24195
330
18
100
AcDbEntity
  8
0
100
AcDbCircle
 10
637.3212781866896
 20
-1937.091281187075
 30
0.0
 40
2.0
  0
LINE
  5
24196
330
18
100
AcDbEntity
  8
0
  6
CENTER
 48
0.3
100
AcDbLine
 10
633.0729726427501
 20
-2002.071362882769
 30
0.0
 11
641.3599126147524
 21
-2002.071362882769
 31
0.0
  0
LINE
  5
24197
330
18
100
AcDbEntity
  8
0
  6
CENTER
 48
0.3
100
AcDbLine
 10
637.3212781866896
 20
-2005.741576073676
 30
0.0
 11
637.3212781866896
 21
-1998.638270909525
 31
0.0
  0
CIRCLE
  5
24198
330
18
100
AcDbEntity
  8
0
100
AcDbCircle
 10
637.3212781866896
 20
-2002.071362882769
 30
0.0
 40
2.5
  0
CIRCLE
  5
24199
330
18
100
AcDbEntity
  8
0
100
AcDbCircle
 10
637.3212781866896
 20
-2002.079497678612
 30
0.0
 40
2.0
  0
LINE
  5
2419A
330
18
100
AcDbEntity
  8
0
  6
CENTER
 48
0.3
100
AcDbLine
 10
697.07297264275
 20
-1937.071362882769
 30
0.0
 11
705.3599126147521
 21
-1937.071362882769
 31
0.0
  0
LINE
  5
2419B
330
18
100
AcDbEntity
  8
0
  6
CENTER
 48
0.3
100
AcDbLine
 10
701.3212781866895
 20
-1940.741576073676
 30
0.0
 11
701.3212781866895
 21
-1933.638270909526
 31
0.0
  0
CIRCLE
  5
2419C
330
18
100
AcDbEntity
  8
0
100
AcDbCircle
 10
701.3212781866895
 20
-1937.071362882769
 30
0.0
 40
2.5
  0
CIRCLE
  5
2419D
330
18
100
AcDbEntity
  8
0
100
AcDbCircle
 10
701.3212781866895
 20
-1937.091281187075
 30
0.0
 40
2.0
  0
LINE
  5
2419E
330
18
100
AcDbEntity
  8
0
  6
CENTER
 48
0.3
100
AcDbLine
 10
697.07297264275
 20
-2002.071362882769
 30
0.0
 11
705.3599126147521
 21
-2002.071362882769
 31
0.0
  0
LINE
  5
2419F
330
18
100
AcDbEntity
  8
0
  6
CENTER
 48
0.3
100
AcDbLine
 10
701.3212781866895
 20
-2005.741576073676
 30
0.0
 11
701.3212781866895
 21
-1998.638270909525
 31
0.0
  0
CIRCLE
  5
241A0
330
18
100
AcDbEntity
  8
0
100
AcDbCircle
 10
701.3212781866895
 20
-2002.071362882769
 30
0.0
 40
2.5
  0
CIRCLE
  5
241A1
330
18
100
AcDbEntity
  8
0
100
AcDbCircle
 10
701.3212781866895
 20
-2002.079497678612
 30
0.0
 40
2.0
  0
LINE
  5
241A2
330
18
100
AcDbEntity
  8
0
  6
CENTER
 48
0.3
100
AcDbLine
 10
761.0729726427502
 20
-1937.071362882769
 30
0.0
 11
769.3599126147524
 21
-1937.071362882769
 31
0.0
  0
LINE
  5
241A3
330
18
100
AcDbEntity
  8
0
  6
CENTER
 48
0.3
100
AcDbLine
 10
765.3212781866896
 20
-1940.741576073676
 30
0.0
 11
765.3212781866896
 21
-1933.638270909526
 31
0.0
  0
CIRCLE
  5
241A4
330
18
100
AcDbEntity
  8
0
100
AcDbCircle
 10
765.3212781866896
 20
-1937.071362882769
 30
0.0
 40
2.5
  0
CIRCLE
  5
241A5
330
18
100
AcDbEntity
  8
0
100
AcDbCircle
 10
765.3212781866896
 20
-1937.091281187075
 30
0.0
 40
2.0
  0
LINE
  5
241A6
330
18
100
AcDbEntity
  8
0
  6
CENTER
 48
0.3
100
AcDbLine
 10
761.0729726427502
 20
-2002.071362882769
 30
0.0
 11
769.3599126147524
 21
-2002.071362882769
 31
0.0
  0
LINE
  5
241A7
330
18
100
AcDbEntity
  8
0
  6
CENTER
 48
0.3
100
AcDbLine
 10
765.3212781866896
 20
-2005.741576073676
 30
0.0
 11
765.3212781866896
 21
-1998.638270909525
 31
0.0
  0
CIRCLE
  5
241A8
330
18
100
AcDbEntity
  8
0
100
AcDbCircle
 10
765.3212781866896
 20
-2002.071362882769
 30
0.0
 40
2.5
  0
CIRCLE
  5
241A9
330
18
100
AcDbEntity
  8
0
100
AcDbCircle
 10
765.3212781866896
 20
-2002.079497678612
 30
0.0
 40
2.0
  0
LINE
  5
241DB
330
18
100
AcDbEntity
  8
隠れ線
 48
0.6
100
AcDbLine
 10
571.3205422668314
 20
-2082.280491227665
 30
0.0
 11
571.3205422668314
 21
-2092.280491227665
 31
0.0
  0
LINE
  5
241DC
330
18
100
AcDbEntity
  8
隠れ線
 48
0.6
100
AcDbLine
 10
571.8205422668317
 20
-2082.280491227665
 30
0.0
 11
571.8205422668317
 21
-2093.780491227664
 31
0.0
  0
LINE
  5
241DD
330
18
100
AcDbEntity
  8
隠れ線
 48
0.6
100
AcDbLine
 10
575.3130647576377
 20
-2092.280491227665
 30
0.0
 11
575.3130647576377
 21
-2082.280491227665
 31
0.0
  0
LINE
  5
241DE
330
18
100
AcDbEntity
  8
隠れ線
 48
0.6
100
AcDbLine
 10
574.8205422668315
 20
-2082.280491227665
 30
0.0
 11
574.8205422668315
 21
-2093.780491227664
 31
0.0
  0
LINE
  5
241DF
330
18
100
AcDbEntity
  8
0
  6
CENTER
 48
0.6
100
AcDbLine
 10
573.3212781866893
 20
-2096.048025196433
 30
0.0
 11
573.3212781866893
 21
-2080.530178525523
 31
0.0
  0
LINE
  5
241E2
330
18
100
AcDbEntity
  8
隠れ線
 48
0.6
100
AcDbLine
 10
571.3205422668314
 20
-2092.280491227665
 30
0.0
 11
575.3130647576377
 21
-2092.280491227665
 31
0.0
  0
LINE
  5
241E3
330
18
100
AcDbEntity
  8
隠れ線
 48
0.6
100
AcDbLine
 10
571.3205422668314
 20
-2092.280491227665
 30
0.0
 11
571.8205422668317
 21
-2092.969183881936
 31
0.0
  0
LINE
  5
241E4
330
18
100
AcDbEntity
  8
隠れ線
 48
0.6
100
AcDbLine
 10
574.8205422668315
 20
-2092.969183881936
 30
0.0
 11
575.3130647576377
 21
-2092.280491227665
 31
0.0
  0
LINE
  5
241E7
330
18
100
AcDbEntity
  8
隠れ線
 48
0.6
100
AcDbLine
 10
635.3205422668317
 20
-2082.280491227665
 30
0.0
 11
635.3205422668317
 21
-2092.280491227665
 31
0.0
  0
LINE
  5
241E8
330
18
100
AcDbEntity
  8
隠れ線
 48
0.6
100
AcDbLine
 10
635.8205422668317
 20
-2082.280491227665
 30
0.0
 11
635.8205422668317
 21
-2093.780491227664
 31
0.0
  0
LINE
  5
241E9
330
18
100
AcDbEntity
  8
隠れ線
 48
0.6
100
AcDbLine
 10
639.3130647576376
 20
-2092.280491227665
 30
0.0
 11
639.3130647576376
 21
-2082.280491227665
 31
0.0
  0
LINE
  5
241EA
330
18
100
AcDbEntity
  8
隠れ線
 48
0.6
100
AcDbLine
 10
638.8205422668317
 20
-2082.280491227665
 30
0.0
 11
638.8205422668317
 21
-2093.780491227664
 31
0.0
  0
LINE
  5
241EB
330
18
100
AcDbEntity
  8
0
  6
CENTER
 48
0.6
100
AcDbLine
 10
637.3212781866896
 20
-2096.048025196433
 30
0.0
 11
637.3212781866896
 21
-2080.530178525523
 31
0.0
  0
LINE
  5
241EE
330
18
100
AcDbEntity
  8
隠れ線
 48
0.6
100
AcDbLine
 10
635.3205422668317
 20
-2092.280491227665
 30
0.0
 11
639.3130647576376
 21
-2092.280491227665
 31
0.0
  0
LINE
  5
241EF
330
18
100
AcDbEntity
  8
隠れ線
 48
0.6
100
AcDbLine
 10
635.3205422668317
 20
-2092.280491227665
 30
0.0
 11
635.8205422668317
 21
-2092.969183881936
 31
0.0
  0
LINE
  5
241F0
330
18
100
AcDbEntity
  8
隠れ線
 48
0.6
100
AcDbLine
 10
638.8205422668317
 20
-2092.969183881936
 30
0.0
 11
639.3130647576376
 21
-2092.280491227665
 31
0.0
  0
LINE
  5
241F3
330
18
100
AcDbEntity
  8
隠れ線
 48
0.6
100
AcDbLine
 10
699.3205422668316
 20
-2082.280491227665
 30
0.0
 11
699.3205422668316
 21
-2092.280491227665
 31
0.0
  0
LINE
  5
241F4
330
18
100
AcDbEntity
  8
隠れ線
 48
0.6
100
AcDbLine
 10
699.8205422668316
 20
-2082.280491227665
 30
0.0
 11
699.8205422668316
 21
-2093.780491227664
 31
0.0
  0
LINE
  5
241F5
330
18
100
AcDbEntity
  8
隠れ線
 48
0.6
100
AcDbLine
 10
703.3130647576378
 20
-2092.280491227665
 30
0.0
 11
703.3130647576378
 21
-2082.280491227665
 31
0.0
  0
LINE
  5
241F6
330
18
100
AcDbEntity
  8
隠れ線
 48
0.6
100
AcDbLine
 10
702.8205422668317
 20
-2082.280491227665
 30
0.0
 11
702.8205422668317
 21
-2093.780491227664
 31
0.0
  0
LINE
  5
241F7
330
18
100
AcDbEntity
  8
0
  6
CENTER
 48
0.6
100
AcDbLine
 10
701.3212781866895
 20
-2096.048025196433
 30
0.0
 11
701.3212781866895
 21
-2080.530178525523
 31
0.0
  0
LINE
  5
241FA
330
18
100
AcDbEntity
  8
隠れ線
 48
0.6
100
AcDbLine
 10
699.3205422668316
 20
-2092.280491227665
 30
0.0
 11
703.3130647576378
 21
-2092.280491227665
 31
0.0
  0
LINE
  5
241FB
330
18
100
AcDbEntity
  8
隠れ線
 48
0.6
100
AcDbLine
 10
699.3205422668316
 20
-2092.280491227665
 30
0.0
 11
699.8205422668316
 21
-2092.969183881936
 31
0.0
  0
LINE
  5
241FC
330
18
100
AcDbEntity
  8
隠れ線
 48
0.6
100
AcDbLine
 10
702.8205422668317
 20
-2092.969183881936
 30
0.0
 11
703.3130647576378
 21
-2092.280491227665
 31
0.0
  0
LINE
  5
241FF
330
18
100
AcDbEntity
  8
隠れ線
 48
0.6
100
AcDbLine
 10
763.3205422668318
 20
-2082.280491227665
 30
0.0
 11
763.3205422668318
 21
-2092.280491227665
 31
0.0
  0
LINE
  5
24200
330
18
100
AcDbEntity
  8
隠れ線
 48
0.6
100
AcDbLine
 10
763.8205422668318
 20
-2082.280491227665
 30
0.0
 11
763.8205422668318
 21
-2093.780491227664
 31
0.0
  0
LINE
  5
24201
330
18
100
AcDbEntity
  8
隠れ線
 48
0.6
100
AcDbLine
 10
767.3130647576376
 20
-2092.280491227665
 30
0.0
 11
767.3130647576376
 21
-2082.280491227665
 31
0.0
  0
LINE
  5
24202
330
18
100
AcDbEntity
  8
隠れ線
 48
0.6
100
AcDbLine
 10
766.8205422668316
 20
-2082.280491227665
 30
0.0
 11
766.8205422668316
 21
-2093.780491227664
 31
0.0
  0
LINE
  5
24203
330
18
100
AcDbEntity
  8
0
  6
CENTER
 48
0.6
100
AcDbLine
 10
765.3212781866896
 20
-2096.048025196433
 30
0.0
 11
765.3212781866896
 21
-2080.530178525523
 31
0.0
  0
LINE
  5
24206
330
18
100
AcDbEntity
  8
隠れ線
 48
0.6
100
AcDbLine
 10
763.3205422668318
 20
-2092.280491227665
 30
0.0
 11
767.3130647576376
 21
-2092.280491227665
 31
0.0
  0
LINE
  5
24207
330
18
100
AcDbEntity
  8
隠れ線
 48
0.6
100
AcDbLine
 10
763.3205422668318
 20
-2092.280491227665
 30
0.0
 11
763.8205422668318
 21
-2092.969183881936
 31
0.0
  0
LINE
  5
24208
330
18
100
AcDbEntity
  8
隠れ線
 48
0.6
100
AcDbLine
 10
766.8205422668316
 20
-2092.969183881936
 30
0.0
 11
767.3130647576376
 21
-2092.280491227665
 31
0.0
  0
LWPOLYLINE
  5
2428F
330
18
100
AcDbEntity
  8
0
100
AcDbPolyline
 90
        2
 70
     0
 43
0.0
 10
796.3435005866897
 20
-2108.280491227665
 10
478.3434612064673
 20
-2108.280491227665
  0
LINE
  5
24290
330
18
100
AcDbEntity
  8
隠れ線
 48
0.6
100
AcDbLine
 10
478.3434612064673
 20
-2084.280491227665
 30
0.0
 11
796.3435005866897
 21
-2084.280491227665
 31
0.0
  0
LINE
  5
24291
330
18
100
AcDbEntity
  8
隠れ線
 48
0.6
100
AcDbLine
 10
478.3434612064673
 20
-2093.780491227664
 30
0.0
 11
796.3435005866897
 21
-2093.780491227664
 31
0.0
  0
CIRCLE
  5
242A3
330
18
100
AcDbEntity
  8
0
  6
HIDDEN
 48
0.6
100
AcDbCircle
 10
628.4312781866897
 20
-2089.780491227665
 30
0.0
 40
6.0
  0
CIRCLE
  5
242AA
330
18
100
AcDbEntity
  8
0
  6
HIDDEN
 48
0.6
100
AcDbCircle
 10
646.2112781866895
 20
-2089.780491227665
 30
0.0
 40
6.0
  0
CIRCLE
  5
242B1
330
18
100
AcDbEntity
  8
0
  6
HIDDEN
 48
0.6
100
AcDbCircle
 10
592.8712781866895
 20
-2089.780491227665
 30
0.0
 40
6.0
  0
CIRCLE
  5
242B8
330
18
100
AcDbEntity
  8
0
  6
HIDDEN
 48
0.6
100
AcDbCircle
 10
557.3112781866893
 20
-2089.780491227665
 30
0.0
 40
6.0
  0
CIRCLE
  5
242BF
330
18
100
AcDbEntity
  8
0
  6
HIDDEN
 48
0.6
100
AcDbCircle
 10
521.7512781866896
 20
-2089.780491227665
 30
0.0
 40
6.0
  0
CIRCLE
  5
242C6
330
18
100
AcDbEntity
  8
0
  6
HIDDEN
 48
0.6
100
AcDbCircle
 10
486.1912781866895
 20
-2089.780491227665
 30
0.0
 40
6.0
  0
CIRCLE
  5
242CD
330
18
100
AcDbEntity
  8
0
  6
HIDDEN
 48
0.6
100
AcDbCircle
 10
681.7712781866896
 20
-2089.780491227665
 30
0.0
 40
6.0
  0
CIRCLE
  5
242D4
330
18
100
AcDbEntity
  8
0
  6
HIDDEN
 48
0.6
100
AcDbCircle
 10
717.3312781866892
 20
-2089.780491227665
 30
0.0
 40
6.0
  0
CIRCLE
  5
242DB
330
18
100
AcDbEntity
  8
0
  6
HIDDEN
 48
0.6
100
AcDbCircle
 10
752.8912781866896
 20
-2089.780491227665
 30
0.0
 40
6.0
  0
CIRCLE
  5
242E2
330
18
100
AcDbEntity
  8
0
  6
HIDDEN
 48
0.6
100
AcDbCircle
 10
788.4512781866897
 20
-2089.780491227665
 30
0.0
 40
6.0
  0
LINE
  5
24901
330
18
100
AcDbEntity
  8
0
 48
10.0
100
AcDbLine
 10
815.4835394579503
 20
-2006.512674191159
 30
0.0
 11
811.3212781866895
 21
-2006.512674191159
 31
0.0
  0
LINE
  5
24902
330
18
100
AcDbEntity
  8
0
 48
10.0
100
AcDbLine
 10
811.3212781866895
 20
-1997.005635447401
 30
0.0
 11
815.4835394579503
 21
-1997.005635447401
 31
0.0
  0
LINE
  5
24903
330
18
100
AcDbEntity
  8
0
 48
10.0
100
AcDbLine
 10
815.4835394579503
 20
-2104.155883096705
 30
0.0
 11
811.3212781866895
 21
-2104.155883096705
 31
0.0
  0
LINE
  5
24904
330
18
100
AcDbEntity
  8
0
 48
10.0
100
AcDbLine
 10
811.3212781866895
 20
-2094.648844352946
 30
0.0
 11
815.4835394579503
 21
-2094.648844352946
 31
0.0
  0
LINE
  5
24905
330
18
100
AcDbEntity
  8
0
100
AcDbLine
 10
815.4835394579503
 20
-2094.648844352946
 30
0.0
 11
815.4835394579503
 21
-2104.155883096705
 31
0.0
  0
LINE
  5
24906
330
18
100
AcDbEntity
  8
0
100
AcDbLine
 10
815.4835394579503
 20
-1997.005635447401
 30
0.0
 11
815.4835394579503
 21
-2006.512674191159
 31
0.0
  0
LINE
  5
24DD6
330
18
100
AcDbEntity
  8
0
  6
CENTER
 48
0.6
100
AcDbLine
 10
820.2972861819091
 20
-1992.571397511127
 30
0.0
 11
802.836211982265
 21
-1992.571397511127
 31
0.0
  0
LINE
  5
24DD7
330
18
100
AcDbEntity
  8
0
  6
CENTER
 48
0.6
100
AcDbLine
 10
819.8063443911141
 20
-1968.571397511129
 30
0.0
 11
802.836211982265
 21
-1968.571397511129
 31
0.0
  0
LINE
  5
2531D
330
18
100
AcDbEntity
  8
0
 48
0.3
100
AcDbLine
 10
381.0510631210806
 20
-1929.571362882768
 30
0.0
 11
381.0510631210806
 21
-1947.582608025075
 31
0.0
  0
LINE
  5
25321
330
18
100
AcDbEntity
  8
0
 48
0.3
100
AcDbLine
 10
381.0510631210807
 20
-1991.588152368822
 30
0.0
 11
381.0510631210807
 21
-2009.571362882768
 31
0.0
  0
MTEXT
  5
253A4
102
{ACAD_REACTORS
330
253A5
102
}
330
18
100
AcDbEntity
  8
文字
100
AcDbMText
 10
995.8914084890556
 20
-1732.337357187565
 30
0.0
 40
6.0
 41
0.0
 71
     7
 72
     1
  1
組合せマグネットベース\PＭＢＭシリーズ
  7
まこ
1001
ACAD
1000
MTEXTBEGIN
1070
    73
1070
     1
1070
    44
1040
1.0
1070
    74
1070
     0
1000
MTEXTEND
  0
LEADER
  5
253A5
330
18
100
AcDbEntity
  8
文字
100
AcDbLeader
  3
まこ
 73
     0
 74
     0
 75
     1
 40
16.0
 41
78.28571428571429
 76
     3
 10
998.5202641403727
 20
-1704.676192061547
 30
0.0
 10
987.5243796934187
 20
-1736.689040567705
 30
0.0
 10
992.5243796934188
 20
-1736.689040567705
 30
0.0
340
253A4
213
-2.36702879563677
223
-3.351683380139774
233
0.0
1001
ACAD
1000
DSTYLE
1002
{
1070
     5
1000
OPEN30
1070
    77
1070
     1
1070
   147
1040
0.5
1002
}
  0
LEADER
  5
253A6
330
18
100
AcDbEntity
  8
0
100
AcDbLeader
  3
まこ
 73
     0
 74
     0
 75
     1
 40
6.0
 41
40.51428571428572
 76
     3
 10
964.6202641403728
 20
-1700.489777322321
 30
0.0
 10
953.5509910454223
 20
-1753.217361090509
 30
0.0
 10
958.5509910454224
 20
-1753.217361090509
 30
0.0
340
253A7
213
3.880946547140523
223
-0.3494591469520856
233
0.0
1001
ACAD
1000
DSTYLE
1002
{
1070
     5
1000
OPEN30
1070
    77
1070
     1
1070
   147
1040
0.5
1002
}
  0
MTEXT
  5
253A7
102
{ACAD_REACTORS
330
253A6
102
}
330
18
100
AcDbEntity
  8
0
 62
     2
100
AcDbMText
 10
955.6700444982819
 20
-1751.867901943557
 30
0.0
 40
6.0
 41
0.0
 71
     7
 72
     1
  1
\A1;ケーブル位置
  7
まこ
1001
ACAD
1000
MTEXTBEGIN
1070
    73
1070
     1
1070
    44
1040
1.0
1070
    74
1070
     0
1000
MTEXTEND
  0
DIMENSION
  5
253A8
330
18
100
AcDbEntity
  8
0
100
AcDbDimension
  2
*D23
 10
955.4202641403728
 20
-1740.017384814622
 30
0.0
 11
951.4202641403727
 21
-1736.017384814623
 31
0.0
 70
    32
  3
まこ
100
AcDbAlignedDimension
 13
947.4202641403728
 23
-1704.676148197291
 33
0.0
 14
955.4202641403728
 24
-1692.753042491648
 34
0.0
100
AcDbRotatedDimension
1001
ACAD
1000
DSTYLE
1002
{
1070
   271
1070
     8
1002
}
  0
LEADER
  5
253A9
330
18
100
AcDbEntity
  8
0
100
AcDbLeader
  3
まこ
 73
     0
 75
     1
 40
16.0
 41
64.0
 76
     3
 10
955.419912161366
 20
-1689.676182825619
 30
0.0
 10
950.7447400739051
 20
-1728.574189723532
 30
0.0
 10
945.7447400739052
 20
-1728.574189723532
 30
0.0
340
253BE
213
-1.14948256248499
223
-1.550246572719061
233
0.0
1001
ACAD
1000
DSTYLE
1002
{
1070
     5
1000
OPEN30
1070
    77
1070
     1
1070
   147
1040
0.5
1002
}
  0
CIRCLE
  5
253AA
330
18
100
AcDbEntity
  8
0
100
AcDbCircle
 10
955.4202771842318
 20
-1663.676148197291
 30
0.0
 40
2.0
  0
CIRCLE
  5
253AB
330
18
100
AcDbEntity
  8
0
100
AcDbCircle
 10
955.4202771842318
 20
-1663.676148197291
 30
0.0
 40
1.6
  0
CIRCLE
  5
253AC
330
18
100
AcDbEntity
  8
0
100
AcDbCircle
 10
955.4202771842321
 20
-1687.676148197292
 30
0.0
 40
1.6
  0
CIRCLE
  5
253AD
330
18
100
AcDbEntity
  8
0
100
AcDbCircle
 10
955.4202771842321
 20
-1687.676148197292
 30
0.0
 40
2.0
  0
LINE
  5
253AE
330
18
100
AcDbEntity
  8
0
  6
CENTER
 62
     1
 48
0.6
100
AcDbLine
 10
964.3907284860686
 20
-1663.676148197293
 30
0.0
 11
947.4205960772192
 21
-1663.676148197293
 31
0.0
  0
LINE
  5
253AF
330
18
100
AcDbEntity
  8
0
  6
CENTER
 62
     1
 48
0.6
100
AcDbLine
 10
964.8813295554907
 20
-1687.676148197292
 30
0.0
 11
947.4202553558464
 21
-1687.676148197292
 31
0.0
  0
LINE
  5
253B0
330
18
100
AcDbEntity
  8
0
  6
HIDDEN
 48
0.6
100
AcDbLine
 10
949.4202553558467
 20
-1700.704148197291
 30
0.0
 11
961.4202553558467
 21
-1700.704148197291
 31
0.0
  0
LINE
  5
253B1
330
18
100
AcDbEntity
  8
0
  6
HIDDEN
 48
0.6
100
AcDbLine
 10
961.4202553558467
 20
-1628.704148197292
 30
0.0
 11
949.4202553558467
 21
-1628.704148197292
 31
0.0
  0
LINE
  5
253B2
330
18
100
AcDbEntity
  8
0
 62
     4
100
AcDbLine
 10
947.4202553558468
 20
-1567.376535765014
 30
0.0
 11
1003.42026414037
 21
-1567.376535765014
 31
0.0
  0
LINE
  5
253B3
330
18
100
AcDbEntity
  8
0
  6
CENTER
 62
     1
 48
0.6
100
AcDbLine
 10
943.7406190571293
 20
-1697.172039951524
 30
0.0
 11
960.6013139265401
 21
-1697.172039951524
 31
0.0
  0
LINE
  5
253B4
330
18
100
AcDbEntity
  8
0
  6
CENTER
 62
     1
 48
0.6
100
AcDbLine
 10
943.7406190571293
 20
-1632.200174747367
 30
0.0
 11
965.7166709622073
 21
-1632.200174747367
 31
0.0
  0
CIRCLE
  5
253B5
330
18
100
AcDbEntity
  8
0
  6
HIDDEN
 48
0.6
100
AcDbCircle
 10
955.4198839497036
 20
-1634.688275236121
 30
0.0
 40
4.0
  0
DIMENSION
  5
253B6
330
18
100
AcDbEntity
  8
文字
100
AcDbDimension
  2
*D15
 10
1003.42026414037
 20
-1567.376535765014
 30
0.0
 11
975.4202597481096
 21
-1567.376535765014
 31
0.0
 70
   160
  1
<>（取付寸法）
  3
まこ
100
AcDbAlignedDimension
 13
947.4202641403728
 23
-1624.676192061547
 33
0.0
 14
1003.42026414037
 24
-1624.676192061547
 34
0.0
100
AcDbRotatedDimension
1001
ACAD
1000
DSTYLE
1002
{
1070
   271
1070
     8
1002
}
  0
DIMENSION
  5
253B7
330
18
100
AcDbEntity
  8
文字
100
AcDbDimension
  2
*D14
 10
987.4202641403726
 20
-1588.665542817748
 30
0.0
 11
967.4202641403727
 21
-1584.66554281775
 31
0.0
 70
    32
  3
まこ
100
AcDbAlignedDimension
 13
947.4202641403728
 23
-1624.676192061547
 33
0.0
 14
987.4202641403726
 24
-1624.676192061547
 34
0.0
100
AcDbRotatedDimension
1001
ACAD
1000
DSTYLE
1002
{
1070
   271
1070
     8
1002
}
  0
LINE
  5
253B8
330
18
100
AcDbEntity
  8
0
 48
0.3
100
AcDbLine
 10
947.4202641403728
 20
-1624.676148197291
 30
0.0
 11
987.4202641403726
 21
-1624.676148197291
 31
0.0
  0
DIMENSION
  5
253B9
330
18
100
AcDbEntity
  8
文字
100
AcDbDimension
  2
*D13
 10
947.9202641403727
 20
-1655.75164444176
 30
0.0
 11
930.1345498546583
 21
-1655.75164444176
 31
0.0
 70
   160
  3
まこ
100
AcDbAlignedDimension
 13
947.4202641403726
 23
-1642.687393339599
 33
0.0
 14
947.9202641403727
 24
-1642.687393339599
 34
0.0
100
AcDbRotatedDimension
1001
ACAD
1000
DSTYLE
1002
{
1070
   271
1070
     8
1002
}
  0
CIRCLE
  5
253BA
330
18
100
AcDbEntity
  8
0
  6
HIDDEN
 48
0.6
100
AcDbCircle
 10
955.4198839497036
 20
-1694.688275236121
 30
0.0
 40
4.0
  0
LINE
  5
253BB
330
18
100
AcDbEntity
  8
0
 48
0.3
100
AcDbLine
 10
987.4202641403726
 20
-1704.676148197291
 30
0.0
 11
947.4202641403728
 21
-1704.676148197291
 31
0.0
  0
LINE
  5
253BC
330
18
100
AcDbEntity
  8
0
  6
CENTER
 62
     1
 48
0.6
100
AcDbLine
 10
935.5776686414303
 20
-1664.67614819729
 30
0.0
 11
1014.635777979242
 21
-1664.67614819729
 31
0.0
  0
LINE
  5
253BD
330
18
100
AcDbEntity
  8
0
  6
CENTER
 62
     1
 48
0.3
100
AcDbLine
 10
943.7406190571293
 20
-1697.172039951524
 30
0.0
 11
960.6013139265401
 21
-1697.172039951524
 31
0.0
  0
MTEXT
  5
253BE
102
{ACAD_REACTORS
330
253A9
102
}
330
18
100
AcDbEntity
  8
0
100
AcDbMText
 10
945.8942226363904
 20
-1726.023943150813
 30
0.0
 40
6.0
 41
0.0
 71
     9
 72
     1
  1
\A1;2-M4ﾈｼﾞ深10\Pｵﾌﾟｼｮﾝ磁極ｾﾝｻ取付用
  7
まこ
1001
ACAD
1000
MTEXTBEGIN
1070
    73
1070
     1
1070
    44
1040
1.0
1070
    74
1070
     0
1000
MTEXTEND
  0
DIMENSION
  5
253BF
330
18
100
AcDbEntity
  8
文字
100
AcDbDimension
  2
*D12
 10
920.1356786758864
 20
-1642.676148197292
 30
0.0
 11
920.1356786758866
 21
-1633.676148197292
 31
0.0
 70
   160
  1
（<>）
  3
まこ
100
AcDbAlignedDimension
 13
947.4202641403728
 23
-1624.676148197291
 33
0.0
 14
947.4202553558468
 24
-1642.676148197292
 34
0.0
 50
90.0
100
AcDbRotatedDimension
1001
ACAD
1000
DSTYLE
1002
{
1070
   271
1070
     6
1002
}
  0
DIMENSION
  5
253C0
330
18
100
AcDbEntity
  8
文字
100
AcDbDimension
  2
*D22
 10
920.1356786758864
 20
-1704.676148197291
 30
0.0
 11
920.1356786758866
 21
-1695.676148197291
 31
0.0
 70
   160
  1
（<>）
  3
まこ
100
AcDbAlignedDimension
 13
947.4202553558468
 23
-1686.676148197292
 33
0.0
 14
947.4202553558468
 24
-1704.676148197291
 34
0.0
 50
90.0
100
AcDbRotatedDimension
1001
ACAD
1000
DSTYLE
1002
{
1070
   271
1070
     8
1002
}
  0
DIMENSION
  5
253C1
330
18
100
AcDbEntity
  8
文字
100
AcDbDimension
  2
*D21
 10
920.1356786758864
 20
-1686.676148197292
 30
0.0
 11
919.0518735737017
 21
-1664.547413908173
 31
0.0
 70
   160
  3
まこ
100
AcDbAlignedDimension
 13
947.4202555332075
 23
-1642.676148197157
 33
0.0
 14
947.4202553558468
 24
-1686.676148197292
 34
0.0
 50
90.0
100
AcDbRotatedDimension
1001
ACAD
1000
DSTYLE
1002
{
1070
   287
1070
     4
1070
   271
1070
     6
1070
   279
1070
     1
1002
}
  0
LINE
  5
253C2
330
18
100
AcDbEntity
  8
0
 48
0.3
100
AcDbLine
 10
947.9202641403727
 20
-1642.676148197292
 30
0.0
 11
947.9202729248987
 21
-1686.676148197292
 31
0.0
  0
LINE
  5
253C3
330
18
100
AcDbEntity
  8
0
  6
HIDDEN
 48
0.6
100
AcDbLine
 10
949.4202553558467
 20
-1628.704148197292
 30
0.0
 11
949.4202553558467
 21
-1700.704148197291
 31
0.0
  0
DIMENSION
  5
253C4
330
18
100
AcDbEntity
  8
0
100
AcDbDimension
  2
*D20
 10
930.5604907843264
 20
-1663.676182825653
 30
0.0
 11
926.5604907843266
 21
-1675.676182825653
 31
0.0
 70
    32
  3
まこ
100
AcDbAlignedDimension
 13
947.4202553558468
 23
-1687.676182825653
 33
0.0
 14
947.4202553558468
 24
-1663.676182825653
 34
0.0
 50
90.0
100
AcDbRotatedDimension
1001
ACAD
1000
DSTYLE
1002
{
1070
   287
1070
     4
1070
   271
1070
     6
1070
   279
1070
     1
1002
}
  0
DIMENSION
  5
253C5
330
18
100
AcDbEntity
  8
0
100
AcDbDimension
  2
*D19
 10
930.5604907843264
 20
-1687.676182825653
 30
0.0
 11
926.5604907843266
 21
-1696.176182825653
 31
0.0
 70
    32
  3
まこ
100
AcDbAlignedDimension
 13
947.4202553558468
 23
-1704.676182825653
 33
0.0
 14
947.4202553558468
 24
-1687.676182825653
 34
0.0
 50
90.0
100
AcDbRotatedDimension
1001
ACAD
1000
DSTYLE
1002
{
1070
   271
1070
     6
1002
}
  0
LINE
  5
253C6
330
18
100
AcDbEntity
  8
0
 48
0.3
100
AcDbLine
 10
947.4202641403728
 20
-1686.676148197292
 30
0.0
 11
947.4202641403728
 21
-1704.676148197291
 31
0.0
  0
LINE
  5
253C7
330
18
100
AcDbEntity
  8
0
 62
     4
100
AcDbLine
 10
947.4202553558468
 20
-1740.017384814622
 30
0.0
 11
955.419894842586
 21
-1740.017384814622
 31
0.0
  0
LINE
  5
253C8
330
18
100
AcDbEntity
  8
0
  6
CENTER
 62
     1
 48
0.6
100
AcDbLine
 10
955.4204433326857
 20
-1658.158198585166
 30
0.0
 11
955.420248608013
 21
-1692.753042491648
 31
0.0
  0
LINE
  5
253C9
330
18
100
AcDbEntity
  8
0
 62
     4
100
AcDbLine
 10
947.4202553558468
 20
-1655.75164444176
 30
0.0
 11
947.9210957970675
 21
-1655.75164444176
 31
0.0
  0
LINE
  5
253CA
330
18
100
AcDbEntity
  8
0
 48
0.3
100
AcDbLine
 10
947.9202729248987
 20
-1686.676148197292
 30
0.0
 11
947.4202641403728
 21
-1686.676148197292
 31
0.0
  0
LINE
  5
253CB
330
18
100
AcDbEntity
  8
0
 48
0.3
100
AcDbLine
 10
947.4202641403728
 20
-1642.676148197292
 30
0.0
 11
947.9202641403745
 21
-1642.676156083401
 31
0.0
  0
LINE
  5
253CC
330
18
100
AcDbEntity
  8
0
 48
0.3
100
AcDbLine
 10
947.4202641403728
 20
-1624.676148197291
 30
0.0
 11
947.4202641403726
 21
-1642.676148197292
 31
0.0
  0
LINE
  5
253CD
330
18
100
AcDbEntity
  8
0
 62
     4
100
AcDbLine
 10
993.6202641403728
 20
-1601.152806850004
 30
0.0
 11
1003.42026414037
 21
-1601.152806850004
 31
0.0
  0
LINE
  5
253CE
330
18
100
AcDbEntity
  8
0
 62
     4
100
AcDbLine
 10
992.3044166662814
 20
-1576.806437649429
 30
0.0
 11
1029.566992130934
 21
-1576.806437649429
 31
0.0
  0
DIMENSION
  5
253CF
330
18
100
AcDbEntity
  8
文字
100
AcDbDimension
  2
*D18
 10
1003.42026414037
 20
-1601.152806850004
 30
0.0
 11
1020.705978426087
 21
-1597.152806850004
 31
0.0
 70
    32
  3
まこ
100
AcDbAlignedDimension
 13
993.6202641403728
 23
-1624.676192061547
 33
0.0
 14
1003.42026414037
 24
-1624.676192061547
 34
0.0
100
AcDbRotatedDimension
1001
ACAD
1000
DSTYLE
1002
{
1070
   271
1070
     8
1002
}
  0
LINE
  5
253D0
102
{ACAD_REACTORS
330
25503
102
}
330
18
100
AcDbEntity
  8
0
  6
PHANTOM
 48
0.6
100
AcDbLine
 10
993.6202641403728
 20
-1624.676192061547
 30
0.0
 11
1003.42026414037
 21
-1624.676192061547
 31
0.0
  0
LINE
  5
253D1
330
18
100
AcDbEntity
  8
隠れ線
  6
HIDDEN
 48
0.6
100
AcDbLine
 10
1000.420264140372
 20
-1637.676848197292
 30
0.0
 11
993.6202641403728
 21
-1637.676848197292
 31
0.0
  0
LINE
  5
253D2
330
18
100
AcDbEntity
  8
隠れ線
  6
HIDDEN
 48
0.6
100
AcDbLine
 10
1000.420264140372
 20
-1626.676848197292
 30
0.0
 11
993.6202641403728
 21
-1626.676848197292
 31
0.0
  0
DIMENSION
  5
253D3
330
18
100
AcDbEntity
  8
文字
100
AcDbDimension
  2
*D17
 10
988.4202641403728
 20
-1588.665542817748
 30
0.0
 11
1007.437583961147
 21
-1573.23388034183
 31
0.0
 70
   160
  3
まこ
100
AcDbAlignedDimension
 13
987.4202641403726
 23
-1624.676192061547
 33
0.0
 14
988.4202641403728
 24
-1639.701237239195
 34
0.0
100
AcDbRotatedDimension
1001
ACAD
1000
DSTYLE
1002
{
1070
   287
1070
     5
1070
   271
1070
     8
1070
   279
1070
     2
1002
}
  0
DIMENSION
  5
253D4
330
18
100
AcDbEntity
  8
文字
100
AcDbDimension
  2
*D16
 10
1003.42026414037
 20
-1588.665542817748
 30
0.0
 11
995.9202641403727
 21
-1584.66554281775
 31
0.0
 70
    32
  3
まこ
100
AcDbAlignedDimension
 13
988.4202641403728
 23
-1639.701237239195
 33
0.0
 14
1003.42026414037
 24
-1624.676192061547
 34
0.0
100
AcDbRotatedDimension
  0
LINE
  5
253D5
330
18
100
AcDbEntity
  8
0
  6
CENTER
 62
     1
 48
0.6
100
AcDbLine
 10
1013.298145251515
 20
-1632.176848197292
 30
0.0
 11
984.3799839062331
 21
-1632.176848197292
 31
0.0
  0
LINE
  5
253D6
102
{ACAD_REACTORS
330
25503
102
}
330
18
100
AcDbEntity
  8
0
  6
PHANTOM
 48
0.6
100
AcDbLine
 10
1003.42026414037
 20
-1704.676192061547
 30
0.0
 11
993.6202641403728
 21
-1704.676192061547
 31
0.0
  0
LINE
  5
253D7
330
18
100
AcDbEntity
  8
隠れ線
  6
HIDDEN
 48
0.6
100
AcDbLine
 10
1000.420264140372
 20
-1702.676848197292
 30
0.0
 11
993.6202641403728
 21
-1702.676848197292
 31
0.0
  0
LINE
  5
253D8
330
18
100
AcDbEntity
  8
隠れ線
  6
HIDDEN
 48
0.6
100
AcDbLine
 10
1000.420264140372
 20
-1691.676848197292
 30
0.0
 11
993.6202641403728
 21
-1691.676848197292
 31
0.0
  0
LINE
  5
253D9
330
18
100
AcDbEntity
  8
0
  6
CENTER
 62
     1
 48
0.6
100
AcDbLine
 10
1013.298145251515
 20
-1697.176848197291
 30
0.0
 11
984.33783978244
 21
-1697.176848197291
 31
0.0
  0
LINE
  5
253DA
330
18
100
AcDbEntity
  8
0
  6
HIDDEN
 48
0.6
100
AcDbLine
 10
961.4202553558467
 20
-1694.921075723994
 30
0.0
 11
961.4202553558467
 21
-1628.704148197292
 31
0.0
  0
LINE
  5
253DB
102
{ACAD_REACTORS
330
25503
102
}
330
18
100
AcDbEntity
  8
0
  6
PHANTOM
 48
0.6
100
AcDbLine
 10
993.6202641403728
 20
-1704.676192061547
 30
0.0
 11
993.6202641403728
 21
-1624.676192061547
 31
0.0
  0
LWPOLYLINE
  5
253DC
102
{ACAD_REACTORS
330
25503
102
}
330
18
100
AcDbEntity
  8
0
  6
PHANTOM
 48
0.6
100
AcDbPolyline
 90
        4
 70
     1
 43
0.0
 10
988.4202641403728
 20
-1639.701237239195
 10
993.6202641403728
 20
-1639.701237239195
 10
993.6202641403728
 20
-1689.676720922201
 10
988.4202641403728
 20
-1689.676720922201
  0
LINE
  5
253DD
330
18
100
AcDbEntity
  8
0
 48
0.3
100
AcDbLine
 10
987.4202641403726
 20
-1624.676192061547
 30
0.0
 11
987.4202641403726
 21
-1704.676182825653
 31
0.0
  0
LINE
  5
253DE
330
18
100
AcDbEntity
  8
0
  6
CENTER
 62
     1
 48
0.3
100
AcDbLine
 10
964.6202641403728
 20
-1691.83661041968
 30
0.0
 11
964.6202641403728
 21
-1701.315887495968
 31
0.0
  0
LINE
  5
253DF
330
18
100
AcDbEntity
  8
細線
100
AcDbLine
 10
964.6202641403728
 20
-1695.108415872685
 30
0.0
 11
966.313600748016
 21
-1693.415079265042
 31
0.0
  0
LINE
  5
253E0
330
18
100
AcDbEntity
  8
細線
100
AcDbLine
 10
964.6202641403728
 20
-1695.99229934917
 30
0.0
 11
966.8588437778948
 21
-1693.753719711647
 31
0.0
  0
LINE
  5
253E1
330
18
100
AcDbEntity
  8
細線
100
AcDbLine
 10
964.6202641403728
 20
-1696.876182825652
 30
0.0
 11
967.3272909051272
 21
-1694.169156060898
 31
0.0
  0
CIRCLE
  5
253E2
330
18
100
AcDbEntity
  8
実線
100
AcDbCircle
 10
964.6202641403728
 20
-1696.74977732232
 30
0.0
 40
3.74
  0
LINE
  5
253E3
330
18
100
AcDbEntity
  8
細線
100
AcDbLine
 10
965.5041476168563
 20
-1696.876182825652
 30
0.0
 11
967.7212955778028
 21
-1694.659034864706
 31
0.0
  0
LINE
  5
253E4
330
18
100
AcDbEntity
  8
0
  6
CENTER
 62
     1
 48
0.3
100
AcDbLine
 10
969.2479840124107
 20
-1696.876182825652
 30
0.0
 11
959.1159222118953
 21
-1696.876182825652
 31
0.0
  0
LINE
  5
253E5
330
18
100
AcDbEntity
  8
0
  6
HIDDEN
 48
0.6
100
AcDbLine
 10
961.4202553558467
 20
-1700.704148197291
 30
0.0
 11
961.4202553558467
 21
-1698.831289927311
 31
0.0
  0
LINE
  5
253E6
330
18
100
AcDbEntity
  8
細線
100
AcDbLine
 10
961.2855660830947
 20
-1698.443113929964
 30
0.0
 11
962.8524971874067
 21
-1696.876182825652
 31
0.0
  0
LINE
  5
253E7
330
18
100
AcDbEntity
  8
細線
100
AcDbLine
 10
961.6242065296999
 20
-1698.988356959842
 30
0.0
 11
963.73638066389
 21
-1696.876182825652
 31
0.0
  0
LINE
  5
253E8
330
18
100
AcDbEntity
  8
細線
100
AcDbLine
 10
962.0396428789506
 20
-1699.456804087073
 30
0.0
 11
964.6202641403728
 21
-1696.876182825652
 31
0.0
  0
LINE
  5
253E9
330
18
100
AcDbEntity
  8
細線
100
AcDbLine
 10
962.5295216827586
 20
-1699.85080875975
 30
0.0
 11
964.6202641403728
 21
-1697.760066302135
 31
0.0
  0
LINE
  5
253EA
330
18
100
AcDbEntity
  8
細線
100
AcDbLine
 10
963.0981748631255
 20
-1700.166039055866
 30
0.0
 11
964.6202641403728
 21
-1698.643949778618
 31
0.0
  0
LINE
  5
253EB
330
18
100
AcDbEntity
  8
細線
100
AcDbLine
 10
963.7588696334081
 20
-1700.389227762066
 30
0.0
 11
964.6202641403728
 21
-1699.527833255102
 31
0.0
  0
LINE
  5
253EC
330
18
100
AcDbEntity
  8
細線
100
AcDbLine
 10
961.0339410692796
 20
-1697.810855467293
 30
0.0
 11
961.9686137109241
 21
-1696.87618282565
 31
0.0
  0
LINE
  5
253ED
330
18
100
AcDbEntity
  8
細線
100
AcDbLine
 10
960.8937551120197
 20
-1697.067157948072
 30
0.0
 11
961.0847302344419
 21
-1696.87618282565
 31
0.0
  0
LINE
  5
253EE
330
18
100
AcDbEntity
  8
細線
100
AcDbLine
 10
966.3880310933397
 20
-1696.876182825652
 30
0.0
 11
968.0365258739183
 21
-1695.227688045072
 31
0.0
  0
LINE
  5
253EF
330
18
100
AcDbEntity
  8
細線
100
AcDbLine
 10
967.2719145698232
 20
-1696.876182825652
 30
0.0
 11
968.2597145801192
 21
-1695.888382815356
 31
0.0
  0
LINE
  5
253F0
330
18
100
AcDbEntity
  8
細線
100
AcDbLine
 10
968.1557980463068
 20
-1696.876182825652
 30
0.0
 11
968.3594659956405
 21
-1696.672514876318
 31
0.0
  0
LINE
  5
253F1
330
18
100
AcDbEntity
  8
細線
100
AcDbLine
 10
964.6202641403728
 20
-1693.340648919718
 30
0.0
 11
964.9376447661238
 21
-1693.023268293967
 31
0.0
  0
LINE
  5
253F2
330
18
100
AcDbEntity
  8
細線
100
AcDbLine
 10
964.6202641403728
 20
-1694.224532396203
 30
0.0
 11
965.6813422853476
 21
-1693.163454251227
 31
0.0
  0
LINE
  5
253F3
330
18
100
AcDbEntity
  8
0
 62
     4
100
AcDbLine
 10
987.9202641403727
 20
-1588.665542817748
 30
0.0
 11
992.3044166662814
 21
-1576.806437649429
 31
0.0
  0
LINE
  5
253F4
330
18
100
AcDbEntity
  8
0
 62
     4
100
AcDbLine
 10
987.4202641403726
 20
-1588.665542817748
 30
0.0
 11
988.4202641403728
 21
-1588.665542817748
 31
0.0
  0
LINE
  5
253F5
102
{ACAD_REACTORS
330
25503
102
}
330
18
100
AcDbEntity
  8
0
  6
PHANTOM
 48
0.6
100
AcDbLine
 10
1003.42026414037
 20
-1624.676192061547
 30
0.0
 11
1003.42026414037
 21
-1704.676192061547
 31
0.0
  0
LINE
  5
253F6
330
18
100
AcDbEntity
  8
隠れ線
 48
0.6
100
AcDbLine
 10
1000.420264140372
 20
-1702.676848197292
 30
0.0
 11
1000.420264140372
 21
-1691.676848197292
 31
0.0
  0
LINE
  5
253F7
330
18
100
AcDbEntity
  8
隠れ線
  6
HIDDEN
 48
0.6
100
AcDbLine
 10
1003.42026414037
 20
-1700.426848197292
 30
0.0
 11
1000.420264140372
 21
-1700.426848197292
 31
0.0
  0
LINE
  5
253F8
330
18
100
AcDbEntity
  8
隠れ線
  6
HIDDEN
 48
0.6
100
AcDbLine
 10
1003.42026414037
 20
-1693.926848197292
 30
0.0
 11
1000.420264140372
 21
-1693.926848197292
 31
0.0
  0
TEXT
  5
253F9
330
18
100
AcDbEntity
  8
文字
100
AcDbText
 10
1009.123733594143
 20
-1576.087525634624
 30
0.0
 40
6.0
  1
（ギャップ）
 41
0.6
  7
ｽﾀｲﾙ3
100
AcDbText
  0
LINE
  5
253FA
330
18
100
AcDbEntity
  8
隠れ線
 48
0.6
100
AcDbLine
 10
1000.420264140372
 20
-1637.676848197292
 30
0.0
 11
1000.420264140372
 21
-1626.676848197292
 31
0.0
  0
LINE
  5
253FB
330
18
100
AcDbEntity
  8
隠れ線
  6
HIDDEN
 48
0.6
100
AcDbLine
 10
1003.42026414037
 20
-1635.426848197291
 30
0.0
 11
1000.420264140372
 21
-1635.426848197291
 31
0.0
  0
LINE
  5
253FC
330
18
100
AcDbEntity
  8
隠れ線
  6
HIDDEN
 48
0.6
100
AcDbLine
 10
1003.42026414037
 20
-1628.926848197291
 30
0.0
 11
1000.420264140372
 21
-1628.926848197291
 31
0.0
  0
LINE
  5
258E7
102
{ACAD_REACTORS
330
25A46
102
}
330
18
100
AcDbEntity
  8
0
  6
PHANTOM
 48
0.6
100
AcDbLine
 10
1001.420264140371
 20
-1929.571406747023
 30
0.0
 11
1001.420264140371
 21
-2009.571406747022
 31
0.0
  0
LINE
  5
258E8
330
18
100
AcDbEntity
  8
0
 48
0.3
100
AcDbLine
 10
987.4202641403726
 20
-1929.571406747023
 30
0.0
 11
987.4202641403726
 21
-2009.571397511129
 31
0.0
  0
LWPOLYLINE
  5
258E9
102
{ACAD_REACTORS
330
25A46
102
}
330
18
100
AcDbEntity
  8
0
  6
PHANTOM
 48
0.6
100
AcDbPolyline
 90
        4
 70
     1
 43
0.0
 10
988.6202641403727
 20
-1944.596451924672
 10
993.6202641403728
 20
-1944.596451924672
 10
993.6202641403728
 20
-1994.571935607677
 10
988.6202641403727
 20
-1994.571935607677
  0
LINE
  5
258EA
102
{ACAD_REACTORS
330
25A46
102
}
330
18
100
AcDbEntity
  8
0
  6
PHANTOM
 48
0.6
100
AcDbLine
 10
993.6202641403728
 20
-2009.571406747022
 30
0.0
 11
993.6202641403728
 21
-1929.571406747023
 31
0.0
  0
LINE
  5
258EB
330
18
100
AcDbEntity
  8
0
  6
HIDDEN
 48
0.6
100
AcDbLine
 10
961.4202553558467
 20
-1999.816290409469
 30
0.0
 11
961.4202553558467
 21
-1933.599362882768
 31
0.0
  0
LINE
  5
258EC
330
18
100
AcDbEntity
  8
0
  6
CENTER
 48
0.6
100
AcDbLine
 10
955.4204433326857
 20
-1963.053413270642
 30
0.0
 11
955.420248608013
 21
-1997.648257177123
 31
0.0
  0
LINE
  5
258EE
330
18
100
AcDbEntity
  8
0
  6
HIDDEN
 48
0.6
100
AcDbLine
 10
949.4202553558467
 20
-1933.599362882768
 30
0.0
 11
949.4202553558467
 21
-2005.599362882767
 31
0.0
  0
LINE
  5
258EF
330
18
100
AcDbEntity
  8
0
 48
0.3
100
AcDbLine
 10
947.9202641403727
 20
-1947.571362882768
 30
0.0
 11
947.9202729248987
 21
-1991.571362882768
 31
0.0
  0
LINE
  5
258F5
330
18
100
AcDbEntity
  8
0
  6
CENTER
 48
0.3
100
AcDbLine
 10
943.7406190571293
 20
-2002.067254637
 30
0.0
 11
960.6013139265401
 21
-2002.067254637
 31
0.0
  0
LINE
  5
258F6
330
18
100
AcDbEntity
  8
0
 48
0.3
100
AcDbLine
 10
987.4202641403726
 20
-2009.571362882768
 30
0.0
 11
947.4202641403728
 21
-2009.571362882768
 31
0.0
  0
CIRCLE
  5
258F7
330
18
100
AcDbEntity
  8
0
  6
HIDDEN
 48
0.6
100
AcDbCircle
 10
955.4198839497036
 20
-1999.583489921597
 30
0.0
 40
4.0
  0
LINE
  5
258F8
330
18
100
AcDbEntity
  8
0
  6
CENTER
 48
0.6
100
AcDbLine
 10
943.7406190571293
 20
-2002.067254637
 30
0.0
 11
960.6013139265401
 21
-2002.067254637
 31
0.0
  0
LINE
  5
258F9
330
18
100
AcDbEntity
  8
0
  6
HIDDEN
 48
0.6
100
AcDbLine
 10
949.4202553558467
 20
-2005.599362882767
 30
0.0
 11
961.4202553558467
 21
-2005.599362882767
 31
0.0
  0
LINE
  5
258FA
330
18
100
AcDbEntity
  8
0
  6
CENTER
 48
0.6
100
AcDbLine
 10
964.8813295554907
 20
-1992.571362882769
 30
0.0
 11
947.4202553558464
 21
-1992.571362882769
 31
0.0
  0
CIRCLE
  5
258FB
330
18
100
AcDbEntity
  8
0
100
AcDbCircle
 10
955.4202771842321
 20
-1992.571362882769
 30
0.0
 40
2.0
  0
CIRCLE
  5
258FC
330
18
100
AcDbEntity
  8
0
100
AcDbCircle
 10
955.4202771842321
 20
-1992.571362882769
 30
0.0
 40
1.6
  0
LINE
  5
25902
330
18
100
AcDbEntity
  8
0
 48
0.3
100
AcDbLine
 10
947.9202729248987
 20
-1991.571362882768
 30
0.0
 11
947.4202641403728
 21
-1991.571362882768
 31
0.0
  0
LINE
  5
25903
330
18
100
AcDbEntity
  8
0
 48
0.3
100
AcDbLine
 10
947.4202641403728
 20
-1991.571362882768
 30
0.0
 11
947.4202641403728
 21
-2009.571362882768
 31
0.0
  0
LINE
  5
25904
330
18
100
AcDbEntity
  8
0
  6
CENTER
 48
0.6
100
AcDbLine
 10
1011.298145251515
 20
-2002.072062882768
 30
0.0
 11
984.33783978244
 21
-2002.072062882768
 31
0.0
  0
LINE
  5
25907
102
{ACAD_REACTORS
330
25A46
102
}
330
18
100
AcDbEntity
  8
0
  6
PHANTOM
 48
0.6
100
AcDbLine
 10
1001.420264140371
 20
-2009.571406747022
 30
0.0
 11
993.6202641403728
 21
-2009.571406747022
 31
0.0
  0
LINE
  5
25909
330
18
100
AcDbEntity
  8
0
  6
CENTER
 48
0.3
100
AcDbLine
 10
969.2479840124107
 20
-2001.771397511129
 30
0.0
 11
959.1159222118953
 21
-2001.771397511129
 31
0.0
  0
LINE
  5
2590A
330
18
100
AcDbEntity
  8
細線
100
AcDbLine
 10
965.5041476168563
 20
-2001.771397511129
 30
0.0
 11
967.7212955778028
 21
-1999.554249550182
 31
0.0
  0
CIRCLE
  5
2590B
330
18
100
AcDbEntity
  8
実線
100
AcDbCircle
 10
964.6202641403728
 20
-2001.644992007796
 30
0.0
 40
3.74
  0
LINE
  5
2590C
330
18
100
AcDbEntity
  8
細線
100
AcDbLine
 10
964.6202641403728
 20
-2001.771397511129
 30
0.0
 11
967.3272909051272
 21
-1999.064370746375
 31
0.0
  0
LINE
  5
2590D
330
18
100
AcDbEntity
  8
細線
100
AcDbLine
 10
964.6202641403728
 20
-2000.887514034646
 30
0.0
 11
966.8588437778948
 21
-1998.648934397124
 31
0.0
  0
LINE
  5
2590E
330
18
100
AcDbEntity
  8
細線
100
AcDbLine
 10
964.6202641403728
 20
-2000.003630558162
 30
0.0
 11
966.313600748016
 21
-1998.310293950518
 31
0.0
  0
LINE
  5
2590F
330
18
100
AcDbEntity
  8
細線
100
AcDbLine
 10
964.6202641403728
 20
-1999.119747081676
 30
0.0
 11
965.6813422853476
 21
-1998.058668936701
 31
0.0
  0
LINE
  5
25910
330
18
100
AcDbEntity
  8
細線
100
AcDbLine
 10
964.6202641403728
 20
-1998.235863605194
 30
0.0
 11
964.9376447661238
 21
-1997.918482979443
 31
0.0
  0
LINE
  5
25911
330
18
100
AcDbEntity
  8
細線
100
AcDbLine
 10
960.8937551120197
 20
-2001.962372633548
 30
0.0
 11
961.0847302344419
 21
-2001.771397511125
 31
0.0
  0
LINE
  5
25912
330
18
100
AcDbEntity
  8
細線
100
AcDbLine
 10
961.0339410692796
 20
-2002.706070152771
 30
0.0
 11
961.9686137109241
 21
-2001.771397511127
 31
0.0
  0
LINE
  5
25913
330
18
100
AcDbEntity
  8
細線
100
AcDbLine
 10
963.7588696334081
 20
-2005.284442447543
 30
0.0
 11
964.6202641403728
 21
-2004.423047940578
 31
0.0
  0
LINE
  5
25914
330
18
100
AcDbEntity
  8
細線
100
AcDbLine
 10
963.0981748631255
 20
-2005.061253741342
 30
0.0
 11
964.6202641403728
 21
-2003.539164464095
 31
0.0
  0
LINE
  5
25915
330
18
100
AcDbEntity
  8
細線
100
AcDbLine
 10
962.5295216827586
 20
-2004.746023445227
 30
0.0
 11
964.6202641403728
 21
-2002.655280987612
 31
0.0
  0
LINE
  5
25916
330
18
100
AcDbEntity
  8
細線
100
AcDbLine
 10
962.0396428789506
 20
-2004.35201877255
 30
0.0
 11
964.6202641403728
 21
-2001.771397511129
 31
0.0
  0
LINE
  5
25917
330
18
100
AcDbEntity
  8
細線
100
AcDbLine
 10
961.6242065296999
 20
-2003.883571645319
 30
0.0
 11
963.73638066389
 21
-2001.771397511129
 31
0.0
  0
LINE
  5
25918
330
18
100
AcDbEntity
  8
細線
100
AcDbLine
 10
961.2855660830947
 20
-2003.338328615439
 30
0.0
 11
962.8524971874067
 21
-2001.771397511128
 31
0.0
  0
LINE
  5
25919
330
18
100
AcDbEntity
  8
0
  6
HIDDEN
 48
0.6
100
AcDbLine
 10
961.4202553558467
 20
-2005.599362882767
 30
0.0
 11
961.4202553558467
 21
-2003.726504612787
 31
0.0
  0
LINE
  5
2591A
330
18
100
AcDbEntity
  8
0
  6
CENTER
 48
0.3
100
AcDbLine
 10
964.6202641403728
 20
-1996.731825105156
 30
0.0
 11
964.6202641403728
 21
-2006.211102181444
 31
0.0
  0
LINE
  5
2591B
330
18
100
AcDbEntity
  8
細線
100
AcDbLine
 10
968.1557980463068
 20
-2001.771397511129
 30
0.0
 11
968.3594659956405
 21
-2001.567729561795
 31
0.0
  0
LINE
  5
2591C
330
18
100
AcDbEntity
  8
細線
100
AcDbLine
 10
967.2719145698232
 20
-2001.771397511129
 30
0.0
 11
968.2597145801192
 21
-2000.783597500832
 31
0.0
  0
LINE
  5
2591D
330
18
100
AcDbEntity
  8
細線
100
AcDbLine
 10
966.3880310933397
 20
-2001.771397511129
 30
0.0
 11
968.0365258739183
 21
-2000.122902730549
 31
0.0
  0
LINE
  5
25921
330
18
100
AcDbEntity
  8
0
  6
CENTER
 48
0.6
100
AcDbLine
 10
935.5776686414303
 20
-1969.571362882767
 30
0.0
 11
1012.635777979242
 21
-1969.571362882767
 31
0.0
  0
LINE
  5
25923
330
18
100
AcDbEntity
  8
0
 48
0.3
100
AcDbLine
 10
947.4202641403728
 20
-1929.571362882768
 30
0.0
 11
987.4202641403726
 21
-1929.571362882768
 31
0.0
  0
CIRCLE
  5
25926
330
18
100
AcDbEntity
  8
0
  6
HIDDEN
 48
0.6
100
AcDbCircle
 10
955.4198839497036
 20
-1939.583489921597
 30
0.0
 40
4.0
  0
LINE
  5
25927
330
18
100
AcDbEntity
  8
0
  6
CENTER
 48
0.6
100
AcDbLine
 10
943.7406190571293
 20
-1937.095389432843
 30
0.0
 11
965.7166709622073
 21
-1937.095389432843
 31
0.0
  0
LINE
  5
25929
330
18
100
AcDbEntity
  8
0
  6
HIDDEN
 48
0.6
100
AcDbLine
 10
961.4202553558467
 20
-1933.599362882768
 30
0.0
 11
949.4202553558467
 21
-1933.599362882768
 31
0.0
  0
LINE
  5
2592A
330
18
100
AcDbEntity
  8
0
  6
CENTER
 48
0.6
100
AcDbLine
 10
964.3907284860686
 20
-1968.571362882769
 30
0.0
 11
947.4205960772192
 21
-1968.571362882769
 31
0.0
  0
CIRCLE
  5
2592B
330
18
100
AcDbEntity
  8
0
100
AcDbCircle
 10
955.4202771842318
 20
-1968.571362882769
 30
0.0
 40
1.6
  0
CIRCLE
  5
2592C
330
18
100
AcDbEntity
  8
0
100
AcDbCircle
 10
955.4202771842318
 20
-1968.571362882769
 30
0.0
 40
2.0
  0
LINE
  5
2592E
330
18
100
AcDbEntity
  8
0
 48
0.3
100
AcDbLine
 10
947.4202641403728
 20
-1929.571362882768
 30
0.0
 11
947.4202641403726
 21
-1947.571362882768
 31
0.0
  0
LINE
  5
2592F
330
18
100
AcDbEntity
  8
0
 48
0.3
100
AcDbLine
 10
947.4202641403728
 20
-1947.571362882768
 30
0.0
 11
947.9202641403745
 21
-1947.571370768876
 31
0.0
  0
LINE
  5
25930
330
18
100
AcDbEntity
  8
0
100
AcDbLine
 10
947.4202553558468
 20
-1960.646859127236
 30
0.0
 11
947.9210957970675
 21
-1960.646859127236
 31
0.0
  0
LINE
  5
25931
330
18
100
AcDbEntity
  8
0
  6
CENTER
 48
0.6
100
AcDbLine
 10
1011.298145251515
 20
-1937.072062882768
 30
0.0
 11
984.3799839062331
 21
-1937.072062882768
 31
0.0
  0
LINE
  5
25936
102
{ACAD_REACTORS
330
25A46
102
}
330
18
100
AcDbEntity
  8
0
  6
PHANTOM
 48
0.6
100
AcDbLine
 10
993.6202641403728
 20
-1929.571406747023
 30
0.0
 11
1001.420264140371
 21
-1929.571406747023
 31
0.0
  0
LINE
  5
25B1E
330
18
100
AcDbEntity
  8
隠れ線
  6
HIDDEN
 48
0.6
100
AcDbLine
 10
1001.420264140371
 20
-1934.072062882767
 30
0.0
 11
993.6202641403728
 21
-1934.072062882767
 31
0.0
  0
LINE
  5
25B1F
330
18
100
AcDbEntity
  8
隠れ線
  6
HIDDEN
 48
0.6
100
AcDbLine
 10
1001.420264140371
 20
-1940.072062882769
 30
0.0
 11
993.6202641403728
 21
-1940.072062882769
 31
0.0
  0
LINE
  5
25B20
330
18
100
AcDbEntity
  8
隠れ線
  6
HIDDEN
 48
0.6
100
AcDbLine
 10
1001.420264140371
 20
-1999.072062882768
 30
0.0
 11
993.6202641403728
 21
-1999.072062882768
 31
0.0
  0
LINE
  5
25B21
330
18
100
AcDbEntity
  8
隠れ線
  6
HIDDEN
 48
0.6
100
AcDbLine
 10
1001.420264140371
 20
-2005.072062882768
 30
0.0
 11
993.6202641403728
 21
-2005.072062882768
 31
0.0
  0
LINE
  5
25B42
330
18
100
AcDbEntity
  8
隠れ線
 48
0.6
100
AcDbLine
 10
327.0510631210806
 20
-1934.072062882767
 30
0.0
 11
334.8510631210803
 21
-1934.072062882767
 31
0.0
  0
LINE
  5
25B43
330
18
100
AcDbEntity
  8
隠れ線
 48
0.6
100
AcDbLine
 10
327.0510631210806
 20
-1940.072062882769
 30
0.0
 11
334.8510631210803
 21
-1940.072062882768
 31
0.0
  0
LINE
  5
25B44
330
18
100
AcDbEntity
  8
隠れ線
 48
0.6
100
AcDbLine
 10
327.0510631210806
 20
-1999.072062882768
 30
0.0
 11
334.8510631210803
 21
-1999.072062882768
 31
0.0
  0
LINE
  5
25B45
330
18
100
AcDbEntity
  8
隠れ線
 48
0.6
100
AcDbLine
 10
327.0510631210806
 20
-2005.072062882768
 30
0.0
 11
334.8510631210803
 21
-2005.072062882768
 31
0.0
  0
VIEWPORT
  5
23
330
15
100
AcDbEntity
 67
     1
  8
0
100
AcDbViewport
 10
202.939944612365
 20
145.2602227146798
 30
0.0
 40
647.5771393470239
 41
296.3964780959263
 68
     1
 69
     1
1001
ACAD
1000
MVIEW
1002
{
1070
    16
1010
0.0
1020
0.0
1030
0.0
1010
0.0
1020
0.0
1030
1.0
1040
0.0
1040
296.3964780959263
1040
202.939944612365
1040
145.2602227146798
1040
50.0
1040
0.0
1040
0.0
1070
     0
1070
   100
1070
     1
1070
     0
1070
     0
1070
     0
1070
     0
1070
     0
1040
0.0
1040
0.0
1040
0.0
1040
10.0
1040
10.0
1040
10.0
1040
10.0
1070
     0
1002
{
1002
}
1002
}
  0
VIEWPORT
  5
2E
330
15
100
AcDbEntity
 67
     1
  8
M_VIEW
100
AcDbViewport
 10
200.0
 20
144.0
 30
0.0
 40
400.0
 41
288.0
 68
     2
 69
     2
1001
ACAD
1000
MVIEW
1002
{
1070
    16
1010
0.0
1020
0.0
1030
0.0
1010
0.0
1020
0.0
1030
1.0
1040
0.0
1040
576.0
1040
698.3292646179419
1040
-2045.787861431138
1040
50.0
1040
0.0
1040
0.0
1070
     0
1070
   100
1070
     1
1070
     0
1070
     0
1070
     0
1070
     0
1070
     0
1040
0.0
1040
0.0
1040
0.0
1040
10.0
1040
10.0
1040
10.0
1040
10.0
1070
     0
1002
{
1002
}
1002
}
  0
INSERT
  5
115F
330
15
100
AcDbEntity
 67
     1
  8
FRAME025
100
AcDbBlockReference
  2
機械A4横_LBP
 10
82.74908858651452
 20
152.030959079227
 30
0.0
  0
TEXT
  5
AA6A
330
15
100
AcDbEntity
 67
     1
  8
文字
  6
BYBLOCK
 62
     0
100
AcDbText
 10
32.81885892396519
 20
73.01882819621747
 30
0.0
 40
3.2
  1

 50
90.0
 41
0.625
  7
MSｺ_ｼｯｸ
100
AcDbText
  0
TEXT
  5
AA6C
330
15
100
AcDbEntity
 67
     1
  8
文字
  6
BYBLOCK
 62
     0
100
AcDbText
 10
37.25020936743055
 20
73.01882819621747
 30
0.0
 40
3.2
  1

 50
90.0
 41
0.625
  7
MSｺ_ｼｯｸ
100
AcDbText
  0
TEXT
  5
FCA5
330
15
100
AcDbEntity
 67
     1
  8
FRAME020
  6
CONTINUOUS
100
AcDbText
 10
126.6213117262079
 20
29.63926951973459
 30
0.0
 40
2.5
  1

 41
0.625
  7
MSｺ_ｼｯｸ
100
AcDbText
  0
TEXT
  5
12229
330
15
100
AcDbEntity
 67
     1
  8
0
100
AcDbText
 10
324.703280378293
 20
10.63168299257869
 30
0.0
 40
6.0
  1
ＳＥ－３７９２０Ａ
 41
1.1
100
AcDbText
  0
MTEXT
  5
25C52
330
15
100
AcDbEntity
 67
     1
  8
DIMENSION
100
AcDbMText
 10
218.6635552199158
 20
25.59275742077101
 30
0.0
 40
6.0
 41
182.0882
 71
     1
 72
     5
  1
τﾘﾆｱﾓｰﾀ ｺｱ付M NLA-MA CLﾕﾆｯﾄ CLM500MA (500N)
  7
ｽﾀｲﾙ3
1001
ACAD
1000
MTEXTBEGIN
1070
    73
1070
     1
1070
    44
1040
1.0
1070
    74
1070
     0
1000
MTEXTEND
  0
ENDSEC
  0
SECTION
  2
OBJECTS
  0
DICTIONARY
  5
C
330
0
100
AcDbDictionary
  3
ACAD_GROUP
350
D
  3
ACAD_LAYOUT
350
DB2
  3
ACAD_MLINESTYLE
350
1B
  3
ACAD_PLOTSETTINGS
350
DB3
  3
ACAD_PLOTSTYLENAME
350
FB5B
  3
ACADDIM
350
23DA7
  3
ACDBHEADERROUNDTRIPXREC
350
25C6E
  3
ACDBVARIABLEDICTIONARY
350
106A6
  3
ASE_INDEX_DICTIONARY
350
1A99F
  3
DWGPROPS
350
15EC9
1001
ACAD
1000
TREAT_AS_HARD
1070
     0
  0
DICTIONARY
  5
25504
330
2
100
AcDbDictionary
280
     1
  3
ACAD_LAYERFILTERS
360
25505
  3
ACAD_LAYERSTATES
360
25511
  0
DICTIONARY
  5
EFC6
330
18
100
AcDbDictionary
280
     1
  3
ACAD_LAYOUTSELFREF
360
25C90
  0
DICTIONARY
  5
EFC4
330
15
100
AcDbDictionary
280
     1
  3
ACAD_LAYOUTSELFREF
360
25C8F
  0
DICTIONARY
  5
D
102
{ACAD_REACTORS
330
C
102
}
330
C
100
AcDbDictionary
  3
*A1
350
AC8A
  3
*A10
350
24A5C
  3
*A100
350
FC9A
  3
*A101
350
1B729
  3
*A102
350
FB6C
  3
*A103
350
24A03
  3
*A104
350
1D6CA
  3
*A105
350
24A7A
  3
*A106
350
AC9A
  3
*A107
350
ACA2
  3
*A108
350
24726
  3
*A109
350
23CC2
  3
*A11
350
24A8C
  3
*A110
350
23CC3
  3
*A111
350
18FA6
  3
*A112
350
1B74D
  3
*A113
350
24AEC
  3
*A114
350
23CC4
  3
*A115
350
240ED
  3
*A116
350
1D6E8
  3
*A117
350
24A4D
  3
*A118
350
1D6D4
  3
*A119
350
1B756
  3
*A12
350
24A47
  3
*A120
350
19FAB
  3
*A121
350
18FA7
  3
*A122
350
24A02
  3
*A123
350
1D67A
  3
*A124
350
24AFE
  3
*A125
350
24724
  3
*A126
350
227B1
  3
*A127
350
20025
  3
*A128
350
24ABC
  3
*A129
350
24A1F
  3
*A13
350
2244A
  3
*A130
350
1D698
  3
*A131
350
24A80
  3
*A132
350
24725
  3
*A133
350
20CA6
  3
*A134
350
2002B
  3
*A135
350
1EB80
  3
*A136
350
20010
  3
*A137
350
19F55
  3
*A138
350
240EE
  3
*A139
350
24718
  3
*A14
350
24A48
  3
*A140
350
24AC2
  3
*A141
350
19861
  3
*A142
350
1D670
  3
*A143
350
215A2
  3
*A144
350
24AF2
  3
*A145
350
1D6A2
  3
*A146
350
224D1
  3
*A147
350
19255
  3
*A148
350
1AA94
  3
*A149
350
19787
  3
*A15
350
24730
  3
*A150
350
19F87
  3
*A151
350
FC95
  3
*A152
350
24AC8
  3
*A153
350
24A1E
  3
*A154
350
1738B
  3
*A155
350
19988
  3
*A156
350
196C2
  3
*A157
350
24ACE
  3
*A158
350
19786
  3
*A159
350
19F99
  3
*A16
350
2001F
  3
*A160
350
20227
  3
*A161
350
24720
  3
*A162
350
24A4F
  3
*A163
350
24AF8
  3
*A164
350
20CA2
  3
*A165
350
19729
  3
*A166
350
1EB7F
  3
*A167
350
24B32
  3
*A168
350
173BF
  3
*A169
350
106C7
  3
*A17
350
1F909
  3
*A170
350
24A18
  3
*A171
350
2472E
  3
*A172
350
19AA4
  3
*A173
350
240EF
  3
*A174
350
24B56
  3
*A175
350
1A695
  3
*A176
350
24A92
  3
*A177
350
1D6B6
  3
*A178
350
1F904
  3
*A179
350
106C6
  3
*A18
350
1D6FC
  3
*A180
350
2472C
  3
*A181
350
23A77
  3
*A182
350
1A09A
  3
*A183
350
1D6DE
  3
*A184
350
24913
  3
*A185
350
169DA
  3
*A186
350
24A74
  3
*A187
350
24721
  3
*A188
350
19A52
  3
*A189
350
19A5A
  3
*A19
350
249FB
  3
*A190
350
24A0A
  3
*A191
350
FBFF
  3
*A192
350
19259
  3
*A193
350
20209
  3
*A194
350
24728
  3
*A195
350
24A43
  3
*A196
350
2472F
  3
*A197
350
227B2
  3
*A198
350
198F1
  3
*A199
350
24A98
  3
*A2
350
1D6C0
  3
*A20
350
17B11
  3
*A200
350
1606B
  3
*A201
350
1F8FA
  3
*A202
350
24B10
  3
*A203
350
106A5
  3
*A204
350
17BFF
  3
*A205
350
20016
  3
*A206
350
2471D
  3
*A207
350
24914
  3
*A208
350
1B744
  3
*A209
350
20019
  3
*A21
350
2472A
  3
*A210
350
ACBD
  3
*A211
350
24AA4
  3
*A212
350
22AAC
  3
*A213
350
1A692
  3
*A214
350
24B0A
  3
*A215
350
18FA8
  3
*A216
350
1EB7D
  3
*A217
350
1F8F0
  3
*A218
350
173BD
  3
*A219
350
24A17
  3
*A22
350
24A09
  3
*A220
350
FC9B
  3
*A221
350
24A50
  3
*A222
350
1F8FF
  3
*A223
350
24A6E
  3
*A224
350
16069
  3
*A225
350
ACA1
  3
*A226
350
24A86
  3
*A227
350
24723
  3
*A228
350
1A691
  3
*A229
350
2472D
  3
*A23
350
18F21
  3
*A230
350
24A4E
  3
*A231
350
20213
  3
*A232
350
24717
  3
*A233
350
FCB8
  3
*A234
350
249F2
  3
*A235
350
24727
  3
*A236
350
ACB4
  3
*A237
350
19881
  3
*A238
350
249F3
  3
*A239
350
1F913
  3
*A24
350
20236
  3
*A240
350
1F91D
  3
*A241
350
24A9E
  3
*A242
350
2472B
  3
*A243
350
1F90E
  3
*A244
350
2001C
  3
*A245
350
18F20
  3
*A25
350
1606A
  3
*A26
350
19A86
  3
*A27
350
20218
  3
*A28
350
19256
  3
*A29
350
2471A
  3
*A3
350
2020E
  3
*A30
350
1D6AC
  3
*A31
350
23BB4
  3
*A32
350
1998A
  3
*A33
350
19F67
  3
*A34
350
24A49
  3
*A35
350
1B73B
  3
*A36
350
16059
  3
*A37
350
24A4A
  3
*A38
350
24A62
  3
*A39
350
106B3
  3
*A4
350
24AD4
  3
*A40
350
16058
  3
*A41
350
1738A
  3
*A42
350
173BE
  3
*A43
350
24B04
  3
*A44
350
2471E
  3
*A45
350
FC91
  3
*A46
350
ACAB
  3
*A47
350
24A10
  3
*A48
350
1D710
  3
*A49
350
1F8F5
  3
*A5
350
20022
  3
*A50
350
2471F
  3
*A51
350
24719
  3
*A52
350
24A68
  3
*A53
350
23BB2
  3
*A54
350
1B720
  3
*A55
350
25503
  3
*A56
350
25A46
  3
*A57
350
20231
  3
*A58
350
24AAA
  3
*A59
350
20028
  3
*A6
350
22E4B
  3
*A60
350
19A51
  3
*A61
350
1D684
  3
*A62
350
16068
  3
*A63
350
24AB0
  3
*A64
350
20013
  3
*A65
350
19794
  3
*A66
350
1D6F2
  3
*A67
350
23BB3
  3
*A68
350
1D68E
  3
*A69
350
17389
  3
*A7
350
249FA
  3
*A70
350
1F918
  3
*A71
350
1D706
  3
*A72
350
24A44
  3
*A73
350
24ADA
  3
*A74
350
232CA
  3
*A75
350
1B732
  3
*A76
350
2021D
  3
*A77
350
24722
  3
*A78
350
24AB6
  3
*A79
350
2022C
  3
*A8
350
24A45
  3
*A80
350
24729
  3
*A81
350
17901
  3
*A82
350
2471C
  3
*A83
350
24A4B
  3
*A84
350
1EB7E
  3
*A85
350
240F0
  3
*A86
350
22498
  3
*A87
350
24AE0
  3
*A88
350
19989
  3
*A89
350
20222
  3
*A9
350
24A46
  3
*A90
350
18F22
  3
*A91
350
FB6B
  3
*A92
350
24A11
  3
*A93
350
224AC
  3
*A94
350
18F1F
  3
*A95
350
18F23
  3
*A96
350
24AE6
  3
*A97
350
2471B
  3
*A98
350
1EB7C
  3
*A99
350
24A4C
1001
ACAD
1000
TREAT_AS_HARD
1070
     0
  0
DICTIONARY
  5
DB2
102
{ACAD_REACTORS
330
C
102
}
330
C
100
AcDbDictionary
1001
ACAD
1000
TREAT_AS_HARD
1070
     0
  0
DICTIONARY
  5
1B
102
{ACAD_REACTORS
330
C
102
}
330
C
100
AcDbDictionary
  3
STANDARD
350
1C
1001
ACAD
1000
TREAT_AS_HARD
1070
     0
  0
DICTIONARY
  5
DB3
102
{ACAD_REACTORS
330
C
102
}
330
C
100
AcDbDictionary
1001
ACAD
1000
TREAT_AS_HARD
1070
     0
  0
ACDBDICTIONARYWDFLT
  5
FB5B
102
{ACAD_REACTORS
330
C
102
}
330
C
100
AcDbDictionary
281
     1
  3
Normal
350
FB5C
100
AcDbDictionaryWithDefault
340
FB5C
  0
XRECORD
  5
23DA7
102
{ACAD_REACTORS
330
C
102
}
330
C
100
AcDbXrecord
 90
   990106
  3

 60
     0
 61
     0
 62
     4
 63
     4
 64
     1
 65
     0
 66
     0
 67
     3
 68
     1
 69
     0
 70
     0
 71
     0
 72
     0
 40
0.0
170
     2
340
0
  0
DICTIONARY
  5
25C6E
102
{ACAD_REACTORS
330
C
102
}
330
C
100
AcDbDictionary
  3
CEPSNTYPE
350
25C78
  3
DIMSTYLEDATA
350
25C7C
  3
FINGERPRINTGUID
350
25C79
  3
HYPERLINKBASE
350
25C71
  3
INSUNITS
350
25C77
  3
LAYOUTDICT
350
25C73
  3
LWETCUNION
350
25C76
  3
PLOTSETDICT
350
25C74
  3
PLOTSTYLNAMDICT
350
25C75
  3
PSVPSCALE
350
25C7B
  3
PUCSBASE
350
25C7F
  3
PUCSORGBACK
350
25C85
  3
PUCSORGBOTTOM
350
25C81
  3
PUCSORGFRONT
350
25C84
  3
PUCSORGLEFT
350
25C82
  3
PUCSORGRIGHT
350
25C83
  3
PUCSORGTOP
350
25C80
  3
PUCSORTHOREF
350
25C7D
  3
PUCSORTHOVIEW
350
25C7E
  3
STYLESHEET
350
25C72
  3
TSTACKALIGN
350
25C6F
  3
TSTACKSIZE
350
25C70
  3
UCSBASE
350
25C88
  3
UCSORGBACK
350
25C8E
  3
UCSORGBOTTOM
350
25C8A
  3
UCSORGFRONT
350
25C8D
  3
UCSORGLEFT
350
25C8B
  3
UCSORGRIGHT
350
25C8C
  3
UCSORGTOP
350
25C89
  3
UCSORTHOREF
350
25C86
  3
UCSORTHOVIEW
350
25C87
  3
VERSIONGUID
350
25C7A
  0
DICTIONARY
  5
106A6
102
{ACAD_REACTORS
330
C
102
}
330
C
100
AcDbDictionary
  3
SORTENTS
350
106A7
  0
DICTIONARY
  5
1A99F
102
{ACAD_REACTORS
330
C
102
}
330
C
100
AcDbDictionary
  3
ASEBLOCKHIERARCHYINDEXRECORD
350
1A9A1
1001
DCO15
1040
1464612067.17
  0
XRECORD
  5
15EC9
102
{ACAD_REACTORS
330
C
102
}
330
C
100
AcDbXrecord
  1
DWGPROPS COOKIE
  2

  3

  4

  6

  7

  8

  9

300
=
301
=
302
=
303
=
304
=
305
=
306
=
307
=
308
=
309
=
 40
12.65185717592592
 41
2451224.660162384
 42
2452395.660827315
  1

 90
        0
  0
DICTIONARY
  5
25505
102
{ACAD_REACTORS
330
25504
102
}
330
25504
100
AcDbDictionary
280
     1
  3
0
360
25506
  3
11
360
25507
  3
150_
360
25508
  3
160_
360
25509
  3
170_
360
2550A
  3
171_
360
2550B
  3
350_
360
2550C
  3
4
360
2550D
  3
5
360
2550E
  3
7
360
2550F
  3
KISEKI
360
25510
  0
DICTIONARY
  5
25511
102
{ACAD_REACTORS
330
25504
102
}
330
25504
100
AcDbDictionary
  0
XRECORD
  5
25C90
102
{ACAD_REACTORS
330
EFC6
102
}
330
EFC6
100
AcDbXrecord
340
18
  0
XRECORD
  5
25C8F
102
{ACAD_REACTORS
330
EFC4
102
}
330
EFC4
100
AcDbXrecord
340
15
  0
GROUP
  5
AC8A
102
{ACAD_REACTORS
330
D
102
}
330
D
100
AcDbGroup
300

 70
     1
 71
     1
  0
GROUP
  5
24A5C
102
{ACAD_REACTORS
330
D
102
}
330
D
100
AcDbGroup
300

 70
     1
 71
     1
  0
GROUP
  5
FC9A
102
{ACAD_REACTORS
330
D
102
}
330
D
100
AcDbGroup
300

 70
     1
 71
     1
  0
GROUP
  5
1B729
102
{ACAD_REACTORS
330
D
102
}
330
D
100
AcDbGroup
300

 70
     1
 71
     1
  0
GROUP
  5
FB6C
102
{ACAD_REACTORS
330
D
102
}
330
D
100
AcDbGroup
300

 70
     1
 71
     1
  0
GROUP
  5
24A03
102
{ACAD_REACTORS
330
D
102
}
330
D
100
AcDbGroup
300

 70
     1
 71
     1
  0
GROUP
  5
1D6CA
102
{ACAD_REACTORS
330
D
102
}
330
D
100
AcDbGroup
300

 70
     1
 71
     1
  0
GROUP
  5
24A7A
102
{ACAD_REACTORS
330
D
102
}
330
D
100
AcDbGroup
300

 70
     1
 71
     1
  0
GROUP
  5
AC9A
102
{ACAD_REACTORS
330
D
102
}
330
D
100
AcDbGroup
300

 70
     1
 71
     1
  0
GROUP
  5
ACA2
102
{ACAD_REACTORS
330
D
102
}
330
D
100
AcDbGroup
300

 70
     1
 71
     1
  0
GROUP
  5
24726
102
{ACAD_REACTORS
330
D
102
}
330
D
100
AcDbGroup
300

 70
     1
 71
     1
  0
GROUP
  5
23CC2
102
{ACAD_REACTORS
330
D
102
}
330
D
100
AcDbGroup
300

 70
     1
 71
     1
  0
GROUP
  5
24A8C
102
{ACAD_REACTORS
330
D
102
}
330
D
100
AcDbGroup
300

 70
     1
 71
     1
  0
GROUP
  5
23CC3
102
{ACAD_REACTORS
330
D
102
}
330
D
100
AcDbGroup
300

 70
     1
 71
     1
  0
GROUP
  5
18FA6
102
{ACAD_REACTORS
330
D
102
}
330
D
100
AcDbGroup
300

 70
     1
 71
     1
  0
GROUP
  5
1B74D
102
{ACAD_REACTORS
330
D
102
}
330
D
100
AcDbGroup
300

 70
     1
 71
     1
  0
GROUP
  5
24AEC
102
{ACAD_REACTORS
330
D
102
}
330
D
100
AcDbGroup
300

 70
     1
 71
     1
  0
GROUP
  5
23CC4
102
{ACAD_REACTORS
330
D
102
}
330
D
100
AcDbGroup
300

 70
     1
 71
     1
  0
GROUP
  5
240ED
102
{ACAD_REACTORS
330
D
102
}
330
D
100
AcDbGroup
300

 70
     1
 71
     1
  0
GROUP
  5
1D6E8
102
{ACAD_REACTORS
330
D
102
}
330
D
100
AcDbGroup
300

 70
     1
 71
     1
  0
GROUP
  5
24A4D
102
{ACAD_REACTORS
330
D
102
}
330
D
100
AcDbGroup
300

 70
     1
 71
     1
  0
GROUP
  5
1D6D4
102
{ACAD_REACTORS
330
D
102
}
330
D
100
AcDbGroup
300

 70
     1
 71
     1
  0
GROUP
  5
1B756
102
{ACAD_REACTORS
330
D
102
}
330
D
100
AcDbGroup
300

 70
     1
 71
     1
  0
GROUP
  5
24A47
102
{ACAD_REACTORS
330
D
102
}
330
D
100
AcDbGroup
300

 70
     1
 71
     1
  0
GROUP
  5
19FAB
102
{ACAD_REACTORS
330
D
102
}
330
D
100
AcDbGroup
300

 70
     1
 71
     1
  0
GROUP
  5
18FA7
102
{ACAD_REACTORS
330
D
102
}
330
D
100
AcDbGroup
300

 70
     1
 71
     1
  0
GROUP
  5
24A02
102
{ACAD_REACTORS
330
D
102
}
330
D
100
AcDbGroup
300

 70
     1
 71
     1
  0
GROUP
  5
1D67A
102
{ACAD_REACTORS
330
D
102
}
330
D
100
AcDbGroup
300

 70
     1
 71
     1
  0
GROUP
  5
24AFE
102
{ACAD_REACTORS
330
D
102
}
330
D
100
AcDbGroup
300

 70
     1
 71
     1
  0
GROUP
  5
24724
102
{ACAD_REACTORS
330
D
102
}
330
D
100
AcDbGroup
300

 70
     1
 71
     1
  0
GROUP
  5
227B1
102
{ACAD_REACTORS
330
D
102
}
330
D
100
AcDbGroup
300

 70
     1
 71
     1
  0
GROUP
  5
20025
102
{ACAD_REACTORS
330
D
102
}
330
D
100
AcDbGroup
300

 70
     1
 71
     1
  0
GROUP
  5
24ABC
102
{ACAD_REACTORS
330
D
102
}
330
D
100
AcDbGroup
300

 70
     1
 71
     1
  0
GROUP
  5
24A1F
102
{ACAD_REACTORS
330
D
102
}
330
D
100
AcDbGroup
300

 70
     1
 71
     1
  0
GROUP
  5
2244A
102
{ACAD_REACTORS
330
D
102
}
330
D
100
AcDbGroup
300

 70
     1
 71
     1
  0
GROUP
  5
1D698
102
{ACAD_REACTORS
330
D
102
}
330
D
100
AcDbGroup
300

 70
     1
 71
     1
  0
GROUP
  5
24A80
102
{ACAD_REACTORS
330
D
102
}
330
D
100
AcDbGroup
300

 70
     1
 71
     1
  0
GROUP
  5
24725
102
{ACAD_REACTORS
330
D
102
}
330
D
100
AcDbGroup
300

 70
     1
 71
     1
  0
GROUP
  5
20CA6
102
{ACAD_REACTORS
330
D
102
}
330
D
100
AcDbGroup
300

 70
     1
 71
     1
  0
GROUP
  5
2002B
102
{ACAD_REACTORS
330
D
102
}
330
D
100
AcDbGroup
300

 70
     1
 71
     1
  0
GROUP
  5
1EB80
102
{ACAD_REACTORS
330
D
102
}
330
D
100
AcDbGroup
300

 70
     1
 71
     1
  0
GROUP
  5
20010
102
{ACAD_REACTORS
330
D
102
}
330
D
100
AcDbGroup
300

 70
     1
 71
     1
  0
GROUP
  5
19F55
102
{ACAD_REACTORS
330
D
102
}
330
D
100
AcDbGroup
300

 70
     1
 71
     1
  0
GROUP
  5
240EE
102
{ACAD_REACTORS
330
D
102
}
330
D
100
AcDbGroup
300

 70
     1
 71
     1
  0
GROUP
  5
24718
102
{ACAD_REACTORS
330
D
102
}
330
D
100
AcDbGroup
300

 70
     1
 71
     1
  0
GROUP
  5
24A48
102
{ACAD_REACTORS
330
D
102
}
330
D
100
AcDbGroup
300

 70
     1
 71
     1
  0
GROUP
  5
24AC2
102
{ACAD_REACTORS
330
D
102
}
330
D
100
AcDbGroup
300

 70
     1
 71
     1
  0
GROUP
  5
19861
102
{ACAD_REACTORS
330
D
102
}
330
D
100
AcDbGroup
300

 70
     1
 71
     1
  0
GROUP
  5
1D670
102
{ACAD_REACTORS
330
D
102
}
330
D
100
AcDbGroup
300

 70
     1
 71
     1
  0
GROUP
  5
215A2
102
{ACAD_REACTORS
330
D
102
}
330
D
100
AcDbGroup
300

 70
     1
 71
     1
  0
GROUP
  5
24AF2
102
{ACAD_REACTORS
330
D
102
}
330
D
100
AcDbGroup
300

 70
     1
 71
     1
  0
GROUP
  5
1D6A2
102
{ACAD_REACTORS
330
D
102
}
330
D
100
AcDbGroup
300

 70
     1
 71
     1
  0
GROUP
  5
224D1
102
{ACAD_REACTORS
330
D
102
}
330
D
100
AcDbGroup
300

 70
     1
 71
     1
  0
GROUP
  5
19255
102
{ACAD_REACTORS
330
D
102
}
330
D
100
AcDbGroup
300

 70
     1
 71
     1
  0
GROUP
  5
1AA94
102
{ACAD_REACTORS
330
D
102
}
330
D
100
AcDbGroup
300

 70
     1
 71
     1
  0
GROUP
  5
19787
102
{ACAD_REACTORS
330
D
102
}
330
D
100
AcDbGroup
300

 70
     1
 71
     1
  0
GROUP
  5
24730
102
{ACAD_REACTORS
330
D
102
}
330
D
100
AcDbGroup
300

 70
     1
 71
     1
  0
GROUP
  5
19F87
102
{ACAD_REACTORS
330
D
102
}
330
D
100
AcDbGroup
300

 70
     1
 71
     1
  0
GROUP
  5
FC95
102
{ACAD_REACTORS
330
D
102
}
330
D
100
AcDbGroup
300

 70
     1
 71
     1
  0
GROUP
  5
24AC8
102
{ACAD_REACTORS
330
D
102
}
330
D
100
AcDbGroup
300

 70
     1
 71
     1
  0
GROUP
  5
24A1E
102
{ACAD_REACTORS
330
D
102
}
330
D
100
AcDbGroup
300

 70
     1
 71
     1
  0
GROUP
  5
1738B
102
{ACAD_REACTORS
330
D
102
}
330
D
100
AcDbGroup
300

 70
     1
 71
     1
  0
GROUP
  5
19988
102
{ACAD_REACTORS
330
D
102
}
330
D
100
AcDbGroup
300

 70
     1
 71
     1
  0
GROUP
  5
196C2
102
{ACAD_REACTORS
330
D
102
}
330
D
100
AcDbGroup
300

 70
     1
 71
     1
  0
GROUP
  5
24ACE
102
{ACAD_REACTORS
330
D
102
}
330
D
100
AcDbGroup
300

 70
     1
 71
     1
  0
GROUP
  5
19786
102
{ACAD_REACTORS
330
D
102
}
330
D
100
AcDbGroup
300

 70
     1
 71
     1
  0
GROUP
  5
19F99
102
{ACAD_REACTORS
330
D
102
}
330
D
100
AcDbGroup
300

 70
     1
 71
     1
  0
GROUP
  5
2001F
102
{ACAD_REACTORS
330
D
102
}
330
D
100
AcDbGroup
300

 70
     1
 71
     1
  0
GROUP
  5
20227
102
{ACAD_REACTORS
330
D
102
}
330
D
100
AcDbGroup
300

 70
     1
 71
     1
  0
GROUP
  5
24720
102
{ACAD_REACTORS
330
D
102
}
330
D
100
AcDbGroup
300

 70
     1
 71
     1
  0
GROUP
  5
24A4F
102
{ACAD_REACTORS
330
D
102
}
330
D
100
AcDbGroup
300

 70
     1
 71
     1
  0
GROUP
  5
24AF8
102
{ACAD_REACTORS
330
D
102
}
330
D
100
AcDbGroup
300

 70
     1
 71
     1
  0
GROUP
  5
20CA2
102
{ACAD_REACTORS
330
D
102
}
330
D
100
AcDbGroup
300

 70
     1
 71
     1
  0
GROUP
  5
19729
102
{ACAD_REACTORS
330
D
102
}
330
D
100
AcDbGroup
300

 70
     1
 71
     1
  0
GROUP
  5
1EB7F
102
{ACAD_REACTORS
330
D
102
}
330
D
100
AcDbGroup
300

 70
     1
 71
     1
  0
GROUP
  5
24B32
102
{ACAD_REACTORS
330
D
102
}
330
D
100
AcDbGroup
300

 70
     1
 71
     1
  0
GROUP
  5
173BF
102
{ACAD_REACTORS
330
D
102
}
330
D
100
AcDbGroup
300

 70
     1
 71
     1
  0
GROUP
  5
106C7
102
{ACAD_REACTORS
330
D
102
}
330
D
100
AcDbGroup
300

 70
     1
 71
     1
  0
GROUP
  5
1F909
102
{ACAD_REACTORS
330
D
102
}
330
D
100
AcDbGroup
300

 70
     1
 71
     1
  0
GROUP
  5
24A18
102
{ACAD_REACTORS
330
D
102
}
330
D
100
AcDbGroup
300

 70
     1
 71
     1
  0
GROUP
  5
2472E
102
{ACAD_REACTORS
330
D
102
}
330
D
100
AcDbGroup
300

 70
     1
 71
     1
  0
GROUP
  5
19AA4
102
{ACAD_REACTORS
330
D
102
}
330
D
100
AcDbGroup
300

 70
     1
 71
     1
  0
GROUP
  5
240EF
102
{ACAD_REACTORS
330
D
102
}
330
D
100
AcDbGroup
300

 70
     1
 71
     1
  0
GROUP
  5
24B56
102
{ACAD_REACTORS
330
D
102
}
330
D
100
AcDbGroup
300

 70
     1
 71
     1
  0
GROUP
  5
1A695
102
{ACAD_REACTORS
330
D
102
}
330
D
100
AcDbGroup
300

 70
     1
 71
     1
  0
GROUP
  5
24A92
102
{ACAD_REACTORS
330
D
102
}
330
D
100
AcDbGroup
300

 70
     1
 71
     1
  0
GROUP
  5
1D6B6
102
{ACAD_REACTORS
330
D
102
}
330
D
100
AcDbGroup
300

 70
     1
 71
     1
  0
GROUP
  5
1F904
102
{ACAD_REACTORS
330
D
102
}
330
D
100
AcDbGroup
300

 70
     1
 71
     1
  0
GROUP
  5
106C6
102
{ACAD_REACTORS
330
D
102
}
330
D
100
AcDbGroup
300

 70
     1
 71
     1
  0
GROUP
  5
1D6FC
102
{ACAD_REACTORS
330
D
102
}
330
D
100
AcDbGroup
300

 70
     1
 71
     1
  0
GROUP
  5
2472C
102
{ACAD_REACTORS
330
D
102
}
330
D
100
AcDbGroup
300

 70
     1
 71
     1
  0
GROUP
  5
23A77
102
{ACAD_REACTORS
330
D
102
}
330
D
100
AcDbGroup
300

 70
     1
 71
     1
  0
GROUP
  5
1A09A
102
{ACAD_REACTORS
330
D
102
}
330
D
100
AcDbGroup
300

 70
     1
 71
     1
  0
GROUP
  5
1D6DE
102
{ACAD_REACTORS
330
D
102
}
330
D
100
AcDbGroup
300

 70
     1
 71
     1
  0
GROUP
  5
24913
102
{ACAD_REACTORS
330
D
102
}
330
D
100
AcDbGroup
300

 70
     1
 71
     1
  0
GROUP
  5
169DA
102
{ACAD_REACTORS
330
D
102
}
330
D
100
AcDbGroup
300

 70
     1
 71
     1
  0
GROUP
  5
24A74
102
{ACAD_REACTORS
330
D
102
}
330
D
100
AcDbGroup
300

 70
     1
 71
     1
  0
GROUP
  5
24721
102
{ACAD_REACTORS
330
D
102
}
330
D
100
AcDbGroup
300

 70
     1
 71
     1
  0
GROUP
  5
19A52
102
{ACAD_REACTORS
330
D
102
}
330
D
100
AcDbGroup
300

 70
     1
 71
     1
  0
GROUP
  5
19A5A
102
{ACAD_REACTORS
330
D
102
}
330
D
100
AcDbGroup
300

 70
     1
 71
     1
  0
GROUP
  5
249FB
102
{ACAD_REACTORS
330
D
102
}
330
D
100
AcDbGroup
300

 70
     1
 71
     1
  0
GROUP
  5
24A0A
102
{ACAD_REACTORS
330
D
102
}
330
D
100
AcDbGroup
300

 70
     1
 71
     1
  0
GROUP
  5
FBFF
102
{ACAD_REACTORS
330
D
102
}
330
D
100
AcDbGroup
300

 70
     1
 71
     1
  0
GROUP
  5
19259
102
{ACAD_REACTORS
330
D
102
}
330
D
100
AcDbGroup
300

 70
     1
 71
     1
  0
GROUP
  5
20209
102
{ACAD_REACTORS
330
D
102
}
330
D
100
AcDbGroup
300

 70
     1
 71
     1
  0
GROUP
  5
24728
102
{ACAD_REACTORS
330
D
102
}
330
D
100
AcDbGroup
300

 70
     1
 71
     1
  0
GROUP
  5
24A43
102
{ACAD_REACTORS
330
D
102
}
330
D
100
AcDbGroup
300

 70
     1
 71
     1
  0
GROUP
  5
2472F
102
{ACAD_REACTORS
330
D
102
}
330
D
100
AcDbGroup
300

 70
     1
 71
     1
  0
GROUP
  5
227B2
102
{ACAD_REACTORS
330
D
102
}
330
D
100
AcDbGroup
300

 70
     1
 71
     1
  0
GROUP
  5
198F1
102
{ACAD_REACTORS
330
D
102
}
330
D
100
AcDbGroup
300

 70
     1
 71
     1
  0
GROUP
  5
24A98
102
{ACAD_REACTORS
330
D
102
}
330
D
100
AcDbGroup
300

 70
     1
 71
     1
  0
GROUP
  5
1D6C0
102
{ACAD_REACTORS
330
D
102
}
330
D
100
AcDbGroup
300

 70
     1
 71
     1
  0
GROUP
  5
17B11
102
{ACAD_REACTORS
330
D
102
}
330
D
100
AcDbGroup
300

 70
     1
 71
     1
  0
GROUP
  5
1606B
102
{ACAD_REACTORS
330
D
102
}
330
D
100
AcDbGroup
300

 70
     1
 71
     1
  0
GROUP
  5
1F8FA
102
{ACAD_REACTORS
330
D
102
}
330
D
100
AcDbGroup
300

 70
     1
 71
     1
  0
GROUP
  5
24B10
102
{ACAD_REACTORS
330
D
102
}
330
D
100
AcDbGroup
300

 70
     1
 71
     1
  0
GROUP
  5
106A5
102
{ACAD_REACTORS
330
D
102
}
330
D
100
AcDbGroup
300

 70
     1
 71
     1
  0
GROUP
  5
17BFF
102
{ACAD_REACTORS
330
D
102
}
330
D
100
AcDbGroup
300

 70
     1
 71
     1
  0
GROUP
  5
20016
102
{ACAD_REACTORS
330
D
102
}
330
D
100
AcDbGroup
300

 70
     1
 71
     1
  0
GROUP
  5
2471D
102
{ACAD_REACTORS
330
D
102
}
330
D
100
AcDbGroup
300

 70
     1
 71
     1
  0
GROUP
  5
24914
102
{ACAD_REACTORS
330
D
102
}
330
D
100
AcDbGroup
300

 70
     1
 71
     1
  0
GROUP
  5
1B744
102
{ACAD_REACTORS
330
D
102
}
330
D
100
AcDbGroup
300

 70
     1
 71
     1
  0
GROUP
  5
20019
102
{ACAD_REACTORS
330
D
102
}
330
D
100
AcDbGroup
300

 70
     1
 71
     1
  0
GROUP
  5
2472A
102
{ACAD_REACTORS
330
D
102
}
330
D
100
AcDbGroup
300

 70
     1
 71
     1
  0
GROUP
  5
ACBD
102
{ACAD_REACTORS
330
D
102
}
330
D
100
AcDbGroup
300

 70
     1
 71
     1
  0
GROUP
  5
24AA4
102
{ACAD_REACTORS
330
D
102
}
330
D
100
AcDbGroup
300

 70
     1
 71
     1
  0
GROUP
  5
22AAC
102
{ACAD_REACTORS
330
D
102
}
330
D
100
AcDbGroup
300

 70
     1
 71
     1
  0
GROUP
  5
1A692
102
{ACAD_REACTORS
330
D
102
}
330
D
100
AcDbGroup
300

 70
     1
 71
     1
  0
GROUP
  5
24B0A
102
{ACAD_REACTORS
330
D
102
}
330
D
100
AcDbGroup
300

 70
     1
 71
     1
  0
GROUP
  5
18FA8
102
{ACAD_REACTORS
330
D
102
}
330
D
100
AcDbGroup
300

 70
     1
 71
     1
  0
GROUP
  5
1EB7D
102
{ACAD_REACTORS
330
D
102
}
330
D
100
AcDbGroup
300

 70
     1
 71
     1
  0
GROUP
  5
1F8F0
102
{ACAD_REACTORS
330
D
102
}
330
D
100
AcDbGroup
300

 70
     1
 71
     1
  0
GROUP
  5
173BD
102
{ACAD_REACTORS
330
D
102
}
330
D
100
AcDbGroup
300

 70
     1
 71
     1
  0
GROUP
  5
24A17
102
{ACAD_REACTORS
330
D
102
}
330
D
100
AcDbGroup
300

 70
     1
 71
     1
  0
GROUP
  5
24A09
102
{ACAD_REACTORS
330
D
102
}
330
D
100
AcDbGroup
300

 70
     1
 71
     1
  0
GROUP
  5
FC9B
102
{ACAD_REACTORS
330
D
102
}
330
D
100
AcDbGroup
300

 70
     1
 71
     1
  0
GROUP
  5
24A50
102
{ACAD_REACTORS
330
D
102
}
330
D
100
AcDbGroup
300

 70
     1
 71
     1
  0
GROUP
  5
1F8FF
102
{ACAD_REACTORS
330
D
102
}
330
D
100
AcDbGroup
300

 70
     1
 71
     1
  0
GROUP
  5
24A6E
102
{ACAD_REACTORS
330
D
102
}
330
D
100
AcDbGroup
300

 70
     1
 71
     1
  0
GROUP
  5
16069
102
{ACAD_REACTORS
330
D
102
}
330
D
100
AcDbGroup
300

 70
     1
 71
     1
  0
GROUP
  5
ACA1
102
{ACAD_REACTORS
330
D
102
}
330
D
100
AcDbGroup
300

 70
     1
 71
     1
  0
GROUP
  5
24A86
102
{ACAD_REACTORS
330
D
102
}
330
D
100
AcDbGroup
300

 70
     1
 71
     1
  0
GROUP
  5
24723
102
{ACAD_REACTORS
330
D
102
}
330
D
100
AcDbGroup
300

 70
     1
 71
     1
  0
GROUP
  5
1A691
102
{ACAD_REACTORS
330
D
102
}
330
D
100
AcDbGroup
300

 70
     1
 71
     1
  0
GROUP
  5
2472D
102
{ACAD_REACTORS
330
D
102
}
330
D
100
AcDbGroup
300

 70
     1
 71
     1
  0
GROUP
  5
18F21
102
{ACAD_REACTORS
330
D
102
}
330
D
100
AcDbGroup
300

 70
     1
 71
     1
  0
GROUP
  5
24A4E
102
{ACAD_REACTORS
330
D
102
}
330
D
100
AcDbGroup
300

 70
     1
 71
     1
  0
GROUP
  5
20213
102
{ACAD_REACTORS
330
D
102
}
330
D
100
AcDbGroup
300

 70
     1
 71
     1
  0
GROUP
  5
24717
102
{ACAD_REACTORS
330
D
102
}
330
D
100
AcDbGroup
300

 70
     1
 71
     1
  0
GROUP
  5
FCB8
102
{ACAD_REACTORS
330
D
102
}
330
D
100
AcDbGroup
300

 70
     1
 71
     1
  0
GROUP
  5
249F2
102
{ACAD_REACTORS
330
D
102
}
330
D
100
AcDbGroup
300

 70
     1
 71
     1
  0
GROUP
  5
24727
102
{ACAD_REACTORS
330
D
102
}
330
D
100
AcDbGroup
300

 70
     1
 71
     1
  0
GROUP
  5
ACB4
102
{ACAD_REACTORS
330
D
102
}
330
D
100
AcDbGroup
300

 70
     1
 71
     1
  0
GROUP
  5
19881
102
{ACAD_REACTORS
330
D
102
}
330
D
100
AcDbGroup
300

 70
     1
 71
     1
  0
GROUP
  5
249F3
102
{ACAD_REACTORS
330
D
102
}
330
D
100
AcDbGroup
300

 70
     1
 71
     1
  0
GROUP
  5
1F913
102
{ACAD_REACTORS
330
D
102
}
330
D
100
AcDbGroup
300

 70
     1
 71
     1
  0
GROUP
  5
20236
102
{ACAD_REACTORS
330
D
102
}
330
D
100
AcDbGroup
300

 70
     1
 71
     1
  0
GROUP
  5
1F91D
102
{ACAD_REACTORS
330
D
102
}
330
D
100
AcDbGroup
300

 70
     1
 71
     1
  0
GROUP
  5
24A9E
102
{ACAD_REACTORS
330
D
102
}
330
D
100
AcDbGroup
300

 70
     1
 71
     1
  0
GROUP
  5
2472B
102
{ACAD_REACTORS
330
D
102
}
330
D
100
AcDbGroup
300

 70
     1
 71
     1
  0
GROUP
  5
1F90E
102
{ACAD_REACTORS
330
D
102
}
330
D
100
AcDbGroup
300

 70
     1
 71
     1
  0
GROUP
  5
2001C
102
{ACAD_REACTORS
330
D
102
}
330
D
100
AcDbGroup
300

 70
     1
 71
     1
  0
GROUP
  5
18F20
102
{ACAD_REACTORS
330
D
102
}
330
D
100
AcDbGroup
300

 70
     1
 71
     1
  0
GROUP
  5
1606A
102
{ACAD_REACTORS
330
D
102
}
330
D
100
AcDbGroup
300

 70
     1
 71
     1
  0
GROUP
  5
19A86
102
{ACAD_REACTORS
330
D
102
}
330
D
100
AcDbGroup
300

 70
     1
 71
     1
  0
GROUP
  5
20218
102
{ACAD_REACTORS
330
D
102
}
330
D
100
AcDbGroup
300

 70
     1
 71
     1
  0
GROUP
  5
19256
102
{ACAD_REACTORS
330
D
102
}
330
D
100
AcDbGroup
300

 70
     1
 71
     1
  0
GROUP
  5
2471A
102
{ACAD_REACTORS
330
D
102
}
330
D
100
AcDbGroup
300

 70
     1
 71
     1
  0
GROUP
  5
2020E
102
{ACAD_REACTORS
330
D
102
}
330
D
100
AcDbGroup
300

 70
     1
 71
     1
  0
GROUP
  5
1D6AC
102
{ACAD_REACTORS
330
D
102
}
330
D
100
AcDbGroup
300

 70
     1
 71
     1
  0
GROUP
  5
23BB4
102
{ACAD_REACTORS
330
D
102
}
330
D
100
AcDbGroup
300

 70
     1
 71
     1
  0
GROUP
  5
1998A
102
{ACAD_REACTORS
330
D
102
}
330
D
100
AcDbGroup
300

 70
     1
 71
     1
  0
GROUP
  5
19F67
102
{ACAD_REACTORS
330
D
102
}
330
D
100
AcDbGroup
300

 70
     1
 71
     1
  0
GROUP
  5
24A49
102
{ACAD_REACTORS
330
D
102
}
330
D
100
AcDbGroup
300

 70
     1
 71
     1
  0
GROUP
  5
1B73B
102
{ACAD_REACTORS
330
D
102
}
330
D
100
AcDbGroup
300

 70
     1
 71
     1
  0
GROUP
  5
16059
102
{ACAD_REACTORS
330
D
102
}
330
D
100
AcDbGroup
300

 70
     1
 71
     1
  0
GROUP
  5
24A4A
102
{ACAD_REACTORS
330
D
102
}
330
D
100
AcDbGroup
300

 70
     1
 71
     1
  0
GROUP
  5
24A62
102
{ACAD_REACTORS
330
D
102
}
330
D
100
AcDbGroup
300

 70
     1
 71
     1
  0
GROUP
  5
106B3
102
{ACAD_REACTORS
330
D
102
}
330
D
100
AcDbGroup
300

 70
     1
 71
     1
  0
GROUP
  5
24AD4
102
{ACAD_REACTORS
330
D
102
}
330
D
100
AcDbGroup
300

 70
     1
 71
     1
  0
GROUP
  5
16058
102
{ACAD_REACTORS
330
D
102
}
330
D
100
AcDbGroup
300

 70
     1
 71
     1
  0
GROUP
  5
1738A
102
{ACAD_REACTORS
330
D
102
}
330
D
100
AcDbGroup
300

 70
     1
 71
     1
  0
GROUP
  5
173BE
102
{ACAD_REACTORS
330
D
102
}
330
D
100
AcDbGroup
300

 70
     1
 71
     1
  0
GROUP
  5
24B04
102
{ACAD_REACTORS
330
D
102
}
330
D
100
AcDbGroup
300

 70
     1
 71
     1
  0
GROUP
  5
2471E
102
{ACAD_REACTORS
330
D
102
}
330
D
100
AcDbGroup
300

 70
     1
 71
     1
  0
GROUP
  5
FC91
102
{ACAD_REACTORS
330
D
102
}
330
D
100
AcDbGroup
300

 70
     1
 71
     1
  0
GROUP
  5
ACAB
102
{ACAD_REACTORS
330
D
102
}
330
D
100
AcDbGroup
300

 70
     1
 71
     1
  0
GROUP
  5
24A10
102
{ACAD_REACTORS
330
D
102
}
330
D
100
AcDbGroup
300

 70
     1
 71
     1
  0
GROUP
  5
1D710
102
{ACAD_REACTORS
330
D
102
}
330
D
100
AcDbGroup
300

 70
     1
 71
     1
  0
GROUP
  5
1F8F5
102
{ACAD_REACTORS
330
D
102
}
330
D
100
AcDbGroup
300

 70
     1
 71
     1
  0
GROUP
  5
20022
102
{ACAD_REACTORS
330
D
102
}
330
D
100
AcDbGroup
300

 70
     1
 71
     1
  0
GROUP
  5
2471F
102
{ACAD_REACTORS
330
D
102
}
330
D
100
AcDbGroup
300

 70
     1
 71
     1
  0
GROUP
  5
24719
102
{ACAD_REACTORS
330
D
102
}
330
D
100
AcDbGroup
300

 70
     1
 71
     1
  0
GROUP
  5
24A68
102
{ACAD_REACTORS
330
D
102
}
330
D
100
AcDbGroup
300

 70
     1
 71
     1
  0
GROUP
  5
23BB2
102
{ACAD_REACTORS
330
D
102
}
330
D
100
AcDbGroup
300

 70
     1
 71
     1
  0
GROUP
  5
1B720
102
{ACAD_REACTORS
330
D
102
}
330
D
100
AcDbGroup
300

 70
     1
 71
     1
  0
GROUP
  5
25503
102
{ACAD_REACTORS
330
D
102
}
330
D
100
AcDbGroup
300

 70
     1
 71
     1
340
253F5
340
253D0
340
253DB
340
253DC
340
253D6
  0
GROUP
  5
25A46
102
{ACAD_REACTORS
330
D
102
}
330
D
100
AcDbGroup
300

 70
     1
 71
     1
340
258E7
340
25936
340
258EA
340
258E9
340
25907
  0
GROUP
  5
20231
102
{ACAD_REACTORS
330
D
102
}
330
D
100
AcDbGroup
300

 70
     1
 71
     1
  0
GROUP
  5
24AAA
102
{ACAD_REACTORS
330
D
102
}
330
D
100
AcDbGroup
300

 70
     1
 71
     1
  0
GROUP
  5
20028
102
{ACAD_REACTORS
330
D
102
}
330
D
100
AcDbGroup
300

 70
     1
 71
     1
  0
GROUP
  5
22E4B
102
{ACAD_REACTORS
330
D
102
}
330
D
100
AcDbGroup
300

 70
     1
 71
     1
  0
GROUP
  5
19A51
102
{ACAD_REACTORS
330
D
102
}
330
D
100
AcDbGroup
300

 70
     1
 71
     1
  0
GROUP
  5
1D684
102
{ACAD_REACTORS
330
D
102
}
330
D
100
AcDbGroup
300

 70
     1
 71
     1
  0
GROUP
  5
16068
102
{ACAD_REACTORS
330
D
102
}
330
D
100
AcDbGroup
300

 70
     1
 71
     1
  0
GROUP
  5
24AB0
102
{ACAD_REACTORS
330
D
102
}
330
D
100
AcDbGroup
300

 70
     1
 71
     1
  0
GROUP
  5
20013
102
{ACAD_REACTORS
330
D
102
}
330
D
100
AcDbGroup
300

 70
     1
 71
     1
  0
GROUP
  5
19794
102
{ACAD_REACTORS
330
D
102
}
330
D
100
AcDbGroup
300

 70
     1
 71
     1
  0
GROUP
  5
1D6F2
102
{ACAD_REACTORS
330
D
102
}
330
D
100
AcDbGroup
300

 70
     1
 71
     1
  0
GROUP
  5
23BB3
102
{ACAD_REACTORS
330
D
102
}
330
D
100
AcDbGroup
300

 70
     1
 71
     1
  0
GROUP
  5
1D68E
102
{ACAD_REACTORS
330
D
102
}
330
D
100
AcDbGroup
300

 70
     1
 71
     1
  0
GROUP
  5
17389
102
{ACAD_REACTORS
330
D
102
}
330
D
100
AcDbGroup
300

 70
     1
 71
     1
  0
GROUP
  5
249FA
102
{ACAD_REACTORS
330
D
102
}
330
D
100
AcDbGroup
300

 70
     1
 71
     1
  0
GROUP
  5
1F918
102
{ACAD_REACTORS
330
D
102
}
330
D
100
AcDbGroup
300

 70
     1
 71
     1
  0
GROUP
  5
1D706
102
{ACAD_REACTORS
330
D
102
}
330
D
100
AcDbGroup
300

 70
     1
 71
     1
  0
GROUP
  5
24A44
102
{ACAD_REACTORS
330
D
102
}
330
D
100
AcDbGroup
300

 70
     1
 71
     1
  0
GROUP
  5
24ADA
102
{ACAD_REACTORS
330
D
102
}
330
D
100
AcDbGroup
300

 70
     1
 71
     1
  0
GROUP
  5
232CA
102
{ACAD_REACTORS
330
D
102
}
330
D
100
AcDbGroup
300

 70
     1
 71
     1
  0
GROUP
  5
1B732
102
{ACAD_REACTORS
330
D
102
}
330
D
100
AcDbGroup
300

 70
     1
 71
     1
  0
GROUP
  5
2021D
102
{ACAD_REACTORS
330
D
102
}
330
D
100
AcDbGroup
300

 70
     1
 71
     1
  0
GROUP
  5
24722
102
{ACAD_REACTORS
330
D
102
}
330
D
100
AcDbGroup
300

 70
     1
 71
     1
  0
GROUP
  5
24AB6
102
{ACAD_REACTORS
330
D
102
}
330
D
100
AcDbGroup
300

 70
     1
 71
     1
  0
GROUP
  5
2022C
102
{ACAD_REACTORS
330
D
102
}
330
D
100
AcDbGroup
300

 70
     1
 71
     1
  0
GROUP
  5
24A45
102
{ACAD_REACTORS
330
D
102
}
330
D
100
AcDbGroup
300

 70
     1
 71
     1
  0
GROUP
  5
24729
102
{ACAD_REACTORS
330
D
102
}
330
D
100
AcDbGroup
300

 70
     1
 71
     1
  0
GROUP
  5
17901
102
{ACAD_REACTORS
330
D
102
}
330
D
100
AcDbGroup
300

 70
     1
 71
     1
  0
GROUP
  5
2471C
102
{ACAD_REACTORS
330
D
102
}
330
D
100
AcDbGroup
300

 70
     1
 71
     1
  0
GROUP
  5
24A4B
102
{ACAD_REACTORS
330
D
102
}
330
D
100
AcDbGroup
300

 70
     1
 71
     1
  0
GROUP
  5
1EB7E
102
{ACAD_REACTORS
330
D
102
}
330
D
100
AcDbGroup
300

 70
     1
 71
     1
  0
GROUP
  5
240F0
102
{ACAD_REACTORS
330
D
102
}
330
D
100
AcDbGroup
300

 70
     1
 71
     1
340
23DC0
340
23EE2
340
23DC1
340
23DBF
340
23DD7
  0
GROUP
  5
22498
102
{ACAD_REACTORS
330
D
102
}
330
D
100
AcDbGroup
300

 70
     1
 71
     1
  0
GROUP
  5
24AE0
102
{ACAD_REACTORS
330
D
102
}
330
D
100
AcDbGroup
300

 70
     1
 71
     1
  0
GROUP
  5
19989
102
{ACAD_REACTORS
330
D
102
}
330
D
100
AcDbGroup
300

 70
     1
 71
     1
  0
GROUP
  5
20222
102
{ACAD_REACTORS
330
D
102
}
330
D
100
AcDbGroup
300

 70
     1
 71
     1
  0
GROUP
  5
24A46
102
{ACAD_REACTORS
330
D
102
}
330
D
100
AcDbGroup
300

 70
     1
 71
     1
  0
GROUP
  5
18F22
102
{ACAD_REACTORS
330
D
102
}
330
D
100
AcDbGroup
300

 70
     1
 71
     1
  0
GROUP
  5
FB6B
102
{ACAD_REACTORS
330
D
102
}
330
D
100
AcDbGroup
300

 70
     1
 71
     1
  0
GROUP
  5
24A11
102
{ACAD_REACTORS
330
D
102
}
330
D
100
AcDbGroup
300

 70
     1
 71
     1
  0
GROUP
  5
224AC
102
{ACAD_REACTORS
330
D
102
}
330
D
100
AcDbGroup
300

 70
     1
 71
     1
  0
GROUP
  5
18F1F
102
{ACAD_REACTORS
330
D
102
}
330
D
100
AcDbGroup
300

 70
     1
 71
     1
  0
GROUP
  5
18F23
102
{ACAD_REACTORS
330
D
102
}
330
D
100
AcDbGroup
300

 70
     1
 71
     1
  0
GROUP
  5
24AE6
102
{ACAD_REACTORS
330
D
102
}
330
D
100
AcDbGroup
300

 70
     1
 71
     1
  0
GROUP
  5
2471B
102
{ACAD_REACTORS
330
D
102
}
330
D
100
AcDbGroup
300

 70
     1
 71
     1
  0
GROUP
  5
1EB7C
102
{ACAD_REACTORS
330
D
102
}
330
D
100
AcDbGroup
300

 70
     1
 71
     1
  0
GROUP
  5
24A4C
102
{ACAD_REACTORS
330
D
102
}
330
D
100
AcDbGroup
300

 70
     1
 71
     1
  0
MLINESTYLE
  5
1C
102
{ACAD_REACTORS
330
1B
102
}
330
1B
100
AcDbMlineStyle
  2
STANDARD
 70
     0
  3

 62
   256
 51
90.0
 52
90.0
 71
     2
 49
0.5
 62
   256
  6
BYLAYER
 49
-0.5
 62
   256
  6
BYLAYER
  0
ACDBPLACEHOLDER
  5
FB5C
102
{ACAD_REACTORS
330
FB5B
102
}
330
FB5B
100
AcDbPlaceHolder
280
     0
  0
XRECORD
  5
25C78
102
{ACAD_REACTORS
330
25C6E
102
}
330
25C6E
100
AcDbXrecord
 90
        0
  0
XRECORD
  5
25C7C
102
{ACAD_REACTORS
330
25C6E
102
}
330
25C6E
100
AcDbXrecord
1000
DSTYLE
1002
{
1070
   289
 70
     1
1070
   341
340
1215D
1070
   342
340
1215D
1070
   371
 70
    13
1070
   372
 70
    13
1002
}
  0
XRECORD
  5
25C79
102
{ACAD_REACTORS
330
25C6E
102
}
330
25C6E
100
AcDbXrecord
  1
{D14EE3FF-941A-415A-9907-344E0A80D794}
  0
XRECORD
  5
25C71
102
{ACAD_REACTORS
330
25C6E
102
}
330
25C6E
100
AcDbXrecord
  1

  0
XRECORD
  5
25C77
102
{ACAD_REACTORS
330
25C6E
102
}
330
25C6E
100
AcDbXrecord
 90
        0
  0
XRECORD
  5
25C73
102
{ACAD_REACTORS
330
25C6E
102
}
330
25C6E
100
AcDbXrecord
340
DB2
  0
XRECORD
  5
25C76
102
{ACAD_REACTORS
330
25C6E
102
}
330
25C6E
100
AcDbXrecord
 90
    10781
  0
XRECORD
  5
25C74
102
{ACAD_REACTORS
330
25C6E
102
}
330
25C6E
100
AcDbXrecord
340
DB3
  0
XRECORD
  5
25C75
102
{ACAD_REACTORS
330
25C6E
102
}
330
25C6E
100
AcDbXrecord
340
FB5B
  0
XRECORD
  5
25C7B
102
{ACAD_REACTORS
330
25C6E
102
}
330
25C6E
100
AcDbXrecord
 40
0.0
  0
XRECORD
  5
25C7F
102
{ACAD_REACTORS
330
25C6E
102
}
330
25C6E
100
AcDbXrecord
340
0
  0
XRECORD
  5
25C85
102
{ACAD_REACTORS
330
25C6E
102
}
330
25C6E
100
AcDbXrecord
 10
0.0
 20
0.0
 30
0.0
  0
XRECORD
  5
25C81
102
{ACAD_REACTORS
330
25C6E
102
}
330
25C6E
100
AcDbXrecord
 10
0.0
 20
0.0
 30
0.0
  0
XRECORD
  5
25C84
102
{ACAD_REACTORS
330
25C6E
102
}
330
25C6E
100
AcDbXrecord
 10
0.0
 20
0.0
 30
0.0
  0
XRECORD
  5
25C82
102
{ACAD_REACTORS
330
25C6E
102
}
330
25C6E
100
AcDbXrecord
 10
0.0
 20
0.0
 30
0.0
  0
XRECORD
  5
25C83
102
{ACAD_REACTORS
330
25C6E
102
}
330
25C6E
100
AcDbXrecord
 10
0.0
 20
0.0
 30
0.0
  0
XRECORD
  5
25C80
102
{ACAD_REACTORS
330
25C6E
102
}
330
25C6E
100
AcDbXrecord
 10
0.0
 20
0.0
 30
0.0
  0
XRECORD
  5
25C7D
102
{ACAD_REACTORS
330
25C6E
102
}
330
25C6E
100
AcDbXrecord
340
0
  0
XRECORD
  5
25C7E
102
{ACAD_REACTORS
330
25C6E
102
}
330
25C6E
100
AcDbXrecord
 70
     0
  0
XRECORD
  5
25C72
102
{ACAD_REACTORS
330
25C6E
102
}
330
25C6E
100
AcDbXrecord
  1
MONOCHROME.CTB
  0
XRECORD
  5
25C6F
102
{ACAD_REACTORS
330
25C6E
102
}
330
25C6E
100
AcDbXrecord
 90
        1
  0
XRECORD
  5
25C70
102
{ACAD_REACTORS
330
25C6E
102
}
330
25C6E
100
AcDbXrecord
 90
       70
  0
XRECORD
  5
25C88
102
{ACAD_REACTORS
330
25C6E
102
}
330
25C6E
100
AcDbXrecord
340
0
  0
XRECORD
  5
25C8E
102
{ACAD_REACTORS
330
25C6E
102
}
330
25C6E
100
AcDbXrecord
 10
0.0
 20
0.0
 30
0.0
  0
XRECORD
  5
25C8A
102
{ACAD_REACTORS
330
25C6E
102
}
330
25C6E
100
AcDbXrecord
 10
0.0
 20
0.0
 30
0.0
  0
XRECORD
  5
25C8D
102
{ACAD_REACTORS
330
25C6E
102
}
330
25C6E
100
AcDbXrecord
 10
0.0
 20
0.0
 30
0.0
  0
XRECORD
  5
25C8B
102
{ACAD_REACTORS
330
25C6E
102
}
330
25C6E
100
AcDbXrecord
 10
0.0
 20
0.0
 30
0.0
  0
XRECORD
  5
25C8C
102
{ACAD_REACTORS
330
25C6E
102
}
330
25C6E
100
AcDbXrecord
 10
0.0
 20
0.0
 30
0.0
  0
XRECORD
  5
25C89
102
{ACAD_REACTORS
330
25C6E
102
}
330
25C6E
100
AcDbXrecord
 10
0.0
 20
0.0
 30
0.0
  0
XRECORD
  5
25C86
102
{ACAD_REACTORS
330
25C6E
102
}
330
25C6E
100
AcDbXrecord
340
0
  0
XRECORD
  5
25C87
102
{ACAD_REACTORS
330
25C6E
102
}
330
25C6E
100
AcDbXrecord
 70
     0
  0
XRECORD
  5
25C7A
102
{ACAD_REACTORS
330
25C6E
102
}
330
25C6E
100
AcDbXrecord
  1
{BE6A7FB5-4480-47F8-A931-68EC2B65412F}
  0
DICTIONARYVAR
  5
106A7
102
{ACAD_REACTORS
330
106A6
102
}
330
106A6
100
DictionaryVariables
280
     0
  1
96
  0
XRECORD
  5
1A9A1
102
{ACAD_REACTORS
330
1A99F
102
}
330
1A99F
100
AcDbXrecord
330
187D7
330
0
330
0
330
0
330
0
330
0
330
0
330
0
330
0
330
0
330
79
330
115F
330
0
330
0
330
0
330
0
330
0
330
0
330
0
330
0
330
0
330
0
330
0
330
0
330
0
330
0
330
0
330
0
330
0
330
0
330
0
330
0
330
0
330
0
330
0
330
0
330
0
330
0
330
0
330
0
330
0
330
0
330
0
330
0
  0
XRECORD
  5
25506
102
{ACAD_REACTORS
330
25505
102
}
330
25505
100
AcDbXrecord
  1
0
  1
*0
  1
*
  1
*
 70
     0
  1
*
  1
*
  0
XRECORD
  5
25507
102
{ACAD_REACTORS
330
25505
102
}
330
25505
100
AcDbXrecord
  1
11
  1
*11
  1
*
  1
*
 70
     0
  1
*
  1
*
  0
XRECORD
  5
25508
102
{ACAD_REACTORS
330
25505
102
}
330
25505
100
AcDbXrecord
  1
150_
  1
150_*
  1
*
  1
*
 70
     0
  1
*
  1
*
  0
XRECORD
  5
25509
102
{ACAD_REACTORS
330
25505
102
}
330
25505
100
AcDbXrecord
  1
160_
  1
160_*
  1
*
  1
*
 70
     0
  1
*
  1
*
  0
XRECORD
  5
2550A
102
{ACAD_REACTORS
330
25505
102
}
330
25505
100
AcDbXrecord
  1
170_
  1
170_*
  1
*
  1
*
 70
     0
  1
*
  1
*
  0
XRECORD
  5
2550B
102
{ACAD_REACTORS
330
25505
102
}
330
25505
100
AcDbXrecord
  1
171_
  1
171_*
  1
*
  1
*
 70
     0
  1
*
  1
*
  0
XRECORD
  5
2550C
102
{ACAD_REACTORS
330
25505
102
}
330
25505
100
AcDbXrecord
  1
350_
  1
350_*
  1
*
  1
*
 70
     0
  1
*
  1
*
  0
XRECORD
  5
2550D
102
{ACAD_REACTORS
330
25505
102
}
330
25505
100
AcDbXrecord
  1
4
  1
*4
  1
*
  1
*
 70
     0
  1
*
  1
*
  0
XRECORD
  5
2550E
102
{ACAD_REACTORS
330
25505
102
}
330
25505
100
AcDbXrecord
  1
5
  1
*5
  1
*
  1
*
 70
     0
  1
*
  1
*
  0
XRECORD
  5
2550F
102
{ACAD_REACTORS
330
25505
102
}
330
25505
100
AcDbXrecord
  1
7
  1
*7
  1
*
  1
*
 70
     0
  1
*
  1
*
  0
XRECORD
  5
25510
102
{ACAD_REACTORS
330
25505
102
}
330
25505
100
AcDbXrecord
  1
kiseki
  1
kiseki*
  1
*
  1
*
 70
     0
  1
*
  1
*
  0
ENDSEC
  0
EOF
