  0
SECTION
  2
HEADER
  9
$ACADVER
  1
AC1015
  9
$ACADMAINTVER
 70
    10
  9
$DWGCODEPAGE
  3
ANSI_932
  9
$INSBASE
 10
0.0
 20
0.0
 30
0.0
  9
$EXTMIN
 10
1221.543089079343
 20
-579.2847006881333
 30
0.0
  9
$EXTMAX
 10
1530.769966009425
 20
356.1028442534666
 30
137.5
  9
$LIMMIN
 10
0.0
 20
0.0
  9
$LIMMAX
 10
420.0
 20
297.0
  9
$ORTHOMODE
 70
     0
  9
$REGENMODE
 70
     1
  9
$FILLMODE
 70
     1
  9
$QTEXTMODE
 70
     0
  9
$MIRRTEXT
 70
     0
  9
$LTSCALE
 40
1.0
  9
$ATTMODE
 70
     1
  9
$TEXTSIZE
 40
2.5
  9
$TRACEWID
 40
1.0
  9
$TEXTSTYLE
  7
まこ
  9
$CLAYER
  8
寸法
  9
$CELTYPE
  6
BYLAYER
  9
$CECOLOR
 62
   256
  9
$CELTSCALE
 40
10.0
  9
$DISPSILH
 70
     0
  9
$DIMSCALE
 40
1.0
  9
$DIMASZ
 40
3.0
  9
$DIMEXO
 40
1.0
  9
$DIMDLI
 40
6.5
  9
$DIMRND
 40
0.0
  9
$DIMDLE
 40
0.0
  9
$DIMEXE
 40
1.0
  9
$DIMTP
 40
0.0
  9
$DIMTM
 40
0.000000001
  9
$DIMTXT
 40
3.0
  9
$DIMCEN
 40
2.5
  9
$DIMTSZ
 40
0.0
  9
$DIMTOL
 70
     0
  9
$DIMLIM
 70
     0
  9
$DIMTIH
 70
     0
  9
$DIMTOH
 70
     0
  9
$DIMSE1
 70
     0
  9
$DIMSE2
 70
     0
  9
$DIMTAD
 70
     1
  9
$DIMZIN
 70
     9
  9
$DIMBLK
  1

  9
$DIMASO
 70
     1
  9
$DIMSHO
 70
     1
  9
$DIMPOST
  1

  9
$DIMAPOST
  1

  9
$DIMALT
 70
     0
  9
$DIMALTD
 70
     4
  9
$DIMALTF
 40
0.0394
  9
$DIMLFAC
 40
1.0
  9
$DIMTOFL
 70
     1
  9
$DIMTVP
 40
0.0
  9
$DIMTIX
 70
     0
  9
$DIMSOXD
 70
     0
  9
$DIMSAH
 70
     1
  9
$DIMBLK1
  1
OPEN
  9
$DIMBLK2
  1
OPEN
  9
$DIMSTYLE
  2
STD-I1
  9
$DIMCLRD
 70
     4
  9
$DIMCLRE
 70
     4
  9
$DIMCLRT
 70
   256
  9
$DIMTFAC
 40
0.8
  9
$DIMGAP
 40
0.75
  9
$DIMJUST
 70
     0
  9
$DIMSD1
 70
     0
  9
$DIMSD2
 70
     0
  9
$DIMTOLJ
 70
     1
  9
$DIMTZIN
 70
     9
  9
$DIMALTZ
 70
     0
  9
$DIMALTTZ
 70
     0
  9
$DIMUPT
 70
     0
  9
$DIMDEC
 70
     8
  9
$DIMTDEC
 70
     8
  9
$DIMALTU
 70
     8
  9
$DIMALTTD
 70
     4
  9
$DIMTXSTY
  7
STANDARD
  9
$DIMAUNIT
 70
     0
  9
$DIMADEC
 70
     7
  9
$DIMALTRND
 40
0.0
  9
$DIMAZIN
 70
     2
  9
$DIMDSEP
 70
    46
  9
$DIMATFIT
 70
     0
  9
$DIMFRAC
 70
     0
  9
$DIMLDRBLK
  1
OPEN
  9
$DIMLUNIT
 70
     2
  9
$DIMLWD
 70
    15
  9
$DIMLWE
 70
    15
  9
$DIMTMOVE
 70
     0
  9
$LUNITS
 70
     2
  9
$LUPREC
 70
     4
  9
$SKETCHINC
 40
1.0
  9
$FILLETRAD
 40
0.0
  9
$AUNITS
 70
     0
  9
$AUPREC
 70
     3
  9
$MENU
  1
.
  9
$ELEVATION
 40
0.0
  9
$PELEVATION
 40
0.0
  9
$THICKNESS
 40
0.0
  9
$LIMCHECK
 70
     0
  9
$CHAMFERA
 40
0.0
  9
$CHAMFERB
 40
0.0
  9
$CHAMFERC
 40
20.0
  9
$CHAMFERD
 40
0.0
  9
$SKPOLY
 70
     0
  9
$TDCREATE
 40
2452479.723123183
  9
$TDUCREATE
 40
2452479.348123183
  9
$TDUPDATE
 40
2456337.707958981
  9
$TDUUPDATE
 40
2456337.332958981
  9
$TDINDWG
 40
6.9917671065
  9
$TDUSRTIMER
 40
6.9917651157
  9
$USRTIMER
 70
     1
  9
$ANGBASE
 50
0.0
  9
$ANGDIR
 70
     0
  9
$PDMODE
 70
     0
  9
$PDSIZE
 40
0.0
  9
$PLINEWID
 40
0.0
  9
$SPLFRAME
 70
     0
  9
$SPLINETYPE
 70
     6
  9
$SPLINESEGS
 70
     8
  9
$HANDSEED
  5
195CB
  9
$SURFTAB1
 70
     6
  9
$SURFTAB2
 70
     6
  9
$SURFTYPE
 70
     6
  9
$SURFU
 70
     6
  9
$SURFV
 70
     6
  9
$UCSBASE
  2

  9
$UCSNAME
  2

  9
$UCSORG
 10
0.0
 20
0.0
 30
0.0
  9
$UCSXDIR
 10
1.0
 20
0.0
 30
0.0
  9
$UCSYDIR
 10
0.0
 20
1.0
 30
0.0
  9
$UCSORTHOREF
  2

  9
$UCSORTHOVIEW
 70
     0
  9
$UCSORGTOP
 10
0.0
 20
0.0
 30
0.0
  9
$UCSORGBOTTOM
 10
0.0
 20
0.0
 30
0.0
  9
$UCSORGLEFT
 10
0.0
 20
0.0
 30
0.0
  9
$UCSORGRIGHT
 10
0.0
 20
0.0
 30
0.0
  9
$UCSORGFRONT
 10
0.0
 20
0.0
 30
0.0
  9
$UCSORGBACK
 10
0.0
 20
0.0
 30
0.0
  9
$PUCSBASE
  2

  9
$PUCSNAME
  2

  9
$PUCSORG
 10
0.0
 20
0.0
 30
0.0
  9
$PUCSXDIR
 10
1.0
 20
0.0
 30
0.0
  9
$PUCSYDIR
 10
0.0
 20
1.0
 30
0.0
  9
$PUCSORTHOREF
  2

  9
$PUCSORTHOVIEW
 70
     0
  9
$PUCSORGTOP
 10
0.0
 20
0.0
 30
0.0
  9
$PUCSORGBOTTOM
 10
0.0
 20
0.0
 30
0.0
  9
$PUCSORGLEFT
 10
0.0
 20
0.0
 30
0.0
  9
$PUCSORGRIGHT
 10
0.0
 20
0.0
 30
0.0
  9
$PUCSORGFRONT
 10
0.0
 20
0.0
 30
0.0
  9
$PUCSORGBACK
 10
0.0
 20
0.0
 30
0.0
  9
$USERI1
 70
     0
  9
$USERI2
 70
     0
  9
$USERI3
 70
     0
  9
$USERI4
 70
     0
  9
$USERI5
 70
     0
  9
$USERR1
 40
0.0
  9
$USERR2
 40
0.0
  9
$USERR3
 40
0.0
  9
$USERR4
 40
0.0
  9
$USERR5
 40
0.0
  9
$WORLDVIEW
 70
     1
  9
$SHADEDGE
 70
     3
  9
$SHADEDIF
 70
    70
  9
$TILEMODE
 70
     0
  9
$MAXACTVP
 70
    48
  9
$PINSBASE
 10
0.0
 20
0.0
 30
0.0
  9
$PLIMCHECK
 70
     0
  9
$PEXTMIN
 10
-0.0143111418271929
 20
-0.0114217696407195
 30
-0.0015258207003583
  9
$PEXTMAX
 10
404.5265565691786
 20
288.0191689867872
 30
0.0000000349246037
  9
$PLIMMIN
 10
-3.174987999999999
 20
-3.174999999999999
  9
$PLIMMAX
 10
416.983337
 20
293.85683
  9
$UNITMODE
 70
     0
  9
$VISRETAIN
 70
     1
  9
$PLINEGEN
 70
     0
  9
$PSLTSCALE
 70
     0
  9
$TREEDEPTH
 70
  3020
  9
$CMLSTYLE
  2
STANDARD
  9
$CMLJUST
 70
     0
  9
$CMLSCALE
 40
20.0
  9
$PROXYGRAPHICS
 70
     1
  9
$MEASUREMENT
 70
     0
  9
$CELWEIGHT
370
    -1
  9
$ENDCAPS
280
     0
  9
$JOINSTYLE
280
     0
  9
$LWDISPLAY
290
     0
  9
$INSUNITS
 70
     0
  9
$HYPERLINKBASE
  1

  9
$STYLESHEET
  1
monochrome.ctb
  9
$XEDIT
290
     1
  9
$CEPSNTYPE
380
     0
  9
$PSTYLEMODE
290
     1
  9
$FINGERPRINTGUID
  2
{6B368F64-F7EB-11D4-BFBA-00004C030E53}
  9
$VERSIONGUID
  2
{C7F4AA53-6DA2-4FF6-8C42-427A3FCF5166}
  9
$EXTNAMES
290
     1
  9
$PSVPSCALE
 40
0.0
  9
$OLESTARTUP
290
     0
  0
ENDSEC
  0
SECTION
  2
CLASSES
  0
CLASS
  1
HATCH
  2
AcDbHatch
  3
AutoCAD 2000
 90
    32768
280
     0
281
     1
  0
CLASS
  1
LWPOLYLINE
  2
AcDbPolyline
  3
AutoCAD 2000
 90
    32768
280
     0
281
     1
  0
CLASS
  1
ACDBDICTIONARYWDFLT
  2
AcDbDictionaryWithDefault
  3
AutoCAD 2000
 90
        0
280
     0
281
     0
  0
CLASS
  1
ACDBPLACEHOLDER
  2
AcDbPlaceHolder
  3
AutoCAD 2000
 90
        0
280
     0
281
     0
  0
CLASS
  1
LAYOUT
  2
AcDbLayout
  3
AutoCAD 2000
 90
        0
280
     0
281
     0
  0
CLASS
  1
DICTIONARYVAR
  2
AcDbDictionaryVar
  3
AutoCAD 2000
 90
        0
280
     0
281
     0
  0
ENDSEC
  0
SECTION
  2
TABLES
  0
TABLE
  2
VPORT
  5
8
330
0
100
AcDbSymbolTable
 70
     3
  0
VPORT
  5
195CA
330
8
100
AcDbSymbolTableRecord
100
AcDbViewportTableRecord
  2
*Active
 70
     0
 10
0.0
 20
0.0
 11
1.0
 21
1.0
 12
1376.77268046136
 22
-111.5909260394645
 13
0.0
 23
0.0
 14
10.0
 24
10.0
 15
10.0
 25
10.0
 16
0.0
 26
0.0
 36
1.0
 17
0.0
 27
0.0
 37
0.0
 40
946.5808821388479
 41
1.992047713717694
 42
50.0
 43
0.0
 44
0.0
 50
0.0
 51
0.0
 71
     0
 72
 10000
 73
     1
 74
     0
 75
     0
 76
     0
 77
     0
 78
     2
281
     0
 65
     1
110
0.0
120
0.0
130
0.0
111
1.0
121
0.0
131
0.0
112
0.0
122
1.0
132
0.0
 79
     0
146
0.0
  0
ENDTAB
  0
TABLE
  2
LTYPE
  5
5
330
0
100
AcDbSymbolTable
 70
     5
  0
LTYPE
  5
12
330
5
100
AcDbSymbolTableRecord
100
AcDbLinetypeTableRecord
  2
BYBLOCK
 70
     0
  3

 72
    65
 73
     0
 40
0.0
  0
LTYPE
  5
13
330
5
100
AcDbSymbolTableRecord
100
AcDbLinetypeTableRecord
  2
BYLAYER
 70
     0
  3

 72
    65
 73
     0
 40
0.0
  0
LTYPE
  5
14
330
5
100
AcDbSymbolTableRecord
100
AcDbLinetypeTableRecord
  2
CONTINUOUS
 70
     0
  3
Solid line
 72
    65
 73
     0
 40
0.0
  0
LTYPE
  5
3306
330
5
100
AcDbSymbolTableRecord
100
AcDbLinetypeTableRecord
  2
CENTER
 70
     0
  3
Center ____ _ ____ _ ____ _ ____ _ ____ _ ____
 72
    65
 73
     4
 40
2.0
 49
1.25
 74
     0
 49
-0.25
 74
     0
 49
0.25
 74
     0
 49
-0.25
 74
     0
  0
LTYPE
  5
19568
330
5
100
AcDbSymbolTableRecord
100
AcDbLinetypeTableRecord
  2
PHANTOM2
 70
     0
  3
Phantom (.5x) ___ _ _ ___ _ _ ___ _ _ ___ _ _
 72
    65
 73
     6
 40
1.25
 49
0.625
 74
     0
 49
-0.125
 74
     0
 49
0.125
 74
     0
 49
-0.125
 74
     0
 49
0.125
 74
     0
 49
-0.125
 74
     0
  0
ENDTAB
  0
TABLE
  2
LAYER
  5
2
102
{ACAD_XDICTIONARY
360
16FB8
102
}
330
0
100
AcDbSymbolTable
 70
    18
  0
LAYER
  5
E
330
2
100
AcDbSymbolTableRecord
100
AcDbLayerTableRecord
  2
0
 70
     2
 62
     7
  6
CONTINUOUS
370
    -3
390
73E
  0
LAYER
  5
2C
330
2
100
AcDbSymbolTableRecord
100
AcDbLayerTableRecord
  2
M_VIEW
 70
     0
 62
    -1
  6
CONTINUOUS
370
    -3
390
73E
  0
LAYER
  5
12B
330
2
100
AcDbSymbolTableRecord
100
AcDbLayerTableRecord
  2
DEFPOINTS
 70
     0
 62
    -7
  6
CONTINUOUS
290
     0
370
    -3
390
73E
  0
LAYER
  5
8C6
330
2
100
AcDbSymbolTableRecord
100
AcDbLayerTableRecord
  2
文字
 70
     0
 62
    40
  6
CONTINUOUS
370
    30
390
73E
  0
LAYER
  5
A51A
330
2
100
AcDbSymbolTableRecord
100
AcDbLayerTableRecord
  2
中心線
 70
     0
 62
     1
  6
CENTER
370
    13
390
73E
  0
LAYER
  5
B010
330
2
100
AcDbSymbolTableRecord
100
AcDbLayerTableRecord
  2
実線
 70
     0
 62
     7
  6
CONTINUOUS
370
    30
390
73E
  0
LAYER
  5
E92C
330
2
100
AcDbSymbolTableRecord
100
AcDbLayerTableRecord
  2
ﾏｸﾞﾈｯﾄ
 70
     0
 62
   141
  6
CONTINUOUS
370
    30
390
73E
  0
LAYER
  5
FFDD
330
2
100
AcDbSymbolTableRecord
100
AcDbLayerTableRecord
  2
寸法
 70
     0
 62
     3
  6
CONTINUOUS
370
    15
390
73E
  0
LAYER
  5
11370
330
2
100
AcDbSymbolTableRecord
100
AcDbLayerTableRecord
  2
dimension
 70
     0
 62
     4
  6
CONTINUOUS
370
    13
390
73E
  0
LAYER
  5
1956B
330
2
100
AcDbSymbolTableRecord
100
AcDbLayerTableRecord
  2
二点鎖線
 70
     0
 62
     5
  6
PHANTOM2
370
    13
390
73E
  0
ENDTAB
  0
TABLE
  2
STYLE
  5
3
330
0
100
AcDbSymbolTable
 70
     7
  0
STYLE
  5
F
330
3
100
AcDbSymbolTableRecord
100
AcDbTextStyleTableRecord
  2
STANDARD
 70
     0
 40
0.0
 41
1.0
 50
0.0
 71
     0
 42
2.5
  3
MS Gothic.ttf
  4

1001
ACAD
1000
MS Gothic
1071
    32817
  0
STYLE
  5
34
330
3
100
AcDbSymbolTableRecord
100
AcDbTextStyleTableRecord
  2
TIMESNR
 70
     0
 40
0.0
 41
1.0
 50
0.0
 71
     0
 42
2.0
  3
MS Gothic.ttf
  4

1001
ACAD
1000
MS Gothic
1071
    32817
  0
STYLE
  5
8D7
330
3
100
AcDbSymbolTableRecord
100
AcDbTextStyleTableRecord
  2
MSｺﾞｼｯｸ-0
 70
     0
 40
0.0
 41
1.0
 50
0.0
 71
     0
 42
4.0
  3
MS Gothic.ttf
  4

1001
ACAD
1000
MS Gothic
1071
    32817
  0
STYLE
  5
1529
330
3
100
AcDbSymbolTableRecord
100
AcDbTextStyleTableRecord
  2
まこ
 70
     0
 40
0.0
 41
1.0
 50
0.0
 71
     0
 42
2.5
  3
MS Gothic.ttf
  4

1001
ACAD
1000
MS Gothic
1071
    32817
  0
STYLE
  5
E202
330
3
100
AcDbSymbolTableRecord
100
AcDbTextStyleTableRecord
  2
MSｺﾞｼｯｸN
 70
     0
 40
0.0
 41
1.0
 50
0.0
 71
     0
 42
5.0
  3
MS Gothic.ttf
  4

1001
ACAD
1000
MS Gothic
1071
    32817
  0
ENDTAB
  0
TABLE
  2
VIEW
  5
6
330
0
100
AcDbSymbolTable
 70
     0
  0
ENDTAB
  0
TABLE
  2
UCS
  5
7
330
0
100
AcDbSymbolTable
 70
     0
  0
ENDTAB
  0
TABLE
  2
APPID
  5
9
330
0
100
AcDbSymbolTable
 70
     1
  0
APPID
  5
10
330
9
100
AcDbSymbolTableRecord
100
AcDbRegAppTableRecord
  2
ACAD
 70
     0
  0
ENDTAB
  0
TABLE
  2
DIMSTYLE
  5
A
330
0
100
AcDbSymbolTable
 70
     2
100
AcDbDimStyleTable
 71
     2
340
FFDE
340
1D
  0
DIMSTYLE
105
1D
330
A
100
AcDbSymbolTableRecord
100
AcDbDimStyleTableRecord
  2
STANDARD
 70
     0
 41
3.0
 42
0.8
 44
0.8
 73
     0
 74
     0
 77
     3
 78
     8
 79
     2
140
3.0
141
0.0
147
0.5
176
     4
177
     4
178
   256
340
8D7
341
89E
342
89E
371
    13
372
    13
  0
DIMSTYLE
105
FFDE
102
{ACAD_REACTORS
330
16B6B
330
16B68
330
16B6F
330
16B67
330
16B66
330
16D7C
330
16DA6
330
16B65
330
16E6D
330
16E6C
330
16EAF
330
16E96
330
16E9D
330
16E72
330
19235
330
1924F
102
}
330
A
100
AcDbSymbolTableRecord
100
AcDbDimStyleTableRecord
  2
STD-I1
 70
     0
 41
3.0
 42
1.0
 43
6.5
 44
1.0
 48
0.000000001
 73
     0
 74
     0
 77
     1
 78
     9
 79
     2
140
3.0
141
2.5
143
0.0394
146
0.8
147
0.75
171
     4
172
     1
173
     1
176
     4
177
     4
178
   256
179
     7
271
     8
272
     8
273
     8
274
     4
284
     9
289
     0
340
F
341
FFCB
343
FFCB
344
FFCB
371
    15
372
    15
  0
ENDTAB
  0
TABLE
  2
BLOCK_RECORD
  5
1
330
0
100
AcDbSymbolTable
 70
    40
  0
BLOCK_RECORD
  5
18
330
1
100
AcDbSymbolTableRecord
100
AcDbBlockTableRecord
  2
*MODEL_SPACE
340
741
  0
BLOCK_RECORD
  5
15
330
1
100
AcDbSymbolTableRecord
100
AcDbBlockTableRecord
  2
*PAPER_SPACE
340
742
  0
BLOCK_RECORD
  5
89E
330
1
100
AcDbSymbolTableRecord
100
AcDbBlockTableRecord
  2
_Open30
340
0
  0
BLOCK_RECORD
  5
FFCB
330
1
100
AcDbSymbolTableRecord
100
AcDbBlockTableRecord
  2
_OPEN
340
0
102
{BLKREFS
331
16D6E
331
16DFC
331
16DFD
331
16E10
331
16E11
331
16E25
331
16E26
331
16E51
331
16E52
331
16F41
331
16F42
331
16F4D
331
16F4E
331
16F55
331
16F56
331
16F60
331
16F61
331
16F86
331
16F87
331
16FA2
331
16FA3
331
17EC9
331
18949
331
1894E
331
18DF0
331
18DF1
331
18E10
331
18E11
331
1919B
331
1919C
331
191BA
331
191BB
331
191C3
331
191C4
331
191F7
331
191F8
331
1922A
331
1922B
331
19260
331
19285
331
19286
331
192FE
331
19303
331
19309
331
1930A
331
19312
331
19313
331
19336
331
1933B
331
19341
331
19342
331
1934A
331
1934B
331
194CA
331
194CB
331
19560
331
19561
331
19593
331
19594
331
195B6
331
195B7
102
}
  0
BLOCK_RECORD
  5
10D0A
330
1
100
AcDbSymbolTableRecord
100
AcDbBlockTableRecord
  2
_DotSmall
340
0
  0
BLOCK_RECORD
  5
1109B
330
1
100
AcDbSymbolTableRecord
100
AcDbBlockTableRecord
  2
_DatumFilled
340
0
  0
BLOCK_RECORD
  5
16C2F
330
1
100
AcDbSymbolTableRecord
100
AcDbBlockTableRecord
  2
*D4
340
0
  0
BLOCK_RECORD
  5
16C37
330
1
100
AcDbSymbolTableRecord
100
AcDbBlockTableRecord
  2
*D5
340
0
  0
BLOCK_RECORD
  5
16C3F
330
1
100
AcDbSymbolTableRecord
100
AcDbBlockTableRecord
  2
*D6
340
0
  0
BLOCK_RECORD
  5
16C4C
330
1
100
AcDbSymbolTableRecord
100
AcDbBlockTableRecord
  2
*D7
340
0
  0
BLOCK_RECORD
  5
16C65
330
1
100
AcDbSymbolTableRecord
100
AcDbBlockTableRecord
  2
*D8
340
0
  0
BLOCK_RECORD
  5
16C7F
330
1
100
AcDbSymbolTableRecord
100
AcDbBlockTableRecord
  2
*D9
340
0
  0
BLOCK_RECORD
  5
16D7D
330
1
100
AcDbSymbolTableRecord
100
AcDbBlockTableRecord
  2
*D10
340
0
  0
BLOCK_RECORD
  5
16DA7
330
1
100
AcDbSymbolTableRecord
100
AcDbBlockTableRecord
  2
*D11
340
0
  0
BLOCK_RECORD
  5
16EB4
330
1
100
AcDbSymbolTableRecord
100
AcDbBlockTableRecord
  2
*D12
340
0
  0
BLOCK_RECORD
  5
16EC0
330
1
100
AcDbSymbolTableRecord
100
AcDbBlockTableRecord
  2
*D13
340
0
  0
BLOCK_RECORD
  5
16ECE
330
1
100
AcDbSymbolTableRecord
100
AcDbBlockTableRecord
  2
*D14
340
0
  0
BLOCK_RECORD
  5
16EDA
330
1
100
AcDbSymbolTableRecord
100
AcDbBlockTableRecord
  2
*D15
340
0
  0
BLOCK_RECORD
  5
16EE8
330
1
100
AcDbSymbolTableRecord
100
AcDbBlockTableRecord
  2
*D16
340
0
  0
BLOCK_RECORD
  5
16EF6
330
1
100
AcDbSymbolTableRecord
100
AcDbBlockTableRecord
  2
*D17
340
0
  0
BLOCK_RECORD
  5
19236
330
1
100
AcDbSymbolTableRecord
100
AcDbBlockTableRecord
  2
*D35
340
0
  0
BLOCK_RECORD
  5
19250
330
1
100
AcDbSymbolTableRecord
100
AcDbBlockTableRecord
  2
*D36
340
0
  0
ENDTAB
  0
ENDSEC
  0
SECTION
  2
BLOCKS
  0
BLOCK
  5
19
330
18
100
AcDbEntity
  8
0
100
AcDbBlockBegin
  2
*MODEL_SPACE
 70
     0
 10
0.0
 20
0.0
 30
0.0
  3
*MODEL_SPACE
  1

  0
ENDBLK
  5
1A
330
18
100
AcDbEntity
  8
0
100
AcDbBlockEnd
  0
BLOCK
  5
16
330
15
100
AcDbEntity
 67
     1
  8
0
100
AcDbBlockBegin
  2
*PAPER_SPACE
 70
     0
 10
0.0
 20
0.0
 30
0.0
  3
*PAPER_SPACE
  1

  0
ENDBLK
  5
17
330
15
100
AcDbEntity
 67
     1
  8
0
100
AcDbBlockEnd
  0
BLOCK
  5
8A2
330
89E
100
AcDbEntity
  8
0
100
AcDbBlockBegin
  2
_Open30
 70
     0
 10
0.0
 20
0.0
 30
0.0
  3
_Open30
  1

  0
LINE
  5
89F
330
89E
100
AcDbEntity
  8
0
  6
ByBlock
 62
     0
370
    -2
100
AcDbLine
 10
-1.0
 20
0.26794919
 30
0.0
 11
0.0
 21
0.0
 31
0.0
  0
LINE
  5
8A0
330
89E
100
AcDbEntity
  8
0
  6
ByBlock
 62
     0
370
    -2
100
AcDbLine
 10
0.0
 20
0.0
 30
0.0
 11
-1.0
 21
-0.26794919
 31
0.0
  0
LINE
  5
8A1
330
89E
100
AcDbEntity
  8
0
  6
ByBlock
 62
     0
370
    -2
100
AcDbLine
 10
0.0
 20
0.0
 30
0.0
 11
-1.0
 21
0.0
 31
0.0
  0
ENDBLK
  5
8A3
330
89E
100
AcDbEntity
  8
0
100
AcDbBlockEnd
  0
BLOCK
  5
FFCF
330
FFCB
100
AcDbEntity
  8
0
100
AcDbBlockBegin
  2
_OPEN
 70
     0
 10
0.0
 20
0.0
 30
0.0
  3
_OPEN
  1

  0
LINE
  5
FFCC
330
FFCB
100
AcDbEntity
  8
0
  6
ByBlock
 62
     0
100
AcDbLine
 10
-1.0
 20
0.1666666666666666
 30
0.0
 11
0.0
 21
0.0
 31
0.0
  0
LINE
  5
FFCD
330
FFCB
100
AcDbEntity
  8
0
  6
ByBlock
 62
     0
100
AcDbLine
 10
0.0
 20
0.0
 30
0.0
 11
-1.0
 21
-0.1666666666666666
 31
0.0
  0
LINE
  5
FFCE
330
FFCB
100
AcDbEntity
  8
0
  6
ByBlock
 62
     0
100
AcDbLine
 10
0.0
 20
0.0
 30
0.0
 11
-1.0
 21
0.0
 31
0.0
  0
ENDBLK
  5
FFD0
330
FFCB
100
AcDbEntity
  8
0
100
AcDbBlockEnd
  0
BLOCK
  5
10D0C
330
10D0A
100
AcDbEntity
  8
0
 48
10.0
100
AcDbBlockBegin
  2
_DotSmall
 70
     0
 10
0.0
 20
0.0
 30
0.0
  3
_DotSmall
  1

  0
LWPOLYLINE
  5
10D0B
330
10D0A
100
AcDbEntity
  8
0
  6
ByBlock
 62
     0
100
AcDbPolyline
 90
        2
 70
     1
 43
0.5
 10
-0.0625
 20
0.0
 42
1.0
 10
0.0625
 20
0.0
 42
1.0
  0
ENDBLK
  5
10D0D
330
10D0A
100
AcDbEntity
  8
0
 48
10.0
100
AcDbBlockEnd
  0
BLOCK
  5
1109D
330
1109B
100
AcDbEntity
  8
0
 48
10.0
100
AcDbBlockBegin
  2
_DatumFilled
 70
     0
 10
0.0
 20
0.0
 30
0.0
  3
_DatumFilled
  1

  0
SOLID
  5
1109C
330
1109B
100
AcDbEntity
  8
0
  6
ByBlock
 62
     0
100
AcDbTrace
 10
0.0
 20
0.5773502700000001
 30
0.0
 11
-1.0
 21
0.0
 31
0.0
 12
0.0
 22
-0.5773502700000001
 32
0.0
 13
0.0
 23
-0.5773502700000001
 33
0.0
  0
ENDBLK
  5
1109E
330
1109B
100
AcDbEntity
  8
0
 48
10.0
100
AcDbBlockEnd
  0
BLOCK
  5
16C35
330
16C2F
100
AcDbEntity
  8
0
 48
10.0
100
AcDbBlockBegin
  2
*D4
 70
     1
 10
0.0
 20
0.0
 30
0.0
  3
*D4
  1

  0
LINE
  5
17EC7
330
16C2F
100
AcDbEntity
  8
寸法
 62
     4
 48
10.0
370
    15
100
AcDbLine
 10
1383.252035850174
 20
-467.7553660920049
 30
0.0
 11
1381.67120863206
 21
-489.0774472687979
 31
0.0
  0
MTEXT
  5
17EC8
330
16C2F
100
AcDbEntity
  8
寸法
 48
10.0
100
AcDbMText
 10
1380.548885168102
 20
-473.7841355188687
 30
0.0
 40
3.0
 41
0.0
 71
     5
 72
     1
  1
\A1;R850.5
 11
0.0739374497541914
 21
0.9972628808513062
 31
0.0
 73
     1
 44
1.0
  0
INSERT
  5
17EC9
330
16C2F
100
AcDbEntity
  8
寸法
 62
     4
 48
10.0
370
    15
100
AcDbBlockReference
  2
_OPEN
 10
1381.449396282798
 20
-492.0692359113519
 30
0.0
 41
3.0
 42
3.0
 43
3.0
 50
265.7598268550359
  0
POINT
  5
17ECA
330
16C2F
100
AcDbEntity
  8
DEFPOINTS
 62
     0
 48
10.0
100
AcDbPoint
 10
1381.449396282798
 20
-492.0692359113519
 30
0.0
  0
POINT
  5
17ECB
330
16C2F
100
AcDbEntity
  8
DEFPOINTS
 62
     0
 48
10.0
100
AcDbPoint
 10
1444.333197298737
 20
356.1028442526883
 30
0.0
  0
ENDBLK
  5
16C36
330
16C2F
100
AcDbEntity
  8
0
 48
10.0
100
AcDbBlockEnd
  0
BLOCK
  5
16C3D
330
16C37
100
AcDbEntity
  8
0
 48
10.0
100
AcDbBlockBegin
  2
*D5
 70
     1
 10
0.0
 20
0.0
 30
0.0
  3
*D5
  1

  0
LINE
  5
16D6C
330
16C37
100
AcDbEntity
  8
寸法
 62
     4
 48
10.0
370
    15
100
AcDbLine
 10
1380.586846456236
 20
-357.4325046922199
 30
0.0
 11
1377.861896792685
 21
-387.9338256830244
 31
0.0
  0
MTEXT
  5
16D6D
330
16C37
100
AcDbEntity
  8
寸法
 48
10.0
100
AcDbMText
 10
1377.539155319531
 20
-366.2610361017016
 30
0.0
 40
3.0
 41
0.0
 71
     5
 72
     1
  1
\A1;R750{\H2.400000;±0.05}
 11
0.0889843380268458
 21
0.9960330253490212
 31
0.0
 73
     1
 44
1.0
  0
INSERT
  5
16D6E
330
16C37
100
AcDbEntity
  8
寸法
 62
     4
 48
10.0
370
    15
100
AcDbBlockReference
  2
_OPEN
 10
1377.594943778604
 20
-390.9219247590715
 30
0.0
 41
3.0
 42
3.0
 43
3.0
 50
264.8948204953881
  0
POINT
  5
16D6F
330
16C37
100
AcDbEntity
  8
DEFPOINTS
 62
     0
 48
10.0
100
AcDbPoint
 10
1377.594943778604
 20
-390.9219247590715
 30
0.0
  0
POINT
  5
16D70
330
16C37
100
AcDbEntity
  8
DEFPOINTS
 62
     0
 48
10.0
100
AcDbPoint
 10
1444.333197298738
 20
356.1028442526881
 30
0.0
  0
ENDBLK
  5
16C3E
330
16C37
100
AcDbEntity
  8
0
 48
10.0
100
AcDbBlockEnd
  0
BLOCK
  5
16C4A
330
16C3F
100
AcDbEntity
  8
0
 48
10.0
100
AcDbBlockBegin
  2
*D6
 70
     1
 10
0.0
 20
0.0
 30
0.0
  3
*D6
  1

  0
LINE
  5
16E0D
330
16C3F
100
AcDbEntity
  8
寸法
 62
     4
 48
10.0
370
    15
100
AcDbLine
 10
1467.204745014978
 20
-405.5538318849714
 30
0.0
 11
1466.447372399913
 21
-380.3321933781907
 31
0.0
  0
LINE
  5
16E0E
330
16C3F
100
AcDbEntity
  8
寸法
 62
     4
 48
10.0
370
    15
100
AcDbLine
 10
1489.514660093878
 20
-395.5238594011738
 30
0.0
 11
1488.54162014148
 21
-379.3366275874899
 31
0.0
  0
ARC
  5
16E0F
330
16C3F
100
AcDbEntity
  8
寸法
 62
     4
 48
10.0
370
    15
100
AcDbCircle
 10
1444.333197298776
 20
356.1028442534666
 30
0.0
 40
737.7669926048155
100
AcDbArc
 50
271.9529833927003
 51
273.2070166072887
  0
INSERT
  5
16E10
330
16C3F
100
AcDbEntity
  8
寸法
 62
     4
 48
10.0
370
    15
100
AcDbBlockReference
  2
_OPEN
 10
1466.477387554397
 20
-381.3317428219409
 30
0.0
 41
3.0
 42
3.0
 43
3.0
 50
181.8364916963479
  0
INSERT
  5
16E11
330
16C3F
100
AcDbEntity
  8
寸法
 62
     4
 48
10.0
370
    15
100
AcDbBlockReference
  2
_OPEN
 10
1488.601623403415
 20
-380.3348257684925
 30
0.0
 41
3.0
 42
3.0
 43
3.0
 50
3.323508303641204
  0
MTEXT
  5
16E12
330
16C3F
100
AcDbEntity
  8
寸法
 48
10.0
100
AcDbMText
 10
1478.16358390271
 20
-378.6354200232206
 30
0.0
 40
3.0
 41
0.0
 71
     5
 72
     1
  1
\A1;1.72°
 11
0.99894165141952
 21
0.0459954025881082
 31
0.0
 73
     1
 44
1.0
  0
POINT
  5
16E13
330
16C3F
100
AcDbEntity
  8
DEFPOINTS
 62
     0
 48
10.0
100
AcDbPoint
 10
1444.333197298776
 20
356.1028442534666
 30
0.0
  0
POINT
  5
16E14
330
16C3F
100
AcDbEntity
  8
DEFPOINTS
 62
     0
 48
10.0
100
AcDbPoint
 10
1467.234760169461
 20
-406.5533813287216
 30
0.0
  0
POINT
  5
16E15
330
16C3F
100
AcDbEntity
  8
DEFPOINTS
 62
     0
 48
10.0
100
AcDbPoint
 10
1489.574663355814
 20
-396.5220575821765
 30
0.0
  0
POINT
  5
16E16
330
16C3F
100
AcDbEntity
  8
DEFPOINTS
 62
     0
 48
10.0
100
AcDbPoint
 10
1473.855335051121
 20
-381.0732397045558
 30
0.0
  0
ENDBLK
  5
16C4B
330
16C3F
100
AcDbEntity
  8
0
 48
10.0
100
AcDbBlockEnd
  0
BLOCK
  5
16C57
330
16C4C
100
AcDbEntity
  8
0
 48
10.0
100
AcDbBlockBegin
  2
*D7
 70
     1
 10
0.0
 20
0.0
 30
0.0
  3
*D7
  1

  0
LINE
  5
16DF9
330
16C4C
100
AcDbEntity
  8
寸法
 62
     4
 48
10.0
370
    15
100
AcDbLine
 10
1421.461649582497
 20
-405.5538318849714
 30
0.0
 11
1422.219196015222
 21
-380.3264049907538
 31
0.0
  0
LINE
  5
16DFA
330
16C4C
100
AcDbEntity
  8
寸法
 62
     4
 48
10.0
370
    15
100
AcDbLine
 10
1467.204745014978
 20
-405.5538318849714
 30
0.0
 11
1466.447198582256
 21
-380.326404990756
 31
0.0
  0
ARC
  5
16DFB
330
16C4C
100
AcDbEntity
  8
寸法
 62
     4
 48
10.0
370
    15
100
AcDbCircle
 10
1444.333197298776
 20
356.1028442534666
 30
0.0
 40
737.7612016082111
100
AcDbArc
 50
268.51298522149
 51
271.487014778504
  0
INSERT
  5
16DFC
330
16C4C
100
AcDbEntity
  8
寸法
 62
     4
 48
10.0
370
    15
100
AcDbBlockReference
  2
_OPEN
 10
1422.189180860739
 20
-381.325954434504
 30
0.0
 41
3.0
 42
3.0
 43
3.0
 50
178.3964926107443
  0
INSERT
  5
16DFD
330
16C4C
100
AcDbEntity
  8
寸法
 62
     4
 48
10.0
370
    15
100
AcDbBlockReference
  2
_OPEN
 10
1466.477213736738
 20
-381.3259544345062
 30
0.0
 41
3.0
 42
3.0
 43
3.0
 50
1.603507389249765
  0
MTEXT
  5
16DFE
330
16C4C
100
AcDbEntity
  8
寸法
 48
10.0
100
AcDbMText
 10
1445.155846226604
 20
-379.4078972995688
 30
0.0
 40
3.0
 41
0.0
 71
     5
 72
     1
  1
\A1;3.44°
 11
0.9999993745096272
 21
0.0011184723305768
 31
0.0
 73
     1
 44
1.0
  0
POINT
  5
16DFF
330
16C4C
100
AcDbEntity
  8
DEFPOINTS
 62
     0
 48
10.0
100
AcDbPoint
 10
1444.333197298776
 20
356.1028442534666
 30
0.0
  0
POINT
  5
16E00
330
16C4C
100
AcDbEntity
  8
DEFPOINTS
 62
     0
 48
10.0
100
AcDbPoint
 10
1421.431634428014
 20
-406.5533813287216
 30
0.0
  0
POINT
  5
16E01
330
16C4C
100
AcDbEntity
  8
DEFPOINTS
 62
     0
 48
10.0
100
AcDbPoint
 10
1467.234760169461
 20
-406.5533813287215
 30
0.0
  0
POINT
  5
16E02
330
16C4C
100
AcDbEntity
  8
DEFPOINTS
 62
     0
 48
10.0
100
AcDbPoint
 10
1436.95087291832
 20
-381.6214212313643
 30
0.0
  0
ENDBLK
  5
16C58
330
16C4C
100
AcDbEntity
  8
0
 48
10.0
100
AcDbBlockEnd
  0
BLOCK
  5
16C71
330
16C65
100
AcDbEntity
  8
0
 48
10.0
100
AcDbBlockBegin
  2
*D8
 70
     1
 10
0.0
 20
0.0
 30
0.0
  3
*D8
  1

  0
LINE
  5
16E4E
330
16C65
100
AcDbEntity
  8
寸法
 62
     4
 48
10.0
370
    15
100
AcDbLine
 10
1399.091731241661
 20
-396.5220575821782
 30
0.0
 11
1400.881832233418
 21
-366.7424173402799
 31
0.0
  0
LINE
  5
16E4F
330
16C65
100
AcDbEntity
  8
寸法
 62
     4
 48
10.0
370
    15
100
AcDbLine
 10
1489.574663355813
 20
-396.5220575821765
 30
0.0
 11
1487.784562364056
 21
-366.7424173402798
 31
0.0
  0
ARC
  5
16E50
330
16C65
100
AcDbEntity
  8
寸法
 62
     4
 48
10.0
370
    15
100
AcDbCircle
 10
1444.333197298736
 20
356.1028442528205
 30
0.0
 40
725.1500489081232
100
AcDbArc
 50
266.7970370951208
 51
273.2029629048793
  0
INSERT
  5
16E51
330
16C65
100
AcDbEntity
  8
寸法
 62
     4
 48
10.0
370
    15
100
AcDbBlockReference
  2
_OPEN
 10
1400.821828971482
 20
-367.7406155212826
 30
0.0
 41
3.0
 42
3.0
 43
3.0
 50
176.6785185475607
  0
INSERT
  5
16E52
330
16C65
100
AcDbEntity
  8
寸法
 62
     4
 48
10.0
370
    15
100
AcDbBlockReference
  2
_OPEN
 10
1487.844565625992
 20
-367.7406155212825
 30
0.0
 41
3.0
 42
3.0
 43
3.0
 50
3.321481452439369
  0
MTEXT
  5
16E53
330
16C65
100
AcDbEntity
  8
寸法
 48
10.0
100
AcDbMText
 10
1444.633413935522
 20
-366.7971423160949
 30
0.0
 40
3.0
 41
0.0
 71
     5
 72
     1
  1
\A1;6.88°
 11
0.9999999137651077
 21
0.000415294807682
 31
0.0
 73
     1
 44
1.0
  0
POINT
  5
16E54
330
16C65
100
AcDbEntity
  8
DEFPOINTS
 62
     0
 48
10.0
100
AcDbPoint
 10
1429.821659255117
 20
-368.9019893138683
 30
0.0
  0
POINT
  5
16E55
330
16C65
100
AcDbEntity
  8
DEFPOINTS
 62
     0
 48
10.0
100
AcDbPoint
 10
1399.031727979725
 20
-397.520255763181
 30
0.0
  0
POINT
  5
16E56
330
16C65
100
AcDbEntity
  8
DEFPOINTS
 62
     0
 48
10.0
100
AcDbPoint
 10
1489.634666617749
 20
-397.5202557631792
 30
0.0
  0
POINT
  5
16E57
330
16C65
100
AcDbEntity
  8
DEFPOINTS
 62
     0
 48
10.0
100
AcDbPoint
 10
1495.24582361718
 20
-490.8659594711375
 30
0.0
  0
POINT
  5
16E58
330
16C65
100
AcDbEntity
  8
DEFPOINTS
 62
     0
 48
10.0
100
AcDbPoint
 10
1393.420570980295
 20
-490.8659594711377
 30
0.0
  0
ENDBLK
  5
16C72
330
16C65
100
AcDbEntity
  8
0
 48
10.0
100
AcDbBlockEnd
  0
BLOCK
  5
16C8B
330
16C7F
100
AcDbEntity
  8
0
 48
10.0
100
AcDbBlockBegin
  2
*D9
 70
     1
 10
0.0
 20
0.0
 30
0.0
  3
*D9
  1

  0
LINE
  5
16E22
330
16C7F
100
AcDbEntity
  8
寸法
 62
     4
 48
10.0
370
    15
100
AcDbLine
 10
1399.091731241661
 20
-396.5220575821782
 30
0.0
 11
1400.12259746019
 21
-379.3728435061658
 31
0.0
  0
LINE
  5
16E23
330
16C7F
100
AcDbEntity
  8
寸法
 62
     4
 48
10.0
370
    15
100
AcDbLine
 10
1421.461649582496
 20
-405.5538318849714
 30
0.0
 11
1422.21793320901
 21
-380.368458322426
 31
0.0
  0
ARC
  5
16E24
330
16C7F
100
AcDbEntity
  8
寸法
 62
     4
 48
10.0
370
    15
100
AcDbCircle
 10
1444.33319729878
 20
356.1028442535337
 30
0.0
 40
737.8032738958826
100
AcDbArc
 50
266.7929719357896
 51
268.0470280642095
  0
INSERT
  5
16E25
330
16C7F
100
AcDbEntity
  8
寸法
 62
     4
 48
10.0
370
    15
100
AcDbBlockReference
  2
_OPEN
 10
1400.062594198254
 20
-380.3710416871685
 30
0.0
 41
3.0
 42
3.0
 43
3.0
 50
176.6764859678951
  0
INSERT
  5
16E26
330
16C7F
100
AcDbEntity
  8
寸法
 62
     4
 48
10.0
370
    15
100
AcDbBlockReference
  2
_OPEN
 10
1422.187918054526
 20
-381.3680077661761
 30
0.0
 41
3.0
 42
3.0
 43
3.0
 50
358.163514032104
  0
MTEXT
  5
16E27
330
16C7F
100
AcDbEntity
  8
寸法
 48
10.0
100
AcDbMText
 10
1411.611631936021
 20
-378.7219535842871
 30
0.0
 40
3.0
 41
0.0
 71
     5
 72
     1
  1
\A1;1.72°
 11
0.9990100226582768
 21
-0.0444856676729602
 31
0.0
 73
     1
 44
1.0
  0
POINT
  5
16E28
330
16C7F
100
AcDbEntity
  8
DEFPOINTS
 62
     0
 48
10.0
100
AcDbPoint
 10
1407.434253613689
 20
-380.7771588177989
 30
0.0
  0
POINT
  5
16E29
330
16C7F
100
AcDbEntity
  8
DEFPOINTS
 62
     0
 48
10.0
100
AcDbPoint
 10
1399.031727979725
 20
-397.5202557631809
 30
0.0
  0
POINT
  5
16E2A
330
16C7F
100
AcDbEntity
  8
DEFPOINTS
 62
     0
 48
10.0
100
AcDbPoint
 10
1421.431634428013
 20
-406.5533813287215
 30
0.0
  0
POINT
  5
16E2B
330
16C7F
100
AcDbEntity
  8
DEFPOINTS
 62
     0
 48
10.0
100
AcDbPoint
 10
1421.011422265247
 20
-420.5470735412253
 30
0.0
  0
POINT
  5
16E2C
330
16C7F
100
AcDbEntity
  8
DEFPOINTS
 62
     0
 48
10.0
100
AcDbPoint
 10
1393.420570980295
 20
-490.8659594711376
 30
0.0
  0
ENDBLK
  5
16C8C
330
16C7F
100
AcDbEntity
  8
0
 48
10.0
100
AcDbBlockEnd
  0
BLOCK
  5
16D87
330
16D7D
100
AcDbEntity
  8
0
 48
10.0
100
AcDbBlockBegin
  2
*D10
 70
     1
 10
0.0
 20
0.0
 30
0.0
  3
*D10
  1

  0
LINE
  5
16F9F
330
16D7D
100
AcDbEntity
  8
寸法
 62
     4
 48
10.0
370
    15
100
AcDbLine
 10
1393.300423022493
 20
-493.8647086901046
 30
0.0
 11
1393.300423022493
 21
-517.1726048208024
 31
0.0
  0
LINE
  5
16FA0
330
16D7D
100
AcDbEntity
  8
寸法
 62
     4
 48
10.0
370
    15
100
AcDbLine
 10
1495.365971574982
 20
-493.8647086901046
 30
0.0
 11
1495.365971574982
 21
-517.1726048208024
 31
0.0
  0
LINE
  5
16FA1
330
16D7D
100
AcDbEntity
  8
寸法
 62
     4
 48
10.0
370
    15
100
AcDbLine
 10
1396.300423022492
 20
-516.1726048208024
 30
0.0
 11
1492.365971574982
 21
-516.1726048208024
 31
0.0
  0
INSERT
  5
16FA2
330
16D7D
100
AcDbEntity
  8
寸法
 62
     4
 48
10.0
370
    15
100
AcDbBlockReference
  2
_OPEN
 10
1393.300423022493
 20
-516.1726048208024
 30
0.0
 41
3.0
 42
3.0
 43
3.0
 50
180.0
  0
INSERT
  5
16FA3
330
16D7D
100
AcDbEntity
  8
寸法
 62
     4
 48
10.0
370
    15
100
AcDbBlockReference
  2
_OPEN
 10
1495.365971574982
 20
-516.1726048208024
 30
0.0
 41
3.0
 42
3.0
 43
3.0
  0
MTEXT
  5
16FA4
330
16D7D
100
AcDbEntity
  8
寸法
 48
10.0
100
AcDbMText
 10
1444.693930281989
 20
-513.7726048208024
 30
0.0
 40
3.0
 41
0.0
 71
     5
 72
     1
  1
\A1;(102.07)
 73
     1
 44
1.0
  0
POINT
  5
16FA5
330
16D7D
100
AcDbEntity
  8
DEFPOINTS
 62
     0
 48
10.0
100
AcDbPoint
 10
1393.300423022493
 20
-492.8647086901046
 30
0.0
  0
POINT
  5
16FA6
330
16D7D
100
AcDbEntity
  8
DEFPOINTS
 62
     0
 48
10.0
100
AcDbPoint
 10
1495.365971574982
 20
-492.8647086901046
 30
0.0
  0
POINT
  5
16FA7
330
16D7D
100
AcDbEntity
  8
DEFPOINTS
 62
     0
 48
10.0
100
AcDbPoint
 10
1495.365971574982
 20
-516.1726048208024
 30
0.0
  0
ENDBLK
  5
16D88
330
16D7D
100
AcDbEntity
  8
0
 48
10.0
100
AcDbBlockEnd
  0
BLOCK
  5
16DB1
330
16DA7
100
AcDbEntity
  8
0
 48
10.0
100
AcDbBlockBegin
  2
*D11
 70
     1
 10
0.0
 20
0.0
 30
0.0
  3
*D11
  1

  0
LINE
  5
16F83
330
16DA7
100
AcDbEntity
  8
寸法
 62
     4
 48
10.0
370
    15
100
AcDbLine
 10
1398.330750847022
 20
-392.5457914993249
 30
0.0
 11
1360.588077740194
 21
-392.5457914993249
 31
0.0
  0
LINE
  5
16F84
330
16DA7
100
AcDbEntity
  8
寸法
 62
     4
 48
10.0
370
    15
100
AcDbLine
 10
1443.333197298736
 20
-494.3971557473155
 30
0.0
 11
1360.588077740194
 21
-494.3971557473155
 31
0.0
  0
LINE
  5
16F85
330
16DA7
100
AcDbEntity
  8
寸法
 62
     4
 48
10.0
370
    15
100
AcDbLine
 10
1361.588077740194
 20
-395.545791499325
 30
0.0
 11
1361.588077740194
 21
-491.3971557473154
 31
0.0
  0
INSERT
  5
16F86
330
16DA7
100
AcDbEntity
  8
寸法
 62
     4
 48
10.0
370
    15
100
AcDbBlockReference
  2
_OPEN
 10
1361.588077740194
 20
-392.5457914993249
 30
0.0
 41
3.0
 42
3.0
 43
3.0
 50
90.0
  0
INSERT
  5
16F87
330
16DA7
100
AcDbEntity
  8
寸法
 62
     4
 48
10.0
370
    15
100
AcDbBlockReference
  2
_OPEN
 10
1361.588077740194
 20
-494.3971557473155
 30
0.0
 41
3.0
 42
3.0
 43
3.0
 50
270.0
  0
MTEXT
  5
16F88
330
16DA7
100
AcDbEntity
  8
寸法
 48
10.0
100
AcDbMText
 10
1359.188077740194
 20
-441.7826459848261
 30
0.0
 40
3.0
 41
0.0
 71
     5
 72
     1
  1
\A1;(101.85)
 11
0.0000000000000001
 21
1.0
 31
0.0
 73
     1
 44
1.0
  0
POINT
  5
16F89
330
16DA7
100
AcDbEntity
  8
DEFPOINTS
 62
     0
 48
10.0
100
AcDbPoint
 10
1399.330750847022
 20
-392.5457914993249
 30
0.0
  0
POINT
  5
16F8A
330
16DA7
100
AcDbEntity
  8
DEFPOINTS
 62
     0
 48
10.0
100
AcDbPoint
 10
1444.333197298736
 20
-494.3971557473155
 30
0.0
  0
POINT
  5
16F8B
330
16DA7
100
AcDbEntity
  8
DEFPOINTS
 62
     0
 48
10.0
100
AcDbPoint
 10
1361.588077740194
 20
-494.3971557473155
 30
0.0
  0
ENDBLK
  5
16DB2
330
16DA7
100
AcDbEntity
  8
0
 48
10.0
100
AcDbBlockEnd
  0
BLOCK
  5
16EBE
330
16EB4
100
AcDbEntity
  8
0
 48
10.0
100
AcDbBlockBegin
  2
*D12
 70
     1
 10
0.0
 20
0.0
 30
0.0
  3
*D12
  1

  0
LINE
  5
16F3E
330
16EB4
100
AcDbEntity
  8
寸法
 62
     4
 48
10.0
370
    15
100
AcDbLine
 10
1231.255924581474
 20
-495.3971557473153
 30
0.0
 11
1231.255924581474
 21
-552.9993264115983
 31
0.0
  0
LINE
  5
16F3F
330
16EB4
100
AcDbEntity
  8
寸法
 62
     4
 48
10.0
370
    15
100
AcDbLine
 10
1265.655924581472
 20
-526.397155747305
 30
0.0
 11
1265.655924581472
 21
-552.9993264115983
 31
0.0
  0
LINE
  5
16F40
330
16EB4
100
AcDbEntity
  8
寸法
 62
     4
 48
10.0
370
    15
100
AcDbLine
 10
1234.255924581474
 20
-551.9993264115982
 30
0.0
 11
1262.655924581473
 21
-551.9993264115982
 31
0.0
  0
INSERT
  5
16F41
330
16EB4
100
AcDbEntity
  8
寸法
 62
     4
 48
10.0
370
    15
100
AcDbBlockReference
  2
_OPEN
 10
1231.255924581474
 20
-551.9993264115982
 30
0.0
 41
3.0
 42
3.0
 43
3.0
 50
180.0
  0
INSERT
  5
16F42
330
16EB4
100
AcDbEntity
  8
寸法
 62
     4
 48
10.0
370
    15
100
AcDbBlockReference
  2
_OPEN
 10
1265.655924581472
 20
-551.9993264115982
 30
0.0
 41
3.0
 42
3.0
 43
3.0
  0
MTEXT
  5
16F43
330
16EB4
100
AcDbEntity
  8
寸法
 48
10.0
100
AcDbMText
 10
1248.455924581473
 20
-549.7493264115982
 30
0.0
 40
3.0
 41
0.0
 71
     5
 72
     1
  1
\A1;34.4{\H2.400000;±0.1}
 73
     1
 44
1.0
  0
POINT
  5
16F44
330
16EB4
100
AcDbEntity
  8
DEFPOINTS
 62
     0
 48
10.0
100
AcDbPoint
 10
1231.255924581474
 20
-494.3971557473154
 30
0.0
  0
POINT
  5
16F45
330
16EB4
100
AcDbEntity
  8
DEFPOINTS
 62
     0
 48
10.0
100
AcDbPoint
 10
1265.655924581472
 20
-525.397155747305
 30
0.0
  0
POINT
  5
16F46
330
16EB4
100
AcDbEntity
  8
DEFPOINTS
 62
     0
 48
10.0
100
AcDbPoint
 10
1265.655924581472
 20
-551.9993264115982
 30
0.0
  0
ENDBLK
  5
16EBF
330
16EB4
100
AcDbEntity
  8
0
 48
10.0
100
AcDbBlockEnd
  0
BLOCK
  5
16ECC
330
16EC0
100
AcDbEntity
  8
0
 48
10.0
100
AcDbBlockBegin
  2
*D13
 70
     1
 10
0.0
 20
0.0
 30
0.0
  3
*D13
  1

  0
LINE
  5
16F47
330
16EC0
100
AcDbEntity
  8
寸法
 62
     4
 48
10.0
370
    15
100
AcDbLine
 10
1231.255924581474
 20
-495.3971557473153
 30
0.0
 11
1231.255924581474
 21
-543.2838133440855
 31
0.0
  0
LINE
  5
16F48
330
16EC0
100
AcDbEntity
  8
寸法
 62
     4
 48
10.0
370
    15
100
AcDbLine
 10
1235.655924581473
 20
-526.397155747305
 30
0.0
 11
1235.655924581473
 21
-543.2838133440855
 31
0.0
  0
LINE
  5
16F49
330
16EC0
100
AcDbEntity
  8
寸法
 62
     4
 48
10.0
370
    15
100
AcDbLine
 10
1228.255924581474
 20
-542.2838133440855
 30
0.0
 11
1225.255924581474
 21
-542.2838133440855
 31
0.0
  0
LINE
  5
16F4A
330
16EC0
100
AcDbEntity
  8
寸法
 62
     4
 48
10.0
370
    15
100
AcDbLine
 10
1238.655924581473
 20
-542.2838133440855
 30
0.0
 11
1241.655924581472
 21
-542.2838133440855
 31
0.0
  0
MTEXT
  5
16F4B
330
16EC0
100
AcDbEntity
  8
寸法
 48
10.0
100
AcDbMText
 10
1226.408571312846
 20
-539.8556946536879
 30
0.0
 40
3.0
 41
0.0
 71
     5
 72
     1
  1
\A1;(4.4)
 73
     1
 44
1.0
  0
LINE
  5
16F4C
330
16EC0
100
AcDbEntity
  8
寸法
 62
     4
 48
10.0
370
    15
100
AcDbLine
 10
1231.255924581474
 20
-542.2838133440855
 30
0.0
 11
1235.655924581473
 21
-542.2838133440855
 31
0.0
  0
INSERT
  5
16F4D
330
16EC0
100
AcDbEntity
  8
寸法
 62
     4
 48
10.0
370
    15
100
AcDbBlockReference
  2
_OPEN
 10
1231.255924581474
 20
-542.2838133440855
 30
0.0
 41
3.0
 42
3.0
 43
3.0
  0
INSERT
  5
16F4E
330
16EC0
100
AcDbEntity
  8
寸法
 62
     4
 48
10.0
370
    15
100
AcDbBlockReference
  2
_OPEN
 10
1235.655924581473
 20
-542.2838133440855
 30
0.0
 41
3.0
 42
3.0
 43
3.0
 50
180.0
  0
POINT
  5
16F4F
330
16EC0
100
AcDbEntity
  8
DEFPOINTS
 62
     0
 48
10.0
100
AcDbPoint
 10
1231.255924581474
 20
-494.3971557473154
 30
0.0
  0
POINT
  5
16F50
330
16EC0
100
AcDbEntity
  8
DEFPOINTS
 62
     0
 48
10.0
100
AcDbPoint
 10
1235.655924581473
 20
-525.397155747305
 30
0.0
  0
POINT
  5
16F51
330
16EC0
100
AcDbEntity
  8
DEFPOINTS
 62
     0
 48
10.0
100
AcDbPoint
 10
1235.655924581473
 20
-542.2838133440855
 30
0.0
  0
ENDBLK
  5
16ECD
330
16EC0
100
AcDbEntity
  8
0
 48
10.0
100
AcDbBlockEnd
  0
BLOCK
  5
16ED8
330
16ECE
100
AcDbEntity
  8
0
 48
10.0
100
AcDbBlockBegin
  2
*D14
 70
     1
 10
0.0
 20
0.0
 30
0.0
  3
*D14
  1

  0
LINE
  5
194C7
330
16ECE
100
AcDbEntity
  8
寸法
 62
     4
 48
10.0
370
    15
100
AcDbLine
 10
1231.255924581474
 20
-392.8971557473051
 30
0.0
 11
1231.255924581474
 21
-353.5133745989242
 31
0.0
  0
LINE
  5
194C8
330
16ECE
100
AcDbEntity
  8
寸法
 62
     4
 48
10.0
370
    15
100
AcDbLine
 10
1270.055924581474
 20
-392.8971557473051
 30
0.0
 11
1270.055924581474
 21
-353.5133745989242
 31
0.0
  0
LINE
  5
194C9
330
16ECE
100
AcDbEntity
  8
寸法
 62
     4
 48
10.0
370
    15
100
AcDbLine
 10
1234.255924581474
 20
-354.5133745989242
 30
0.0
 11
1267.055924581474
 21
-354.5133745989242
 31
0.0
  0
INSERT
  5
194CA
330
16ECE
100
AcDbEntity
  8
寸法
 62
     4
 48
10.0
370
    15
100
AcDbBlockReference
  2
_OPEN
 10
1231.255924581474
 20
-354.5133745989242
 30
0.0
 41
3.0
 42
3.0
 43
3.0
 50
180.0
  0
INSERT
  5
194CB
330
16ECE
100
AcDbEntity
  8
寸法
 62
     4
 48
10.0
370
    15
100
AcDbBlockReference
  2
_OPEN
 10
1270.055924581474
 20
-354.5133745989242
 30
0.0
 41
3.0
 42
3.0
 43
3.0
  0
MTEXT
  5
194CC
330
16ECE
100
AcDbEntity
  8
寸法
 48
10.0
100
AcDbMText
 10
1250.655924581474
 20
-352.2633745989242
 30
0.0
 40
3.0
 41
0.0
 71
     5
 72
     1
  1
\A1;38.8
 73
     1
 44
1.0
  0
POINT
  5
194CD
330
16ECE
100
AcDbEntity
  8
DEFPOINTS
 62
     0
 48
10.0
100
AcDbPoint
 10
1231.255924581474
 20
-393.897155747305
 30
0.0
  0
POINT
  5
194CE
330
16ECE
100
AcDbEntity
  8
DEFPOINTS
 62
     0
 48
10.0
100
AcDbPoint
 10
1270.055924581474
 20
-393.897155747305
 30
0.0
  0
POINT
  5
194CF
330
16ECE
100
AcDbEntity
  8
DEFPOINTS
 62
     0
 48
10.0
100
AcDbPoint
 10
1270.055924581474
 20
-354.5133745989242
 30
0.0
  0
ENDBLK
  5
16ED9
330
16ECE
100
AcDbEntity
  8
0
 48
10.0
100
AcDbBlockEnd
  0
BLOCK
  5
16EE6
330
16EDA
100
AcDbEntity
  8
0
 48
10.0
100
AcDbBlockBegin
  2
*D15
 70
     1
 10
0.0
 20
0.0
 30
0.0
  3
*D15
  1

  0
LINE
  5
16F5B
330
16EDA
100
AcDbEntity
  8
寸法
 62
     4
 48
10.0
370
    15
100
AcDbLine
 10
1271.055924581474
 20
-494.3971557473155
 30
0.0
 11
1280.63215086986
 21
-494.3971557473155
 31
0.0
  0
LINE
  5
16F5C
330
16EDA
100
AcDbEntity
  8
寸法
 62
     4
 48
10.0
370
    15
100
AcDbLine
 10
1266.155924581473
 20
-496.3971557473059
 30
0.0
 11
1280.63215086986
 21
-496.3971557473059
 31
0.0
  0
LINE
  5
16F5D
330
16EDA
100
AcDbEntity
  8
寸法
 62
     4
 48
10.0
370
    15
100
AcDbLine
 10
1279.63215086986
 20
-491.3971557473155
 30
0.0
 11
1279.63215086986
 21
-488.3971557473155
 31
0.0
  0
LINE
  5
16F5E
330
16EDA
100
AcDbEntity
  8
寸法
 62
     4
 48
10.0
370
    15
100
AcDbLine
 10
1279.63215086986
 20
-499.3971557473059
 30
0.0
 11
1279.63215086986
 21
-505.3535140150225
 31
0.0
  0
LINE
  5
16F5F
330
16EDA
100
AcDbEntity
  8
寸法
 62
     4
 48
10.0
370
    15
100
AcDbLine
 10
1279.63215086986
 20
-494.3971557473155
 30
0.0
 11
1279.63215086986
 21
-496.3971557473059
 31
0.0
  0
INSERT
  5
16F60
330
16EDA
100
AcDbEntity
  8
寸法
 62
     4
 48
10.0
370
    15
100
AcDbBlockReference
  2
_OPEN
 10
1279.63215086986
 20
-494.3971557473155
 30
0.0
 41
3.0
 42
3.0
 43
3.0
 50
270.0
  0
INSERT
  5
16F61
330
16EDA
100
AcDbEntity
  8
寸法
 62
     4
 48
10.0
370
    15
100
AcDbBlockReference
  2
_OPEN
 10
1279.63215086986
 20
-496.3971557473059
 30
0.0
 41
3.0
 42
3.0
 43
3.0
 50
90.0
  0
MTEXT
  5
16F62
330
16EDA
100
AcDbEntity
  8
寸法
 48
10.0
100
AcDbMText
 10
1277.38185559427
 20
-503.8753348811639
 30
0.0
 40
3.0
 41
0.0
 71
     5
 72
     1
  1
\A1;2
 11
0.0000000000000001
 21
1.0
 31
0.0
 73
     1
 44
1.0
  0
POINT
  5
16F63
330
16EDA
100
AcDbEntity
  8
DEFPOINTS
 62
     0
 48
10.0
100
AcDbPoint
 10
1270.055924581474
 20
-494.3971557473155
 30
0.0
  0
POINT
  5
16F64
330
16EDA
100
AcDbEntity
  8
DEFPOINTS
 62
     0
 48
10.0
100
AcDbPoint
 10
1265.155924581472
 20
-496.3971557473059
 30
0.0
  0
POINT
  5
16F65
330
16EDA
100
AcDbEntity
  8
DEFPOINTS
 62
     0
 48
10.0
100
AcDbPoint
 10
1279.63215086986
 20
-496.3971557473059
 30
0.0
  0
ENDBLK
  5
16EE7
330
16EDA
100
AcDbEntity
  8
0
 48
10.0
100
AcDbBlockEnd
  0
BLOCK
  5
16EF4
330
16EE8
100
AcDbEntity
  8
0
 48
10.0
100
AcDbBlockBegin
  2
*D16
 70
     1
 10
0.0
 20
0.0
 30
0.0
  3
*D16
  1

  0
LINE
  5
195B1
330
16EE8
100
AcDbEntity
  8
寸法
 62
     4
 48
10.0
370
    15
100
AcDbLine
 10
1253.355924581472
 20
-463.2471557473056
 30
0.0
 11
1253.355924581472
 21
-457.9509864877654
 31
0.0
  0
LINE
  5
195B2
330
16EE8
100
AcDbEntity
  8
寸法
 62
     4
 48
10.0
370
    15
100
AcDbLine
 10
1254.055924581474
 20
-467.9844002961012
 30
0.0
 11
1254.055924581474
 21
-457.9509864877654
 31
0.0
  0
LINE
  5
195B3
330
16EE8
100
AcDbEntity
  8
寸法
 62
     4
 48
10.0
370
    15
100
AcDbLine
 10
1250.355924581472
 20
-458.9509864877654
 30
0.0
 11
1247.355924581472
 21
-458.9509864877654
 31
0.0
  0
LINE
  5
195B4
330
16EE8
100
AcDbEntity
  8
寸法
 62
     4
 48
10.0
370
    15
100
AcDbLine
 10
1257.055924581474
 20
-458.9509864877654
 30
0.0
 11
1283.140878671525
 21
-458.9509864877654
 31
0.0
  0
LINE
  5
195B5
330
16EE8
100
AcDbEntity
  8
寸法
 62
     4
 48
10.0
370
    15
100
AcDbLine
 10
1253.355924581472
 20
-458.9509864877654
 30
0.0
 11
1254.055924581474
 21
-458.9509864877654
 31
0.0
  0
INSERT
  5
195B6
330
16EE8
100
AcDbEntity
  8
寸法
 62
     4
 48
10.0
370
    15
100
AcDbBlockReference
  2
_OPEN
 10
1253.355924581472
 20
-458.9509864877654
 30
0.0
 41
3.0
 42
3.0
 43
3.0
  0
INSERT
  5
195B7
330
16EE8
100
AcDbEntity
  8
寸法
 62
     4
 48
10.0
370
    15
100
AcDbBlockReference
  2
_OPEN
 10
1254.055924581474
 20
-458.9509864877654
 30
0.0
 41
3.0
 42
3.0
 43
3.0
 50
180.0
  0
MTEXT
  5
195B8
330
16EE8
100
AcDbEntity
  8
寸法
 48
10.0
100
AcDbMText
 10
1277.103746637169
 20
-456.7009864877654
 30
0.0
 40
3.0
 41
0.0
 71
     5
 72
     1
  1
\A1;（0.7）
 73
     1
 44
1.0
  0
POINT
  5
195B9
330
16EE8
100
AcDbEntity
  8
DEFPOINTS
 62
     0
 48
10.0
100
AcDbPoint
 10
1253.355924581472
 20
-464.2471557473056
 30
0.0
  0
POINT
  5
195BA
330
16EE8
100
AcDbEntity
  8
DEFPOINTS
 62
     0
 48
10.0
100
AcDbPoint
 10
1254.055924581474
 20
-468.9844002961012
 30
0.0
  0
POINT
  5
195BB
330
16EE8
100
AcDbEntity
  8
DEFPOINTS
 62
     0
 48
10.0
100
AcDbPoint
 10
1254.055924581474
 20
-458.9509864877654
 30
0.0
  0
ENDBLK
  5
16EF5
330
16EE8
100
AcDbEntity
  8
0
 48
10.0
100
AcDbBlockEnd
  0
BLOCK
  5
16F00
330
16EF6
100
AcDbEntity
  8
0
 48
10.0
100
AcDbBlockBegin
  2
*D17
 70
     1
 10
0.0
 20
0.0
 30
0.0
  3
*D17
  1

  0
LINE
  5
16F52
330
16EF6
100
AcDbEntity
  8
寸法
 62
     4
 48
10.0
370
    15
100
AcDbLine
 10
1235.655924581473
 20
-526.397155747305
 30
0.0
 11
1235.655924581473
 21
-543.2838133440855
 31
0.0
  0
LINE
  5
16F53
330
16EF6
100
AcDbEntity
  8
寸法
 62
     4
 48
10.0
370
    15
100
AcDbLine
 10
1265.655924581472
 20
-526.397155747305
 30
0.0
 11
1265.655924581472
 21
-543.2838133440855
 31
0.0
  0
LINE
  5
16F54
330
16EF6
100
AcDbEntity
  8
寸法
 62
     4
 48
10.0
370
    15
100
AcDbLine
 10
1238.655924581473
 20
-542.2838133440855
 30
0.0
 11
1262.655924581473
 21
-542.2838133440855
 31
0.0
  0
INSERT
  5
16F55
330
16EF6
100
AcDbEntity
  8
寸法
 62
     4
 48
10.0
370
    15
100
AcDbBlockReference
  2
_OPEN
 10
1235.655924581473
 20
-542.2838133440855
 30
0.0
 41
3.0
 42
3.0
 43
3.0
 50
180.0
  0
INSERT
  5
16F56
330
16EF6
100
AcDbEntity
  8
寸法
 62
     4
 48
10.0
370
    15
100
AcDbBlockReference
  2
_OPEN
 10
1265.655924581472
 20
-542.2838133440855
 30
0.0
 41
3.0
 42
3.0
 43
3.0
  0
MTEXT
  5
16F57
330
16EF6
100
AcDbEntity
  8
寸法
 48
10.0
100
AcDbMText
 10
1250.655924581472
 20
-540.0338133440855
 30
0.0
 40
3.0
 41
0.0
 71
     5
 72
     1
  1
\A1;30
 73
     1
 44
1.0
  0
POINT
  5
16F58
330
16EF6
100
AcDbEntity
  8
DEFPOINTS
 62
     0
 48
10.0
100
AcDbPoint
 10
1235.655924581473
 20
-525.397155747305
 30
0.0
  0
POINT
  5
16F59
330
16EF6
100
AcDbEntity
  8
DEFPOINTS
 62
     0
 48
10.0
100
AcDbPoint
 10
1265.655924581472
 20
-525.397155747305
 30
0.0
  0
POINT
  5
16F5A
330
16EF6
100
AcDbEntity
  8
DEFPOINTS
 62
     0
 48
10.0
100
AcDbPoint
 10
1265.655924581472
 20
-542.2838133440855
 30
0.0
  0
ENDBLK
  5
16F01
330
16EF6
100
AcDbEntity
  8
0
 48
10.0
100
AcDbBlockEnd
  0
BLOCK
  5
19240
330
19236
100
AcDbEntity
  8
0
 48
10.0
100
AcDbBlockBegin
  2
*D35
 70
     1
 10
0.0
 20
0.0
 30
0.0
  3
*D35
  1

  0
LINE
  5
19282
330
19236
100
AcDbEntity
  8
寸法
 62
     4
 48
10.0
370
    15
100
AcDbLine
 10
1445.333197298726
 20
-442.2488514781154
 30
0.0
 11
1457.301287145864
 21
-435.3390715831849
 31
0.0
  0
LINE
  5
19283
330
19236
100
AcDbEntity
  8
寸法
 62
     4
 48
10.0
370
    15
100
AcDbLine
 10
1445.333197298726
 20
-393.3198054781154
 30
0.0
 11
1457.301287145864
 21
-386.4100255831849
 31
0.0
  0
LINE
  5
19284
330
19236
100
AcDbEntity
  8
寸法
 62
     4
 48
10.0
370
    15
100
AcDbLine
 10
1456.301287145864
 20
-432.9164218523745
 30
0.0
 11
1456.301287145864
 21
-389.9873758523745
 31
0.0
  0
INSERT
  5
19285
330
19236
100
AcDbEntity
  8
寸法
 62
     4
 48
10.0
370
    15
100
AcDbBlockReference
  2
_OPEN
 10
1456.301287145864
 20
-435.9164218523745
 30
0.0
 41
3.0
 42
3.0
 43
3.0
 50
270.0
  0
INSERT
  5
19286
330
19236
100
AcDbEntity
  8
寸法
 62
     4
 48
10.0
370
    15
100
AcDbBlockReference
  2
_OPEN
 10
1456.301287145864
 20
-386.9873758523745
 30
0.0
 41
3.0
 42
3.0
 43
3.0
 50
90.0
  0
MTEXT
  5
19287
330
19236
100
AcDbEntity
  8
寸法
 48
10.0
100
AcDbMText
 10
1454.050562107334
 20
-411.4518988523743
 30
0.0
 40
3.0
 41
0.0
 71
     5
 72
     1
  1
\A1;48.93（重心位置）
 11
0.0000000000000001
 21
1.0
 31
0.0
 73
     1
 44
1.0
  0
POINT
  5
19288
330
19236
100
AcDbEntity
  8
DEFPOINTS
 62
     0
 48
10.0
100
AcDbPoint
 10
1444.333197298726
 20
-442.826201747305
 30
0.0
  0
POINT
  5
19289
330
19236
100
AcDbEntity
  8
DEFPOINTS
 62
     0
 48
10.0
100
AcDbPoint
 10
1444.333197298726
 20
-393.897155747305
 30
0.0
  0
POINT
  5
1928A
330
19236
100
AcDbEntity
  8
DEFPOINTS
 62
     0
 48
10.0
100
AcDbPoint
 10
1456.301287145864
 20
-386.9873758523745
 30
0.0
  0
ENDBLK
  5
19241
330
19236
100
AcDbEntity
  8
0
 48
10.0
100
AcDbBlockEnd
  0
BLOCK
  5
19257
330
19250
100
AcDbEntity
  8
0
 48
10.0
100
AcDbBlockBegin
  2
*D36
 70
     1
 10
0.0
 20
0.0
 30
0.0
  3
*D36
  1

  0
LINE
  5
1925E
330
19250
100
AcDbEntity
  8
寸法
 62
     4
 48
10.0
370
    15
100
AcDbLine
 10
1430.676688068673
 20
-371.0260840124308
 30
0.0
 11
1429.930392984368
 21
-410.7619151592214
 31
0.0
  0
MTEXT
  5
1925F
330
19250
100
AcDbEntity
  8
寸法
 48
10.0
100
AcDbMText
 10
1428.33974444426
 20
-375.6341942697149
 30
0.0
 40
3.0
 41
0.0
 71
     5
 72
     1
  1
\A1;R770
 11
0.0187781021047826
 21
0.9998236758955762
 31
0.0
 73
     1
 44
1.0
  0
INSERT
  5
19260
330
19250
100
AcDbEntity
  8
寸法
 62
     4
 48
10.0
370
    15
100
AcDbBlockReference
  2
_OPEN
 10
1429.874058678053
 20
-413.7613861869081
 30
0.0
 41
3.0
 42
3.0
 43
3.0
 50
268.924030761616
  0
POINT
  5
19261
330
19250
100
AcDbEntity
  8
DEFPOINTS
 62
     0
 48
10.0
100
AcDbPoint
 10
1429.874058678053
 20
-413.7613861869081
 30
0.0
  0
POINT
  5
19262
330
19250
100
AcDbEntity
  8
DEFPOINTS
 62
     0
 48
10.0
100
AcDbPoint
 10
1444.333197298737
 20
356.1028442526871
 30
0.0
  0
ENDBLK
  5
19258
330
19250
100
AcDbEntity
  8
0
 48
10.0
100
AcDbBlockEnd
  0
ENDSEC
  0
SECTION
  2
ENTITIES
  0
DIMENSION
  5
16B65
330
18
100
AcDbEntity
  8
寸法
 48
10.0
100
AcDbDimension
  2
*D4
 10
1444.333197298737
 20
356.1028442526883
 30
0.0
 11
1382.792726650017
 21
-473.9504947808156
 31
0.0
 70
   164
 71
     5
 42
850.5000000000043
  3
STD-I1
100
AcDbRadialDimension
 15
1381.449396282798
 25
-492.0692359113519
 35
0.0
 40
0.0
1001
ACAD
1000
DSTYLE
1002
{
1070
   279
1070
     1
1002
}
  0
DIMENSION
  5
16B66
330
18
100
AcDbEntity
  8
寸法
 48
10.0
100
AcDbDimension
  2
*D5
 10
1444.333197298738
 20
356.1028442526881
 30
0.0
 11
1379.780229626566
 21
-366.461250862262
 31
0.0
 70
   164
 71
     5
 42
749.9999999999936
  3
STD-I1
100
AcDbRadialDimension
 15
1377.594943778604
 25
-390.9219247590715
 35
0.0
 40
0.0
1001
ACAD
1000
DSTYLE
1002
{
1070
    47
1040
0.05
1070
    48
1040
0.05
1070
    71
1070
     1
1070
   272
1070
     2
1070
   279
1070
     1
1002
}
  0
DIMENSION
  5
16B67
330
18
100
AcDbEntity
  8
寸法
 48
10.0
100
AcDbDimension
  2
*D6
 10
1473.855335051121
 20
-381.0732397045558
 30
0.0
 11
1478.267087139853
 21
-380.8833337020006
 31
0.0
 70
   165
 71
     5
 42
0.0300196631342669
  3
STD-I1
100
AcDb3PointAngularDimension
 13
1467.234760169461
 23
-406.5533813287215
 33
0.0
 14
1489.574663355814
 24
-396.5220575821764
 34
0.0
 15
1444.333197298776
 25
356.1028442534666
 35
0.0
  0
DIMENSION
  5
16B68
330
18
100
AcDbEntity
  8
寸法
 48
10.0
100
AcDbDimension
  2
*D7
 10
1436.95087291832
 20
-381.6214212313643
 30
0.0
 11
1445.158362789348
 21
-381.6578958922154
 31
0.0
 70
   165
 71
     5
 42
0.0600393262685515
  3
STD-I1
100
AcDb3PointAngularDimension
 13
1421.431634428013
 23
-406.5533813287215
 33
0.0
 14
1467.234760169461
 24
-406.5533813287215
 34
0.0
 15
1444.333197298776
 25
356.1028442534666
 35
0.0
  0
ARC
  5
16B6A
330
18
100
AcDbEntity
  8
実線
100
AcDbCircle
 10
1444.333197298737
 20
356.1028442526867
 30
0.0
 40
749.9999999999918
100
AcDbArc
 50
266.9394450220648
 51
273.060554977922
  0
DIMENSION
  5
16B6B
330
18
100
AcDbEntity
  8
寸法
 48
10.0
100
AcDbDimension
  2
*D8
 10
1393.420570980295
 20
-490.8659594711376
 30
0.0
 11
1444.63434834884
 21
-369.0471421220663
 31
0.0
 70
   162
 71
     5
 42
0.1200786525371891
  3
STD-I1
100
AcDb2LineAngularDimension
 13
1489.634666617749
 23
-397.5202557631792
 33
0.0
 14
1495.24582361718
 24
-490.8659594711375
 34
0.0
 15
1399.031727979726
 25
-397.5202557631809
 35
0.0
 16
1429.821659255117
 26
-368.9019893138683
 36
0.0
  0
ARC
  5
16B6C
330
18
100
AcDbEntity
  8
中心線
 48
10.0
100
AcDbCircle
 10
1444.333197298737
 20
356.1028442526859
 30
0.0
 40
770.0
100
AcDbArc
 50
267.7591274834941
 51
272.2408725165058
  0
ARC
  5
16B6D
330
18
100
AcDbEntity
  8
寸法
100
AcDbCircle
 10
1444.333197298735
 20
356.1028442526867
 30
0.0
 40
850.5000000000022
100
AcDbArc
 50
265.4002470262219
 51
266.5218390652585
  0
DIMENSION
  5
16B6F
330
18
100
AcDbEntity
  8
寸法
 48
10.0
100
AcDbDimension
  2
*D9
 10
1393.420570980295
 20
-490.8659594711376
 30
0.0
 11
1411.511526048225
 21
-380.9700211185426
 31
0.0
 70
   162
 71
     5
 42
0.0300196631342651
  3
STD-I1
100
AcDb2LineAngularDimension
 13
1421.431634428013
 23
-406.5533813287215
 33
0.0
 14
1421.011422265247
 24
-420.5470735412254
 34
0.0
 15
1399.031727979726
 25
-397.5202557631809
 35
0.0
 16
1407.434253613689
 26
-380.7771588177989
 36
0.0
  0
LINE
  5
16B71
330
18
100
AcDbEntity
  8
中心線
 48
5.0
100
AcDbLine
 10
1421.431634428013
 20
-406.5533813287215
 30
0.0
 11
1421.011422265247
 21
-420.5470735412254
 31
0.0
  0
LINE
  5
16B72
330
18
100
AcDbEntity
  8
中心線
 48
5.0
100
AcDbLine
 10
1444.333197298765
 20
-406.897155747316
 30
0.0
 11
1444.333197298769
 21
-420.8971557473151
 31
0.0
  0
LINE
  5
16B74
330
18
100
AcDbEntity
  8
実線
100
AcDbLine
 10
1399.031727979726
 20
-397.5202557631809
 30
0.0
 11
1393.420570980295
 21
-490.8659594711375
 31
0.0
  0
ARC
  5
16B7E
330
18
100
AcDbEntity
  8
実線
100
AcDbCircle
 10
1395.416967342301
 20
-490.9859659950089
 30
0.0
 40
2.0
100
AcDbArc
 50
176.5599999999974
 51
266.6950520508366
  0
CIRCLE
  5
16B8E
330
18
100
AcDbEntity
  8
実線
100
AcDbCircle
 10
1444.333197298731
 20
-422.8971557473061
 30
0.0
 40
5.0
  0
CIRCLE
  5
16B8F
330
18
100
AcDbEntity
  8
実線
 48
5.0
100
AcDbCircle
 10
1444.333197298731
 20
-422.8971557473061
 30
0.0
 40
5.5
  0
LINE
  5
16B90
330
18
100
AcDbEntity
  8
中心線
 48
5.0
100
AcDbLine
 10
1437.833197298738
 20
-422.897155747315
 30
0.0
 11
1450.833197298733
 21
-422.8971557473143
 31
0.0
  0
LINE
  5
16B94
330
18
100
AcDbEntity
  8
中心線
 48
5.0
100
AcDbLine
 10
1444.333197298731
 20
-429.3971557473119
 30
0.0
 11
1444.333197298731
 21
-416.3971557473105
 31
0.0
  0
LINE
  5
16B95
330
18
100
AcDbEntity
  8
実線
100
AcDbLine
 10
1445.833197298731
 20
-423.7631811373063
 30
0.0
 11
1445.833197298731
 21
-422.0311303573062
 31
0.0
  0
LINE
  5
16B96
330
18
100
AcDbEntity
  8
実線
100
AcDbLine
 10
1444.333197325653
 20
-424.6292065473063
 30
0.0
 11
1445.833197298731
 21
-423.7631811373063
 31
0.0
  0
LINE
  5
16B97
330
18
100
AcDbEntity
  8
実線
100
AcDbLine
 10
1445.833197298731
 20
-422.0311303573062
 30
0.0
 11
1444.333197325653
 21
-421.1651049473061
 31
0.0
  0
LINE
  5
16B98
330
18
100
AcDbEntity
  8
実線
100
AcDbLine
 10
1444.333197271808
 20
-421.1651049473061
 30
0.0
 11
1442.833197298731
 21
-422.0311303573062
 31
0.0
  0
LINE
  5
16B99
330
18
100
AcDbEntity
  8
実線
100
AcDbLine
 10
1442.833197298731
 20
-423.7631811373063
 30
0.0
 11
1444.333197271808
 21
-424.6292065473063
 31
0.0
  0
LINE
  5
16B9A
330
18
100
AcDbEntity
  8
実線
100
AcDbLine
 10
1442.833197298731
 20
-422.0311303573062
 30
0.0
 11
1442.833197298731
 21
-423.7631811373063
 31
0.0
  0
ARC
  5
16B9B
330
18
100
AcDbEntity
  8
dimension
100
AcDbCircle
 10
1444.333197298737
 20
356.1028442526867
 30
0.0
 40
749.9999999999918
100
AcDbArc
 50
264.4883737635184
 51
266.7245564136706
  0
LINE
  5
16B9C
330
18
100
AcDbEntity
  8
中心線
 48
10.0
100
AcDbLine
 10
1414.833197298735
 20
-401.8971557473159
 30
0.0
 11
1401.833197298735
 21
-401.8971557473159
 31
0.0
  0
CIRCLE
  5
16B9D
330
18
100
AcDbEntity
  8
実線
 48
5.0
100
AcDbCircle
 10
1408.333197298716
 20
-401.8971557473013
 30
0.0
 40
5.5
  0
CIRCLE
  5
16B9E
330
18
100
AcDbEntity
  8
実線
100
AcDbCircle
 10
1408.333197298716
 20
-401.8971557473013
 30
0.0
 40
5.0
  0
ARC
  5
16B9F
330
18
100
AcDbEntity
  8
実線
100
AcDbCircle
 10
1404.022718884739
 20
-397.8202720728589
 30
0.0
 40
5.0
100
AcDbArc
 50
86.93944502206489
 51
176.5599999999974
  0
LINE
  5
16BA0
330
18
100
AcDbEntity
  8
実線
100
AcDbLine
 10
1409.833197298716
 20
-402.7631811373014
 30
0.0
 11
1409.833197298716
 21
-401.0311303573013
 31
0.0
  0
LINE
  5
16BA1
330
18
100
AcDbEntity
  8
実線
100
AcDbLine
 10
1408.333197325639
 20
-403.6292065473015
 30
0.0
 11
1409.833197298716
 21
-402.7631811373014
 31
0.0
  0
LINE
  5
16BA2
330
18
100
AcDbEntity
  8
実線
100
AcDbLine
 10
1409.833197298716
 20
-401.0311303573013
 30
0.0
 11
1408.333197325639
 21
-400.1651049473013
 31
0.0
  0
LINE
  5
16BA3
330
18
100
AcDbEntity
  8
実線
100
AcDbLine
 10
1408.333197271794
 20
-400.1651049473013
 30
0.0
 11
1406.833197298716
 21
-401.0311303573013
 31
0.0
  0
LINE
  5
16BA4
330
18
100
AcDbEntity
  8
実線
100
AcDbLine
 10
1406.833197298716
 20
-402.7631811373014
 30
0.0
 11
1408.333197271794
 21
-403.6292065473015
 31
0.0
  0
LINE
  5
16BA5
330
18
100
AcDbEntity
  8
実線
100
AcDbLine
 10
1406.833197298716
 20
-401.0311303573013
 30
0.0
 11
1406.833197298716
 21
-402.7631811373014
 31
0.0
  0
LINE
  5
16BA6
330
18
100
AcDbEntity
  8
中心線
 48
5.0
100
AcDbLine
 10
1408.333197298728
 20
-408.3971557473105
 30
0.0
 11
1408.333197298728
 21
-395.3971557473091
 31
0.0
  0
CIRCLE
  5
16BA7
330
18
100
AcDbEntity
  8
実線
100
AcDbCircle
 10
1444.333197298717
 20
-401.8971557473074
 30
0.0
 40
5.0
  0
CIRCLE
  5
16BA8
330
18
100
AcDbEntity
  8
実線
 48
5.0
100
AcDbCircle
 10
1444.333197298717
 20
-401.8971557473074
 30
0.0
 40
5.5
  0
LINE
  5
16BA9
330
18
100
AcDbEntity
  8
中心線
 48
10.0
100
AcDbLine
 10
1450.83319729873
 20
-401.8971557473159
 30
0.0
 11
1437.833197298717
 21
-401.8971557473159
 31
0.0
  0
LINE
  5
16BAA
330
18
100
AcDbEntity
  8
実線
100
AcDbLine
 10
1444.333197325639
 20
-403.6292065473076
 30
0.0
 11
1445.833197298717
 21
-402.7631811373075
 31
0.0
  0
LINE
  5
16BAB
330
18
100
AcDbEntity
  8
実線
100
AcDbLine
 10
1445.833197298717
 20
-401.0311303573074
 30
0.0
 11
1444.333197325639
 21
-400.1651049473074
 31
0.0
  0
LINE
  5
16BAC
330
18
100
AcDbEntity
  8
実線
100
AcDbLine
 10
1444.333197271794
 20
-400.1651049473074
 30
0.0
 11
1442.833197298716
 21
-401.0311303573074
 31
0.0
  0
LINE
  5
16BAD
330
18
100
AcDbEntity
  8
実線
100
AcDbLine
 10
1442.833197298716
 20
-402.7631811373075
 30
0.0
 11
1444.333197271794
 21
-403.6292065473076
 31
0.0
  0
LINE
  5
16BAE
330
18
100
AcDbEntity
  8
実線
100
AcDbLine
 10
1445.833197298717
 20
-402.7631811373075
 30
0.0
 11
1445.833197298717
 21
-401.0311303573074
 31
0.0
  0
LINE
  5
16BAF
330
18
100
AcDbEntity
  8
実線
100
AcDbLine
 10
1442.833197298716
 20
-401.0311303573074
 30
0.0
 11
1442.833197298716
 21
-402.7631811373075
 31
0.0
  0
LINE
  5
16BB0
330
18
100
AcDbEntity
  8
中心線
 48
5.0
100
AcDbLine
 10
1444.333197298728
 20
-408.3971557473105
 30
0.0
 11
1444.333197298728
 21
-395.3971557473091
 31
0.0
  0
LINE
  5
16BB2
330
18
100
AcDbEntity
  8
中心線
 48
5.0
100
AcDbLine
 10
1467.234760169461
 20
-406.5533813287215
 30
0.0
 11
1467.654972332227
 21
-420.5470735412254
 31
0.0
  0
LINE
  5
16BB3
330
18
100
AcDbEntity
  8
実線
100
AcDbLine
 10
1489.634666617749
 20
-397.5202557631792
 30
0.0
 11
1495.24582361718
 21
-490.8659594711375
 31
0.0
  0
ARC
  5
16BCB
330
18
100
AcDbEntity
  8
実線
100
AcDbCircle
 10
1493.249427255176
 20
-490.9859659950086
 30
0.0
 40
2.0
100
AcDbArc
 50
273.3049479491633
 51
3.440000000002588
  0
ARC
  5
16BCC
330
18
100
AcDbEntity
  8
実線
100
AcDbCircle
 10
1484.643675712736
 20
-397.8202720728572
 30
0.0
 40
5.0
100
AcDbArc
 50
3.440000000002588
 51
93.06055497792208
  0
CIRCLE
  5
16BCD
330
18
100
AcDbEntity
  8
実線
 48
5.0
100
AcDbCircle
 10
1480.333197298721
 20
-401.8971557473074
 30
0.0
 40
5.5
  0
LINE
  5
16BCE
330
18
100
AcDbEntity
  8
実線
100
AcDbLine
 10
1480.333197271798
 20
-400.1651049473074
 30
0.0
 11
1478.833197298721
 21
-401.0311303573074
 31
0.0
  0
LINE
  5
16BCF
330
18
100
AcDbEntity
  8
実線
100
AcDbLine
 10
1478.833197298721
 20
-402.7631811373075
 30
0.0
 11
1480.333197271798
 21
-403.6292065473076
 31
0.0
  0
CIRCLE
  5
16BD0
330
18
100
AcDbEntity
  8
実線
100
AcDbCircle
 10
1480.333197298721
 20
-401.8971557473074
 30
0.0
 40
5.0
  0
LINE
  5
16BD1
330
18
100
AcDbEntity
  8
中心線
 48
10.0
100
AcDbLine
 10
1486.83319729873
 20
-401.8971557473159
 30
0.0
 11
1473.833197298721
 21
-401.8971557473159
 31
0.0
  0
LINE
  5
16BD2
330
18
100
AcDbEntity
  8
実線
100
AcDbLine
 10
1478.833197298721
 20
-401.0311303573074
 30
0.0
 11
1478.833197298721
 21
-402.7631811373075
 31
0.0
  0
LINE
  5
16BD3
330
18
100
AcDbEntity
  8
実線
100
AcDbLine
 10
1480.333197325643
 20
-403.6292065473076
 30
0.0
 11
1481.833197298721
 21
-402.7631811373075
 31
0.0
  0
LINE
  5
16BD4
330
18
100
AcDbEntity
  8
実線
100
AcDbLine
 10
1481.833197298721
 20
-402.7631811373075
 30
0.0
 11
1481.833197298721
 21
-401.0311303573074
 31
0.0
  0
LINE
  5
16BD5
330
18
100
AcDbEntity
  8
実線
100
AcDbLine
 10
1481.833197298721
 20
-401.0311303573074
 30
0.0
 11
1480.333197325643
 21
-400.1651049473074
 31
0.0
  0
LINE
  5
16BD6
330
18
100
AcDbEntity
  8
中心線
 48
5.0
100
AcDbLine
 10
1480.333197298728
 20
-408.3971557473105
 30
0.0
 11
1480.333197298728
 21
-395.3971557473091
 31
0.0
  0
LEADER
  5
16D71
330
18
100
AcDbEntity
  8
寸法
 48
10.0
100
AcDbLeader
  3
STD-I1
 76
     3
 10
1468.522442730381
 20
-410.4311203623092
 30
0.0
 10
1476.856786219247
 20
-386.3068839709321
 30
0.0
 10
1530.769966009425
 20
-386.3068839709321
 30
0.0
1001
ACAD
1000
DSTYLE
1002
{
1070
   147
1040
0.75
1070
    77
1070
     1
1002
}
  0
MTEXT
  5
16D72
330
18
100
AcDbEntity
  8
寸法
 48
10.0
100
AcDbMText
 10
1497.155863845953
 20
-384.865586063448
 30
0.0
 40
3.0
 41
0.0
 71
     7
 72
     1
  1
6-φ6.6貫通\Pφ11ザグリ　深5.9\P（両側：計4箇所）
 73
     1
 44
1.0
  0
CIRCLE
  5
16D73
330
18
100
AcDbEntity
  8
実線
 48
10.0
100
AcDbCircle
 10
1467.444866250844
 20
-413.5502274349752
 30
0.0
 40
5.5
  0
CIRCLE
  5
16D74
330
18
100
AcDbEntity
  8
実線
100
AcDbCircle
 10
1467.444866250844
 20
-413.5502274349743
 30
0.0
 40
3.299999999999999
  0
CIRCLE
  5
16D75
330
18
100
AcDbEntity
  8
実線
 48
10.0
100
AcDbCircle
 10
1421.22152834663
 20
-413.5502274349735
 30
0.0
 40
5.5
  0
CIRCLE
  5
16D76
330
18
100
AcDbEntity
  8
実線
100
AcDbCircle
 10
1421.22152834663
 20
-413.5502274349725
 30
0.0
 40
3.299999999999999
  0
DIMENSION
  5
16D7C
330
18
100
AcDbEntity
  8
寸法
 48
10.0
100
AcDbDimension
  2
*D10
 10
1495.365971574982
 20
-516.1726048208024
 30
0.0
 11
1444.693930281989
 21
-516.1726048208024
 31
0.0
 70
   160
 71
     5
 42
102.0655485524896
  3
STD-I1
100
AcDbAlignedDimension
 13
1393.300423022493
 23
-492.8647086901046
 33
0.0
 14
1495.365971574982
 24
-492.8647086901046
 34
0.0
100
AcDbRotatedDimension
1001
ACAD
1000
DSTYLE
1002
{
1070
     3
1000
(<>)
1070
   271
1070
     2
1002
}
  0
DIMENSION
  5
16DA6
330
18
100
AcDbEntity
  8
寸法
 48
10.0
100
AcDbDimension
  2
*D11
 10
1361.588077740194
 20
-494.3971557473155
 30
0.0
 11
1361.588077740194
 21
-441.7826459848261
 31
0.0
 70
   160
 71
     5
 42
101.8513642479904
  3
STD-I1
100
AcDbAlignedDimension
 13
1399.330750847022
 23
-392.5457914993249
 33
0.0
 14
1444.333197298736
 24
-494.3971557473155
 34
0.0
 50
90.0
100
AcDbRotatedDimension
1001
ACAD
1000
DSTYLE
1002
{
1070
     3
1000
(<>)
1070
   271
1070
     2
1002
}
  0
LEADER
  5
16E69
330
18
100
AcDbEntity
  8
寸法
 48
10.0
100
AcDbLeader
  3
STD-I1
 76
     3
 10
1261.886830300738
 20
-521.9049905938172
 30
0.0
 10
1278.096239689903
 20
-531.938819362203
 30
0.0
 10
1321.775413313606
 20
-531.938819362203
 30
0.0
1001
ACAD
1000
DSTYLE
1002
{
1070
   341
1005
10D0A
1070
   147
1040
0.75
1070
    77
1070
     1
1002
}
  0
LINE
  5
16E6A
102
{ACAD_REACTORS
330
19559
102
}
330
18
100
AcDbEntity
  8
二点鎖線
 48
10.0
100
AcDbLine
 10
1265.655924581472
 20
-525.397155747305
 30
0.0
 11
1265.655924581472
 21
-496.897155747306
 31
0.0
  0
LINE
  5
16E6B
102
{ACAD_REACTORS
330
19559
102
}
330
18
100
AcDbEntity
  8
二点鎖線
 48
10.0
100
AcDbLine
 10
1235.655924581473
 20
-496.897155747306
 30
0.0
 11
1235.655924581473
 21
-525.397155747305
 31
0.0
  0
DIMENSION
  5
16E6C
330
18
100
AcDbEntity
  8
寸法
 48
10.0
100
AcDbDimension
  2
*D13
 10
1235.655924581473
 20
-542.2838133440855
 30
0.0
 11
1226.408571312846
 21
-542.2556946536879
 31
0.0
 70
   160
 71
     5
 42
4.399999999998271
  3
STD-I1
100
AcDbAlignedDimension
 13
1231.255924581474
 23
-494.3971557473154
 33
0.0
 14
1235.655924581473
 24
-525.397155747305
 34
0.0
100
AcDbRotatedDimension
1001
ACAD
1000
DSTYLE
1002
{
1070
     3
1000
(<>)
1070
   279
1070
     1
1002
}
  0
DIMENSION
  5
16E6D
330
18
100
AcDbEntity
  8
寸法
 48
10.0
100
AcDbDimension
  2
*D12
 10
1265.655924581472
 20
-551.9993264115982
 30
0.0
 11
1248.455924581473
 21
-549.7493264115982
 31
0.0
 70
    32
 71
     5
 42
34.39999999999827
  3
STD-I1
100
AcDbAlignedDimension
 13
1231.255924581474
 23
-494.3971557473154
 33
0.0
 14
1265.655924581472
 24
-525.397155747305
 34
0.0
100
AcDbRotatedDimension
1001
ACAD
1000
DSTYLE
1002
{
1070
   272
1070
     1
1070
    47
1040
0.1
1070
   147
1040
0.75
1070
    48
1040
0.1
1070
    72
1070
     0
1070
    71
1070
     1
1002
}
  0
LINE
  5
16E6E
102
{ACAD_REACTORS
330
19543
102
}
330
18
100
AcDbEntity
  8
中心線
 48
5.0
100
AcDbLine
 10
1250.655924581472
 20
-387.6351014303527
 30
0.0
 11
1250.655924581472
 21
-529.962880788882
 31
0.0
  0
MTEXT
  5
16E6F
330
18
100
AcDbEntity
  8
寸法
 48
10.0
100
AcDbMText
 10
1278.852427977406
 20
-525.6621181664313
 30
0.0
 40
3.0
 41
0.0
 71
     7
 72
     1
  1
組み合わせコイルユニット
 73
     1
 44
1.0
  0
TOLERANCE
  5
16E70
330
18
100
AcDbEntity
  8
寸法
 48
10.0
100
AcDbFcf
  3
STD-I1
 10
1242.102566026186
 20
-565.479234786369
 30
0.0
  1
{\Fgdt;f}%%v0.1%%v%%v%%v%%v
  0
MTEXT
  5
16E71
330
18
100
AcDbEntity
  8
寸法
100
AcDbMText
 10
1235.292693097811
 20
-555.1462120279125
 30
0.0
 40
3.0
 41
0.0
 71
     4
 72
     5
  1
（取り付け寸法）
  7
まこ
 73
     1
 44
1.0
  0
DIMENSION
  5
16E72
330
18
100
AcDbEntity
  8
寸法
 48
10.0
100
AcDbDimension
  2
*D17
 10
1265.655924581472
 20
-542.2838133440855
 30
0.0
 11
1250.655924581472
 21
-540.0338133440855
 31
0.0
 70
    32
 71
     5
 42
30.0
  3
STD-I1
100
AcDbAlignedDimension
 13
1235.655924581473
 23
-525.397155747305
 33
0.0
 14
1265.655924581472
 24
-525.397155747305
 34
0.0
100
AcDbRotatedDimension
  0
LINE
  5
16E73
330
18
100
AcDbEntity
  8
文字
 48
10.0
100
AcDbLine
 10
1234.962175907456
 20
-579.2847006881333
 30
0.0
 11
1264.955330728784
 21
-579.2847006881333
 31
0.0
  0
MTEXT
  5
16E74
330
18
100
AcDbEntity
  8
文字
100
AcDbMText
 10
1236.356231035586
 20
-574.3072795943999
 30
0.0
 40
5.0
 41
0.0
 71
     4
 72
     5
  1
A-A'断面
  7
まこ
 73
     1
 44
1.0
  0
LINE
  5
16E75
102
{ACAD_REACTORS
330
19559
102
}
330
18
100
AcDbEntity
  8
二点鎖線
 48
10.0
100
AcDbLine
 10
1236.155924581472
 20
-525.897155747305
 30
0.0
 11
1265.155924581472
 21
-525.897155747305
 31
0.0
  0
LEADER
  5
16E76
330
18
100
AcDbEntity
  8
寸法
 48
10.0
100
AcDbLeader
  3
STD-I1
 76
     4
 10
1231.255924581474
 20
-551.9993264115982
 30
0.0
 10
1223.130767863926
 20
-551.9993264115982
 30
0.0
 10
1223.130767863926
 20
-565.479234786369
 30
0.0
 10
1242.102566026186
 20
-565.479234786369
 30
0.0
1001
ACAD
1000
DSTYLE
1002
{
1070
   341
1005
1109B
1070
   147
1040
0.75
1070
    77
1070
     1
1002
}
  0
LINE
  5
16E77
102
{ACAD_REACTORS
330
19559
102
}
330
18
100
AcDbEntity
  8
二点鎖線
 48
10.0
100
AcDbLine
 10
1235.655924581473
 20
-525.397155747305
 30
0.0
 11
1236.155924581472
 21
-525.897155747305
 31
0.0
  0
LEADER
  5
16E78
330
18
100
AcDbEntity
  8
寸法
 48
10.0
100
AcDbLeader
  3
STD-I1
 76
     4
 10
1265.655924581472
 20
-551.9993264115982
 30
0.0
 10
1274.072125688772
 20
-551.9993264115982
 30
0.0
 10
1274.072125688772
 20
-565.479234786369
 30
0.0
 10
1256.062071088053
 20
-565.479234786369
 30
0.0
1001
ACAD
1000
DSTYLE
1002
{
1070
   147
1040
0.75
1070
    77
1070
     1
1002
}
  0
LINE
  5
16E79
330
18
100
AcDbEntity
  8
寸法
100
AcDbLine
 10
1265.655924581472
 20
-537.0216559364816
 30
0.0
 11
1269.986051600395
 21
-534.5216559364817
 31
0.0
  0
LINE
  5
16E7A
330
18
100
AcDbEntity
  8
寸法
100
AcDbLine
 10
1269.986051600395
 20
-539.5216559364817
 30
0.0
 11
1265.655924581472
 21
-537.0216559364816
 31
0.0
  0
LINE
  5
16E7B
330
18
100
AcDbEntity
  8
寸法
100
AcDbLine
 10
1269.986051600395
 20
-539.5216559364817
 30
0.0
 11
1265.655924581472
 21
-537.0216559364816
 31
0.0
  0
LINE
  5
16E7C
330
18
100
AcDbEntity
  8
寸法
100
AcDbLine
 10
1269.986051600395
 20
-534.5216559364817
 30
0.0
 11
1265.655924581472
 21
-532.0216559364816
 31
0.0
  0
LINE
  5
16E7D
330
18
100
AcDbEntity
  8
寸法
100
AcDbLine
 10
1269.986051600395
 20
-534.5216559364817
 30
0.0
 11
1265.655924581472
 21
-532.0216559364816
 31
0.0
  0
LINE
  5
16E7E
330
18
100
AcDbEntity
  8
寸法
100
AcDbLine
 10
1265.655924581472
 20
-532.0216559364816
 30
0.0
 11
1269.986051600395
 21
-529.5216559364816
 31
0.0
  0
LINE
  5
16E7F
102
{ACAD_REACTORS
330
19559
102
}
330
18
100
AcDbEntity
  8
二点鎖線
 48
10.0
100
AcDbLine
 10
1265.155924581472
 20
-525.897155747305
 30
0.0
 11
1265.655924581472
 21
-525.397155747305
 31
0.0
  0
LINE
  5
16E80
330
18
100
AcDbEntity
  8
寸法
100
AcDbLine
 10
1269.986051600395
 20
-539.5216559364817
 30
0.0
 11
1269.986051600395
 21
-534.5216559364817
 31
0.0
  0
LINE
  5
16E81
330
18
100
AcDbEntity
  8
寸法
100
AcDbLine
 10
1269.986051600395
 20
-534.5216559364817
 30
0.0
 11
1269.986051600395
 21
-529.5216559364816
 31
0.0
  0
MTEXT
  5
16E82
330
18
100
AcDbEntity
  8
寸法
100
AcDbMText
 10
1270.578153031104
 20
-462.0330679502626
 30
0.0
 40
3.0
 41
0.0
 71
     4
 72
     5
  1
（ギャップ）
  7
まこ
 73
     1
 44
1.0
  0
LEADER
  5
16E87
330
18
100
AcDbEntity
  8
寸法
 48
10.0
100
AcDbLeader
  3
STD-I1
 76
     3
 10
1234.205924581474
 20
-393.897155747305
 30
0.0
 10
1236.851351200259
 20
-368.6473204047433
 30
0.0
 10
1267.113538632608
 20
-368.6473204047433
 30
0.0
1001
ACAD
1000
DSTYLE
1002
{
1070
   147
1040
0.75
1070
    77
1070
     1
1002
}
  0
LINE
  5
16E88
330
18
100
AcDbEntity
  8
ﾏｸﾞﾈｯﾄ
100
AcDbLine
 10
1247.255924581474
 20
-443.9872822251948
 30
0.0
 11
1247.255924581475
 21
-493.981518367008
 31
0.0
  0
LINE
  5
16E89
330
18
100
AcDbEntity
  8
ﾏｸﾞﾈｯﾄ
100
AcDbLine
 10
1254.055924581474
 20
-443.9872822251945
 30
0.0
 11
1254.055924581473
 21
-493.981518367008
 31
0.0
  0
LINE
  5
16E8A
102
{ACAD_REACTORS
330
19559
102
}
330
18
100
AcDbEntity
  8
二点鎖線
 48
10.0
100
AcDbLine
 10
1247.955924581472
 20
-494.5971557473058
 30
0.0
 11
1247.955924581473
 21
-433.8971557473064
 31
0.0
  0
LINE
  5
16E8B
102
{ACAD_REACTORS
330
19559
102
}
330
18
100
AcDbEntity
  8
二点鎖線
 48
10.0
100
AcDbLine
 10
1253.355924581473
 20
-494.5971557473058
 30
0.0
 11
1253.355924581471
 21
-433.8971557473055
 31
0.0
  0
LINE
  5
16E8C
330
18
100
AcDbEntity
  8
ﾏｸﾞﾈｯﾄ
100
AcDbLine
 10
1264.155924581474
 20
-443.9872822251945
 30
0.0
 11
1264.155924581474
 21
-494.3872822251941
 31
0.0
  0
LINE
  5
16E8D
330
18
100
AcDbEntity
  8
ﾏｸﾞﾈｯﾄ
100
AcDbLine
 10
1237.155924581474
 20
-443.9872822251946
 30
0.0
 11
1237.155924581474
 21
-494.3872822251943
 31
0.0
  0
LINE
  5
16E8E
102
{ACAD_REACTORS
330
19543
102
}
330
18
100
AcDbEntity
  8
実線
 48
10.0
100
AcDbLine
 10
1264.155924581474
 20
-393.897155747305
 30
0.0
 11
1264.155924581474
 21
-494.3971557473155
 31
0.0
  0
LINE
  5
16E8F
102
{ACAD_REACTORS
330
19543
102
}
330
18
100
AcDbEntity
  8
実線
 48
10.0
100
AcDbLine
 10
1270.055924581474
 20
-494.3971557473155
 30
0.0
 11
1270.055924581474
 21
-393.897155747305
 31
0.0
  0
LINE
  5
16E90
102
{ACAD_REACTORS
330
19543
102
}
330
18
100
AcDbEntity
  8
実線
 48
10.0
100
AcDbLine
 10
1231.255924581474
 20
-494.3971557473154
 30
0.0
 11
1231.255924581474
 21
-393.897155747305
 31
0.0
  0
LINE
  5
16E91
102
{ACAD_REACTORS
330
19543
102
}
330
18
100
AcDbEntity
  8
実線
 48
10.0
100
AcDbLine
 10
1237.155924581474
 20
-393.897155747305
 30
0.0
 11
1237.155924581474
 21
-494.3971557473154
 31
0.0
  0
LINE
  5
16E92
330
18
100
AcDbEntity
  8
ﾏｸﾞﾈｯﾄ
100
AcDbLine
 10
1247.255924581475
 20
-493.9872822251943
 30
0.0
 11
1237.155924581474
 21
-493.9872822251943
 31
0.0
  0
LINE
  5
16E93
102
{ACAD_REACTORS
330
19559
102
}
330
18
100
AcDbEntity
  8
二点鎖線
 48
10.0
100
AcDbLine
 10
1246.155924581472
 20
-496.3971557473058
 30
0.0
 11
1236.155924581472
 21
-496.3971557473059
 31
0.0
  0
LINE
  5
16E94
102
{ACAD_REACTORS
330
19559
102
}
330
18
100
AcDbEntity
  8
二点鎖線
 48
10.0
100
AcDbLine
 10
1236.155924581472
 20
-496.3971557473059
 30
0.0
 11
1235.655924581473
 21
-496.897155747306
 31
0.0
  0
LINE
  5
16E95
102
{ACAD_REACTORS
330
19543
102
}
330
18
100
AcDbEntity
  8
実線
 48
10.0
100
AcDbLine
 10
1237.155924581474
 20
-494.3971557473154
 30
0.0
 11
1231.255924581474
 21
-494.3971557473154
 31
0.0
  0
DIMENSION
  5
16E96
330
18
100
AcDbEntity
  8
寸法
 48
10.0
100
AcDbDimension
  2
*D15
 10
1279.63215086986
 20
-496.3971557473059
 30
0.0
 11
1277.38185559427
 21
-503.8753348811639
 31
0.0
 70
    32
 71
     5
 42
1.99999999999045
  3
STD-I1
100
AcDbAlignedDimension
 13
1270.055924581474
 23
-494.3971557473155
 33
0.0
 14
1265.155924581472
 24
-496.3971557473059
 34
0.0
 50
90.0
100
AcDbRotatedDimension
  0
LINE
  5
16E97
102
{ACAD_REACTORS
330
19543
102
}
330
18
100
AcDbEntity
  8
実線
 48
10.0
100
AcDbLine
 10
1270.055924581474
 20
-494.3971557473156
 30
0.0
 11
1264.155924581474
 21
-494.3971557473155
 31
0.0
  0
LINE
  5
16E98
102
{ACAD_REACTORS
330
19559
102
}
330
18
100
AcDbEntity
  8
二点鎖線
 48
10.0
100
AcDbLine
 10
1265.155924581472
 20
-496.3971557473059
 30
0.0
 11
1265.655924581472
 21
-496.897155747306
 31
0.0
  0
LINE
  5
16E99
102
{ACAD_REACTORS
330
19559
102
}
330
18
100
AcDbEntity
  8
二点鎖線
 48
10.0
100
AcDbLine
 10
1265.155924581472
 20
-496.3971557473059
 30
0.0
 11
1255.155924581472
 21
-496.3971557473059
 31
0.0
  0
LINE
  5
16E9A
102
{ACAD_REACTORS
330
19559
102
}
330
18
100
AcDbEntity
  8
二点鎖線
 48
10.0
100
AcDbLine
 10
1246.155924581472
 20
-496.3971557473059
 30
0.0
 11
1247.955924581472
 21
-494.5971557473058
 31
0.0
  0
LINE
  5
16E9B
102
{ACAD_REACTORS
330
19559
102
}
330
18
100
AcDbEntity
  8
二点鎖線
 48
10.0
100
AcDbLine
 10
1255.155924581472
 20
-496.3971557473059
 30
0.0
 11
1253.355924581473
 21
-494.5971557473058
 31
0.0
  0
LINE
  5
16E9C
330
18
100
AcDbEntity
  8
ﾏｸﾞﾈｯﾄ
100
AcDbLine
 10
1254.055924581473
 20
-493.9872822251942
 30
0.0
 11
1264.155924581474
 21
-493.9872822251942
 31
0.0
  0
DIMENSION
  5
16E9D
330
18
100
AcDbEntity
  8
寸法
 48
10.0
100
AcDbDimension
  2
*D16
 10
1254.055924581474
 20
-458.9509864877654
 30
0.0
 11
1277.103746637169
 21
-458.9509864877654
 31
0.0
 70
   160
  1
（<>）
 71
     5
 42
0.7000000000016371
  3
STD-I1
100
AcDbAlignedDimension
 13
1253.355924581472
 23
-464.2471557473056
 33
0.0
 14
1254.055924581474
 24
-468.9844002961012
 34
0.0
100
AcDbRotatedDimension
  0
LINE
  5
16E9E
330
18
100
AcDbEntity
  8
ﾏｸﾞﾈｯﾄ
100
AcDbLine
 10
1247.255924581474
 20
-443.9872822251948
 30
0.0
 11
1237.155924581474
 21
-443.9872822251946
 31
0.0
  0
LINE
  5
16E9F
102
{ACAD_REACTORS
330
19543
102
}
330
18
100
AcDbEntity
  8
実線
100
AcDbLine
 10
1270.055924581474
 20
-393.897155747305
 30
0.0
 11
1264.155924581473
 21
-393.897155747305
 31
0.0
  0
LINE
  5
16EA0
330
18
100
AcDbEntity
  8
中心線
 48
10.0
100
AcDbLine
 10
1274.190347570506
 20
-413.8971557473154
 30
0.0
 11
1227.121501592439
 21
-413.8971557473153
 31
0.0
  0
LINE
  5
16EA1
102
{ACAD_REACTORS
330
19543
102
}
330
18
100
AcDbEntity
  8
実線
100
AcDbLine
 10
1264.155924581474
 20
-430.8971557473094
 30
0.0
 11
1237.155924581474
 21
-430.8971557473094
 31
0.0
  0
LINE
  5
16EA2
102
{ACAD_REACTORS
330
19543
102
}
330
18
100
AcDbEntity
  8
実線
100
AcDbLine
 10
1264.155924581474
 20
-417.1971557473153
 30
0.0
 11
1237.155924581474
 21
-417.1971557473153
 31
0.0
  0
LINE
  5
16EA3
102
{ACAD_REACTORS
330
19543
102
}
330
18
100
AcDbEntity
  8
実線
100
AcDbLine
 10
1264.082563654758
 20
-410.5971557473153
 30
0.0
 11
1237.082563654758
 21
-410.5971557473155
 31
0.0
  0
LINE
  5
16EA4
102
{ACAD_REACTORS
330
19543
102
}
330
18
100
AcDbEntity
  8
実線
100
AcDbLine
 10
1237.155924581473
 20
-393.897155747305
 30
0.0
 11
1237.155924581474
 21
-430.8971557473094
 31
0.0
  0
LINE
  5
16EA5
102
{ACAD_REACTORS
330
19543
102
}
330
18
100
AcDbEntity
  8
実線
100
AcDbLine
 10
1237.155924581474
 20
-408.3971557473153
 30
0.0
 11
1231.255924581474
 21
-408.3971557473153
 31
0.0
  0
LINE
  5
16EA6
102
{ACAD_REACTORS
330
19543
102
}
330
18
100
AcDbEntity
  8
実線
100
AcDbLine
 10
1237.155924581474
 20
-419.3971557473153
 30
0.0
 11
1231.255924581474
 21
-419.3971557473153
 31
0.0
  0
LINE
  5
16EA7
102
{ACAD_REACTORS
330
19543
102
}
330
18
100
AcDbEntity
  8
実線
100
AcDbLine
 10
1264.155924581473
 20
-393.897155747305
 30
0.0
 11
1264.155924581474
 21
-430.8971557473094
 31
0.0
  0
ARC
  5
16EA8
102
{ACAD_REACTORS
330
19559
102
}
330
18
100
AcDbEntity
  8
二点鎖線
 48
10.0
100
AcDbCircle
 10
1252.355924581471
 20
-433.8971557473055
 30
0.0
 40
1.0
100
AcDbArc
 50
0.0
 51
90.0
  0
ARC
  5
16EA9
102
{ACAD_REACTORS
330
19559
102
}
330
18
100
AcDbEntity
  8
二点鎖線
 48
10.0
100
AcDbCircle
 10
1248.955924581474
 20
-433.8971557473064
 30
0.0
 40
1.0
100
AcDbArc
 50
90.0
 51
180.0
  0
LINE
  5
16EAA
102
{ACAD_REACTORS
330
19559
102
}
330
18
100
AcDbEntity
  8
二点鎖線
 48
10.0
100
AcDbLine
 10
1252.355924581471
 20
-432.8971557473055
 30
0.0
 11
1248.955924581474
 21
-432.8971557473064
 31
0.0
  0
LINE
  5
16EAB
330
18
100
AcDbEntity
  8
ﾏｸﾞﾈｯﾄ
100
AcDbLine
 10
1254.055924581474
 20
-443.9872822251945
 30
0.0
 11
1264.155924581474
 21
-443.9872822251945
 31
0.0
  0
LINE
  5
16EAC
102
{ACAD_REACTORS
330
19543
102
}
330
18
100
AcDbEntity
  8
実線
100
AcDbLine
 10
1264.155924581474
 20
-408.3971557473153
 30
0.0
 11
1270.055924581474
 21
-408.3971557473153
 31
0.0
  0
LINE
  5
16EAD
102
{ACAD_REACTORS
330
19543
102
}
330
18
100
AcDbEntity
  8
実線
100
AcDbLine
 10
1264.155924581474
 20
-419.3971557473153
 30
0.0
 11
1270.055924581474
 21
-419.3971557473153
 31
0.0
  0
MTEXT
  5
16EAE
330
18
100
AcDbEntity
  8
寸法
 48
10.0
100
AcDbMText
 10
1236.510015752454
 20
-363.0427624817671
 30
0.0
 40
3.0
 41
0.0
 71
     7
 72
     1
  1
マグネットベース
 73
     1
 44
1.0
  0
DIMENSION
  5
16EAF
330
18
100
AcDbEntity
  8
寸法
 48
10.0
100
AcDbDimension
  2
*D14
 10
1270.055924581474
 20
-354.5133745989242
 30
0.0
 11
1250.655924581474
 21
-352.2633745989242
 31
0.0
 70
    32
 71
     5
 42
38.80000000000018
  3
STD-I1
100
AcDbAlignedDimension
 13
1231.255924581474
 23
-393.897155747305
 33
0.0
 14
1270.055924581474
 24
-393.897155747305
 34
0.0
100
AcDbRotatedDimension
  0
MTEXT
  5
16EB2
330
18
100
AcDbEntity
  8
寸法
 48
10.0
100
AcDbMText
 10
1248.462379708413
 20
-366.9179907622833
 30
0.0
 40
3.0
 41
0.0
 71
     7
 72
     1
  1
取付基準面
 73
     1
 44
1.0
  0
MTEXT
  5
16EB3
330
18
100
AcDbEntity
  8
寸法
 48
10.0
100
AcDbMText
 10
1298.642618045997
 20
-530.8154078747711
 30
0.0
 40
3.0
 41
0.0
 71
     7
 72
     1
  1
CLV-CM
 73
     1
 44
1.0
  0
LEADER
  5
16F8F
330
18
100
AcDbEntity
  8
文字
 48
10.0
100
AcDbLeader
  3
STD-I1
 76
     2
 10
1418.490120632192
 20
-504.5101811193966
 30
0.0
 10
1406.617238765983
 20
-504.1536541005444
 30
0.0
211
-0.9995494437502062
221
0.0300151544832516
231
0.0
1001
ACAD
1000
DSTYLE
1002
{
1070
   147
1040
0.75
1070
    77
1070
     1
1002
}
  0
MTEXT
  5
16F90
330
18
100
AcDbEntity
  8
文字
100
AcDbMText
 10
1407.531806824291
 20
-499.8594240404754
 30
0.0
 40
4.999999999999999
 41
0.0
 71
     4
 72
     5
  1
A'
  7
まこ
 11
0.9995494437502063
 21
-0.0300151544832515
 31
0.0
 73
     1
 44
1.0
  0
LINE
  5
16F91
330
18
100
AcDbEntity
  8
文字
 48
10.0
100
AcDbLine
 10
1418.73991337605
 20
-496.1917099178527
 30
0.0
 11
1418.432153074098
 21
-506.4405873239772
 31
0.0
  0
LEADER
  5
16F93
330
18
100
AcDbEntity
  8
文字
 62
     4
 48
10.0
100
AcDbLeader
  3
STD-I1
 76
     2
 10
1422.756506798776
 20
-362.4331539289149
 30
0.0
 10
1410.883624932566
 20
-362.0766269100627
 30
0.0
211
-0.9995494437502062
221
0.0300151544832516
231
0.0
1001
ACAD
1000
DSTYLE
1002
{
1070
   147
1040
0.75
1070
    77
1070
     1
1002
}
  0
MTEXT
  5
16F94
330
18
100
AcDbEntity
  8
文字
100
AcDbMText
 10
1412.381836651096
 20
-358.6052135687233
 30
0.0
 40
4.999999999999999
 41
0.0
 71
     4
 72
     5
  1
A
  7
まこ
 11
0.9995494437502063
 21
-0.0300151544832515
 31
0.0
 73
     1
 44
1.0
  0
LINE
  5
16F95
330
18
100
AcDbEntity
  8
文字
 48
10.0
100
AcDbLine
 10
1444.333197298724
 20
-384.3525002056243
 30
0.0
 11
1444.333197298724
 21
-388.1807064543622
 31
0.0
  0
LINE
  5
17EC0
102
{ACAD_REACTORS
330
17EC4
102
}
330
18
100
AcDbEntity
  8
寸法
 48
10.0
100
AcDbLine
 10
1401.833197298727
 20
-491.897155747305
 30
0.0
 11
1486.833197298726
 21
-491.897155747305
 31
0.0
  0
LINE
  5
17EC1
102
{ACAD_REACTORS
330
17EC4
102
}
330
18
100
AcDbEntity
  8
寸法
 48
10.0
100
AcDbLine
 10
1486.833197298726
 20
-491.897155747305
 30
0.0
 11
1486.833197298726
 21
-436.897155747305
 31
0.0
  0
LINE
  5
17EC2
102
{ACAD_REACTORS
330
17EC4
102
}
330
18
100
AcDbEntity
  8
寸法
 48
10.0
100
AcDbLine
 10
1486.833197298726
 20
-436.897155747305
 30
0.0
 11
1401.833197298727
 21
-436.897155747305
 31
0.0
  0
LINE
  5
17EC3
102
{ACAD_REACTORS
330
17EC4
102
}
330
18
100
AcDbEntity
  8
寸法
 48
10.0
100
AcDbLine
 10
1401.833197298727
 20
-436.897155747305
 30
0.0
 11
1401.833197298727
 21
-491.897155747305
 31
0.0
  0
ARC
  5
17ECE
330
18
100
AcDbEntity
  8
実線
100
AcDbCircle
 10
1444.333197298735
 20
356.1028442526867
 30
0.0
 40
850.5000000000022
100
AcDbArc
 50
266.695052050839
 51
273.3049479491633
  0
TEXT
  5
181C4
330
18
100
AcDbEntity
  8
0
 62
     2
100
AcDbText
 10
1403.657167329591
 20
-426.5142435996266
 30
0.0
 40
2.6
  1
MODEL:MBV-CM***
 41
1.199999999999999
  7
MSｺﾞｼｯｸN
 11
1403.657167329591
 21
-426.9893705031799
 31
0.0
100
AcDbText
 73
     1
  0
LINE
  5
181C5
330
18
100
AcDbEntity
  8
0
 62
     2
100
AcDbLine
 10
1436.333197298725
 20
-422.897155747305
 30
0.0
 11
1402.333197298724
 21
-422.897155747305
 31
0.0
  0
LINE
  5
181C6
330
18
100
AcDbEntity
  8
0
 62
     2
100
AcDbLine
 10
1401.833197298724
 20
-429.897155747305
 30
0.0
 11
1436.833197298724
 21
-429.897155747305
 31
0.0
  0
LINE
  5
181C7
330
18
100
AcDbEntity
  8
0
 62
     2
100
AcDbLine
 10
1402.333197298724
 20
-434.897155747305
 30
0.0
 11
1436.333197298725
 21
-434.897155747305
 31
0.0
  0
TEXT
  5
181C8
330
18
100
AcDbEntity
  8
0
 62
     2
100
AcDbText
 10
1403.630040756779
 20
-429.338276948058
 30
0.0
 40
2.0
  1
SER No.******
 41
1.199999999999999
  7
MSｺﾞｼｯｸN
 11
1403.630040756779
 21
-429.7037591815605
 31
0.0
100
AcDbText
 73
     1
  0
ARC
  5
181C9
330
18
100
AcDbEntity
  8
0
 62
     2
100
AcDbCircle
 10
1402.333197298724
 20
-434.397155747305
 30
0.0
 40
0.5
100
AcDbArc
 50
180.0
 51
270.0
  0
ARC
  5
181CA
330
18
100
AcDbEntity
  8
0
 62
     2
100
AcDbCircle
 10
1402.333197298724
 20
-423.3971557473051
 30
0.0
 40
0.5
100
AcDbArc
 50
90.0
 51
180.0
  0
LINE
  5
181CB
330
18
100
AcDbEntity
  8
0
 62
     2
100
AcDbLine
 10
1401.833197298724
 20
-423.3971557473051
 30
0.0
 11
1401.833197298724
 21
-434.397155747305
 31
0.0
  0
TEXT
  5
181CC
330
18
100
AcDbEntity
  8
0
 62
     2
100
AcDbText
 10
1410.12275613433
 20
-432.2991357817341
 30
0.0
 40
1.44
  1
NIKKI
 41
1.25
  7
TIMESNR
100
AcDbText
  0
TEXT
  5
181CD
330
18
100
AcDbEntity
  8
0
 62
     2
100
AcDbText
 10
1410.00134302419
 20
-433.9958981907193
 30
0.0
 40
1.44
  1
DENSO
 41
1.3
  7
TIMESNR
100
AcDbText
  0
LINE
  5
181CE
102
{ACAD_REACTORS
330
181D0
102
}
330
18
100
AcDbEntity
  8
0
 62
     2
100
AcDbLine
 10
1404.779743799802
 20
-430.8396323293036
 30
0.0
 11
1409.185243799803
 21
-430.8396323293036
 31
0.0
  0
LINE
  5
181CF
102
{ACAD_REACTORS
330
181D0
102
}
330
18
100
AcDbEntity
  8
0
 62
     2
100
AcDbLine
 10
1409.185243799803
 20
-430.8396323293036
 30
0.0
 11
1406.381743799803
 21
-431.7207323293032
 31
0.0
  0
HATCH
  5
181D0
330
18
100
AcDbEntity
  8
0
 62
     2
100
AcDbHatch
 10
0.0
 20
0.0
 30
0.0
210
0.0
220
0.0
230
1.0
  2
SOLID
 70
     1
 71
     1
 91
        2
 92
       17
 93
        1
 72
     2
 10
1406.782243799803
 20
-432.6418823293034
 40
0.6007500000000002
 50
0.0
 51
360.0
 73
     1
 97
        1
330
181D3
 92
        1
 93
        8
 72
     2
 10
1406.783175195152
 20
-432.6400195386058
 40
1.00311322310025
 50
113.5897772726141
 51
269.9468005913759
 73
     1
 72
     2
 10
1406.782243799803
 20
-432.8421323293032
 40
0.8009999999999999
 50
270.0
 51
450.0
 73
     1
 72
     1
 10
1406.782243799803
 20
-432.0411323293033
 11
1409.025043799803
 21
-432.0411323293033
 72
     1
 10
1409.025043799803
 20
-432.0411323293033
 11
1408.784743799803
 21
-434.0436323293033
 72
     1
 10
1408.784743799803
 20
-434.0436323293033
 11
1404.379243799803
 21
-434.0436323293033
 72
     1
 10
1404.379243799803
 20
-434.0436323293033
 11
1404.779743799802
 21
-430.8396323293036
 72
     1
 10
1404.779743799802
 20
-430.8396323293036
 11
1409.185243799803
 21
-430.8396323293036
 72
     1
 10
1409.185243799803
 20
-430.8396323293036
 11
1406.381743799803
 21
-431.7207323293032
 97
        8
330
181D5
330
181D2
330
181D4
330
181D6
330
181D1
330
181D7
330
181CE
330
181CF
 75
     0
 76
     1
 98
        1
 10
1205.304533705567
 20
-430.1624075135436
  0
LINE
  5
181D1
102
{ACAD_REACTORS
330
181D0
102
}
330
18
100
AcDbEntity
  8
0
 62
     2
100
AcDbLine
 10
1404.379243799803
 20
-434.0436323293033
 30
0.0
 11
1408.784743799803
 21
-434.0436323293033
 31
0.0
  0
ARC
  5
181D2
102
{ACAD_REACTORS
330
181D0
102
}
330
18
100
AcDbEntity
  8
0
 62
     2
100
AcDbCircle
 10
1406.782243799803
 20
-432.8421323293032
 30
0.0
 40
0.8009999999999999
100
AcDbArc
 50
270.0
 51
90.0
  0
CIRCLE
  5
181D3
102
{ACAD_REACTORS
330
181D0
102
}
330
18
100
AcDbEntity
  8
0
 62
     2
100
AcDbCircle
 10
1406.782243799803
 20
-432.6418823293034
 30
0.0
 40
0.6007500000000002
  0
LINE
  5
181D4
102
{ACAD_REACTORS
330
181D0
102
}
330
18
100
AcDbEntity
  8
0
 62
     2
100
AcDbLine
 10
1406.782243799803
 20
-432.0411323293033
 30
0.0
 11
1409.025043799803
 21
-432.0411323293033
 31
0.0
  0
ARC
  5
181D5
102
{ACAD_REACTORS
330
181D0
102
}
330
18
100
AcDbEntity
  8
0
 62
     2
100
AcDbCircle
 10
1406.783175195152
 20
-432.6400195386058
 30
0.0
 40
1.00311322310025
100
AcDbArc
 50
113.5897772726154
 51
269.9468005913759
  0
LINE
  5
181D6
102
{ACAD_REACTORS
330
181D0
102
}
330
18
100
AcDbEntity
  8
0
 62
     2
100
AcDbLine
 10
1408.784743799803
 20
-434.0436323293033
 30
0.0
 11
1409.025043799803
 21
-432.0411323293033
 31
0.0
  0
LINE
  5
181D7
102
{ACAD_REACTORS
330
181D0
102
}
330
18
100
AcDbEntity
  8
0
 62
     2
100
AcDbLine
 10
1404.379243799803
 20
-434.0436323293033
 30
0.0
 11
1404.779743799802
 21
-430.8396323293036
 31
0.0
  0
ARC
  5
181D8
330
18
100
AcDbEntity
  8
0
 62
     2
100
AcDbCircle
 10
1436.333197298725
 20
-423.3971557473051
 30
0.0
 40
0.5
100
AcDbArc
 50
0.0
 51
90.0
  0
ARC
  5
181D9
330
18
100
AcDbEntity
  8
0
 62
     2
100
AcDbCircle
 10
1436.333197298725
 20
-434.397155747305
 30
0.0
 40
0.5
100
AcDbArc
 50
270.0
 51
0.0
  0
LINE
  5
181DA
330
18
100
AcDbEntity
  8
0
 62
     2
100
AcDbLine
 10
1436.833197298724
 20
-434.397155747305
 30
0.0
 11
1436.833197298724
 21
-423.3971557473051
 31
0.0
  0
TEXT
  5
181DB
330
18
100
AcDbEntity
  8
0
 62
     7
100
AcDbText
 10
1421.454857693277
 20
-432.3925604708673
 30
137.5
 40
1.5
  1
SN-16140
  7
MSｺﾞｼｯｸN
 11
1421.454857693277
 21
-432.6666721459941
 31
137.5
100
AcDbText
 73
     1
  0
TEXT
  5
181DC
330
18
100
AcDbEntity
  8
0
 62
     7
100
AcDbText
 10
1421.454857693277
 20
-434.2623465212534
 30
137.5
 40
1.5
  1
MADE IN JAPAN
  7
MSｺﾞｼｯｸN
 11
1421.454857693277
 21
-434.5364581963804
 31
137.5
100
AcDbText
 73
     1
  0
LWPOLYLINE
  5
181DD
330
18
100
AcDbEntity
  8
0
 62
     4
100
AcDbPolyline
 90
        8
 70
     1
 43
0.0
 10
1400.333197298724
 20
-420.8971557473046
 10
1414.333197298724
 20
-420.897155747305
 42
0.4142135623730951
 10
1414.833197298724
 20
-420.397155747305
 10
1414.833197298724
 20
-411.3971557473051
 42
0.4142135623730951
 10
1414.333197298724
 20
-410.8971557473051
 10
1400.333197298724
 20
-410.8971557473051
 42
0.4142135623730996
 10
1399.833197298725
 20
-411.3971557473051
 10
1399.833197298725
 20
-420.3971557473046
 42
0.4142135623730904
  0
TEXT
  5
181DE
330
18
100
AcDbEntity
  8
0
 62
     4
100
AcDbText
 10
1406.712369924731
 20
-419.5509275281083
 30
0.0
 40
1.44
  1
DENSO
  7
TIMESNR
100
AcDbText
  0
LINE
  5
181DF
330
18
100
AcDbEntity
  8
0
 62
     4
100
AcDbLine
 10
1399.833197298725
 20
-414.8971557473045
 30
0.0
 11
1414.833197298724
 21
-414.8971557473045
 31
0.0
  0
TEXT
  5
181E0
330
18
100
AcDbEntity
  8
0
 62
     4
100
AcDbText
 10
1401.047915777931
 20
-413.9385962963772
 30
0.0
 40
2.0
  1
Certificate
  7
TIMESNR
 11
1401.047915777931
 21
-414.5773850490809
 31
0.0
100
AcDbText
 73
     1
  0
TEXT
  5
181E1
330
18
100
AcDbEntity
  8
0
 62
     4
100
AcDbText
 10
1406.833783034869
 20
-417.8541651191226
 30
0.0
 40
1.44
  1
NIKKI
  7
TIMESNR
100
AcDbText
  0
LINE
  5
181E2
102
{ACAD_REACTORS
330
181E5
102
}
330
18
100
AcDbEntity
  8
0
 62
     4
100
AcDbLine
 10
1401.490770700343
 20
-416.3946616666917
 30
0.0
 11
1405.896270700342
 21
-416.3946616666917
 31
0.0
  0
LINE
  5
181E3
102
{ACAD_REACTORS
330
181E5
102
}
330
18
100
AcDbEntity
  8
0
 62
     4
100
AcDbLine
 10
1401.090270700342
 20
-419.5986616666914
 30
0.0
 11
1405.495770700342
 21
-419.5986616666914
 31
0.0
  0
ARC
  5
181E4
102
{ACAD_REACTORS
330
181E5
102
}
330
18
100
AcDbEntity
  8
0
 62
     4
100
AcDbCircle
 10
1403.494202095691
 20
-418.1950488759939
 30
0.0
 40
1.00311322310025
100
AcDbArc
 50
113.5897772726154
 51
269.9468005913759
  0
HATCH
  5
181E5
330
18
100
AcDbEntity
  8
0
 62
     4
100
AcDbHatch
 10
0.0
 20
0.0
 30
0.0
210
0.0
220
0.0
230
1.0
  2
SOLID
 70
     1
 71
     1
 91
        2
 92
       17
 93
        1
 72
     2
 10
1403.493270700342
 20
-418.1969116666923
 40
0.6007500000000002
 50
0.0
 51
360.0
 73
     1
 97
        1
330
181E9
 92
        1
 93
        8
 72
     2
 10
1403.494202095691
 20
-418.1950488759939
 40
1.00311322310025
 50
113.5897772726141
 51
269.9468005913759
 73
     1
 72
     2
 10
1403.493270700342
 20
-418.3971616666922
 40
0.8009999999999999
 50
270.0
 51
450.0
 73
     1
 72
     1
 10
1403.493270700342
 20
-417.5961616666918
 11
1405.736070700342
 21
-417.5961616666918
 72
     1
 10
1405.736070700342
 20
-417.5961616666918
 11
1405.495770700342
 21
-419.5986616666914
 72
     1
 10
1405.495770700342
 20
-419.5986616666914
 11
1401.090270700342
 21
-419.5986616666914
 72
     1
 10
1401.090270700342
 20
-419.5986616666914
 11
1401.490770700343
 21
-416.3946616666917
 72
     1
 10
1401.490770700343
 20
-416.3946616666917
 11
1405.896270700342
 21
-416.3946616666917
 72
     1
 10
1405.896270700342
 20
-416.3946616666917
 11
1403.092770700342
 21
-417.2757616666922
 97
        8
330
181E4
330
181EA
330
181EB
330
181E7
330
181E3
330
181E6
330
181E2
330
181E8
 75
     0
 76
     1
 98
        1
 10
1202.015560606106
 20
-415.7174368509317
  0
LINE
  5
181E6
102
{ACAD_REACTORS
330
181E5
102
}
330
18
100
AcDbEntity
  8
0
 62
     4
100
AcDbLine
 10
1401.090270700342
 20
-419.5986616666914
 30
0.0
 11
1401.490770700343
 21
-416.3946616666917
 31
0.0
  0
LINE
  5
181E7
102
{ACAD_REACTORS
330
181E5
102
}
330
18
100
AcDbEntity
  8
0
 62
     4
100
AcDbLine
 10
1405.495770700342
 20
-419.5986616666914
 30
0.0
 11
1405.736070700342
 21
-417.5961616666918
 31
0.0
  0
LINE
  5
181E8
102
{ACAD_REACTORS
330
181E5
102
}
330
18
100
AcDbEntity
  8
0
 62
     4
100
AcDbLine
 10
1405.896270700342
 20
-416.3946616666917
 30
0.0
 11
1403.092770700342
 21
-417.2757616666922
 31
0.0
  0
CIRCLE
  5
181E9
102
{ACAD_REACTORS
330
181E5
102
}
330
18
100
AcDbEntity
  8
0
 62
     4
100
AcDbCircle
 10
1403.493270700342
 20
-418.1969116666923
 30
0.0
 40
0.6007500000000002
  0
ARC
  5
181EA
102
{ACAD_REACTORS
330
181E5
102
}
330
18
100
AcDbEntity
  8
0
 62
     4
100
AcDbCircle
 10
1403.493270700342
 20
-418.3971616666922
 30
0.0
 40
0.8009999999999999
100
AcDbArc
 50
270.0
 51
90.0
  0
LINE
  5
181EB
102
{ACAD_REACTORS
330
181E5
102
}
330
18
100
AcDbEntity
  8
0
 62
     4
100
AcDbLine
 10
1403.493270700342
 20
-417.5961616666918
 30
0.0
 11
1405.736070700342
 21
-417.5961616666918
 31
0.0
  0
LEADER
  5
181F0
330
18
100
AcDbEntity
  8
寸法
 48
10.0
100
AcDbLeader
  3
STD-I1
 73
     0
 75
     1
 40
3.502538071065989
 41
27.06091370558375
 76
     3
 10
1401.833197298727
 20
-440.1168061041653
 30
0.0
 10
1396.942148464985
 20
-433.3372720708602
 30
0.0
 10
1393.942148464986
 20
-433.3372720708602
 30
0.0
340
181F1
1001
ACAD
1000
DSTYLE
1002
{
1070
   147
1040
0.75
1070
    77
1070
     1
1002
}
  0
MTEXT
  5
181F1
102
{ACAD_REACTORS
330
181F0
102
}
330
18
100
AcDbEntity
  8
寸法
 48
10.0
100
AcDbMText
 10
1366.131234759402
 20
-432.5872720708603
 30
0.0
 40
3.0
 41
0.0
 71
     7
 72
     1
  1
取扱注意ラベル
 73
     1
 44
1.0
  0
LEADER
  5
181F3
330
18
100
AcDbEntity
  8
寸法
 48
10.0
100
AcDbLeader
  3
STD-I1
 73
     0
 75
     1
 40
8.746192893401016
 41
19.30964467005076
 76
     3
 10
1401.833197298724
 20
-426.2500773728029
 30
0.0
 10
1392.555305822757
 20
-418.2531777887998
 30
0.0
 10
1389.555305822757
 20
-418.2531777887998
 30
0.0
340
181F4
1001
ACAD
1000
DSTYLE
1002
{
1070
   147
1040
0.75
1070
    77
1070
     1
1002
}
  0
MTEXT
  5
181F4
102
{ACAD_REACTORS
330
181F3
102
}
330
18
100
AcDbEntity
  8
寸法
 48
10.0
100
AcDbMText
 10
1369.495661152706
 20
-417.5031777887998
 30
0.0
 40
3.0
 41
0.0
 71
     7
 72
     1
  1
合格証\P銘版ラベル
 73
     1
 44
1.0
  0
LEADER
  5
184B9
330
18
100
AcDbEntity
  8
寸法
 48
10.0
100
AcDbLeader
  3
STD-I1
 76
     2
 10
1399.833197298725
 20
-416.7102912319042
 30
0.0
 10
1391.245661152706
 20
-418.2531777887998
 30
0.0
1001
ACAD
1000
DSTYLE
1002
{
1070
   147
1040
0.75
1070
    77
1070
     1
1002
}
  0
DIMENSION
  5
19235
330
18
100
AcDbEntity
  8
寸法
 48
10.0
100
AcDbDimension
  2
*D35
 10
1456.301287145864
 20
-386.9873758523745
 30
0.0
 11
1454.050562107334
 21
-411.4518988523743
 31
0.0
 70
    32
  1
<>（重心位置）
 71
     5
 42
48.92904599999997
  3
STD-I1
100
AcDbAlignedDimension
 13
1444.333197298726
 23
-442.826201747305
 33
0.0
 14
1444.333197298726
 24
-393.897155747305
 34
0.0
 50
90.0
100
AcDbRotatedDimension
1001
ACAD
1000
DSTYLE
1002
{
1070
   271
1070
     2
1002
}
  0
LINE
  5
19242
330
18
100
AcDbEntity
  8
寸法
 48
10.0
100
AcDbLine
 10
1486.833197298726
 20
-436.897155747305
 30
0.0
 11
1401.833197298727
 21
-491.897155747305
 31
0.0
  0
LINE
  5
19243
330
18
100
AcDbEntity
  8
寸法
 48
10.0
100
AcDbLine
 10
1401.833197298727
 20
-436.897155747305
 30
0.0
 11
1486.833197298726
 21
-491.897155747305
 31
0.0
  0
DIMENSION
  5
1924F
330
18
100
AcDbEntity
  8
寸法
 48
10.0
100
AcDbDimension
  2
*D36
 10
1444.333197298737
 20
356.1028442526871
 30
0.0
 11
1430.589347715025
 21
-375.6764449994507
 31
0.0
 70
   164
 71
     5
 42
770.0000000000013
  3
STD-I1
100
AcDbRadialDimension
 15
1429.874058678053
 25
-413.7613861869081
 35
0.0
 40
0.0
1001
ACAD
1000
DSTYLE
1002
{
1070
   279
1070
     1
1002
}
  0
HATCH
  5
19294
102
{ACAD_REACTORS
330
19298
102
}
330
18
100
AcDbEntity
  8
寸法
 62
     1
 48
10.0
100
AcDbHatch
 10
0.0
 20
0.0
 30
0.0
210
0.0
220
0.0
230
1.0
  2
ANSI31
 70
     0
 71
     0
 91
        2
 92
        7
 72
     1
 73
     1
 93
        3
 10
1447.896279264299
 20
-442.8262017473048
 42
0.4142135623730974
 10
1444.333197298726
 20
-439.2631197817327
 42
0.0
 10
1444.333197298726
 20
-442.826201747305
 42
0.0
 97
        0
 92
        7
 72
     1
 73
     1
 93
        3
 10
1444.333197298726
 20
-446.3892837128773
 42
0.0
 10
1444.333197298726
 20
-442.826201747305
 42
0.0
 10
1440.770115333154
 20
-442.826201747305
 42
0.4142135623730998
 97
        0
 75
     0
 76
     1
 52
0.0
 41
1.0
 77
     0
 78
     1
 53
45.0
 43
-169.2858068681623
 44
-49.68556882537882
 45
-0.0883883476483184
 46
0.0883883476483185
 79
     0
 47
0.0442348985010454
 98
        2
 10
1445.781140459678
 20
-441.9036240095531
 10
1441.887447216261
 20
-444.6019533664605
  0
CIRCLE
  5
19295
102
{ACAD_REACTORS
330
19298
102
}
330
18
100
AcDbEntity
  8
寸法
 62
     1
 48
10.0
100
AcDbCircle
 10
1444.333197298726
 20
-442.826201747305
 30
0.0
 40
3.563081965572507
  0
LINE
  5
19296
102
{ACAD_REACTORS
330
19298
102
}
330
18
100
AcDbEntity
  8
中心線
 62
     1
 48
10.0
100
AcDbLine
 10
1451.59803920739
 20
-442.826201747305
 30
0.0
 11
1437.068355390062
 21
-442.826201747305
 31
0.0
  0
LINE
  5
19297
102
{ACAD_REACTORS
330
19298
102
}
330
18
100
AcDbEntity
  8
中心線
 62
     1
 48
10.0
100
AcDbLine
 10
1444.333197298726
 20
-435.279257677875
 30
0.0
 11
1444.333197298726
 21
-450.3731458167351
 31
0.0
  0
LINE
  5
194D2
330
18
100
AcDbEntity
  8
中心線
 62
     1
 48
10.0
100
AcDbLine
 10
1444.333197298724
 20
-384.3525002056243
 30
0.0
 11
1444.333197298724
 21
-502.5035115844111
 31
0.0
  0
LINE
  5
194D3
330
18
100
AcDbEntity
  8
文字
 48
10.0
100
AcDbLine
 10
1422.813443442632
 20
-360.5370787070084
 30
0.0
 11
1422.493013344996
 21
-371.2078792198363
 31
0.0
  0
LINE
  5
19513
102
{ACAD_REACTORS
330
19543
102
}
330
18
100
AcDbEntity
  8
実線
100
AcDbLine
 10
1264.155924581473
 20
-394.1399698461339
 30
0.0
 11
1237.155924581474
 21
-394.1399698461338
 31
0.0
  0
LINE
  5
19514
102
{ACAD_REACTORS
330
19543
102
}
330
18
100
AcDbEntity
  8
実線
100
AcDbLine
 10
1237.155924581474
 20
-393.8971557473051
 30
0.0
 11
1231.255924581474
 21
-393.897155747305
 31
0.0
  0
HATCH
  5
19543
330
18
100
AcDbEntity
  8
寸法
 48
10.0
100
AcDbHatch
 10
0.0
 20
0.0
 30
0.0
210
0.0
220
0.0
230
1.0
  2
ANSI31
 70
     0
 71
     1
 91
        8
 92
        7
 72
     0
 73
     1
 93
        4
 10
1237.155924581473
 20
-393.897155747305
 10
1231.255924581474
 20
-393.897155747305
 10
1231.255924581474
 20
-408.3971557473153
 10
1237.155924581474
 20
-408.3971557473153
 97
        4
330
19514
330
16E90
330
16EA5
330
16EA4
 92
        7
 72
     0
 73
     1
 93
        4
 10
1237.155924581474
 20
-419.3971557473153
 10
1231.255924581474
 20
-419.3971557473152
 10
1231.255924581474
 20
-494.3971557473154
 10
1237.155924581474
 20
-494.3971557473154
 97
        4
330
16EA6
330
16E90
330
16E95
330
16E91
 92
        7
 72
     0
 73
     1
 93
        4
 10
1250.655924581472
 20
-417.1971557473153
 10
1237.155924581474
 20
-417.1971557473153
 10
1237.155924581474
 20
-430.8971557473093
 10
1250.655924581472
 20
-430.8971557473093
 97
        4
330
16EA2
330
16EA4
330
16EA1
330
16E6E
 92
        7
 72
     0
 73
     1
 93
        4
 10
1264.155924581474
 20
-417.1971557473153
 10
1250.655924581472
 20
-417.1971557473153
 10
1250.655924581473
 20
-430.8971557473093
 10
1264.155924581474
 20
-430.8971557473094
 97
        4
330
16EA2
330
16E6E
330
16EA1
330
16EA7
 92
        7
 72
     0
 73
     1
 93
        4
 10
1264.155924581473
 20
-394.1399698461339
 10
1250.655924581472
 20
-394.1399698461338
 10
1250.655924581472
 20
-410.5971557473154
 10
1264.155924581474
 20
-410.5971557473153
 97
        4
330
19513
330
16E6E
330
16EA3
330
16EA7
 92
        7
 72
     0
 73
     1
 93
        4
 10
1250.655924581472
 20
-394.1399698461338
 10
1237.155924581474
 20
-394.1399698461338
 10
1237.155924581474
 20
-410.5971557473155
 10
1250.655924581472
 20
-410.5971557473153
 97
        4
330
19513
330
16EA4
330
16EA3
330
16E6E
 92
        7
 72
     0
 73
     1
 93
        4
 10
1270.055924581474
 20
-393.897155747305
 10
1264.155924581473
 20
-393.897155747305
 10
1264.155924581474
 20
-408.3971557473153
 10
1270.055924581474
 20
-408.3971557473153
 97
        4
330
16E9F
330
16EA7
330
16EAC
330
16E8F
 92
        7
 72
     0
 73
     1
 93
        5
 10
1270.055924581475
 20
-419.3971557473153
 10
1264.155924581474
 20
-419.3971557473153
 10
1264.155924581474
 20
-430.8971557473094
 10
1264.155924581475
 20
-494.3971557473155
 10
1270.055924581474
 20
-494.3971557473156
 97
        5
330
16EAD
330
16EA7
330
16E8E
330
16E97
330
16E8F
 75
     0
 76
     1
 52
0.0
 41
50.0
 77
     0
 78
     1
 53
45.0
 43
0.0
 44
0.0
 45
-4.419417382415921
 46
4.419417382415922
 79
     0
 47
0.1862681813404979
 98
        8
 10
1235.502066430046
 20
-403.6367061184264
 10
1233.079243789088
 20
-426.5476912242193
 10
1244.261474419592
 20
-424.8712760377811
 10
1251.52991982616
 20
-423.9399361377208
 10
1256.748288866589
 20
-408.1071410050462
 10
1242.211398053457
 20
-407.175801104986
 10
1268.862368296919
 20
-404.3817757942552
 10
1267.744151988761
 20
-420.4008411511613
  0
VIEWPORT
  5
23
330
15
100
AcDbEntity
 67
     1
  8
0
100
AcDbViewport
 10
199.9962074039998
 20
144.0038736085732
 30
0.0
 40
580.6012831280168
 41
291.4595263606711
 68
     1
 69
     1
 12
199.9962074039998
 22
144.0038736085732
 13
0.0
 23
0.0
 14
10.0
 24
10.0
 15
10.0
 25
10.0
 16
0.0
 26
0.0
 36
1.0
 17
0.0
 27
0.0
 37
0.0
 42
50.0
 43
0.0
 44
0.0
 45
291.4595263606711
 50
0.0
 51
0.0
 72
 10000
 90
    36864
  1

281
     0
 71
     1
 74
     0
110
0.0
120
0.0
130
0.0
111
1.0
121
0.0
131
0.0
112
0.0
122
1.0
132
0.0
 79
     0
146
0.0
  0
VIEWPORT
  5
2E
330
15
100
AcDbEntity
 67
     1
  8
M_VIEW
100
AcDbViewport
 10
200.0
 20
144.0
 30
0.0
 40
400.0
 41
288.0
 68
     2
 69
     2
 12
1365.772414446893
 22
-477.1592509648933
 13
0.0
 23
0.0
 14
10.0
 24
10.0
 15
10.0
 25
10.0
 16
0.0
 26
0.0
 36
1.0
 17
0.0
 27
0.0
 37
0.0
 42
50.0
 43
0.0
 44
0.0
 45
288.0000031099577
 50
0.0
 51
0.0
 72
 10000
 90
    32768
  1

281
     0
 71
     1
 74
     0
110
0.0
120
0.0
130
0.0
111
1.0
121
0.0
131
0.0
112
0.0
122
1.0
132
0.0
 79
     0
146
0.0
  0
TEXT
  5
2442
330
15
100
AcDbEntity
 67
     1
  8
文字
100
AcDbText
 10
324.1164138233839
 20
6.706161883767663
 30
0.0
 40
6.5
  1
ＳＥ－４２２４２Ａ
  7
まこ
100
AcDbText
  0
TEXT
  5
B6F4
330
15
100
AcDbEntity
 67
     1
  8
実線
100
AcDbText
 10
292.9247407785629
 20
50.22828969396096
 30
0.0
 40
2.5
  1
%%
100
AcDbText
  0
TEXT
  5
195C8
330
15
100
AcDbEntity
 67
     1
  8
寸法
100
AcDbText
 10
232.9704422703009
 20
19.59054218243949
 30
0.0
 40
6.0
  1
τｻｰﾎﾞｺﾝﾊﾟｽ R850 MGﾍﾞｰｽ MBV-CMA850B (6.88°)
100
AcDbText
  0
ENDSEC
  0
SECTION
  2
OBJECTS
  0
DICTIONARY
  5
C
330
0
100
AcDbDictionary
281
     1
  3
ACAD_GROUP
350
D
  3
ACAD_LAYOUT
350
73F
  3
ACAD_MLINESTYLE
350
1B
  3
ACAD_PLOTSETTINGS
350
740
  3
ACAD_PLOTSTYLENAME
350
73D
  3
AcadDim
350
16774
  3
AcDbVariableDictionary
350
11AC
  0
DICTIONARY
  5
16FB8
330
2
100
AcDbDictionary
280
     1
281
     1
  3
ACAD_LAYERFILTERS
360
16FB9
  3
ACAD_LAYERSTATES
360
16FCC
  0
DICTIONARY
  5
D
102
{ACAD_REACTORS
330
C
102
}
330
C
100
AcDbDictionary
281
     1
  3
*A1
350
DCF
  3
*A10
350
174EA
  3
*A100
350
17500
  3
*A101
350
17376
  3
*A102
350
174B5
  3
*A103
350
17501
  3
*A104
350
17502
  3
*A105
350
E31F
  3
*A106
350
116A
  3
*A107
350
17503
  3
*A108
350
17413
  3
*A109
350
17423
  3
*A11
350
173E0
  3
*A110
350
17504
  3
*A111
350
173AC
  3
*A112
350
174B0
  3
*A113
350
1092
  3
*A114
350
964C
  3
*A115
350
173EC
  3
*A116
350
173BF
  3
*A117
350
8226
  3
*A118
350
173A4
  3
*A119
350
17505
  3
*A12
350
173F1
  3
*A120
350
6F78
  3
*A121
350
17506
  3
*A122
350
17507
  3
*A123
350
7C29
  3
*A124
350
174D0
  3
*A125
350
17508
  3
*A126
350
17509
  3
*A127
350
1746A
  3
*A128
350
17379
  3
*A129
350
173A8
  3
*A13
350
173A7
  3
*A130
350
1744D
  3
*A131
350
8189
  3
*A132
350
1784E
  3
*A133
350
49E1
  3
*A134
350
77D2
  3
*A135
350
1077
  3
*A136
350
173F4
  3
*A137
350
9655
  3
*A138
350
17474
  3
*A139
350
174AC
  3
*A14
350
174EB
  3
*A140
350
174B6
  3
*A141
350
A636
  3
*A142
350
17496
  3
*A143
350
1067D
  3
*A144
350
17385
  3
*A145
350
16E67
  3
*A146
350
174D1
  3
*A147
350
17372
  3
*A148
350
821C
  3
*A149
350
33A2
  3
*A15
350
1736E
  3
*A150
350
A3D1
  3
*A151
350
77B9
  3
*A152
350
174B7
  3
*A153
350
2C9E
  3
*A154
350
17377
  3
*A155
350
17497
  3
*A156
350
B358
  3
*A157
350
1737C
  3
*A158
350
173F5
  3
*A159
350
605A
  3
*A16
350
1748E
  3
*A160
350
8217
  3
*A161
350
B349
  3
*A162
350
173AB
  3
*A163
350
1744E
  3
*A164
350
173DF
  3
*A165
350
33BD
  3
*A166
350
1110
  3
*A167
350
81E6
  3
*A168
350
BA00
  3
*A169
350
17498
  3
*A17
350
DCB9
  3
*A170
350
173D6
  3
*A171
350
17386
  3
*A172
350
141E8
  3
*A173
350
10C8
  3
*A174
350
A3B5
  3
*A175
350
E31B
  3
*A176
350
E1F7
  3
*A177
350
173D7
  3
*A178
350
2FF1
  3
*A179
350
174D2
  3
*A18
350
42D1
  3
*A180
350
1744F
  3
*A181
350
10E38
  3
*A182
350
57BE
  3
*A183
350
4AB4
  3
*A184
350
173C0
  3
*A185
350
1743F
  3
*A186
350
17424
  3
*A187
350
137B6
  3
*A188
350
820D
  3
*A189
350
2FF6
  3
*A19
350
173B4
  3
*A190
350
174D3
  3
*A191
350
10689
  3
*A192
350
A623
  3
*A193
350
8809
  3
*A194
350
E1FA
  3
*A195
350
8804
  3
*A196
350
B34C
  3
*A197
350
17450
  3
*A198
350
4F1E
  3
*A199
350
173E5
  3
*A2
350
174CE
  3
*A20
350
17382
  3
*A200
350
5E6E
  3
*A201
350
1741E
  3
*A202
350
173F6
  3
*A203
350
8819
  3
*A204
350
A3EA
  3
*A205
350
B34F
  3
*A206
350
1146
  3
*A207
350
A397
  3
*A208
350
5E62
  3
*A209
350
8187
  3
*A21
350
8813
  3
*A210
350
818C
  3
*A211
350
4214
  3
*A212
350
17490
  3
*A213
350
173B6
  3
*A214
350
173E1
  3
*A215
350
17475
  3
*A216
350
E2AF
  3
*A217
350
81A9
  3
*A218
350
17387
  3
*A219
350
499E
  3
*A22
350
1248D
  3
*A220
350
17425
  3
*A221
350
818B
  3
*A222
350
17499
  3
*A223
350
174CB
  3
*A224
350
174D4
  3
*A225
350
14783
  3
*A226
350
174B8
  3
*A227
350
10D1
  3
*A228
350
173C1
  3
*A229
350
E31D
  3
*A23
350
174EC
  3
*A230
350
173B0
  3
*A231
350
5F9C
  3
*A232
350
10F22
  3
*A233
350
822C
  3
*A234
350
A3BD
  3
*A235
350
174D5
  3
*A236
350
E31E
  3
*A237
350
173B5
  3
*A238
350
174B9
  3
*A239
350
7555
  3
*A24
350
173B9
  3
*A240
350
17426
  3
*A241
350
14827
  3
*A242
350
317C
  3
*A243
350
42D2
  3
*A244
350
173E4
  3
*A245
350
17476
  3
*A246
350
17412
  3
*A247
350
17388
  3
*A248
350
7AE5
  3
*A249
350
606A
  3
*A25
350
7C28
  3
*A250
350
DF9B
  3
*A251
350
1740A
  3
*A252
350
173C2
  3
*A253
350
113D
  3
*A254
350
DE0C
  3
*A255
350
805E
  3
*A256
350
1065
  3
*A257
350
9808
  3
*A258
350
1740B
  3
*A259
350
1736F
  3
*A26
350
174ED
  3
*A260
350
17477
  3
*A261
350
10F24
  3
*A262
350
10D11
  3
*A263
350
141EE
  3
*A264
350
173F7
  3
*A265
350
17469
  3
*A266
350
17451
  3
*A267
350
42C0
  3
*A268
350
10D47
  3
*A269
350
881E
  3
*A27
350
174EE
  3
*A270
350
7556
  3
*A271
350
10EC
  3
*A272
350
17389
  3
*A273
350
5128
  3
*A274
350
137A4
  3
*A275
350
10586
  3
*A276
350
17478
  3
*A277
350
6221
  3
*A278
350
17418
  3
*A279
350
106E8
  3
*A28
350
B340
  3
*A280
350
17427
  3
*A281
350
83B2
  3
*A282
350
7AD2
  3
*A283
350
10EAE
  3
*A284
350
141EA
  3
*A285
350
4A10
  3
*A286
350
8822
  3
*A287
350
5E68
  3
*A288
350
E1F9
  3
*A289
350
141E7
  3
*A29
350
174B2
  3
*A290
350
173EE
  3
*A291
350
17414
  3
*A292
350
1749A
  3
*A293
350
A37F
  3
*A294
350
8818
  3
*A295
350
173C3
  3
*A296
350
512B
  3
*A297
350
17452
  3
*A298
350
1738A
  3
*A299
350
174BA
  3
*A3
350
174E7
  3
*A30
350
174EF
  3
*A300
350
821D
  3
*A301
350
174D6
  3
*A302
350
A3EB
  3
*A303
350
173F8
  3
*A304
350
10AB6
  3
*A305
350
173E8
  3
*A306
350
141E5
  3
*A307
350
8823
  3
*A308
350
2CA5
  3
*A309
350
10A4
  3
*A31
350
174F0
  3
*A310
350
10F23
  3
*A311
350
173ED
  3
*A312
350
174D7
  3
*A313
350
E1FE
  3
*A314
350
17453
  3
*A315
350
E1FC
  3
*A316
350
E685
  3
*A317
350
1739E
  3
*A318
350
17417
  3
*A319
350
1749B
  3
*A32
350
17441
  3
*A320
350
173C4
  3
*A321
350
4980
  3
*A322
350
A99C
  3
*A323
350
B352
  3
*A324
350
17439
  3
*A325
350
173F9
  3
*A326
350
2FF7
  3
*A327
350
B355
  3
*A328
350
57BD
  3
*A329
350
5D38
  3
*A33
350
141E6
  3
*A330
350
1743A
  3
*A331
350
173AD
  3
*A332
350
E102
  3
*A333
350
A38F
  3
*A334
350
1415D
  3
*A335
350
498F
  3
*A336
350
17428
  3
*A337
350
1748F
  3
*A338
350
17479
  3
*A339
350
8072
  3
*A34
350
A387
  3
*A340
350
A383
  3
*A341
350
8805
  3
*A342
350
5DE0
  3
*A343
350
173C5
  3
*A344
350
6F77
  3
*A345
350
106DC
  3
*A346
350
81B8
  3
*A347
350
1749C
  3
*A348
350
965C
  3
*A349
350
17446
  3
*A35
350
5C9F
  3
*A350
350
17454
  3
*A351
350
1738B
  3
*A352
350
8814
  3
*A353
350
806F
  3
*A354
350
8212
  3
*A355
350
880F
  3
*A356
350
A3C5
  3
*A357
350
17380
  3
*A358
350
49C7
  3
*A359
350
E319
  3
*A36
350
17420
  3
*A360
350
17442
  3
*A361
350
174BB
  3
*A362
350
E1FD
  3
*A363
350
A61E
  3
*A364
350
173FA
  3
*A365
350
10BF
  3
*A366
350
1747A
  3
*A367
350
173C6
  3
*A368
350
2FE2
  3
*A369
350
49C1
  3
*A37
350
174F1
  3
*A370
350
5E65
  3
*A371
350
17429
  3
*A372
350
81E1
  3
*A373
350
1741A
  3
*A374
350
A628
  3
*A375
350
1738C
  3
*A376
350
A3CD
  3
*A377
350
E1F8
  3
*A378
350
1158
  3
*A379
350
1741F
  3
*A38
350
174F2
  3
*A380
350
57BC
  3
*A381
350
1747B
  3
*A382
350
17373
  3
*A383
350
10FAF
  3
*A384
350
173D8
  3
*A385
350
17445
  3
*A386
350
174BC
  3
*A387
350
173FB
  3
*A388
350
106C1
  3
*A389
350
3305
  3
*A39
350
9807
  3
*A390
350
17463
  3
*A391
350
1742A
  3
*A392
350
10B6
  3
*A393
350
2C9A
  3
*A394
350
E101
  3
*A395
350
2CA6
  3
*A396
350
17464
  3
*A397
350
173E6
  3
*A398
350
10FE
  3
*A399
350
818A
  3
*A4
350
B346
  3
*A40
350
17383
  3
*A400
350
17455
  3
*A401
350
174B1
  3
*A402
350
1749D
  3
*A403
350
1738D
  3
*A404
350
4998
  3
*A405
350
A3C9
  3
*A406
350
8221
  3
*A407
350
1704D
  3
*A408
350
499B
  3
*A409
350
880A
  3
*A41
350
106E0
  3
*A410
350
174BD
  3
*A411
350
8213
  3
*A412
350
1746F
  3
*A413
350
1747C
  3
*A414
350
173C7
  3
*A415
350
6400
  3
*A416
350
A3B9
  3
*A417
350
173A2
  3
*A418
350
6062
  3
*A419
350
8375
  3
*A42
350
173BD
  3
*A420
350
1122
  3
*A421
350
7C2A
  3
*A422
350
1746B
  3
*A423
350
174D8
  3
*A424
350
1412D
  3
*A425
350
339E
  3
*A426
350
1742B
  3
*A427
350
17378
  3
*A428
350
1749E
  3
*A429
350
33BA
  3
*A43
350
49DB
  3
*A430
350
5E5F
  3
*A431
350
105A3
  3
*A432
350
64A9
  3
*A433
350
2A28
  3
*A434
350
17448
  3
*A435
350
5E04
  3
*A436
350
173C8
  3
*A437
350
1738E
  3
*A438
350
1738F
  3
*A439
350
17390
  3
*A44
350
1744C
  3
*A440
350
17391
  3
*A441
350
1749F
  3
*A442
350
173B1
  3
*A443
350
17392
  3
*A444
350
1740C
  3
*A445
350
1746E
  3
*A446
350
174D9
  3
*A447
350
1742C
  3
*A448
350
1737D
  3
*A449
350
17393
  3
*A45
350
17489
  3
*A450
350
17456
  3
*A451
350
141EB
  3
*A452
350
E1FB
  3
*A453
350
17394
  3
*A454
350
17395
  3
*A455
350
1748A
  3
*A456
350
17419
  3
*A457
350
141ED
  3
*A458
350
137AD
  3
*A459
350
1747D
  3
*A46
350
174CF
  3
*A460
350
174BE
  3
*A461
350
173C9
  3
*A462
350
64A1
  3
*A463
350
13789
  3
*A464
350
17396
  3
*A465
350
57BA
  3
*A466
350
1704C
  3
*A467
350
17397
  3
*A468
350
174DA
  3
*A469
350
822B
  3
*A47
350
17494
  3
*A470
350
174A0
  3
*A471
350
173FC
  3
*A472
350
10AD
  3
*A473
350
A635
  3
*A474
350
173DC
  3
*A475
350
17398
  3
*A476
350
17399
  3
*A477
350
1739A
  3
*A478
350
1739B
  3
*A479
350
17491
  3
*A48
350
174F3
  3
*A480
350
A37B
  3
*A481
350
1379B
  3
*A482
350
17457
  3
*A483
350
5CA6
  3
*A484
350
174BF
  3
*A485
350
81E4
  3
*A486
350
17AC7
  3
*A487
350
17AC8
  3
*A488
350
7AF2
  3
*A489
350
17AC9
  3
*A49
350
17471
  3
*A490
350
57BF
  3
*A491
350
173FD
  3
*A492
350
17ACA
  3
*A493
350
17D2B
  3
*A494
350
17D33
  3
*A495
350
17D4F
  3
*A496
350
174C0
  3
*A497
350
173E9
  3
*A498
350
17D65
  3
*A499
350
1743B
  3
*A5
350
17493
  3
*A50
350
174F4
  3
*A500
350
17458
  3
*A501
350
173BA
  3
*A502
350
17D66
  3
*A503
350
DCC3
  3
*A504
350
5DC8
  3
*A505
350
77C8
  3
*A506
350
17D9A
  3
*A507
350
17D9C
  3
*A508
350
174AD
  3
*A509
350
17447
  3
*A51
350
4A14
  3
*A510
350
17DAD
  3
*A511
350
174A1
  3
*A512
350
174DB
  3
*A513
350
173FE
  3
*A514
350
17DB2
  3
*A515
350
17DD1
  3
*A516
350
17E3E
  3
*A517
350
13792
  3
*A518
350
173A1
  3
*A519
350
17E3F
  3
*A52
350
174F5
  3
*A520
350
17E50
  3
*A521
350
174C1
  3
*A522
350
1742D
  3
*A523
350
14890
  3
*A524
350
17E51
  3
*A525
350
820E
  3
*A526
350
10636
  3
*A527
350
17E81
  3
*A528
350
17E92
  3
*A529
350
1739F
  3
*A53
350
174B3
  3
*A530
350
2FE8
  3
*A531
350
8227
  3
*A532
350
1747E
  3
*A533
350
3487
  3
*A534
350
174DC
  3
*A535
350
1069F
  3
*A536
350
173CA
  3
*A537
350
173CB
  3
*A538
350
10684
  3
*A539
350
173CC
  3
*A54
350
A637
  3
*A540
350
49A1
  3
*A541
350
173CD
  3
*A542
350
173CE
  3
*A543
350
8062
  3
*A544
350
173CF
  3
*A545
350
174DD
  3
*A546
350
1741B
  3
*A547
350
173D0
  3
*A548
350
17465
  3
*A549
350
1747F
  3
*A55
350
B343
  3
*A550
350
1064E
  3
*A551
350
1107
  3
*A552
350
A38B
  3
*A553
350
5134
  3
*A554
350
173A0
  3
*A555
350
4ABC
  3
*A556
350
174CC
  3
*A557
350
17470
  3
*A558
350
173D1
  3
*A559
350
174C2
  3
*A56
350
4995
  3
*A560
350
1742E
  3
*A561
350
173D2
  3
*A562
350
49E4
  3
*A563
350
137C8
  3
*A564
350
5E1D
  3
*A565
350
173DB
  3
*A566
350
173D3
  3
*A567
350
10FB0
  3
*A568
350
174DE
  3
*A569
350
17459
  3
*A57
350
112B
  3
*A570
350
173D4
  3
*A571
350
5DEC
  3
*A572
350
173D5
  3
*A573
350
10F5
  3
*A574
350
5E34
  3
*A575
350
173D9
  3
*A576
350
173A9
  3
*A577
350
5E6B
  3
*A578
350
174A2
  3
*A579
350
2FE9
  3
*A58
350
174F6
  3
*A580
350
64A5
  3
*A581
350
173FF
  3
*A582
350
17400
  3
*A583
350
5E4A
  3
*A584
350
17401
  3
*A585
350
83DB
  3
*A586
350
17402
  3
*A587
350
17403
  3
*A588
350
8222
  3
*A589
350
17404
  3
*A59
350
174F7
  3
*A590
350
17449
  3
*A591
350
17405
  3
*A592
350
1748B
  3
*A593
350
174A3
  3
*A594
350
1089
  3
*A595
350
137D1
  3
*A596
350
10E39
  3
*A597
350
7AC6
  3
*A598
350
173DA
  3
*A599
350
141EC
  3
*A6
350
174E8
  3
*A60
350
17495
  3
*A600
350
328C
  3
*A601
350
174DF
  3
*A602
350
1745A
  3
*A603
350
17406
  3
*A604
350
8051
  3
*A605
350
317D
  3
*A606
350
106E
  3
*A607
350
1740F
  3
*A608
350
17407
  3
*A609
350
57BB
  3
*A61
350
174F8
  3
*A610
350
17480
  3
*A611
350
17408
  3
*A612
350
5DD4
  3
*A613
350
17409
  3
*A614
350
E684
  3
*A615
350
980E
  3
*A616
350
17EC4
  3
*A617
350
173E2
  3
*A618
350
18164
  3
*A619
350
174C3
  3
*A62
350
5D44
  3
*A620
350
1737A
  3
*A621
350
18165
  3
*A622
350
18166
  3
*A623
350
17381
  3
*A624
350
18167
  3
*A625
350
106D4
  3
*A626
350
18168
  3
*A627
350
18183
  3
*A628
350
1740D
  3
*A629
350
4F1D
  3
*A63
350
17472
  3
*A630
350
1742F
  3
*A631
350
174AE
  3
*A632
350
5F9B
  3
*A633
350
17430
  3
*A634
350
83B1
  3
*A635
350
57B9
  3
*A636
350
17374
  3
*A637
350
17431
  3
*A638
350
17432
  3
*A639
350
17433
  3
*A64
350
174F9
  3
*A640
350
17481
  3
*A641
350
5DF8
  3
*A642
350
17434
  3
*A643
350
17435
  3
*A644
350
DF9C
  3
*A645
350
1743E
  3
*A646
350
173AA
  3
*A647
350
1740E
  3
*A648
350
174A4
  3
*A649
350
10678
  3
*A65
350
5E55
  3
*A650
350
8065
  3
*A651
350
173A5
  3
*A652
350
17436
  3
*A653
350
4ABD
  3
*A654
350
17415
  3
*A655
350
512A
  3
*A656
350
174E0
  3
*A657
350
173B7
  3
*A658
350
17437
  3
*A659
350
10DA
  3
*A66
350
173BE
  3
*A660
350
4986
  3
*A661
350
9650
  3
*A662
350
17438
  3
*A663
350
17370
  3
*A664
350
1743C
  3
*A665
350
49DE
  3
*A666
350
1745B
  3
*A667
350
174CD
  3
*A668
350
5E29
  3
*A669
350
1745C
  3
*A67
350
A3C1
  3
*A670
350
3289
  3
*A671
350
173B2
  3
*A672
350
1745D
  3
*A673
350
1745E
  3
*A674
350
1745F
  3
*A675
350
174A5
  3
*A676
350
980D
  3
*A677
350
498C
  3
*A678
350
4AB1
  3
*A679
350
3183
  3
*A68
350
17468
  3
*A680
350
173E3
  3
*A681
350
1743D
  3
*A682
350
4AA4
  3
*A683
350
49CA
  3
*A684
350
1134
  3
*A685
350
173DE
  3
*A686
350
17460
  3
*A687
350
10D15
  3
*A688
350
17443
  3
*A689
350
17375
  3
*A69
350
174FA
  3
*A690
350
173EF
  3
*A691
350
17461
  3
*A692
350
33B9
  3
*A693
350
5129
  3
*A694
350
1737E
  3
*A695
350
17462
  3
*A696
350
173AE
  3
*A697
350
17466
  3
*A698
350
137BF
  3
*A699
350
17482
  3
*A7
350
174E9
  3
*A70
350
13777
  3
*A700
350
17483
  3
*A701
350
10D0F
  3
*A702
350
173EA
  3
*A703
350
17484
  3
*A704
350
17485
  3
*A705
350
17486
  3
*A706
350
174C4
  3
*A707
350
10EAF
  3
*A708
350
10E2E
  3
*A709
350
5133
  3
*A71
350
A9D2
  3
*A710
350
17416
  3
*A711
350
17467
  3
*A712
350
339B
  3
*A713
350
4AAE
  3
*A714
350
1080
  3
*A715
350
17411
  3
*A716
350
17487
  3
*A717
350
4992
  3
*A718
350
1746C
  3
*A719
350
173B3
  3
*A72
350
17421
  3
*A720
350
2FE3
  3
*A721
350
1161
  3
*A722
350
5E3F
  3
*A723
350
173BB
  3
*A724
350
17488
  3
*A725
350
173E7
  3
*A726
350
1748C
  3
*A727
350
106A1
  3
*A728
350
18556
  3
*A729
350
18558
  3
*A73
350
173A6
  3
*A730
350
1741C
  3
*A731
350
18559
  3
*A732
350
18A0C
  3
*A733
350
1909D
  3
*A734
350
174E1
  3
*A735
350
19188
  3
*A736
350
19189
  3
*A737
350
1918A
  3
*A738
350
B307
  3
*A739
350
1918B
  3
*A74
350
13780
  3
*A740
350
1918C
  3
*A741
350
1918D
  3
*A742
350
17440
  3
*A743
350
1918E
  3
*A744
350
1918F
  3
*A745
350
1457D
  3
*A746
350
19196
  3
*A747
350
19197
  3
*A748
350
191AE
  3
*A749
350
191B4
  3
*A75
350
173F2
  3
*A750
350
191ED
  3
*A751
350
174A6
  3
*A752
350
191F3
  3
*A753
350
19211
  3
*A754
350
174AF
  3
*A755
350
65A8
  3
*A756
350
1744A
  3
*A757
350
19234
  3
*A758
350
19298
  3
*A759
350
194A7
  3
*A76
350
174FB
  3
*A760
350
194A8
  3
*A761
350
194A9
  3
*A762
350
174A7
  3
*A763
350
174A8
  3
*A764
350
174A9
  3
*A765
350
3286
  3
*A766
350
E318
  3
*A767
350
A393
  3
*A768
350
1119
  3
*A769
350
14860
  3
*A77
350
4A97
  3
*A770
350
17444
  3
*A771
350
1748D
  3
*A772
350
BCEC
  3
*A773
350
1737B
  3
*A774
350
174AA
  3
*A775
350
4A96
  3
*A776
350
173EB
  3
*A777
350
E31C
  3
*A778
350
881D
  3
*A779
350
880E
  3
*A78
350
17473
  3
*A780
350
109B
  3
*A781
350
174C5
  3
*A782
350
106D5
  3
*A783
350
174AB
  3
*A784
350
4983
  3
*A785
350
174C6
  3
*A786
350
174C7
  3
*A787
350
174C8
  3
*A788
350
17371
  3
*A789
350
141E9
  3
*A79
350
49C4
  3
*A790
350
64AD
  3
*A791
350
A9D3
  3
*A792
350
1746D
  3
*A793
350
12454
  3
*A794
350
E2B0
  3
*A795
350
173B8
  3
*A796
350
174C9
  3
*A797
350
619C
  3
*A798
350
1741D
  3
*A799
350
10E3
  3
*A8
350
A9A1
  3
*A80
350
1739C
  3
*A800
350
173A3
  3
*A801
350
114F
  3
*A802
350
1737F
  3
*A803
350
174CA
  3
*A804
350
42BF
  3
*A805
350
19559
  3
*A806
350
174E2
  3
*A807
350
174E3
  3
*A808
350
174E4
  3
*A809
350
173AF
  3
*A81
350
7AE6
  3
*A810
350
10DCF
  3
*A811
350
4989
  3
*A812
350
17492
  3
*A813
350
DCBE
  3
*A814
350
147F8
  3
*A815
350
173F0
  3
*A816
350
174E5
  3
*A817
350
31CE
  3
*A818
350
1744B
  3
*A819
350
E31A
  3
*A82
350
10DCE
  3
*A820
350
173DD
  3
*A821
350
173BC
  3
*A822
350
174E6
  3
*A823
350
3398
  3
*A83
350
174FC
  3
*A84
350
174FD
  3
*A85
350
174FE
  3
*A86
350
8218
  3
*A87
350
1739D
  3
*A88
350
8043
  3
*A89
350
174B4
  3
*A9
350
9656
  3
*A90
350
10EAD
  3
*A91
350
17422
  3
*A92
350
174FF
  3
*A93
350
1736D
  3
*A94
350
10FAE
  3
*A95
350
17384
  3
*A96
350
17410
  3
*A97
350
173F3
  3
*A98
350
3522
  3
*A99
350
DC69
  0
DICTIONARY
  5
73F
102
{ACAD_REACTORS
330
C
102
}
330
C
100
AcDbDictionary
281
     1
  3
Model
350
741
  3
ﾚｲｱｳﾄ1
350
742
  0
DICTIONARY
  5
1B
102
{ACAD_REACTORS
330
C
102
}
330
C
100
AcDbDictionary
281
     1
  3
STANDARD
350
1C
  0
DICTIONARY
  5
740
102
{ACAD_REACTORS
330
C
102
}
330
C
100
AcDbDictionary
281
     1
  0
ACDBDICTIONARYWDFLT
  5
73D
102
{ACAD_REACTORS
330
C
102
}
330
C
100
AcDbDictionary
281
     1
  3
Normal
350
73E
100
AcDbDictionaryWithDefault
340
73E
  0
XRECORD
  5
16774
102
{ACAD_REACTORS
330
C
102
}
330
C
100
AcDbXrecord
280
     1
 90
   990106
  3
OPEN
 60
     0
 61
     0
 62
     4
 63
     4
 64
     1
 65
     0
 66
     1
 67
     3
 68
     0
 69
     1
 70
     0
 71
     0
 72
     0
 40
0.0
170
     0
340
181F1
  0
DICTIONARY
  5
11AC
102
{ACAD_REACTORS
330
C
102
}
330
C
100
AcDbDictionary
281
     1
  3
DIMASSOC
350
11AD
  3
SORTENTS
350
B4C6
  0
DICTIONARY
  5
16FB9
102
{ACAD_REACTORS
330
16FB8
102
}
330
16FB8
100
AcDbDictionary
280
     1
281
     1
  3
-pegc
360
18201
  3
0
360
16FBA
  3
00'S
360
18202
  3
00aok
360
18203
  3
00OK
360
18204
  3
03
360
18205
  3
06
360
18206
  3
06siki
360
18207
  3
06siki2
360
18208
  3
07
360
18209
  3
09
360
1820A
  3
1
360
1820B
  3
1- ALL LAYERS
360
1820C
  3
10
360
1820D
  3
10-FRAME
360
1820E
  3
100
360
1820F
  3
100layer
360
18210
  3
101
360
18211
  3
11
360
16FBB
  3
11-EQUIP
360
18212
  3
12-PIPE
360
18213
  3
1248A-163
360
18214
  3
1316A-161
360
18215
  3
14-6
360
18216
  3
150_
360
16FBC
  3
153
360
18217
  3
160_
360
16FBD
  3
170_
360
16FBE
  3
171_
360
16FBF
  3
192 Scale
360
18218
  3
1ST FLOOR
360
18219
  3
1階建具キープラン
360
1821A
  3
1階平面図
360
1821B
  3
2
360
1821C
  3
20
360
1821D
  3
253
360
1821E
  3
254
360
1821F
  3
2floor office
360
18220
  3
2LAYER
360
18221
  3
2nd floor
360
18222
  3
2階平面図
360
18223
  3
2階平面図キープラン
360
18224
  3
3
360
18225
  3
30
360
18226
  3
300
360
18227
  3
300layer
360
18228
  3
350_
360
16FC0
  3
3a
360
18229
  3
3D
360
1822A
  3
4
360
16FC1
  3
40
360
1822B
  3
400
360
1822C
  3
44
360
1822D
  3
4a
360
1822E
  3
5
360
16FC2
  3
50
360
1822F
  3
500
360
18230
  3
50ayer
360
18231
  3
50LAYER
360
18232
  3
50off
360
18233
  3
54
360
18234
  3
540a
360
18235
  3
540ab
360
18236
  3
540b
360
18237
  3
540C
360
18238
  3
540cd
360
18239
  3
540d
360
1823A
  3
54NW
360
1823B
  3
56
360
1823C
  3
57加工件
360
1823D
  3
57標準件
360
1823E
  3
58
360
1823F
  3
58J
360
18240
  3
58NW
360
18241
  3
6
360
18242
  3
60
360
18243
  3
60FB
360
18244
  3
60HVM
360
18245
  3
60SU
360
18246
  3
62SU
360
18247
  3
64 Scale
360
18248
  3
65
360
18249
  3
655
360
1824A
  3
7
360
16FC3
  3
70
360
1824B
  3
7a
360
1824C
  3
8
360
1824D
  3
80
360
1824E
  3
81514加工件
360
1824F
  3
81標準件
360
18250
  3
9
360
18251
  3
901101
360
18252
  3
973 fab
360
18253
  3
\U+C0AC\U+C6A9
360
18254
  3
\U+D50C\U+B85C\U+D130 \U+C791\U+C5C5\U+CE35
360
18255
  3
\U+D604\U+C7AC \U+C791\U+C5C5\U+CE35
360
18256
  3
\U+D604\U+C7AC \U+C7A0\U+AE08
360
18257
  3
\U+F770煎攪 濛機類
360
18258
  3
\U+F7A3營 濡\U+65CE
360
18259
  3
\U+F7A3營 濛機類
360
1825A
  3
_
360
1825B
  3
_Demolition_
360
1825C
  3
_Existing_
360
1825D
  3
_New Work_
360
1825E
  3
A
360
1825F
  3
A-
360
18260
  3
A-ANNO-REVS
360
18261
  3
A-Gfa
360
18262
  3
a-roof
360
18263
  3
A-WALL
360
18264
  3
A1
360
18265
  3
A10
360
18266
  3
A12
360
18267
  3
A13
360
18268
  3
A19
360
18269
  3
A20
360
1826A
  3
a22
360
1826B
  3
A22 ASSEMBLY
360
1826C
  3
A23
360
1826D
  3
A24
360
1826E
  3
aa
360
1826F
  3
AC-CORP
360
18270
  3
AC-LAYERS
360
18271
  3
ACL
360
18272
  3
Active vp Frozen
360
18273
  3
Active vp Thawed
360
18274
  3
Active-Inactive-Freeze
360
18275
  3
ADI
360
18276
  3
ADJ
360
18277
  3
aeq
360
18278
  3
AEQ60HVM
360
18279
  3
AEQACNW
360
1827A
  3
AEQFI
360
1827B
  3
AEQFIFU
360
1827C
  3
AEQMO
360
1827D
  3
afl
360
1827E
  3
AGUA Y DREN
360
1827F
  3
ALL
360
18280
  3
all frozen
360
18281
  3
All Levels
360
18282
  3
All Phases
360
18283
  3
AM
360
18284
  3
amarillo
360
18285
  3
ame-aoe
360
18286
  3
AMHS
360
18287
  3
amz
360
18288
  3
ANO
360
18289
  3
APFREEZE
360
1828A
  3
ARCH-NEW
360
1828B
  3
ARCH-REMOVAL
360
1828C
  3
Architectural
360
1828D
  3
ARE
360
1828E
  3
area
360
1828F
  3
area pattern
360
18290
  3
ARR
360
18291
  3
AS-
360
18292
  3
AS-MAST_AS1-
360
18293
  3
ASDFCA
360
18294
  3
AWAFU
360
18295
  3
AX
360
18296
  3
B
360
18297
  3
B10
360
18298
  3
B13
360
18299
  3
B15
360
1829A
  3
B16
360
1829B
  3
B17
360
1829C
  3
B19
360
1829D
  3
B21
360
1829E
  3
B29
360
1829F
  3
B32
360
182A0
  3
B34
360
182A1
  3
BASE
360
182A2
  3
BASEMENT
360
182A3
  3
beh
360
182A4
  3
behn
360
182A5
  3
BIN
360
182A6
  3
BLACK
360
182A7
  3
blue
360
182A8
  3
bmlite
360
182A9
  3
Bridge
360
182AA
  3
brown
360
182AB
  3
Building Layers
360
182AC
  3
C
360
182AD
  3
c5
360
182AE
  3
CASE ERECTOR
360
182AF
  3
cc
360
182B0
  3
CENTER
360
182B1
  3
CENTERLINES
360
182B2
  3
chairs
360
182B3
  3
change
360
182B4
  3
che
360
182B5
  3
CHECK PARTS
360
182B6
  3
Civil
360
182B7
  3
clg layers
360
182B8
  3
closeoff
360
182B9
  3
Color
360
182BA
  3
color 210
360
182BB
  3
color 250
360
182BC
  3
color 31
360
182BD
  3
COLOR 44
360
182BE
  3
COLOR25
360
182BF
  3
COLOR7
360
182C0
  3
COLOR8
360
182C1
  3
COLOR9
360
182C2
  3
com
360
182C3
  3
CONJUNTO
360
182C4
  3
CONTOURS
360
182C5
  3
conveyor
360
182C6
  3
conveyors
360
182C7
  3
cyan
360
182C8
  3
d&p
360
182C9
  3
D's
360
182CA
  3
d1cbk
360
182CB
  3
D21-D41-F31
360
182CC
  3
D21-D41-F31OFF
360
182CD
  3
DEFPOINTS
360
182CE
  3
DEMO
360
182CF
  3
det's
360
182D0
  3
DET-
360
182D1
  3
DETAILED TOOLS
360
182D2
  3
details
360
182D3
  3
DIM
360
182D4
  3
DIM-NOTES
360
182D5
  3
DIM50
360
182D6
  3
DIMS
360
182D7
  3
DM
360
182D8
  3
dm00q3
360
182D9
  3
DONOTERASE
360
182DA
  3
door
360
182DB
  3
door-iden
360
182DC
  3
doors
360
182DD
  3
DOR-H
360
182DE
  3
drain
360
182DF
  3
DX
360
182E0
  3
e
360
182E1
  3
E0
360
182E2
  3
E10
360
182E3
  3
E11
360
182E4
  3
E12
360
182E5
  3
E13
360
182E6
  3
E14
360
182E7
  3
E15
360
182E8
  3
E16
360
182E9
  3
E17
360
182EA
  3
E18
360
182EB
  3
E19
360
182EC
  3
E51
360
182ED
  3
E52
360
182EE
  3
E54
360
182EF
  3
E55
360
182F0
  3
E56
360
182F1
  3
E58
360
182F2
  3
E63
360
182F3
  3
ELEC
360
182F4
  3
ELEC-NEW
360
182F5
  3
ELEC-REMOVAL
360
182F6
  3
elect
360
182F7
  3
ELECTRIC
360
182F8
  3
Electrical
360
182F9
  3
ELECTRICO
360
182FA
  3
ELEVATOR-CHECK
360
182FB
  3
EQUIPMENT
360
182FC
  3
ETCH FAB
360
182FD
  3
EXH
360
182FE
  3
f
360
182FF
  3
F10
360
18300
  3
F15
360
18301
  3
F16
360
18302
  3
F17
360
18303
  3
F18
360
18304
  3
F19
360
18305
  3
F22
360
18306
  3
F23
360
18307
  3
F24 ASSEMBLY
360
18308
  3
f26
360
18309
  3
F27
360
1830A
  3
F29
360
1830B
  3
F30
360
1830C
  3
F34
360
1830D
  3
FAB
360
1830E
  3
FAB TOOLS
360
1830F
  3
FD
360
18310
  3
Fill
360
18311
  3
Finish
360
18312
  3
Fire
360
18313
  3
fix
360
18314
  3
FLEXLINK
360
18315
  3
floor
360
18316
  3
floor2
360
18317
  3
floor3
360
18318
  3
floor5
360
18319
  3
FLOW
360
1831A
  3
fpc
360
1831B
  3
FPREQ
360
1831C
  3
Fr
360
1831D
  3
FRAME
360
1831E
  3
FREEZE
360
1831F
  3
Freeze-Thaw
360
18320
  3
front
360
18321
  3
FROZE
360
18322
  3
frozen
360
18323
  3
FROZZED
360
18324
  3
frz
360
18325
  3
frzn
360
18326
  3
fu
360
18327
  3
FURNITURE
360
18328
  3
furniture layers
360
18329
  3
FUTURE
360
1832A
  3
G-REV
360
1832B
  3
G_CUT
360
1832C
  3
gasline
360
1832D
  3
GEN7A
360
1832E
  3
General
360
1832F
  3
GG
360
18330
  3
GRAY
360
18331
  3
GRAYS
360
18332
  3
green
360
18333
  3
grid
360
18334
  3
Grids
360
18335
  3
GRIDTXT
360
18336
  3
guides
360
18337
  3
HAISEN
360
18338
  3
HATCH
360
18339
  3
HID
360
1833A
  3
HIDDEN
360
1833B
  3
hidden lines
360
1833C
  3
hidden lines-2
360
1833D
  3
HOSE
360
1833E
  3
HVM
360
1833F
  3
Hytrol Layers
360
18340
  3
I
360
18341
  3
IDEN
360
18342
  3
ILLUSTRATOR
360
18343
  3
int
360
18344
  3
Interior
360
18345
  3
Invisible
360
18346
  3
IPM
360
18347
  3
Item
360
18348
  3
j
360
18349
  3
JIZNI
360
1834A
  3
jkhg8
360
1834B
  3
KABESHIN
360
1834C
  3
kerb
360
1834D
  3
key
360
1834E
  3
kiseki
360
16FC4
  3
L1
360
1834F
  3
L10
360
18350
  3
L11
360
18351
  3
L11P
360
18352
  3
L12
360
18353
  3
L13
360
18354
  3
L15 ASSEMBLY
360
18355
  3
L16
360
18356
  3
L18
360
18357
  3
L2
360
18358
  3
L21
360
18359
  3
L78
360
1835A
  3
laa
360
1835B
  3
Land Design
360
1835C
  3
LAY OFF
360
1835D
  3
lay-dwg-off
360
1835E
  3
lay-grid-off
360
1835F
  3
LAYER
360
18360
  3
LAYER FREEZE
360
18361
  3
LAYER ON
360
18362
  3
Layers on
360
18363
  3
length
360
18364
  3
Level 1
360
18365
  3
Level 2
360
18366
  3
Level 3
360
18367
  3
Level 4
360
18368
  3
level floor
360
18369
  3
level platform
360
1836A
  3
LEVEL4
360
1836B
  3
lift frame
360
1836C
  3
LIGHTING
360
1836D
  3
lighting stuff
360
1836E
  3
lights
360
1836F
  3
LOCK
360
18370
  3
LRC-FT-NOS-LAM
360
18371
  3
LRP
360
18372
  3
M
360
18373
  3
m-
360
18374
  3
M-EQPM
360
18375
  3
M-WALL
360
18376
  3
M31
360
18377
  3
M31FROZE
360
18378
  3
M500-SERIES
360
18379
  3
MA
360
1837A
  3
magenta
360
1837B
  3
Magneta
360
1837C
  3
many
360
1837D
  3
MBND
360
1837E
  3
mdi
360
1837F
  3
MECH
360
18380
  3
MECH-NEW
360
18381
  3
MECH-REMOVAL
360
18382
  3
mechanical
360
18383
  3
Mechnical
360
18384
  3
MEDIUM BLACK
360
18385
  3
MEST BRUGTE
360
18386
  3
MEST BRUGTE LAG
360
18387
  3
mike
360
18388
  3
mike1
360
18389
  3
MPR
360
1838A
  3
mprhv
360
1838B
  3
N5000-137
360
1838C
  3
new
360
1838D
  3
NEW-N
360
1838E
  3
NEW1
360
1838F
  3
NF
360
18390
  3
NonPlot
360
18391
  3
NORMAL
360
18392
  3
NOTE
360
18393
  3
NOTES
360
18394
  3
NOTES-DIM
360
18395
  3
NR
360
18396
  3
NUBE
360
18397
  3
NUM
360
18398
  3
number
360
18399
  3
nvd
360
1839A
  3
NW
360
1839B
  3
O
360
1839C
  3
OBJ
360
1839D
  3
OFF
360
1839E
  3
OFF and Thawed
360
1839F
  3
old
360
183A0
  3
ON
360
183A1
  3
On and Frozen
360
183A2
  3
On and Thawed
360
183A3
  3
On Off
360
183A4
  3
On-Off
360
183A5
  3
ON-thaw
360
183A6
  3
On-THAWED
360
183A7
  3
ON_OFF
360
183A8
  3
Outline
360
183A9
  3
p
360
183AA
  3
p&d
360
183AB
  3
panel
360
183AC
  3
paref
360
183AD
  3
parefn
360
183AE
  3
PATT
360
183AF
  3
PBASE
360
183B0
  3
PEGC
360
183B1
  3
PEGCT
360
183B2
  3
PENO
360
183B3
  3
PF
360
183B4
  3
PFISS
360
183B5
  3
pgear
360
183B6
  3
PGRID
360
183B7
  3
PGRIDT
360
183B8
  3
phase
360
183B9
  3
Phase 1
360
183BA
  3
Phase 2
360
183BB
  3
Phase 3
360
183BC
  3
Phase 4
360
183BD
  3
PIPING
360
183BE
  3
pl
360
183BF
  3
plan layers
360
183C0
  3
PLANTAS
360
183C1
  3
plenum
360
183C2
  3
PLOT
360
183C3
  3
Plumbing
360
183C4
  3
PRI-1
360
183C5
  3
PRI-2
360
183C6
  3
PRI-3
360
183C7
  3
PRI-4
360
183C8
  3
PRI-5
360
183C9
  3
PRI-Aero
360
183CA
  3
print
360
183CB
  3
PRJC
360
183CC
  3
process
360
183CD
  3
PT
360
183CE
  3
pur
360
183CF
  3
PURCHASED
360
183D0
  3
PVGRID
360
183D1
  3
Q
360
183D2
  3
qt
360
183D3
  3
RED
360
183D4
  3
REF
360
183D5
  3
REMOVAL
360
183D6
  3
rev
360
183D7
  3
room
360
183D8
  3
ROOMS
360
183D9
  3
S-GRID
360
183DA
  3
S10
360
183DB
  3
S11
360
183DC
  3
S12
360
183DD
  3
s13
360
183DE
  3
S14
360
183DF
  3
S16
360
183E0
  3
S17
360
183E1
  3
S18
360
183E2
  3
S51
360
183E3
  3
S55
360
183E4
  3
S_s
360
183E5
  3
SCO
360
183E6
  3
Screw
360
183E7
  3
sd001
360
183E8
  3
sdfdf
360
183E9
  3
SEC-DWG-OFF
360
183EA
  3
SECT
360
183EB
  3
sect's
360
183EC
  3
SEVERNI
360
183ED
  3
SHITU
360
183EE
  3
SHITUMEI
360
183EF
  3
Show all layers ON
360
183F0
  3
soldraw
360
183F1
  3
Solid
360
183F2
  3
SOLVIEW
360
183F3
  3
SP00RED
360
183F4
  3
space
360
183F5
  3
SPC
360
183F6
  3
SPOTS
360
183F7
  3
SQIAP-1A
360
183F8
  3
ssp-sdr-qdr-ga
360
183F9
  3
sss
360
183FA
  3
STAIR
360
183FB
  3
standard
360
183FC
  3
Standard Layers
360
183FD
  3
STRUC
360
183FE
  3
Structural
360
183FF
  3
structural1
360
18400
  3
structure
360
18401
  3
structure & vertical frame
360
18402
  3
stuff
360
18403
  3
Survey
360
18404
  3
T
360
18405
  3
T13
360
18406
  3
T14
360
18407
  3
T14 & T15
360
18408
  3
T15
360
18409
  3
T15 & T17
360
1840A
  3
T16
360
1840B
  3
T62211
360
1840C
  3
T_s
360
1840D
  3
team room
360
1840E
  3
telecom
360
1840F
  3
temp
360
18410
  3
TEMPLATE
360
18411
  3
TEST
360
18412
  3
Text
360
18413
  3
TEXT1
360
18414
  3
TEXTOS
360
18415
  3
TEXTURAS
360
18416
  3
tg
360
18417
  3
THAW
360
18418
  3
THAWED
360
18419
  3
TITLE BLOCKS
360
1841A
  3
tools
360
1841B
  3
TOPO_CRAP
360
1841C
  3
TOPO_CRAP YELL
360
1841D
  3
TORISHIN
360
1841E
  3
try1
360
1841F
  3
tsb
360
18420
  3
tt
360
18421
  3
TT1709
360
18422
  3
tunnel
360
18423
  3
UNDERSCORE
360
18424
  3
unfr
360
18425
  3
UNFRZ
360
18426
  3
units
360
18427
  3
UNLOCK
360
18428
  3
utillity
360
18429
  3
V
360
1842A
  3
vertical lift
360
1842B
  3
VERY LIGHT GRAY
360
1842C
  3
VIS
360
1842D
  3
VMB
360
1842E
  3
vuteq
360
1842F
  3
VYHODNI
360
18430
  3
W
360
18431
  3
walls
360
18432
  3
walls-doors
360
18433
  3
weather
360
18434
  3
weatherline
360
18435
  3
white
360
18436
  3
wk
360
18437
  3
X
360
18438
  3
x1a-1-0-
360
18439
  3
xfa
360
1843A
  3
XREF
360
1843B
  3
XREF_1
360
1843C
  3
y
360
1843D
  3
yellow
360
1843E
  3
Z'S
360
1843F
  3
Z10
360
18440
  3
Z11
360
18441
  3
Z12
360
18442
  3
Z14
360
18443
  3
Z51
360
18444
  3
ZAPADNI
360
18445
  3
ZNEW
360
18446
  3
ZZ-NEW
360
18447
  3
ｭｫｭnｼh
360
18448
  3
ｷｰﾌﾟﾗﾝ
360
18449
  3
ﾌﾘｰｽﾞ画層非表示
360
1844A
  3
ﾌﾘｰｽﾞ画面非表示
360
1844B
  3
１
360
1844C
  3
２Ｆ床レベル
360
1844D
  3
Ｎレイアウト
360
1844E
  3
Ｎレイアウト　バリアフリー
360
1844F
  3
Ｎ建具関係仕様
360
18450
  3
Ｎ室間差圧
360
18451
  3
Ｎ床仕上
360
18452
  3
Ｎ清浄度
360
18453
  3
Ｎ動線図（人）
360
18454
  3
Ｎ動線図（物）
360
18455
  3
クラス別
360
18456
  3
フリーズ解除
360
18457
  3
レイアウト
360
18458
  3
ロック解除
360
18459
  3
一般図
360
1845A
  3
印刷
360
1845B
  3
餌辨
360
1845C
  3
黄色
360
1845D
  3
可見層
360
1845E
  3
各模組名稱
360
1845F
  3
基礎伏図
360
18460
  3
使用中
360
18461
  3
紫
360
18462
  3
重要層
360
18463
  3
上階躯体図
360
18464
  3
色番号8
360
18465
  3
真建築住防様式
360
18466
  3
水
360
18467
  3
水色
360
18468
  3
清浄度
360
18469
  3
青
360
1846A
  3
全画層表示
360
1846B
  3
中２階平面図
360
1846C
  3
動線図　人
360
1846D
  3
動線図　物
360
1846E
  3
配管
360
1846F
  3
表示画層のみ表示
360
18470
  3
平面詳細図
360
18471
  3
法規チェック－区画
360
18472
  3
法規チェック－範囲
360
18473
  3
防災
360
18474
  3
面積
360
18475
  3
緑
360
18476
  3
圓心及或中線之1
360
18477
  3
圓心及或中線之2
360
18478
  0
DICTIONARY
  5
16FCC
102
{ACAD_REACTORS
330
16FB8
102
}
330
16FB8
100
AcDbDictionary
281
     1
  0
GROUP
  5
DCF
102
{ACAD_REACTORS
330
D
102
}
330
D
100
AcDbGroup
300

 70
     1
 71
     1
  0
GROUP
  5
174EA
102
{ACAD_REACTORS
330
D
102
}
330
D
100
AcDbGroup
300

 70
     1
 71
     1
  0
GROUP
  5
17500
102
{ACAD_REACTORS
330
D
102
}
330
D
100
AcDbGroup
300

 70
     1
 71
     1
  0
GROUP
  5
17376
102
{ACAD_REACTORS
330
D
102
}
330
D
100
AcDbGroup
300

 70
     1
 71
     1
  0
GROUP
  5
174B5
102
{ACAD_REACTORS
330
D
102
}
330
D
100
AcDbGroup
300

 70
     1
 71
     1
  0
GROUP
  5
17501
102
{ACAD_REACTORS
330
D
102
}
330
D
100
AcDbGroup
300

 70
     1
 71
     1
  0
GROUP
  5
17502
102
{ACAD_REACTORS
330
D
102
}
330
D
100
AcDbGroup
300

 70
     1
 71
     1
  0
GROUP
  5
E31F
102
{ACAD_REACTORS
330
D
102
}
330
D
100
AcDbGroup
300

 70
     1
 71
     1
  0
GROUP
  5
116A
102
{ACAD_REACTORS
330
D
102
}
330
D
100
AcDbGroup
300

 70
     1
 71
     1
  0
GROUP
  5
17503
102
{ACAD_REACTORS
330
D
102
}
330
D
100
AcDbGroup
300

 70
     1
 71
     1
  0
GROUP
  5
17413
102
{ACAD_REACTORS
330
D
102
}
330
D
100
AcDbGroup
300

 70
     1
 71
     1
  0
GROUP
  5
17423
102
{ACAD_REACTORS
330
D
102
}
330
D
100
AcDbGroup
300

 70
     1
 71
     1
  0
GROUP
  5
173E0
102
{ACAD_REACTORS
330
D
102
}
330
D
100
AcDbGroup
300

 70
     1
 71
     1
  0
GROUP
  5
17504
102
{ACAD_REACTORS
330
D
102
}
330
D
100
AcDbGroup
300

 70
     1
 71
     1
  0
GROUP
  5
173AC
102
{ACAD_REACTORS
330
D
102
}
330
D
100
AcDbGroup
300

 70
     1
 71
     1
  0
GROUP
  5
174B0
102
{ACAD_REACTORS
330
D
102
}
330
D
100
AcDbGroup
300

 70
     1
 71
     1
  0
GROUP
  5
1092
102
{ACAD_REACTORS
330
D
102
}
330
D
100
AcDbGroup
300

 70
     1
 71
     1
  0
GROUP
  5
964C
102
{ACAD_REACTORS
330
D
102
}
330
D
100
AcDbGroup
300

 70
     1
 71
     1
  0
GROUP
  5
173EC
102
{ACAD_REACTORS
330
D
102
}
330
D
100
AcDbGroup
300

 70
     1
 71
     1
  0
GROUP
  5
173BF
102
{ACAD_REACTORS
330
D
102
}
330
D
100
AcDbGroup
300

 70
     1
 71
     1
  0
GROUP
  5
8226
102
{ACAD_REACTORS
330
D
102
}
330
D
100
AcDbGroup
300

 70
     1
 71
     1
  0
GROUP
  5
173A4
102
{ACAD_REACTORS
330
D
102
}
330
D
100
AcDbGroup
300

 70
     1
 71
     1
  0
GROUP
  5
17505
102
{ACAD_REACTORS
330
D
102
}
330
D
100
AcDbGroup
300

 70
     1
 71
     1
  0
GROUP
  5
173F1
102
{ACAD_REACTORS
330
D
102
}
330
D
100
AcDbGroup
300

 70
     1
 71
     1
  0
GROUP
  5
6F78
102
{ACAD_REACTORS
330
D
102
}
330
D
100
AcDbGroup
300

 70
     1
 71
     1
  0
GROUP
  5
17506
102
{ACAD_REACTORS
330
D
102
}
330
D
100
AcDbGroup
300

 70
     1
 71
     1
  0
GROUP
  5
17507
102
{ACAD_REACTORS
330
D
102
}
330
D
100
AcDbGroup
300

 70
     1
 71
     1
  0
GROUP
  5
7C29
102
{ACAD_REACTORS
330
D
102
}
330
D
100
AcDbGroup
300

 70
     1
 71
     1
  0
GROUP
  5
174D0
102
{ACAD_REACTORS
330
D
102
}
330
D
100
AcDbGroup
300

 70
     1
 71
     1
  0
GROUP
  5
17508
102
{ACAD_REACTORS
330
D
102
}
330
D
100
AcDbGroup
300

 70
     1
 71
     1
  0
GROUP
  5
17509
102
{ACAD_REACTORS
330
D
102
}
330
D
100
AcDbGroup
300

 70
     1
 71
     1
  0
GROUP
  5
1746A
102
{ACAD_REACTORS
330
D
102
}
330
D
100
AcDbGroup
300

 70
     1
 71
     1
  0
GROUP
  5
17379
102
{ACAD_REACTORS
330
D
102
}
330
D
100
AcDbGroup
300

 70
     1
 71
     1
  0
GROUP
  5
173A8
102
{ACAD_REACTORS
330
D
102
}
330
D
100
AcDbGroup
300

 70
     1
 71
     1
  0
GROUP
  5
173A7
102
{ACAD_REACTORS
330
D
102
}
330
D
100
AcDbGroup
300

 70
     1
 71
     1
  0
GROUP
  5
1744D
102
{ACAD_REACTORS
330
D
102
}
330
D
100
AcDbGroup
300

 70
     1
 71
     1
  0
GROUP
  5
8189
102
{ACAD_REACTORS
330
D
102
}
330
D
100
AcDbGroup
300

 70
     1
 71
     1
  0
GROUP
  5
1784E
102
{ACAD_REACTORS
330
D
102
}
330
D
100
AcDbGroup
300

 70
     1
 71
     1
  0
GROUP
  5
49E1
102
{ACAD_REACTORS
330
D
102
}
330
D
100
AcDbGroup
300

 70
     1
 71
     1
  0
GROUP
  5
77D2
102
{ACAD_REACTORS
330
D
102
}
330
D
100
AcDbGroup
300

 70
     1
 71
     1
  0
GROUP
  5
1077
102
{ACAD_REACTORS
330
D
102
}
330
D
100
AcDbGroup
300

 70
     1
 71
     1
  0
GROUP
  5
173F4
102
{ACAD_REACTORS
330
D
102
}
330
D
100
AcDbGroup
300

 70
     1
 71
     1
  0
GROUP
  5
9655
102
{ACAD_REACTORS
330
D
102
}
330
D
100
AcDbGroup
300

 70
     1
 71
     1
  0
GROUP
  5
17474
102
{ACAD_REACTORS
330
D
102
}
330
D
100
AcDbGroup
300

 70
     1
 71
     1
  0
GROUP
  5
174AC
102
{ACAD_REACTORS
330
D
102
}
330
D
100
AcDbGroup
300

 70
     1
 71
     1
  0
GROUP
  5
174EB
102
{ACAD_REACTORS
330
D
102
}
330
D
100
AcDbGroup
300

 70
     1
 71
     1
  0
GROUP
  5
174B6
102
{ACAD_REACTORS
330
D
102
}
330
D
100
AcDbGroup
300

 70
     1
 71
     1
  0
GROUP
  5
A636
102
{ACAD_REACTORS
330
D
102
}
330
D
100
AcDbGroup
300

 70
     1
 71
     1
  0
GROUP
  5
17496
102
{ACAD_REACTORS
330
D
102
}
330
D
100
AcDbGroup
300

 70
     1
 71
     1
  0
GROUP
  5
1067D
102
{ACAD_REACTORS
330
D
102
}
330
D
100
AcDbGroup
300

 70
     1
 71
     1
  0
GROUP
  5
17385
102
{ACAD_REACTORS
330
D
102
}
330
D
100
AcDbGroup
300

 70
     1
 71
     1
  0
GROUP
  5
16E67
102
{ACAD_REACTORS
330
D
102
}
330
D
100
AcDbGroup
300

 70
     1
 71
     1
  0
GROUP
  5
174D1
102
{ACAD_REACTORS
330
D
102
}
330
D
100
AcDbGroup
300

 70
     1
 71
     1
  0
GROUP
  5
17372
102
{ACAD_REACTORS
330
D
102
}
330
D
100
AcDbGroup
300

 70
     1
 71
     1
  0
GROUP
  5
821C
102
{ACAD_REACTORS
330
D
102
}
330
D
100
AcDbGroup
300

 70
     1
 71
     1
  0
GROUP
  5
33A2
102
{ACAD_REACTORS
330
D
102
}
330
D
100
AcDbGroup
300

 70
     1
 71
     1
  0
GROUP
  5
1736E
102
{ACAD_REACTORS
330
D
102
}
330
D
100
AcDbGroup
300

 70
     3
 71
     1
  0
GROUP
  5
A3D1
102
{ACAD_REACTORS
330
D
102
}
330
D
100
AcDbGroup
300

 70
     1
 71
     1
  0
GROUP
  5
77B9
102
{ACAD_REACTORS
330
D
102
}
330
D
100
AcDbGroup
300

 70
     1
 71
     1
  0
GROUP
  5
174B7
102
{ACAD_REACTORS
330
D
102
}
330
D
100
AcDbGroup
300

 70
     1
 71
     1
  0
GROUP
  5
2C9E
102
{ACAD_REACTORS
330
D
102
}
330
D
100
AcDbGroup
300

 70
     1
 71
     1
  0
GROUP
  5
17377
102
{ACAD_REACTORS
330
D
102
}
330
D
100
AcDbGroup
300

 70
     1
 71
     1
  0
GROUP
  5
17497
102
{ACAD_REACTORS
330
D
102
}
330
D
100
AcDbGroup
300

 70
     1
 71
     1
  0
GROUP
  5
B358
102
{ACAD_REACTORS
330
D
102
}
330
D
100
AcDbGroup
300

 70
     1
 71
     1
  0
GROUP
  5
1737C
102
{ACAD_REACTORS
330
D
102
}
330
D
100
AcDbGroup
300

 70
     1
 71
     1
  0
GROUP
  5
173F5
102
{ACAD_REACTORS
330
D
102
}
330
D
100
AcDbGroup
300

 70
     1
 71
     1
  0
GROUP
  5
605A
102
{ACAD_REACTORS
330
D
102
}
330
D
100
AcDbGroup
300

 70
     1
 71
     1
  0
GROUP
  5
1748E
102
{ACAD_REACTORS
330
D
102
}
330
D
100
AcDbGroup
300

 70
     1
 71
     1
  0
GROUP
  5
8217
102
{ACAD_REACTORS
330
D
102
}
330
D
100
AcDbGroup
300

 70
     1
 71
     1
  0
GROUP
  5
B349
102
{ACAD_REACTORS
330
D
102
}
330
D
100
AcDbGroup
300

 70
     1
 71
     1
  0
GROUP
  5
173AB
102
{ACAD_REACTORS
330
D
102
}
330
D
100
AcDbGroup
300

 70
     1
 71
     1
  0
GROUP
  5
1744E
102
{ACAD_REACTORS
330
D
102
}
330
D
100
AcDbGroup
300

 70
     1
 71
     1
  0
GROUP
  5
173DF
102
{ACAD_REACTORS
330
D
102
}
330
D
100
AcDbGroup
300

 70
     1
 71
     1
  0
GROUP
  5
33BD
102
{ACAD_REACTORS
330
D
102
}
330
D
100
AcDbGroup
300

 70
     1
 71
     1
  0
GROUP
  5
1110
102
{ACAD_REACTORS
330
D
102
}
330
D
100
AcDbGroup
300

 70
     1
 71
     1
  0
GROUP
  5
81E6
102
{ACAD_REACTORS
330
D
102
}
330
D
100
AcDbGroup
300

 70
     1
 71
     1
  0
GROUP
  5
BA00
102
{ACAD_REACTORS
330
D
102
}
330
D
100
AcDbGroup
300

 70
     1
 71
     1
  0
GROUP
  5
17498
102
{ACAD_REACTORS
330
D
102
}
330
D
100
AcDbGroup
300

 70
     1
 71
     1
  0
GROUP
  5
DCB9
102
{ACAD_REACTORS
330
D
102
}
330
D
100
AcDbGroup
300

 70
     1
 71
     1
  0
GROUP
  5
173D6
102
{ACAD_REACTORS
330
D
102
}
330
D
100
AcDbGroup
300

 70
     1
 71
     1
  0
GROUP
  5
17386
102
{ACAD_REACTORS
330
D
102
}
330
D
100
AcDbGroup
300

 70
     1
 71
     1
  0
GROUP
  5
141E8
102
{ACAD_REACTORS
330
D
102
}
330
D
100
AcDbGroup
300

 70
     1
 71
     1
  0
GROUP
  5
10C8
102
{ACAD_REACTORS
330
D
102
}
330
D
100
AcDbGroup
300

 70
     1
 71
     1
  0
GROUP
  5
A3B5
102
{ACAD_REACTORS
330
D
102
}
330
D
100
AcDbGroup
300

 70
     1
 71
     1
  0
GROUP
  5
E31B
102
{ACAD_REACTORS
330
D
102
}
330
D
100
AcDbGroup
300

 70
     1
 71
     1
  0
GROUP
  5
E1F7
102
{ACAD_REACTORS
330
D
102
}
330
D
100
AcDbGroup
300

 70
     1
 71
     1
  0
GROUP
  5
173D7
102
{ACAD_REACTORS
330
D
102
}
330
D
100
AcDbGroup
300

 70
     1
 71
     1
  0
GROUP
  5
2FF1
102
{ACAD_REACTORS
330
D
102
}
330
D
100
AcDbGroup
300

 70
     1
 71
     1
  0
GROUP
  5
174D2
102
{ACAD_REACTORS
330
D
102
}
330
D
100
AcDbGroup
300

 70
     1
 71
     1
  0
GROUP
  5
42D1
102
{ACAD_REACTORS
330
D
102
}
330
D
100
AcDbGroup
300

 70
     1
 71
     1
  0
GROUP
  5
1744F
102
{ACAD_REACTORS
330
D
102
}
330
D
100
AcDbGroup
300

 70
     1
 71
     1
  0
GROUP
  5
10E38
102
{ACAD_REACTORS
330
D
102
}
330
D
100
AcDbGroup
300

 70
     1
 71
     1
  0
GROUP
  5
57BE
102
{ACAD_REACTORS
330
D
102
}
330
D
100
AcDbGroup
300

 70
     1
 71
     1
  0
GROUP
  5
4AB4
102
{ACAD_REACTORS
330
D
102
}
330
D
100
AcDbGroup
300

 70
     1
 71
     1
  0
GROUP
  5
173C0
102
{ACAD_REACTORS
330
D
102
}
330
D
100
AcDbGroup
300

 70
     1
 71
     1
  0
GROUP
  5
1743F
102
{ACAD_REACTORS
330
D
102
}
330
D
100
AcDbGroup
300

 70
     1
 71
     1
  0
GROUP
  5
17424
102
{ACAD_REACTORS
330
D
102
}
330
D
100
AcDbGroup
300

 70
     1
 71
     1
  0
GROUP
  5
137B6
102
{ACAD_REACTORS
330
D
102
}
330
D
100
AcDbGroup
300

 70
     1
 71
     1
  0
GROUP
  5
820D
102
{ACAD_REACTORS
330
D
102
}
330
D
100
AcDbGroup
300

 70
     1
 71
     1
  0
GROUP
  5
2FF6
102
{ACAD_REACTORS
330
D
102
}
330
D
100
AcDbGroup
300

 70
     1
 71
     1
  0
GROUP
  5
173B4
102
{ACAD_REACTORS
330
D
102
}
330
D
100
AcDbGroup
300

 70
     1
 71
     1
  0
GROUP
  5
174D3
102
{ACAD_REACTORS
330
D
102
}
330
D
100
AcDbGroup
300

 70
     1
 71
     1
  0
GROUP
  5
10689
102
{ACAD_REACTORS
330
D
102
}
330
D
100
AcDbGroup
300

 70
     1
 71
     1
  0
GROUP
  5
A623
102
{ACAD_REACTORS
330
D
102
}
330
D
100
AcDbGroup
300

 70
     1
 71
     1
  0
GROUP
  5
8809
102
{ACAD_REACTORS
330
D
102
}
330
D
100
AcDbGroup
300

 70
     1
 71
     1
  0
GROUP
  5
E1FA
102
{ACAD_REACTORS
330
D
102
}
330
D
100
AcDbGroup
300

 70
     1
 71
     1
  0
GROUP
  5
8804
102
{ACAD_REACTORS
330
D
102
}
330
D
100
AcDbGroup
300

 70
     1
 71
     1
  0
GROUP
  5
B34C
102
{ACAD_REACTORS
330
D
102
}
330
D
100
AcDbGroup
300

 70
     1
 71
     1
  0
GROUP
  5
17450
102
{ACAD_REACTORS
330
D
102
}
330
D
100
AcDbGroup
300

 70
     1
 71
     1
  0
GROUP
  5
4F1E
102
{ACAD_REACTORS
330
D
102
}
330
D
100
AcDbGroup
300

 70
     1
 71
     1
  0
GROUP
  5
173E5
102
{ACAD_REACTORS
330
D
102
}
330
D
100
AcDbGroup
300

 70
     1
 71
     1
  0
GROUP
  5
174CE
102
{ACAD_REACTORS
330
D
102
}
330
D
100
AcDbGroup
300

 70
     1
 71
     1
  0
GROUP
  5
17382
102
{ACAD_REACTORS
330
D
102
}
330
D
100
AcDbGroup
300

 70
     1
 71
     1
  0
GROUP
  5
5E6E
102
{ACAD_REACTORS
330
D
102
}
330
D
100
AcDbGroup
300

 70
     1
 71
     1
  0
GROUP
  5
1741E
102
{ACAD_REACTORS
330
D
102
}
330
D
100
AcDbGroup
300

 70
     1
 71
     1
  0
GROUP
  5
173F6
102
{ACAD_REACTORS
330
D
102
}
330
D
100
AcDbGroup
300

 70
     1
 71
     1
  0
GROUP
  5
8819
102
{ACAD_REACTORS
330
D
102
}
330
D
100
AcDbGroup
300

 70
     1
 71
     1
  0
GROUP
  5
A3EA
102
{ACAD_REACTORS
330
D
102
}
330
D
100
AcDbGroup
300

 70
     1
 71
     1
  0
GROUP
  5
B34F
102
{ACAD_REACTORS
330
D
102
}
330
D
100
AcDbGroup
300

 70
     1
 71
     1
  0
GROUP
  5
1146
102
{ACAD_REACTORS
330
D
102
}
330
D
100
AcDbGroup
300

 70
     1
 71
     1
  0
GROUP
  5
A397
102
{ACAD_REACTORS
330
D
102
}
330
D
100
AcDbGroup
300

 70
     1
 71
     1
  0
GROUP
  5
5E62
102
{ACAD_REACTORS
330
D
102
}
330
D
100
AcDbGroup
300

 70
     1
 71
     1
  0
GROUP
  5
8187
102
{ACAD_REACTORS
330
D
102
}
330
D
100
AcDbGroup
300

 70
     1
 71
     1
  0
GROUP
  5
8813
102
{ACAD_REACTORS
330
D
102
}
330
D
100
AcDbGroup
300

 70
     1
 71
     1
  0
GROUP
  5
818C
102
{ACAD_REACTORS
330
D
102
}
330
D
100
AcDbGroup
300

 70
     1
 71
     1
  0
GROUP
  5
4214
102
{ACAD_REACTORS
330
D
102
}
330
D
100
AcDbGroup
300

 70
     1
 71
     1
  0
GROUP
  5
17490
102
{ACAD_REACTORS
330
D
102
}
330
D
100
AcDbGroup
300

 70
     1
 71
     1
  0
GROUP
  5
173B6
102
{ACAD_REACTORS
330
D
102
}
330
D
100
AcDbGroup
300

 70
     1
 71
     1
  0
GROUP
  5
173E1
102
{ACAD_REACTORS
330
D
102
}
330
D
100
AcDbGroup
300

 70
     1
 71
     1
  0
GROUP
  5
17475
102
{ACAD_REACTORS
330
D
102
}
330
D
100
AcDbGroup
300

 70
     1
 71
     1
  0
GROUP
  5
E2AF
102
{ACAD_REACTORS
330
D
102
}
330
D
100
AcDbGroup
300

 70
     1
 71
     1
  0
GROUP
  5
81A9
102
{ACAD_REACTORS
330
D
102
}
330
D
100
AcDbGroup
300

 70
     1
 71
     1
  0
GROUP
  5
17387
102
{ACAD_REACTORS
330
D
102
}
330
D
100
AcDbGroup
300

 70
     1
 71
     1
  0
GROUP
  5
499E
102
{ACAD_REACTORS
330
D
102
}
330
D
100
AcDbGroup
300

 70
     1
 71
     1
  0
GROUP
  5
1248D
102
{ACAD_REACTORS
330
D
102
}
330
D
100
AcDbGroup
300

 70
     1
 71
     1
  0
GROUP
  5
17425
102
{ACAD_REACTORS
330
D
102
}
330
D
100
AcDbGroup
300

 70
     1
 71
     1
  0
GROUP
  5
818B
102
{ACAD_REACTORS
330
D
102
}
330
D
100
AcDbGroup
300

 70
     1
 71
     1
  0
GROUP
  5
17499
102
{ACAD_REACTORS
330
D
102
}
330
D
100
AcDbGroup
300

 70
     3
 71
     1
  0
GROUP
  5
174CB
102
{ACAD_REACTORS
330
D
102
}
330
D
100
AcDbGroup
300

 70
     1
 71
     1
  0
GROUP
  5
174D4
102
{ACAD_REACTORS
330
D
102
}
330
D
100
AcDbGroup
300

 70
     1
 71
     1
  0
GROUP
  5
14783
102
{ACAD_REACTORS
330
D
102
}
330
D
100
AcDbGroup
300

 70
     1
 71
     1
  0
GROUP
  5
174B8
102
{ACAD_REACTORS
330
D
102
}
330
D
100
AcDbGroup
300

 70
     1
 71
     1
  0
GROUP
  5
10D1
102
{ACAD_REACTORS
330
D
102
}
330
D
100
AcDbGroup
300

 70
     1
 71
     1
  0
GROUP
  5
173C1
102
{ACAD_REACTORS
330
D
102
}
330
D
100
AcDbGroup
300

 70
     1
 71
     1
  0
GROUP
  5
E31D
102
{ACAD_REACTORS
330
D
102
}
330
D
100
AcDbGroup
300

 70
     1
 71
     1
  0
GROUP
  5
174EC
102
{ACAD_REACTORS
330
D
102
}
330
D
100
AcDbGroup
300

 70
     1
 71
     1
  0
GROUP
  5
173B0
102
{ACAD_REACTORS
330
D
102
}
330
D
100
AcDbGroup
300

 70
     1
 71
     1
  0
GROUP
  5
5F9C
102
{ACAD_REACTORS
330
D
102
}
330
D
100
AcDbGroup
300

 70
     1
 71
     1
  0
GROUP
  5
10F22
102
{ACAD_REACTORS
330
D
102
}
330
D
100
AcDbGroup
300

 70
     1
 71
     1
  0
GROUP
  5
822C
102
{ACAD_REACTORS
330
D
102
}
330
D
100
AcDbGroup
300

 70
     1
 71
     1
  0
GROUP
  5
A3BD
102
{ACAD_REACTORS
330
D
102
}
330
D
100
AcDbGroup
300

 70
     1
 71
     1
  0
GROUP
  5
174D5
102
{ACAD_REACTORS
330
D
102
}
330
D
100
AcDbGroup
300

 70
     1
 71
     1
  0
GROUP
  5
E31E
102
{ACAD_REACTORS
330
D
102
}
330
D
100
AcDbGroup
300

 70
     1
 71
     1
  0
GROUP
  5
173B5
102
{ACAD_REACTORS
330
D
102
}
330
D
100
AcDbGroup
300

 70
     1
 71
     1
  0
GROUP
  5
174B9
102
{ACAD_REACTORS
330
D
102
}
330
D
100
AcDbGroup
300

 70
     1
 71
     1
  0
GROUP
  5
7555
102
{ACAD_REACTORS
330
D
102
}
330
D
100
AcDbGroup
300

 70
     1
 71
     1
  0
GROUP
  5
173B9
102
{ACAD_REACTORS
330
D
102
}
330
D
100
AcDbGroup
300

 70
     1
 71
     1
  0
GROUP
  5
17426
102
{ACAD_REACTORS
330
D
102
}
330
D
100
AcDbGroup
300

 70
     1
 71
     1
  0
GROUP
  5
14827
102
{ACAD_REACTORS
330
D
102
}
330
D
100
AcDbGroup
300

 70
     1
 71
     1
  0
GROUP
  5
317C
102
{ACAD_REACTORS
330
D
102
}
330
D
100
AcDbGroup
300

 70
     1
 71
     1
  0
GROUP
  5
42D2
102
{ACAD_REACTORS
330
D
102
}
330
D
100
AcDbGroup
300

 70
     1
 71
     1
  0
GROUP
  5
173E4
102
{ACAD_REACTORS
330
D
102
}
330
D
100
AcDbGroup
300

 70
     1
 71
     1
  0
GROUP
  5
17476
102
{ACAD_REACTORS
330
D
102
}
330
D
100
AcDbGroup
300

 70
     1
 71
     1
  0
GROUP
  5
17412
102
{ACAD_REACTORS
330
D
102
}
330
D
100
AcDbGroup
300

 70
     1
 71
     1
  0
GROUP
  5
17388
102
{ACAD_REACTORS
330
D
102
}
330
D
100
AcDbGroup
300

 70
     1
 71
     1
  0
GROUP
  5
7AE5
102
{ACAD_REACTORS
330
D
102
}
330
D
100
AcDbGroup
300

 70
     1
 71
     1
  0
GROUP
  5
606A
102
{ACAD_REACTORS
330
D
102
}
330
D
100
AcDbGroup
300

 70
     1
 71
     1
  0
GROUP
  5
7C28
102
{ACAD_REACTORS
330
D
102
}
330
D
100
AcDbGroup
300

 70
     1
 71
     1
  0
GROUP
  5
DF9B
102
{ACAD_REACTORS
330
D
102
}
330
D
100
AcDbGroup
300

 70
     1
 71
     1
  0
GROUP
  5
1740A
102
{ACAD_REACTORS
330
D
102
}
330
D
100
AcDbGroup
300

 70
     1
 71
     1
  0
GROUP
  5
173C2
102
{ACAD_REACTORS
330
D
102
}
330
D
100
AcDbGroup
300

 70
     1
 71
     1
  0
GROUP
  5
113D
102
{ACAD_REACTORS
330
D
102
}
330
D
100
AcDbGroup
300

 70
     1
 71
     1
  0
GROUP
  5
DE0C
102
{ACAD_REACTORS
330
D
102
}
330
D
100
AcDbGroup
300

 70
     1
 71
     1
  0
GROUP
  5
805E
102
{ACAD_REACTORS
330
D
102
}
330
D
100
AcDbGroup
300

 70
     1
 71
     1
  0
GROUP
  5
1065
102
{ACAD_REACTORS
330
D
102
}
330
D
100
AcDbGroup
300

 70
     1
 71
     1
  0
GROUP
  5
9808
102
{ACAD_REACTORS
330
D
102
}
330
D
100
AcDbGroup
300

 70
     1
 71
     1
  0
GROUP
  5
1740B
102
{ACAD_REACTORS
330
D
102
}
330
D
100
AcDbGroup
300

 70
     1
 71
     1
  0
GROUP
  5
1736F
102
{ACAD_REACTORS
330
D
102
}
330
D
100
AcDbGroup
300

 70
     1
 71
     1
  0
GROUP
  5
174ED
102
{ACAD_REACTORS
330
D
102
}
330
D
100
AcDbGroup
300

 70
     1
 71
     1
  0
GROUP
  5
17477
102
{ACAD_REACTORS
330
D
102
}
330
D
100
AcDbGroup
300

 70
     1
 71
     1
  0
GROUP
  5
10F24
102
{ACAD_REACTORS
330
D
102
}
330
D
100
AcDbGroup
300

 70
     1
 71
     1
  0
GROUP
  5
10D11
102
{ACAD_REACTORS
330
D
102
}
330
D
100
AcDbGroup
300

 70
     1
 71
     1
  0
GROUP
  5
141EE
102
{ACAD_REACTORS
330
D
102
}
330
D
100
AcDbGroup
300

 70
     1
 71
     1
  0
GROUP
  5
173F7
102
{ACAD_REACTORS
330
D
102
}
330
D
100
AcDbGroup
300

 70
     1
 71
     1
  0
GROUP
  5
17469
102
{ACAD_REACTORS
330
D
102
}
330
D
100
AcDbGroup
300

 70
     1
 71
     1
  0
GROUP
  5
17451
102
{ACAD_REACTORS
330
D
102
}
330
D
100
AcDbGroup
300

 70
     1
 71
     1
  0
GROUP
  5
42C0
102
{ACAD_REACTORS
330
D
102
}
330
D
100
AcDbGroup
300

 70
     1
 71
     1
  0
GROUP
  5
10D47
102
{ACAD_REACTORS
330
D
102
}
330
D
100
AcDbGroup
300

 70
     1
 71
     1
  0
GROUP
  5
881E
102
{ACAD_REACTORS
330
D
102
}
330
D
100
AcDbGroup
300

 70
     1
 71
     1
  0
GROUP
  5
174EE
102
{ACAD_REACTORS
330
D
102
}
330
D
100
AcDbGroup
300

 70
     1
 71
     1
  0
GROUP
  5
7556
102
{ACAD_REACTORS
330
D
102
}
330
D
100
AcDbGroup
300

 70
     1
 71
     1
  0
GROUP
  5
10EC
102
{ACAD_REACTORS
330
D
102
}
330
D
100
AcDbGroup
300

 70
     1
 71
     1
  0
GROUP
  5
17389
102
{ACAD_REACTORS
330
D
102
}
330
D
100
AcDbGroup
300

 70
     1
 71
     1
  0
GROUP
  5
5128
102
{ACAD_REACTORS
330
D
102
}
330
D
100
AcDbGroup
300

 70
     1
 71
     1
  0
GROUP
  5
137A4
102
{ACAD_REACTORS
330
D
102
}
330
D
100
AcDbGroup
300

 70
     1
 71
     1
  0
GROUP
  5
10586
102
{ACAD_REACTORS
330
D
102
}
330
D
100
AcDbGroup
300

 70
     1
 71
     1
  0
GROUP
  5
17478
102
{ACAD_REACTORS
330
D
102
}
330
D
100
AcDbGroup
300

 70
     3
 71
     1
  0
GROUP
  5
6221
102
{ACAD_REACTORS
330
D
102
}
330
D
100
AcDbGroup
300

 70
     1
 71
     1
  0
GROUP
  5
17418
102
{ACAD_REACTORS
330
D
102
}
330
D
100
AcDbGroup
300

 70
     1
 71
     1
  0
GROUP
  5
106E8
102
{ACAD_REACTORS
330
D
102
}
330
D
100
AcDbGroup
300

 70
     1
 71
     1
  0
GROUP
  5
B340
102
{ACAD_REACTORS
330
D
102
}
330
D
100
AcDbGroup
300

 70
     1
 71
     1
  0
GROUP
  5
17427
102
{ACAD_REACTORS
330
D
102
}
330
D
100
AcDbGroup
300

 70
     1
 71
     1
  0
GROUP
  5
83B2
102
{ACAD_REACTORS
330
D
102
}
330
D
100
AcDbGroup
300

 70
     1
 71
     1
  0
GROUP
  5
7AD2
102
{ACAD_REACTORS
330
D
102
}
330
D
100
AcDbGroup
300

 70
     1
 71
     1
  0
GROUP
  5
10EAE
102
{ACAD_REACTORS
330
D
102
}
330
D
100
AcDbGroup
300

 70
     1
 71
     1
  0
GROUP
  5
141EA
102
{ACAD_REACTORS
330
D
102
}
330
D
100
AcDbGroup
300

 70
     1
 71
     1
  0
GROUP
  5
4A10
102
{ACAD_REACTORS
330
D
102
}
330
D
100
AcDbGroup
300

 70
     1
 71
     1
  0
GROUP
  5
8822
102
{ACAD_REACTORS
330
D
102
}
330
D
100
AcDbGroup
300

 70
     1
 71
     1
  0
GROUP
  5
5E68
102
{ACAD_REACTORS
330
D
102
}
330
D
100
AcDbGroup
300

 70
     1
 71
     1
  0
GROUP
  5
E1F9
102
{ACAD_REACTORS
330
D
102
}
330
D
100
AcDbGroup
300

 70
     1
 71
     1
  0
GROUP
  5
141E7
102
{ACAD_REACTORS
330
D
102
}
330
D
100
AcDbGroup
300

 70
     1
 71
     1
  0
GROUP
  5
174B2
102
{ACAD_REACTORS
330
D
102
}
330
D
100
AcDbGroup
300

 70
     1
 71
     1
  0
GROUP
  5
173EE
102
{ACAD_REACTORS
330
D
102
}
330
D
100
AcDbGroup
300

 70
     1
 71
     1
  0
GROUP
  5
17414
102
{ACAD_REACTORS
330
D
102
}
330
D
100
AcDbGroup
300

 70
     3
 71
     1
  0
GROUP
  5
1749A
102
{ACAD_REACTORS
330
D
102
}
330
D
100
AcDbGroup
300

 70
     1
 71
     1
  0
GROUP
  5
A37F
102
{ACAD_REACTORS
330
D
102
}
330
D
100
AcDbGroup
300

 70
     1
 71
     1
  0
GROUP
  5
8818
102
{ACAD_REACTORS
330
D
102
}
330
D
100
AcDbGroup
300

 70
     1
 71
     1
  0
GROUP
  5
173C3
102
{ACAD_REACTORS
330
D
102
}
330
D
100
AcDbGroup
300

 70
     1
 71
     1
  0
GROUP
  5
512B
102
{ACAD_REACTORS
330
D
102
}
330
D
100
AcDbGroup
300

 70
     1
 71
     1
  0
GROUP
  5
17452
102
{ACAD_REACTORS
330
D
102
}
330
D
100
AcDbGroup
300

 70
     1
 71
     1
  0
GROUP
  5
1738A
102
{ACAD_REACTORS
330
D
102
}
330
D
100
AcDbGroup
300

 70
     1
 71
     1
  0
GROUP
  5
174BA
102
{ACAD_REACTORS
330
D
102
}
330
D
100
AcDbGroup
300

 70
     1
 71
     1
  0
GROUP
  5
174E7
102
{ACAD_REACTORS
330
D
102
}
330
D
100
AcDbGroup
300

 70
     1
 71
     1
  0
GROUP
  5
174EF
102
{ACAD_REACTORS
330
D
102
}
330
D
100
AcDbGroup
300

 70
     1
 71
     1
  0
GROUP
  5
821D
102
{ACAD_REACTORS
330
D
102
}
330
D
100
AcDbGroup
300

 70
     1
 71
     1
  0
GROUP
  5
174D6
102
{ACAD_REACTORS
330
D
102
}
330
D
100
AcDbGroup
300

 70
     1
 71
     1
  0
GROUP
  5
A3EB
102
{ACAD_REACTORS
330
D
102
}
330
D
100
AcDbGroup
300

 70
     1
 71
     1
  0
GROUP
  5
173F8
102
{ACAD_REACTORS
330
D
102
}
330
D
100
AcDbGroup
300

 70
     1
 71
     1
  0
GROUP
  5
10AB6
102
{ACAD_REACTORS
330
D
102
}
330
D
100
AcDbGroup
300

 70
     1
 71
     1
  0
GROUP
  5
173E8
102
{ACAD_REACTORS
330
D
102
}
330
D
100
AcDbGroup
300

 70
     3
 71
     1
  0
GROUP
  5
141E5
102
{ACAD_REACTORS
330
D
102
}
330
D
100
AcDbGroup
300

 70
     1
 71
     1
  0
GROUP
  5
8823
102
{ACAD_REACTORS
330
D
102
}
330
D
100
AcDbGroup
300

 70
     1
 71
     1
  0
GROUP
  5
2CA5
102
{ACAD_REACTORS
330
D
102
}
330
D
100
AcDbGroup
300

 70
     1
 71
     1
  0
GROUP
  5
10A4
102
{ACAD_REACTORS
330
D
102
}
330
D
100
AcDbGroup
300

 70
     1
 71
     1
  0
GROUP
  5
174F0
102
{ACAD_REACTORS
330
D
102
}
330
D
100
AcDbGroup
300

 70
     1
 71
     1
  0
GROUP
  5
10F23
102
{ACAD_REACTORS
330
D
102
}
330
D
100
AcDbGroup
300

 70
     1
 71
     1
  0
GROUP
  5
173ED
102
{ACAD_REACTORS
330
D
102
}
330
D
100
AcDbGroup
300

 70
     1
 71
     1
  0
GROUP
  5
174D7
102
{ACAD_REACTORS
330
D
102
}
330
D
100
AcDbGroup
300

 70
     1
 71
     1
  0
GROUP
  5
E1FE
102
{ACAD_REACTORS
330
D
102
}
330
D
100
AcDbGroup
300

 70
     1
 71
     1
  0
GROUP
  5
17453
102
{ACAD_REACTORS
330
D
102
}
330
D
100
AcDbGroup
300

 70
     1
 71
     1
  0
GROUP
  5
E1FC
102
{ACAD_REACTORS
330
D
102
}
330
D
100
AcDbGroup
300

 70
     1
 71
     1
  0
GROUP
  5
E685
102
{ACAD_REACTORS
330
D
102
}
330
D
100
AcDbGroup
300

 70
     1
 71
     1
  0
GROUP
  5
1739E
102
{ACAD_REACTORS
330
D
102
}
330
D
100
AcDbGroup
300

 70
     1
 71
     1
  0
GROUP
  5
17417
102
{ACAD_REACTORS
330
D
102
}
330
D
100
AcDbGroup
300

 70
     1
 71
     1
  0
GROUP
  5
1749B
102
{ACAD_REACTORS
330
D
102
}
330
D
100
AcDbGroup
300

 70
     1
 71
     1
  0
GROUP
  5
17441
102
{ACAD_REACTORS
330
D
102
}
330
D
100
AcDbGroup
300

 70
     1
 71
     1
  0
GROUP
  5
173C4
102
{ACAD_REACTORS
330
D
102
}
330
D
100
AcDbGroup
300

 70
     1
 71
     1
  0
GROUP
  5
4980
102
{ACAD_REACTORS
330
D
102
}
330
D
100
AcDbGroup
300

 70
     1
 71
     1
  0
GROUP
  5
A99C
102
{ACAD_REACTORS
330
D
102
}
330
D
100
AcDbGroup
300

 70
     1
 71
     1
  0
GROUP
  5
B352
102
{ACAD_REACTORS
330
D
102
}
330
D
100
AcDbGroup
300

 70
     1
 71
     1
  0
GROUP
  5
17439
102
{ACAD_REACTORS
330
D
102
}
330
D
100
AcDbGroup
300

 70
     1
 71
     1
  0
GROUP
  5
173F9
102
{ACAD_REACTORS
330
D
102
}
330
D
100
AcDbGroup
300

 70
     1
 71
     1
  0
GROUP
  5
2FF7
102
{ACAD_REACTORS
330
D
102
}
330
D
100
AcDbGroup
300

 70
     1
 71
     1
  0
GROUP
  5
B355
102
{ACAD_REACTORS
330
D
102
}
330
D
100
AcDbGroup
300

 70
     1
 71
     1
  0
GROUP
  5
57BD
102
{ACAD_REACTORS
330
D
102
}
330
D
100
AcDbGroup
300

 70
     1
 71
     1
  0
GROUP
  5
5D38
102
{ACAD_REACTORS
330
D
102
}
330
D
100
AcDbGroup
300

 70
     1
 71
     1
  0
GROUP
  5
141E6
102
{ACAD_REACTORS
330
D
102
}
330
D
100
AcDbGroup
300

 70
     1
 71
     1
  0
GROUP
  5
1743A
102
{ACAD_REACTORS
330
D
102
}
330
D
100
AcDbGroup
300

 70
     1
 71
     1
  0
GROUP
  5
173AD
102
{ACAD_REACTORS
330
D
102
}
330
D
100
AcDbGroup
300

 70
     1
 71
     1
  0
GROUP
  5
E102
102
{ACAD_REACTORS
330
D
102
}
330
D
100
AcDbGroup
300

 70
     1
 71
     1
  0
GROUP
  5
A38F
102
{ACAD_REACTORS
330
D
102
}
330
D
100
AcDbGroup
300

 70
     1
 71
     1
  0
GROUP
  5
1415D
102
{ACAD_REACTORS
330
D
102
}
330
D
100
AcDbGroup
300

 70
     1
 71
     1
  0
GROUP
  5
498F
102
{ACAD_REACTORS
330
D
102
}
330
D
100
AcDbGroup
300

 70
     1
 71
     1
  0
GROUP
  5
17428
102
{ACAD_REACTORS
330
D
102
}
330
D
100
AcDbGroup
300

 70
     1
 71
     1
  0
GROUP
  5
1748F
102
{ACAD_REACTORS
330
D
102
}
330
D
100
AcDbGroup
300

 70
     1
 71
     1
  0
GROUP
  5
17479
102
{ACAD_REACTORS
330
D
102
}
330
D
100
AcDbGroup
300

 70
     1
 71
     1
  0
GROUP
  5
8072
102
{ACAD_REACTORS
330
D
102
}
330
D
100
AcDbGroup
300

 70
     1
 71
     1
  0
GROUP
  5
A387
102
{ACAD_REACTORS
330
D
102
}
330
D
100
AcDbGroup
300

 70
     1
 71
     1
  0
GROUP
  5
A383
102
{ACAD_REACTORS
330
D
102
}
330
D
100
AcDbGroup
300

 70
     1
 71
     1
  0
GROUP
  5
8805
102
{ACAD_REACTORS
330
D
102
}
330
D
100
AcDbGroup
300

 70
     1
 71
     1
  0
GROUP
  5
5DE0
102
{ACAD_REACTORS
330
D
102
}
330
D
100
AcDbGroup
300

 70
     1
 71
     1
  0
GROUP
  5
173C5
102
{ACAD_REACTORS
330
D
102
}
330
D
100
AcDbGroup
300

 70
     1
 71
     1
  0
GROUP
  5
6F77
102
{ACAD_REACTORS
330
D
102
}
330
D
100
AcDbGroup
300

 70
     1
 71
     1
  0
GROUP
  5
106DC
102
{ACAD_REACTORS
330
D
102
}
330
D
100
AcDbGroup
300

 70
     1
 71
     1
  0
GROUP
  5
81B8
102
{ACAD_REACTORS
330
D
102
}
330
D
100
AcDbGroup
300

 70
     1
 71
     1
  0
GROUP
  5
1749C
102
{ACAD_REACTORS
330
D
102
}
330
D
100
AcDbGroup
300

 70
     1
 71
     1
  0
GROUP
  5
965C
102
{ACAD_REACTORS
330
D
102
}
330
D
100
AcDbGroup
300

 70
     1
 71
     1
  0
GROUP
  5
17446
102
{ACAD_REACTORS
330
D
102
}
330
D
100
AcDbGroup
300

 70
     1
 71
     1
  0
GROUP
  5
5C9F
102
{ACAD_REACTORS
330
D
102
}
330
D
100
AcDbGroup
300

 70
     1
 71
     1
  0
GROUP
  5
17454
102
{ACAD_REACTORS
330
D
102
}
330
D
100
AcDbGroup
300

 70
     1
 71
     1
  0
GROUP
  5
1738B
102
{ACAD_REACTORS
330
D
102
}
330
D
100
AcDbGroup
300

 70
     1
 71
     1
  0
GROUP
  5
8814
102
{ACAD_REACTORS
330
D
102
}
330
D
100
AcDbGroup
300

 70
     1
 71
     1
  0
GROUP
  5
806F
102
{ACAD_REACTORS
330
D
102
}
330
D
100
AcDbGroup
300

 70
     1
 71
     1
  0
GROUP
  5
8212
102
{ACAD_REACTORS
330
D
102
}
330
D
100
AcDbGroup
300

 70
     1
 71
     1
  0
GROUP
  5
880F
102
{ACAD_REACTORS
330
D
102
}
330
D
100
AcDbGroup
300

 70
     1
 71
     1
  0
GROUP
  5
A3C5
102
{ACAD_REACTORS
330
D
102
}
330
D
100
AcDbGroup
300

 70
     1
 71
     1
  0
GROUP
  5
17380
102
{ACAD_REACTORS
330
D
102
}
330
D
100
AcDbGroup
300

 70
     1
 71
     1
  0
GROUP
  5
49C7
102
{ACAD_REACTORS
330
D
102
}
330
D
100
AcDbGroup
300

 70
     1
 71
     1
  0
GROUP
  5
E319
102
{ACAD_REACTORS
330
D
102
}
330
D
100
AcDbGroup
300

 70
     1
 71
     1
  0
GROUP
  5
17420
102
{ACAD_REACTORS
330
D
102
}
330
D
100
AcDbGroup
300

 70
     1
 71
     1
  0
GROUP
  5
17442
102
{ACAD_REACTORS
330
D
102
}
330
D
100
AcDbGroup
300

 70
     1
 71
     1
  0
GROUP
  5
174BB
102
{ACAD_REACTORS
330
D
102
}
330
D
100
AcDbGroup
300

 70
     1
 71
     1
  0
GROUP
  5
E1FD
102
{ACAD_REACTORS
330
D
102
}
330
D
100
AcDbGroup
300

 70
     1
 71
     1
  0
GROUP
  5
A61E
102
{ACAD_REACTORS
330
D
102
}
330
D
100
AcDbGroup
300

 70
     1
 71
     1
  0
GROUP
  5
173FA
102
{ACAD_REACTORS
330
D
102
}
330
D
100
AcDbGroup
300

 70
     1
 71
     1
  0
GROUP
  5
10BF
102
{ACAD_REACTORS
330
D
102
}
330
D
100
AcDbGroup
300

 70
     1
 71
     1
  0
GROUP
  5
1747A
102
{ACAD_REACTORS
330
D
102
}
330
D
100
AcDbGroup
300

 70
     1
 71
     1
  0
GROUP
  5
173C6
102
{ACAD_REACTORS
330
D
102
}
330
D
100
AcDbGroup
300

 70
     1
 71
     1
  0
GROUP
  5
2FE2
102
{ACAD_REACTORS
330
D
102
}
330
D
100
AcDbGroup
300

 70
     1
 71
     1
  0
GROUP
  5
49C1
102
{ACAD_REACTORS
330
D
102
}
330
D
100
AcDbGroup
300

 70
     1
 71
     1
  0
GROUP
  5
174F1
102
{ACAD_REACTORS
330
D
102
}
330
D
100
AcDbGroup
300

 70
     1
 71
     1
  0
GROUP
  5
5E65
102
{ACAD_REACTORS
330
D
102
}
330
D
100
AcDbGroup
300

 70
     1
 71
     1
  0
GROUP
  5
17429
102
{ACAD_REACTORS
330
D
102
}
330
D
100
AcDbGroup
300

 70
     1
 71
     1
  0
GROUP
  5
81E1
102
{ACAD_REACTORS
330
D
102
}
330
D
100
AcDbGroup
300

 70
     1
 71
     1
  0
GROUP
  5
1741A
102
{ACAD_REACTORS
330
D
102
}
330
D
100
AcDbGroup
300

 70
     1
 71
     1
  0
GROUP
  5
A628
102
{ACAD_REACTORS
330
D
102
}
330
D
100
AcDbGroup
300

 70
     1
 71
     1
  0
GROUP
  5
1738C
102
{ACAD_REACTORS
330
D
102
}
330
D
100
AcDbGroup
300

 70
     1
 71
     1
  0
GROUP
  5
A3CD
102
{ACAD_REACTORS
330
D
102
}
330
D
100
AcDbGroup
300

 70
     1
 71
     1
  0
GROUP
  5
E1F8
102
{ACAD_REACTORS
330
D
102
}
330
D
100
AcDbGroup
300

 70
     1
 71
     1
  0
GROUP
  5
1158
102
{ACAD_REACTORS
330
D
102
}
330
D
100
AcDbGroup
300

 70
     1
 71
     1
  0
GROUP
  5
1741F
102
{ACAD_REACTORS
330
D
102
}
330
D
100
AcDbGroup
300

 70
     1
 71
     1
  0
GROUP
  5
174F2
102
{ACAD_REACTORS
330
D
102
}
330
D
100
AcDbGroup
300

 70
     1
 71
     1
  0
GROUP
  5
57BC
102
{ACAD_REACTORS
330
D
102
}
330
D
100
AcDbGroup
300

 70
     1
 71
     1
  0
GROUP
  5
1747B
102
{ACAD_REACTORS
330
D
102
}
330
D
100
AcDbGroup
300

 70
     1
 71
     1
  0
GROUP
  5
17373
102
{ACAD_REACTORS
330
D
102
}
330
D
100
AcDbGroup
300

 70
     1
 71
     1
  0
GROUP
  5
10FAF
102
{ACAD_REACTORS
330
D
102
}
330
D
100
AcDbGroup
300

 70
     1
 71
     1
  0
GROUP
  5
173D8
102
{ACAD_REACTORS
330
D
102
}
330
D
100
AcDbGroup
300

 70
     1
 71
     1
  0
GROUP
  5
17445
102
{ACAD_REACTORS
330
D
102
}
330
D
100
AcDbGroup
300

 70
     1
 71
     1
  0
GROUP
  5
174BC
102
{ACAD_REACTORS
330
D
102
}
330
D
100
AcDbGroup
300

 70
     1
 71
     1
  0
GROUP
  5
173FB
102
{ACAD_REACTORS
330
D
102
}
330
D
100
AcDbGroup
300

 70
     1
 71
     1
  0
GROUP
  5
106C1
102
{ACAD_REACTORS
330
D
102
}
330
D
100
AcDbGroup
300

 70
     1
 71
     1
  0
GROUP
  5
3305
102
{ACAD_REACTORS
330
D
102
}
330
D
100
AcDbGroup
300

 70
     1
 71
     1
  0
GROUP
  5
9807
102
{ACAD_REACTORS
330
D
102
}
330
D
100
AcDbGroup
300

 70
     1
 71
     1
  0
GROUP
  5
17463
102
{ACAD_REACTORS
330
D
102
}
330
D
100
AcDbGroup
300

 70
     1
 71
     1
  0
GROUP
  5
1742A
102
{ACAD_REACTORS
330
D
102
}
330
D
100
AcDbGroup
300

 70
     3
 71
     1
  0
GROUP
  5
10B6
102
{ACAD_REACTORS
330
D
102
}
330
D
100
AcDbGroup
300

 70
     1
 71
     1
  0
GROUP
  5
2C9A
102
{ACAD_REACTORS
330
D
102
}
330
D
100
AcDbGroup
300

 70
     1
 71
     1
  0
GROUP
  5
E101
102
{ACAD_REACTORS
330
D
102
}
330
D
100
AcDbGroup
300

 70
     1
 71
     1
  0
GROUP
  5
2CA6
102
{ACAD_REACTORS
330
D
102
}
330
D
100
AcDbGroup
300

 70
     1
 71
     1
  0
GROUP
  5
17464
102
{ACAD_REACTORS
330
D
102
}
330
D
100
AcDbGroup
300

 70
     1
 71
     1
  0
GROUP
  5
173E6
102
{ACAD_REACTORS
330
D
102
}
330
D
100
AcDbGroup
300

 70
     1
 71
     1
  0
GROUP
  5
10FE
102
{ACAD_REACTORS
330
D
102
}
330
D
100
AcDbGroup
300

 70
     1
 71
     1
  0
GROUP
  5
818A
102
{ACAD_REACTORS
330
D
102
}
330
D
100
AcDbGroup
300

 70
     1
 71
     1
  0
GROUP
  5
B346
102
{ACAD_REACTORS
330
D
102
}
330
D
100
AcDbGroup
300

 70
     1
 71
     1
  0
GROUP
  5
17383
102
{ACAD_REACTORS
330
D
102
}
330
D
100
AcDbGroup
300

 70
     1
 71
     1
  0
GROUP
  5
17455
102
{ACAD_REACTORS
330
D
102
}
330
D
100
AcDbGroup
300

 70
     1
 71
     1
  0
GROUP
  5
174B1
102
{ACAD_REACTORS
330
D
102
}
330
D
100
AcDbGroup
300

 70
     1
 71
     1
  0
GROUP
  5
1749D
102
{ACAD_REACTORS
330
D
102
}
330
D
100
AcDbGroup
300

 70
     1
 71
     1
  0
GROUP
  5
1738D
102
{ACAD_REACTORS
330
D
102
}
330
D
100
AcDbGroup
300

 70
     1
 71
     1
  0
GROUP
  5
4998
102
{ACAD_REACTORS
330
D
102
}
330
D
100
AcDbGroup
300

 70
     1
 71
     1
  0
GROUP
  5
A3C9
102
{ACAD_REACTORS
330
D
102
}
330
D
100
AcDbGroup
300

 70
     1
 71
     1
  0
GROUP
  5
8221
102
{ACAD_REACTORS
330
D
102
}
330
D
100
AcDbGroup
300

 70
     1
 71
     1
  0
GROUP
  5
1704D
102
{ACAD_REACTORS
330
D
102
}
330
D
100
AcDbGroup
300

 70
     1
 71
     1
  0
GROUP
  5
499B
102
{ACAD_REACTORS
330
D
102
}
330
D
100
AcDbGroup
300

 70
     1
 71
     1
  0
GROUP
  5
880A
102
{ACAD_REACTORS
330
D
102
}
330
D
100
AcDbGroup
300

 70
     1
 71
     1
  0
GROUP
  5
106E0
102
{ACAD_REACTORS
330
D
102
}
330
D
100
AcDbGroup
300

 70
     1
 71
     1
  0
GROUP
  5
174BD
102
{ACAD_REACTORS
330
D
102
}
330
D
100
AcDbGroup
300

 70
     1
 71
     1
  0
GROUP
  5
8213
102
{ACAD_REACTORS
330
D
102
}
330
D
100
AcDbGroup
300

 70
     1
 71
     1
  0
GROUP
  5
1746F
102
{ACAD_REACTORS
330
D
102
}
330
D
100
AcDbGroup
300

 70
     1
 71
     1
  0
GROUP
  5
1747C
102
{ACAD_REACTORS
330
D
102
}
330
D
100
AcDbGroup
300

 70
     1
 71
     1
  0
GROUP
  5
173C7
102
{ACAD_REACTORS
330
D
102
}
330
D
100
AcDbGroup
300

 70
     1
 71
     1
  0
GROUP
  5
6400
102
{ACAD_REACTORS
330
D
102
}
330
D
100
AcDbGroup
300

 70
     1
 71
     1
  0
GROUP
  5
A3B9
102
{ACAD_REACTORS
330
D
102
}
330
D
100
AcDbGroup
300

 70
     1
 71
     1
  0
GROUP
  5
173A2
102
{ACAD_REACTORS
330
D
102
}
330
D
100
AcDbGroup
300

 70
     1
 71
     1
  0
GROUP
  5
6062
102
{ACAD_REACTORS
330
D
102
}
330
D
100
AcDbGroup
300

 70
     1
 71
     1
  0
GROUP
  5
8375
102
{ACAD_REACTORS
330
D
102
}
330
D
100
AcDbGroup
300

 70
     1
 71
     1
  0
GROUP
  5
173BD
102
{ACAD_REACTORS
330
D
102
}
330
D
100
AcDbGroup
300

 70
     1
 71
     1
  0
GROUP
  5
1122
102
{ACAD_REACTORS
330
D
102
}
330
D
100
AcDbGroup
300

 70
     1
 71
     1
  0
GROUP
  5
7C2A
102
{ACAD_REACTORS
330
D
102
}
330
D
100
AcDbGroup
300

 70
     1
 71
     1
  0
GROUP
  5
1746B
102
{ACAD_REACTORS
330
D
102
}
330
D
100
AcDbGroup
300

 70
     1
 71
     1
  0
GROUP
  5
174D8
102
{ACAD_REACTORS
330
D
102
}
330
D
100
AcDbGroup
300

 70
     1
 71
     1
  0
GROUP
  5
1412D
102
{ACAD_REACTORS
330
D
102
}
330
D
100
AcDbGroup
300

 70
     1
 71
     1
  0
GROUP
  5
339E
102
{ACAD_REACTORS
330
D
102
}
330
D
100
AcDbGroup
300

 70
     1
 71
     1
  0
GROUP
  5
1742B
102
{ACAD_REACTORS
330
D
102
}
330
D
100
AcDbGroup
300

 70
     1
 71
     1
  0
GROUP
  5
17378
102
{ACAD_REACTORS
330
D
102
}
330
D
100
AcDbGroup
300

 70
     1
 71
     1
  0
GROUP
  5
1749E
102
{ACAD_REACTORS
330
D
102
}
330
D
100
AcDbGroup
300

 70
     1
 71
     1
  0
GROUP
  5
33BA
102
{ACAD_REACTORS
330
D
102
}
330
D
100
AcDbGroup
300

 70
     1
 71
     1
  0
GROUP
  5
49DB
102
{ACAD_REACTORS
330
D
102
}
330
D
100
AcDbGroup
300

 70
     1
 71
     1
  0
GROUP
  5
5E5F
102
{ACAD_REACTORS
330
D
102
}
330
D
100
AcDbGroup
300

 70
     1
 71
     1
  0
GROUP
  5
105A3
102
{ACAD_REACTORS
330
D
102
}
330
D
100
AcDbGroup
300

 70
     1
 71
     1
  0
GROUP
  5
64A9
102
{ACAD_REACTORS
330
D
102
}
330
D
100
AcDbGroup
300

 70
     1
 71
     1
  0
GROUP
  5
2A28
102
{ACAD_REACTORS
330
D
102
}
330
D
100
AcDbGroup
300

 70
     1
 71
     1
  0
GROUP
  5
17448
102
{ACAD_REACTORS
330
D
102
}
330
D
100
AcDbGroup
300

 70
     1
 71
     1
  0
GROUP
  5
5E04
102
{ACAD_REACTORS
330
D
102
}
330
D
100
AcDbGroup
300

 70
     1
 71
     1
  0
GROUP
  5
173C8
102
{ACAD_REACTORS
330
D
102
}
330
D
100
AcDbGroup
300

 70
     1
 71
     1
  0
GROUP
  5
1738E
102
{ACAD_REACTORS
330
D
102
}
330
D
100
AcDbGroup
300

 70
     1
 71
     1
  0
GROUP
  5
1738F
102
{ACAD_REACTORS
330
D
102
}
330
D
100
AcDbGroup
300

 70
     1
 71
     1
  0
GROUP
  5
17390
102
{ACAD_REACTORS
330
D
102
}
330
D
100
AcDbGroup
300

 70
     1
 71
     1
  0
GROUP
  5
1744C
102
{ACAD_REACTORS
330
D
102
}
330
D
100
AcDbGroup
300

 70
     3
 71
     1
  0
GROUP
  5
17391
102
{ACAD_REACTORS
330
D
102
}
330
D
100
AcDbGroup
300

 70
     1
 71
     1
  0
GROUP
  5
1749F
102
{ACAD_REACTORS
330
D
102
}
330
D
100
AcDbGroup
300

 70
     1
 71
     1
  0
GROUP
  5
173B1
102
{ACAD_REACTORS
330
D
102
}
330
D
100
AcDbGroup
300

 70
     1
 71
     1
  0
GROUP
  5
17392
102
{ACAD_REACTORS
330
D
102
}
330
D
100
AcDbGroup
300

 70
     1
 71
     1
  0
GROUP
  5
1740C
102
{ACAD_REACTORS
330
D
102
}
330
D
100
AcDbGroup
300

 70
     1
 71
     1
  0
GROUP
  5
1746E
102
{ACAD_REACTORS
330
D
102
}
330
D
100
AcDbGroup
300

 70
     1
 71
     1
  0
GROUP
  5
174D9
102
{ACAD_REACTORS
330
D
102
}
330
D
100
AcDbGroup
300

 70
     1
 71
     1
  0
GROUP
  5
1742C
102
{ACAD_REACTORS
330
D
102
}
330
D
100
AcDbGroup
300

 70
     1
 71
     1
  0
GROUP
  5
1737D
102
{ACAD_REACTORS
330
D
102
}
330
D
100
AcDbGroup
300

 70
     1
 71
     1
  0
GROUP
  5
17393
102
{ACAD_REACTORS
330
D
102
}
330
D
100
AcDbGroup
300

 70
     3
 71
     1
  0
GROUP
  5
17489
102
{ACAD_REACTORS
330
D
102
}
330
D
100
AcDbGroup
300

 70
     1
 71
     1
  0
GROUP
  5
17456
102
{ACAD_REACTORS
330
D
102
}
330
D
100
AcDbGroup
300

 70
     1
 71
     1
  0
GROUP
  5
141EB
102
{ACAD_REACTORS
330
D
102
}
330
D
100
AcDbGroup
300

 70
     1
 71
     1
  0
GROUP
  5
E1FB
102
{ACAD_REACTORS
330
D
102
}
330
D
100
AcDbGroup
300

 70
     1
 71
     1
  0
GROUP
  5
17394
102
{ACAD_REACTORS
330
D
102
}
330
D
100
AcDbGroup
300

 70
     1
 71
     1
  0
GROUP
  5
17395
102
{ACAD_REACTORS
330
D
102
}
330
D
100
AcDbGroup
300

 70
     1
 71
     1
  0
GROUP
  5
1748A
102
{ACAD_REACTORS
330
D
102
}
330
D
100
AcDbGroup
300

 70
     1
 71
     1
  0
GROUP
  5
17419
102
{ACAD_REACTORS
330
D
102
}
330
D
100
AcDbGroup
300

 70
     1
 71
     1
  0
GROUP
  5
141ED
102
{ACAD_REACTORS
330
D
102
}
330
D
100
AcDbGroup
300

 70
     1
 71
     1
  0
GROUP
  5
137AD
102
{ACAD_REACTORS
330
D
102
}
330
D
100
AcDbGroup
300

 70
     1
 71
     1
  0
GROUP
  5
1747D
102
{ACAD_REACTORS
330
D
102
}
330
D
100
AcDbGroup
300

 70
     1
 71
     1
  0
GROUP
  5
174CF
102
{ACAD_REACTORS
330
D
102
}
330
D
100
AcDbGroup
300

 70
     1
 71
     1
  0
GROUP
  5
174BE
102
{ACAD_REACTORS
330
D
102
}
330
D
100
AcDbGroup
300

 70
     1
 71
     1
  0
GROUP
  5
173C9
102
{ACAD_REACTORS
330
D
102
}
330
D
100
AcDbGroup
300

 70
     1
 71
     1
  0
GROUP
  5
64A1
102
{ACAD_REACTORS
330
D
102
}
330
D
100
AcDbGroup
300

 70
     1
 71
     1
  0
GROUP
  5
13789
102
{ACAD_REACTORS
330
D
102
}
330
D
100
AcDbGroup
300

 70
     1
 71
     1
  0
GROUP
  5
17396
102
{ACAD_REACTORS
330
D
102
}
330
D
100
AcDbGroup
300

 70
     1
 71
     1
  0
GROUP
  5
57BA
102
{ACAD_REACTORS
330
D
102
}
330
D
100
AcDbGroup
300

 70
     1
 71
     1
  0
GROUP
  5
1704C
102
{ACAD_REACTORS
330
D
102
}
330
D
100
AcDbGroup
300

 70
     1
 71
     1
  0
GROUP
  5
17397
102
{ACAD_REACTORS
330
D
102
}
330
D
100
AcDbGroup
300

 70
     1
 71
     1
  0
GROUP
  5
174DA
102
{ACAD_REACTORS
330
D
102
}
330
D
100
AcDbGroup
300

 70
     1
 71
     1
  0
GROUP
  5
822B
102
{ACAD_REACTORS
330
D
102
}
330
D
100
AcDbGroup
300

 70
     1
 71
     1
  0
GROUP
  5
17494
102
{ACAD_REACTORS
330
D
102
}
330
D
100
AcDbGroup
300

 70
     1
 71
     1
  0
GROUP
  5
174A0
102
{ACAD_REACTORS
330
D
102
}
330
D
100
AcDbGroup
300

 70
     1
 71
     1
  0
GROUP
  5
173FC
102
{ACAD_REACTORS
330
D
102
}
330
D
100
AcDbGroup
300

 70
     1
 71
     1
  0
GROUP
  5
10AD
102
{ACAD_REACTORS
330
D
102
}
330
D
100
AcDbGroup
300

 70
     1
 71
     1
  0
GROUP
  5
A635
102
{ACAD_REACTORS
330
D
102
}
330
D
100
AcDbGroup
300

 70
     1
 71
     1
  0
GROUP
  5
173DC
102
{ACAD_REACTORS
330
D
102
}
330
D
100
AcDbGroup
300

 70
     1
 71
     1
  0
GROUP
  5
17398
102
{ACAD_REACTORS
330
D
102
}
330
D
100
AcDbGroup
300

 70
     1
 71
     1
  0
GROUP
  5
17399
102
{ACAD_REACTORS
330
D
102
}
330
D
100
AcDbGroup
300

 70
     1
 71
     1
  0
GROUP
  5
1739A
102
{ACAD_REACTORS
330
D
102
}
330
D
100
AcDbGroup
300

 70
     3
 71
     1
  0
GROUP
  5
1739B
102
{ACAD_REACTORS
330
D
102
}
330
D
100
AcDbGroup
300

 70
     1
 71
     1
  0
GROUP
  5
17491
102
{ACAD_REACTORS
330
D
102
}
330
D
100
AcDbGroup
300

 70
     1
 71
     1
  0
GROUP
  5
174F3
102
{ACAD_REACTORS
330
D
102
}
330
D
100
AcDbGroup
300

 70
     1
 71
     1
  0
GROUP
  5
A37B
102
{ACAD_REACTORS
330
D
102
}
330
D
100
AcDbGroup
300

 70
     1
 71
     1
  0
GROUP
  5
1379B
102
{ACAD_REACTORS
330
D
102
}
330
D
100
AcDbGroup
300

 70
     1
 71
     1
  0
GROUP
  5
17457
102
{ACAD_REACTORS
330
D
102
}
330
D
100
AcDbGroup
300

 70
     3
 71
     1
  0
GROUP
  5
5CA6
102
{ACAD_REACTORS
330
D
102
}
330
D
100
AcDbGroup
300

 70
     1
 71
     1
  0
GROUP
  5
174BF
102
{ACAD_REACTORS
330
D
102
}
330
D
100
AcDbGroup
300

 70
     1
 71
     1
  0
GROUP
  5
81E4
102
{ACAD_REACTORS
330
D
102
}
330
D
100
AcDbGroup
300

 70
     1
 71
     1
  0
GROUP
  5
17AC7
102
{ACAD_REACTORS
330
D
102
}
330
D
100
AcDbGroup
300

 70
     1
 71
     1
  0
GROUP
  5
17AC8
102
{ACAD_REACTORS
330
D
102
}
330
D
100
AcDbGroup
300

 70
     1
 71
     1
  0
GROUP
  5
7AF2
102
{ACAD_REACTORS
330
D
102
}
330
D
100
AcDbGroup
300

 70
     1
 71
     1
  0
GROUP
  5
17AC9
102
{ACAD_REACTORS
330
D
102
}
330
D
100
AcDbGroup
300

 70
     1
 71
     1
  0
GROUP
  5
17471
102
{ACAD_REACTORS
330
D
102
}
330
D
100
AcDbGroup
300

 70
     1
 71
     1
  0
GROUP
  5
57BF
102
{ACAD_REACTORS
330
D
102
}
330
D
100
AcDbGroup
300

 70
     1
 71
     1
  0
GROUP
  5
173FD
102
{ACAD_REACTORS
330
D
102
}
330
D
100
AcDbGroup
300

 70
     1
 71
     1
  0
GROUP
  5
17ACA
102
{ACAD_REACTORS
330
D
102
}
330
D
100
AcDbGroup
300

 70
     1
 71
     1
  0
GROUP
  5
17D2B
102
{ACAD_REACTORS
330
D
102
}
330
D
100
AcDbGroup
300

 70
     1
 71
     1
  0
GROUP
  5
17D33
102
{ACAD_REACTORS
330
D
102
}
330
D
100
AcDbGroup
300

 70
     1
 71
     1
  0
GROUP
  5
17D4F
102
{ACAD_REACTORS
330
D
102
}
330
D
100
AcDbGroup
300

 70
     1
 71
     1
  0
GROUP
  5
174C0
102
{ACAD_REACTORS
330
D
102
}
330
D
100
AcDbGroup
300

 70
     1
 71
     1
  0
GROUP
  5
173E9
102
{ACAD_REACTORS
330
D
102
}
330
D
100
AcDbGroup
300

 70
     1
 71
     1
  0
GROUP
  5
17D65
102
{ACAD_REACTORS
330
D
102
}
330
D
100
AcDbGroup
300

 70
     1
 71
     1
  0
GROUP
  5
1743B
102
{ACAD_REACTORS
330
D
102
}
330
D
100
AcDbGroup
300

 70
     1
 71
     1
  0
GROUP
  5
17493
102
{ACAD_REACTORS
330
D
102
}
330
D
100
AcDbGroup
300

 70
     1
 71
     1
  0
GROUP
  5
174F4
102
{ACAD_REACTORS
330
D
102
}
330
D
100
AcDbGroup
300

 70
     1
 71
     1
  0
GROUP
  5
17458
102
{ACAD_REACTORS
330
D
102
}
330
D
100
AcDbGroup
300

 70
     1
 71
     1
  0
GROUP
  5
173BA
102
{ACAD_REACTORS
330
D
102
}
330
D
100
AcDbGroup
300

 70
     1
 71
     1
  0
GROUP
  5
17D66
102
{ACAD_REACTORS
330
D
102
}
330
D
100
AcDbGroup
300

 70
     1
 71
     1
  0
GROUP
  5
DCC3
102
{ACAD_REACTORS
330
D
102
}
330
D
100
AcDbGroup
300

 70
     1
 71
     1
  0
GROUP
  5
5DC8
102
{ACAD_REACTORS
330
D
102
}
330
D
100
AcDbGroup
300

 70
     1
 71
     1
  0
GROUP
  5
77C8
102
{ACAD_REACTORS
330
D
102
}
330
D
100
AcDbGroup
300

 70
     1
 71
     1
  0
GROUP
  5
17D9A
102
{ACAD_REACTORS
330
D
102
}
330
D
100
AcDbGroup
300

 70
     1
 71
     1
  0
GROUP
  5
17D9C
102
{ACAD_REACTORS
330
D
102
}
330
D
100
AcDbGroup
300

 70
     1
 71
     1
  0
GROUP
  5
174AD
102
{ACAD_REACTORS
330
D
102
}
330
D
100
AcDbGroup
300

 70
     1
 71
     1
  0
GROUP
  5
17447
102
{ACAD_REACTORS
330
D
102
}
330
D
100
AcDbGroup
300

 70
     1
 71
     1
  0
GROUP
  5
4A14
102
{ACAD_REACTORS
330
D
102
}
330
D
100
AcDbGroup
300

 70
     1
 71
     1
  0
GROUP
  5
17DAD
102
{ACAD_REACTORS
330
D
102
}
330
D
100
AcDbGroup
300

 70
     1
 71
     1
  0
GROUP
  5
174A1
102
{ACAD_REACTORS
330
D
102
}
330
D
100
AcDbGroup
300

 70
     1
 71
     1
  0
GROUP
  5
174DB
102
{ACAD_REACTORS
330
D
102
}
330
D
100
AcDbGroup
300

 70
     1
 71
     1
  0
GROUP
  5
173FE
102
{ACAD_REACTORS
330
D
102
}
330
D
100
AcDbGroup
300

 70
     3
 71
     1
  0
GROUP
  5
17DB2
102
{ACAD_REACTORS
330
D
102
}
330
D
100
AcDbGroup
300

 70
     1
 71
     1
  0
GROUP
  5
17DD1
102
{ACAD_REACTORS
330
D
102
}
330
D
100
AcDbGroup
300

 70
     1
 71
     1
  0
GROUP
  5
17E3E
102
{ACAD_REACTORS
330
D
102
}
330
D
100
AcDbGroup
300

 70
     1
 71
     1
  0
GROUP
  5
13792
102
{ACAD_REACTORS
330
D
102
}
330
D
100
AcDbGroup
300

 70
     1
 71
     1
  0
GROUP
  5
173A1
102
{ACAD_REACTORS
330
D
102
}
330
D
100
AcDbGroup
300

 70
     1
 71
     1
  0
GROUP
  5
17E3F
102
{ACAD_REACTORS
330
D
102
}
330
D
100
AcDbGroup
300

 70
     1
 71
     1
  0
GROUP
  5
174F5
102
{ACAD_REACTORS
330
D
102
}
330
D
100
AcDbGroup
300

 70
     1
 71
     1
  0
GROUP
  5
17E50
102
{ACAD_REACTORS
330
D
102
}
330
D
100
AcDbGroup
300

 70
     1
 71
     1
  0
GROUP
  5
174C1
102
{ACAD_REACTORS
330
D
102
}
330
D
100
AcDbGroup
300

 70
     1
 71
     1
  0
GROUP
  5
1742D
102
{ACAD_REACTORS
330
D
102
}
330
D
100
AcDbGroup
300

 70
     1
 71
     1
  0
GROUP
  5
14890
102
{ACAD_REACTORS
330
D
102
}
330
D
100
AcDbGroup
300

 70
     1
 71
     1
  0
GROUP
  5
17E51
102
{ACAD_REACTORS
330
D
102
}
330
D
100
AcDbGroup
300

 70
     1
 71
     1
  0
GROUP
  5
820E
102
{ACAD_REACTORS
330
D
102
}
330
D
100
AcDbGroup
300

 70
     1
 71
     1
  0
GROUP
  5
10636
102
{ACAD_REACTORS
330
D
102
}
330
D
100
AcDbGroup
300

 70
     1
 71
     1
  0
GROUP
  5
17E81
102
{ACAD_REACTORS
330
D
102
}
330
D
100
AcDbGroup
300

 70
     1
 71
     1
  0
GROUP
  5
17E92
102
{ACAD_REACTORS
330
D
102
}
330
D
100
AcDbGroup
300

 70
     1
 71
     1
  0
GROUP
  5
1739F
102
{ACAD_REACTORS
330
D
102
}
330
D
100
AcDbGroup
300

 70
     1
 71
     1
  0
GROUP
  5
174B3
102
{ACAD_REACTORS
330
D
102
}
330
D
100
AcDbGroup
300

 70
     1
 71
     1
  0
GROUP
  5
2FE8
102
{ACAD_REACTORS
330
D
102
}
330
D
100
AcDbGroup
300

 70
     1
 71
     1
  0
GROUP
  5
8227
102
{ACAD_REACTORS
330
D
102
}
330
D
100
AcDbGroup
300

 70
     1
 71
     1
  0
GROUP
  5
1747E
102
{ACAD_REACTORS
330
D
102
}
330
D
100
AcDbGroup
300

 70
     1
 71
     1
  0
GROUP
  5
3487
102
{ACAD_REACTORS
330
D
102
}
330
D
100
AcDbGroup
300

 70
     1
 71
     1
  0
GROUP
  5
174DC
102
{ACAD_REACTORS
330
D
102
}
330
D
100
AcDbGroup
300

 70
     1
 71
     1
  0
GROUP
  5
1069F
102
{ACAD_REACTORS
330
D
102
}
330
D
100
AcDbGroup
300

 70
     1
 71
     1
  0
GROUP
  5
173CA
102
{ACAD_REACTORS
330
D
102
}
330
D
100
AcDbGroup
300

 70
     1
 71
     1
  0
GROUP
  5
173CB
102
{ACAD_REACTORS
330
D
102
}
330
D
100
AcDbGroup
300

 70
     1
 71
     1
  0
GROUP
  5
10684
102
{ACAD_REACTORS
330
D
102
}
330
D
100
AcDbGroup
300

 70
     1
 71
     1
  0
GROUP
  5
173CC
102
{ACAD_REACTORS
330
D
102
}
330
D
100
AcDbGroup
300

 70
     1
 71
     1
  0
GROUP
  5
A637
102
{ACAD_REACTORS
330
D
102
}
330
D
100
AcDbGroup
300

 70
     1
 71
     1
  0
GROUP
  5
49A1
102
{ACAD_REACTORS
330
D
102
}
330
D
100
AcDbGroup
300

 70
     1
 71
     1
  0
GROUP
  5
173CD
102
{ACAD_REACTORS
330
D
102
}
330
D
100
AcDbGroup
300

 70
     1
 71
     1
  0
GROUP
  5
173CE
102
{ACAD_REACTORS
330
D
102
}
330
D
100
AcDbGroup
300

 70
     1
 71
     1
  0
GROUP
  5
8062
102
{ACAD_REACTORS
330
D
102
}
330
D
100
AcDbGroup
300

 70
     1
 71
     1
  0
GROUP
  5
173CF
102
{ACAD_REACTORS
330
D
102
}
330
D
100
AcDbGroup
300

 70
     1
 71
     1
  0
GROUP
  5
174DD
102
{ACAD_REACTORS
330
D
102
}
330
D
100
AcDbGroup
300

 70
     1
 71
     1
  0
GROUP
  5
1741B
102
{ACAD_REACTORS
330
D
102
}
330
D
100
AcDbGroup
300

 70
     1
 71
     1
  0
GROUP
  5
173D0
102
{ACAD_REACTORS
330
D
102
}
330
D
100
AcDbGroup
300

 70
     1
 71
     1
  0
GROUP
  5
17465
102
{ACAD_REACTORS
330
D
102
}
330
D
100
AcDbGroup
300

 70
     1
 71
     1
  0
GROUP
  5
1747F
102
{ACAD_REACTORS
330
D
102
}
330
D
100
AcDbGroup
300

 70
     1
 71
     1
  0
GROUP
  5
B343
102
{ACAD_REACTORS
330
D
102
}
330
D
100
AcDbGroup
300

 70
     1
 71
     1
  0
GROUP
  5
1064E
102
{ACAD_REACTORS
330
D
102
}
330
D
100
AcDbGroup
300

 70
     1
 71
     1
  0
GROUP
  5
1107
102
{ACAD_REACTORS
330
D
102
}
330
D
100
AcDbGroup
300

 70
     1
 71
     1
  0
GROUP
  5
A38B
102
{ACAD_REACTORS
330
D
102
}
330
D
100
AcDbGroup
300

 70
     1
 71
     1
  0
GROUP
  5
5134
102
{ACAD_REACTORS
330
D
102
}
330
D
100
AcDbGroup
300

 70
     1
 71
     1
  0
GROUP
  5
173A0
102
{ACAD_REACTORS
330
D
102
}
330
D
100
AcDbGroup
300

 70
     1
 71
     1
  0
GROUP
  5
4ABC
102
{ACAD_REACTORS
330
D
102
}
330
D
100
AcDbGroup
300

 70
     1
 71
     1
  0
GROUP
  5
174CC
102
{ACAD_REACTORS
330
D
102
}
330
D
100
AcDbGroup
300

 70
     1
 71
     1
  0
GROUP
  5
17470
102
{ACAD_REACTORS
330
D
102
}
330
D
100
AcDbGroup
300

 70
     1
 71
     1
  0
GROUP
  5
173D1
102
{ACAD_REACTORS
330
D
102
}
330
D
100
AcDbGroup
300

 70
     1
 71
     1
  0
GROUP
  5
174C2
102
{ACAD_REACTORS
330
D
102
}
330
D
100
AcDbGroup
300

 70
     1
 71
     1
  0
GROUP
  5
4995
102
{ACAD_REACTORS
330
D
102
}
330
D
100
AcDbGroup
300

 70
     1
 71
     1
  0
GROUP
  5
1742E
102
{ACAD_REACTORS
330
D
102
}
330
D
100
AcDbGroup
300

 70
     1
 71
     1
  0
GROUP
  5
173D2
102
{ACAD_REACTORS
330
D
102
}
330
D
100
AcDbGroup
300

 70
     1
 71
     1
  0
GROUP
  5
49E4
102
{ACAD_REACTORS
330
D
102
}
330
D
100
AcDbGroup
300

 70
     1
 71
     1
  0
GROUP
  5
137C8
102
{ACAD_REACTORS
330
D
102
}
330
D
100
AcDbGroup
300

 70
     1
 71
     1
  0
GROUP
  5
5E1D
102
{ACAD_REACTORS
330
D
102
}
330
D
100
AcDbGroup
300

 70
     1
 71
     1
  0
GROUP
  5
173DB
102
{ACAD_REACTORS
330
D
102
}
330
D
100
AcDbGroup
300

 70
     1
 71
     1
  0
GROUP
  5
173D3
102
{ACAD_REACTORS
330
D
102
}
330
D
100
AcDbGroup
300

 70
     1
 71
     1
  0
GROUP
  5
10FB0
102
{ACAD_REACTORS
330
D
102
}
330
D
100
AcDbGroup
300

 70
     1
 71
     1
  0
GROUP
  5
174DE
102
{ACAD_REACTORS
330
D
102
}
330
D
100
AcDbGroup
300

 70
     1
 71
     1
  0
GROUP
  5
17459
102
{ACAD_REACTORS
330
D
102
}
330
D
100
AcDbGroup
300

 70
     1
 71
     1
  0
GROUP
  5
112B
102
{ACAD_REACTORS
330
D
102
}
330
D
100
AcDbGroup
300

 70
     1
 71
     1
  0
GROUP
  5
173D4
102
{ACAD_REACTORS
330
D
102
}
330
D
100
AcDbGroup
300

 70
     1
 71
     1
  0
GROUP
  5
5DEC
102
{ACAD_REACTORS
330
D
102
}
330
D
100
AcDbGroup
300

 70
     1
 71
     1
  0
GROUP
  5
173D5
102
{ACAD_REACTORS
330
D
102
}
330
D
100
AcDbGroup
300

 70
     1
 71
     1
  0
GROUP
  5
10F5
102
{ACAD_REACTORS
330
D
102
}
330
D
100
AcDbGroup
300

 70
     1
 71
     1
  0
GROUP
  5
5E34
102
{ACAD_REACTORS
330
D
102
}
330
D
100
AcDbGroup
300

 70
     1
 71
     1
  0
GROUP
  5
173D9
102
{ACAD_REACTORS
330
D
102
}
330
D
100
AcDbGroup
300

 70
     1
 71
     1
  0
GROUP
  5
173A9
102
{ACAD_REACTORS
330
D
102
}
330
D
100
AcDbGroup
300

 70
     1
 71
     1
  0
GROUP
  5
5E6B
102
{ACAD_REACTORS
330
D
102
}
330
D
100
AcDbGroup
300

 70
     1
 71
     1
  0
GROUP
  5
174A2
102
{ACAD_REACTORS
330
D
102
}
330
D
100
AcDbGroup
300

 70
     1
 71
     1
  0
GROUP
  5
2FE9
102
{ACAD_REACTORS
330
D
102
}
330
D
100
AcDbGroup
300

 70
     1
 71
     1
  0
GROUP
  5
174F6
102
{ACAD_REACTORS
330
D
102
}
330
D
100
AcDbGroup
300

 70
     1
 71
     1
  0
GROUP
  5
64A5
102
{ACAD_REACTORS
330
D
102
}
330
D
100
AcDbGroup
300

 70
     1
 71
     1
  0
GROUP
  5
173FF
102
{ACAD_REACTORS
330
D
102
}
330
D
100
AcDbGroup
300

 70
     1
 71
     1
  0
GROUP
  5
17400
102
{ACAD_REACTORS
330
D
102
}
330
D
100
AcDbGroup
300

 70
     1
 71
     1
  0
GROUP
  5
5E4A
102
{ACAD_REACTORS
330
D
102
}
330
D
100
AcDbGroup
300

 70
     1
 71
     1
  0
GROUP
  5
17401
102
{ACAD_REACTORS
330
D
102
}
330
D
100
AcDbGroup
300

 70
     1
 71
     1
  0
GROUP
  5
83DB
102
{ACAD_REACTORS
330
D
102
}
330
D
100
AcDbGroup
300

 70
     1
 71
     1
  0
GROUP
  5
17402
102
{ACAD_REACTORS
330
D
102
}
330
D
100
AcDbGroup
300

 70
     1
 71
     1
  0
GROUP
  5
17403
102
{ACAD_REACTORS
330
D
102
}
330
D
100
AcDbGroup
300

 70
     1
 71
     1
  0
GROUP
  5
8222
102
{ACAD_REACTORS
330
D
102
}
330
D
100
AcDbGroup
300

 70
     1
 71
     1
  0
GROUP
  5
17404
102
{ACAD_REACTORS
330
D
102
}
330
D
100
AcDbGroup
300

 70
     1
 71
     1
  0
GROUP
  5
174F7
102
{ACAD_REACTORS
330
D
102
}
330
D
100
AcDbGroup
300

 70
     1
 71
     1
  0
GROUP
  5
17449
102
{ACAD_REACTORS
330
D
102
}
330
D
100
AcDbGroup
300

 70
     1
 71
     1
  0
GROUP
  5
17405
102
{ACAD_REACTORS
330
D
102
}
330
D
100
AcDbGroup
300

 70
     1
 71
     1
  0
GROUP
  5
1748B
102
{ACAD_REACTORS
330
D
102
}
330
D
100
AcDbGroup
300

 70
     1
 71
     1
  0
GROUP
  5
174A3
102
{ACAD_REACTORS
330
D
102
}
330
D
100
AcDbGroup
300

 70
     1
 71
     1
  0
GROUP
  5
1089
102
{ACAD_REACTORS
330
D
102
}
330
D
100
AcDbGroup
300

 70
     1
 71
     1
  0
GROUP
  5
137D1
102
{ACAD_REACTORS
330
D
102
}
330
D
100
AcDbGroup
300

 70
     1
 71
     1
  0
GROUP
  5
10E39
102
{ACAD_REACTORS
330
D
102
}
330
D
100
AcDbGroup
300

 70
     1
 71
     1
  0
GROUP
  5
7AC6
102
{ACAD_REACTORS
330
D
102
}
330
D
100
AcDbGroup
300

 70
     1
 71
     1
  0
GROUP
  5
173DA
102
{ACAD_REACTORS
330
D
102
}
330
D
100
AcDbGroup
300

 70
     1
 71
     1
  0
GROUP
  5
141EC
102
{ACAD_REACTORS
330
D
102
}
330
D
100
AcDbGroup
300

 70
     1
 71
     1
  0
GROUP
  5
174E8
102
{ACAD_REACTORS
330
D
102
}
330
D
100
AcDbGroup
300

 70
     1
 71
     1
  0
GROUP
  5
17495
102
{ACAD_REACTORS
330
D
102
}
330
D
100
AcDbGroup
300

 70
     1
 71
     1
  0
GROUP
  5
328C
102
{ACAD_REACTORS
330
D
102
}
330
D
100
AcDbGroup
300

 70
     1
 71
     1
  0
GROUP
  5
174DF
102
{ACAD_REACTORS
330
D
102
}
330
D
100
AcDbGroup
300

 70
     1
 71
     1
  0
GROUP
  5
1745A
102
{ACAD_REACTORS
330
D
102
}
330
D
100
AcDbGroup
300

 70
     1
 71
     1
  0
GROUP
  5
17406
102
{ACAD_REACTORS
330
D
102
}
330
D
100
AcDbGroup
300

 70
     1
 71
     1
  0
GROUP
  5
8051
102
{ACAD_REACTORS
330
D
102
}
330
D
100
AcDbGroup
300

 70
     1
 71
     1
  0
GROUP
  5
317D
102
{ACAD_REACTORS
330
D
102
}
330
D
100
AcDbGroup
300

 70
     1
 71
     1
  0
GROUP
  5
106E
102
{ACAD_REACTORS
330
D
102
}
330
D
100
AcDbGroup
300

 70
     1
 71
     1
  0
GROUP
  5
1740F
102
{ACAD_REACTORS
330
D
102
}
330
D
100
AcDbGroup
300

 70
     1
 71
     1
  0
GROUP
  5
17407
102
{ACAD_REACTORS
330
D
102
}
330
D
100
AcDbGroup
300

 70
     1
 71
     1
  0
GROUP
  5
57BB
102
{ACAD_REACTORS
330
D
102
}
330
D
100
AcDbGroup
300

 70
     1
 71
     1
  0
GROUP
  5
174F8
102
{ACAD_REACTORS
330
D
102
}
330
D
100
AcDbGroup
300

 70
     1
 71
     1
  0
GROUP
  5
17480
102
{ACAD_REACTORS
330
D
102
}
330
D
100
AcDbGroup
300

 70
     1
 71
     1
  0
GROUP
  5
17408
102
{ACAD_REACTORS
330
D
102
}
330
D
100
AcDbGroup
300

 70
     1
 71
     1
  0
GROUP
  5
5DD4
102
{ACAD_REACTORS
330
D
102
}
330
D
100
AcDbGroup
300

 70
     1
 71
     1
  0
GROUP
  5
17409
102
{ACAD_REACTORS
330
D
102
}
330
D
100
AcDbGroup
300

 70
     1
 71
     1
  0
GROUP
  5
E684
102
{ACAD_REACTORS
330
D
102
}
330
D
100
AcDbGroup
300

 70
     1
 71
     1
  0
GROUP
  5
980E
102
{ACAD_REACTORS
330
D
102
}
330
D
100
AcDbGroup
300

 70
     1
 71
     1
  0
GROUP
  5
17EC4
102
{ACAD_REACTORS
330
D
102
}
330
D
100
AcDbGroup
300

 70
     1
 71
     1
340
17EC3
340
17EC1
340
17EC0
340
17EC2
  0
GROUP
  5
173E2
102
{ACAD_REACTORS
330
D
102
}
330
D
100
AcDbGroup
300

 70
     1
 71
     1
  0
GROUP
  5
18164
102
{ACAD_REACTORS
330
D
102
}
330
D
100
AcDbGroup
300

 70
     1
 71
     1
  0
GROUP
  5
174C3
102
{ACAD_REACTORS
330
D
102
}
330
D
100
AcDbGroup
300

 70
     1
 71
     1
  0
GROUP
  5
5D44
102
{ACAD_REACTORS
330
D
102
}
330
D
100
AcDbGroup
300

 70
     1
 71
     1
  0
GROUP
  5
1737A
102
{ACAD_REACTORS
330
D
102
}
330
D
100
AcDbGroup
300

 70
     1
 71
     1
  0
GROUP
  5
18165
102
{ACAD_REACTORS
330
D
102
}
330
D
100
AcDbGroup
300

 70
     1
 71
     1
  0
GROUP
  5
18166
102
{ACAD_REACTORS
330
D
102
}
330
D
100
AcDbGroup
300

 70
     1
 71
     1
  0
GROUP
  5
17381
102
{ACAD_REACTORS
330
D
102
}
330
D
100
AcDbGroup
300

 70
     1
 71
     1
  0
GROUP
  5
18167
102
{ACAD_REACTORS
330
D
102
}
330
D
100
AcDbGroup
300

 70
     1
 71
     1
  0
GROUP
  5
106D4
102
{ACAD_REACTORS
330
D
102
}
330
D
100
AcDbGroup
300

 70
     1
 71
     1
  0
GROUP
  5
18168
102
{ACAD_REACTORS
330
D
102
}
330
D
100
AcDbGroup
300

 70
     1
 71
     1
  0
GROUP
  5
18183
102
{ACAD_REACTORS
330
D
102
}
330
D
100
AcDbGroup
300

 70
     1
 71
     1
  0
GROUP
  5
1740D
102
{ACAD_REACTORS
330
D
102
}
330
D
100
AcDbGroup
300

 70
     1
 71
     1
  0
GROUP
  5
4F1D
102
{ACAD_REACTORS
330
D
102
}
330
D
100
AcDbGroup
300

 70
     1
 71
     1
  0
GROUP
  5
17472
102
{ACAD_REACTORS
330
D
102
}
330
D
100
AcDbGroup
300

 70
     1
 71
     1
  0
GROUP
  5
1742F
102
{ACAD_REACTORS
330
D
102
}
330
D
100
AcDbGroup
300

 70
     1
 71
     1
  0
GROUP
  5
174AE
102
{ACAD_REACTORS
330
D
102
}
330
D
100
AcDbGroup
300

 70
     1
 71
     1
  0
GROUP
  5
5F9B
102
{ACAD_REACTORS
330
D
102
}
330
D
100
AcDbGroup
300

 70
     1
 71
     1
  0
GROUP
  5
17430
102
{ACAD_REACTORS
330
D
102
}
330
D
100
AcDbGroup
300

 70
     1
 71
     1
  0
GROUP
  5
83B1
102
{ACAD_REACTORS
330
D
102
}
330
D
100
AcDbGroup
300

 70
     1
 71
     1
  0
GROUP
  5
57B9
102
{ACAD_REACTORS
330
D
102
}
330
D
100
AcDbGroup
300

 70
     1
 71
     1
  0
GROUP
  5
17374
102
{ACAD_REACTORS
330
D
102
}
330
D
100
AcDbGroup
300

 70
     1
 71
     1
  0
GROUP
  5
17431
102
{ACAD_REACTORS
330
D
102
}
330
D
100
AcDbGroup
300

 70
     1
 71
     1
  0
GROUP
  5
17432
102
{ACAD_REACTORS
330
D
102
}
330
D
100
AcDbGroup
300

 70
     1
 71
     1
  0
GROUP
  5
17433
102
{ACAD_REACTORS
330
D
102
}
330
D
100
AcDbGroup
300

 70
     3
 71
     1
  0
GROUP
  5
174F9
102
{ACAD_REACTORS
330
D
102
}
330
D
100
AcDbGroup
300

 70
     1
 71
     1
  0
GROUP
  5
17481
102
{ACAD_REACTORS
330
D
102
}
330
D
100
AcDbGroup
300

 70
     1
 71
     1
  0
GROUP
  5
5DF8
102
{ACAD_REACTORS
330
D
102
}
330
D
100
AcDbGroup
300

 70
     1
 71
     1
  0
GROUP
  5
17434
102
{ACAD_REACTORS
330
D
102
}
330
D
100
AcDbGroup
300

 70
     1
 71
     1
  0
GROUP
  5
17435
102
{ACAD_REACTORS
330
D
102
}
330
D
100
AcDbGroup
300

 70
     1
 71
     1
  0
GROUP
  5
DF9C
102
{ACAD_REACTORS
330
D
102
}
330
D
100
AcDbGroup
300

 70
     1
 71
     1
  0
GROUP
  5
1743E
102
{ACAD_REACTORS
330
D
102
}
330
D
100
AcDbGroup
300

 70
     1
 71
     1
  0
GROUP
  5
173AA
102
{ACAD_REACTORS
330
D
102
}
330
D
100
AcDbGroup
300

 70
     1
 71
     1
  0
GROUP
  5
1740E
102
{ACAD_REACTORS
330
D
102
}
330
D
100
AcDbGroup
300

 70
     1
 71
     1
  0
GROUP
  5
174A4
102
{ACAD_REACTORS
330
D
102
}
330
D
100
AcDbGroup
300

 70
     3
 71
     1
  0
GROUP
  5
10678
102
{ACAD_REACTORS
330
D
102
}
330
D
100
AcDbGroup
300

 70
     1
 71
     1
  0
GROUP
  5
5E55
102
{ACAD_REACTORS
330
D
102
}
330
D
100
AcDbGroup
300

 70
     1
 71
     1
  0
GROUP
  5
8065
102
{ACAD_REACTORS
330
D
102
}
330
D
100
AcDbGroup
300

 70
     1
 71
     1
  0
GROUP
  5
173A5
102
{ACAD_REACTORS
330
D
102
}
330
D
100
AcDbGroup
300

 70
     3
 71
     1
  0
GROUP
  5
17436
102
{ACAD_REACTORS
330
D
102
}
330
D
100
AcDbGroup
300

 70
     3
 71
     1
  0
GROUP
  5
4ABD
102
{ACAD_REACTORS
330
D
102
}
330
D
100
AcDbGroup
300

 70
     1
 71
     1
  0
GROUP
  5
17415
102
{ACAD_REACTORS
330
D
102
}
330
D
100
AcDbGroup
300

 70
     1
 71
     1
  0
GROUP
  5
512A
102
{ACAD_REACTORS
330
D
102
}
330
D
100
AcDbGroup
300

 70
     1
 71
     1
  0
GROUP
  5
174E0
102
{ACAD_REACTORS
330
D
102
}
330
D
100
AcDbGroup
300

 70
     1
 71
     1
  0
GROUP
  5
173B7
102
{ACAD_REACTORS
330
D
102
}
330
D
100
AcDbGroup
300

 70
     1
 71
     1
  0
GROUP
  5
17437
102
{ACAD_REACTORS
330
D
102
}
330
D
100
AcDbGroup
300

 70
     1
 71
     1
  0
GROUP
  5
10DA
102
{ACAD_REACTORS
330
D
102
}
330
D
100
AcDbGroup
300

 70
     1
 71
     1
  0
GROUP
  5
173BE
102
{ACAD_REACTORS
330
D
102
}
330
D
100
AcDbGroup
300

 70
     1
 71
     1
  0
GROUP
  5
4986
102
{ACAD_REACTORS
330
D
102
}
330
D
100
AcDbGroup
300

 70
     1
 71
     1
  0
GROUP
  5
9650
102
{ACAD_REACTORS
330
D
102
}
330
D
100
AcDbGroup
300

 70
     1
 71
     1
  0
GROUP
  5
17438
102
{ACAD_REACTORS
330
D
102
}
330
D
100
AcDbGroup
300

 70
     1
 71
     1
  0
GROUP
  5
17370
102
{ACAD_REACTORS
330
D
102
}
330
D
100
AcDbGroup
300

 70
     1
 71
     1
  0
GROUP
  5
1743C
102
{ACAD_REACTORS
330
D
102
}
330
D
100
AcDbGroup
300

 70
     1
 71
     1
  0
GROUP
  5
49DE
102
{ACAD_REACTORS
330
D
102
}
330
D
100
AcDbGroup
300

 70
     1
 71
     1
  0
GROUP
  5
1745B
102
{ACAD_REACTORS
330
D
102
}
330
D
100
AcDbGroup
300

 70
     1
 71
     1
  0
GROUP
  5
174CD
102
{ACAD_REACTORS
330
D
102
}
330
D
100
AcDbGroup
300

 70
     1
 71
     1
  0
GROUP
  5
5E29
102
{ACAD_REACTORS
330
D
102
}
330
D
100
AcDbGroup
300

 70
     1
 71
     1
  0
GROUP
  5
1745C
102
{ACAD_REACTORS
330
D
102
}
330
D
100
AcDbGroup
300

 70
     1
 71
     1
  0
GROUP
  5
A3C1
102
{ACAD_REACTORS
330
D
102
}
330
D
100
AcDbGroup
300

 70
     1
 71
     1
  0
GROUP
  5
3289
102
{ACAD_REACTORS
330
D
102
}
330
D
100
AcDbGroup
300

 70
     1
 71
     1
  0
GROUP
  5
173B2
102
{ACAD_REACTORS
330
D
102
}
330
D
100
AcDbGroup
300

 70
     1
 71
     1
  0
GROUP
  5
1745D
102
{ACAD_REACTORS
330
D
102
}
330
D
100
AcDbGroup
300

 70
     1
 71
     1
  0
GROUP
  5
1745E
102
{ACAD_REACTORS
330
D
102
}
330
D
100
AcDbGroup
300

 70
     1
 71
     1
  0
GROUP
  5
1745F
102
{ACAD_REACTORS
330
D
102
}
330
D
100
AcDbGroup
300

 70
     1
 71
     1
  0
GROUP
  5
174A5
102
{ACAD_REACTORS
330
D
102
}
330
D
100
AcDbGroup
300

 70
     1
 71
     1
  0
GROUP
  5
980D
102
{ACAD_REACTORS
330
D
102
}
330
D
100
AcDbGroup
300

 70
     1
 71
     1
  0
GROUP
  5
498C
102
{ACAD_REACTORS
330
D
102
}
330
D
100
AcDbGroup
300

 70
     1
 71
     1
  0
GROUP
  5
4AB1
102
{ACAD_REACTORS
330
D
102
}
330
D
100
AcDbGroup
300

 70
     1
 71
     1
  0
GROUP
  5
3183
102
{ACAD_REACTORS
330
D
102
}
330
D
100
AcDbGroup
300

 70
     1
 71
     1
  0
GROUP
  5
17468
102
{ACAD_REACTORS
330
D
102
}
330
D
100
AcDbGroup
300

 70
     1
 71
     1
  0
GROUP
  5
173E3
102
{ACAD_REACTORS
330
D
102
}
330
D
100
AcDbGroup
300

 70
     1
 71
     1
  0
GROUP
  5
1743D
102
{ACAD_REACTORS
330
D
102
}
330
D
100
AcDbGroup
300

 70
     1
 71
     1
  0
GROUP
  5
4AA4
102
{ACAD_REACTORS
330
D
102
}
330
D
100
AcDbGroup
300

 70
     1
 71
     1
  0
GROUP
  5
49CA
102
{ACAD_REACTORS
330
D
102
}
330
D
100
AcDbGroup
300

 70
     1
 71
     1
  0
GROUP
  5
1134
102
{ACAD_REACTORS
330
D
102
}
330
D
100
AcDbGroup
300

 70
     1
 71
     1
  0
GROUP
  5
173DE
102
{ACAD_REACTORS
330
D
102
}
330
D
100
AcDbGroup
300

 70
     1
 71
     1
  0
GROUP
  5
17460
102
{ACAD_REACTORS
330
D
102
}
330
D
100
AcDbGroup
300

 70
     1
 71
     1
  0
GROUP
  5
10D15
102
{ACAD_REACTORS
330
D
102
}
330
D
100
AcDbGroup
300

 70
     1
 71
     1
  0
GROUP
  5
17443
102
{ACAD_REACTORS
330
D
102
}
330
D
100
AcDbGroup
300

 70
     1
 71
     1
  0
GROUP
  5
17375
102
{ACAD_REACTORS
330
D
102
}
330
D
100
AcDbGroup
300

 70
     1
 71
     1
  0
GROUP
  5
174FA
102
{ACAD_REACTORS
330
D
102
}
330
D
100
AcDbGroup
300

 70
     1
 71
     1
  0
GROUP
  5
173EF
102
{ACAD_REACTORS
330
D
102
}
330
D
100
AcDbGroup
300

 70
     1
 71
     1
  0
GROUP
  5
17461
102
{ACAD_REACTORS
330
D
102
}
330
D
100
AcDbGroup
300

 70
     1
 71
     1
  0
GROUP
  5
33B9
102
{ACAD_REACTORS
330
D
102
}
330
D
100
AcDbGroup
300

 70
     1
 71
     1
  0
GROUP
  5
5129
102
{ACAD_REACTORS
330
D
102
}
330
D
100
AcDbGroup
300

 70
     1
 71
     1
  0
GROUP
  5
1737E
102
{ACAD_REACTORS
330
D
102
}
330
D
100
AcDbGroup
300

 70
     1
 71
     1
  0
GROUP
  5
17462
102
{ACAD_REACTORS
330
D
102
}
330
D
100
AcDbGroup
300

 70
     1
 71
     1
  0
GROUP
  5
173AE
102
{ACAD_REACTORS
330
D
102
}
330
D
100
AcDbGroup
300

 70
     1
 71
     1
  0
GROUP
  5
17466
102
{ACAD_REACTORS
330
D
102
}
330
D
100
AcDbGroup
300

 70
     1
 71
     1
  0
GROUP
  5
137BF
102
{ACAD_REACTORS
330
D
102
}
330
D
100
AcDbGroup
300

 70
     1
 71
     1
  0
GROUP
  5
17482
102
{ACAD_REACTORS
330
D
102
}
330
D
100
AcDbGroup
300

 70
     1
 71
     1
  0
GROUP
  5
174E9
102
{ACAD_REACTORS
330
D
102
}
330
D
100
AcDbGroup
300

 70
     3
 71
     1
  0
GROUP
  5
13777
102
{ACAD_REACTORS
330
D
102
}
330
D
100
AcDbGroup
300

 70
     1
 71
     1
  0
GROUP
  5
17483
102
{ACAD_REACTORS
330
D
102
}
330
D
100
AcDbGroup
300

 70
     1
 71
     1
  0
GROUP
  5
10D0F
102
{ACAD_REACTORS
330
D
102
}
330
D
100
AcDbGroup
300

 70
     1
 71
     1
  0
GROUP
  5
173EA
102
{ACAD_REACTORS
330
D
102
}
330
D
100
AcDbGroup
300

 70
     1
 71
     1
  0
GROUP
  5
17484
102
{ACAD_REACTORS
330
D
102
}
330
D
100
AcDbGroup
300

 70
     1
 71
     1
  0
GROUP
  5
17485
102
{ACAD_REACTORS
330
D
102
}
330
D
100
AcDbGroup
300

 70
     1
 71
     1
  0
GROUP
  5
17486
102
{ACAD_REACTORS
330
D
102
}
330
D
100
AcDbGroup
300

 70
     1
 71
     1
  0
GROUP
  5
174C4
102
{ACAD_REACTORS
330
D
102
}
330
D
100
AcDbGroup
300

 70
     1
 71
     1
  0
GROUP
  5
10EAF
102
{ACAD_REACTORS
330
D
102
}
330
D
100
AcDbGroup
300

 70
     1
 71
     1
  0
GROUP
  5
10E2E
102
{ACAD_REACTORS
330
D
102
}
330
D
100
AcDbGroup
300

 70
     1
 71
     1
  0
GROUP
  5
5133
102
{ACAD_REACTORS
330
D
102
}
330
D
100
AcDbGroup
300

 70
     1
 71
     1
  0
GROUP
  5
A9D2
102
{ACAD_REACTORS
330
D
102
}
330
D
100
AcDbGroup
300

 70
     1
 71
     1
  0
GROUP
  5
17416
102
{ACAD_REACTORS
330
D
102
}
330
D
100
AcDbGroup
300

 70
     1
 71
     1
  0
GROUP
  5
17467
102
{ACAD_REACTORS
330
D
102
}
330
D
100
AcDbGroup
300

 70
     1
 71
     1
  0
GROUP
  5
339B
102
{ACAD_REACTORS
330
D
102
}
330
D
100
AcDbGroup
300

 70
     1
 71
     1
  0
GROUP
  5
4AAE
102
{ACAD_REACTORS
330
D
102
}
330
D
100
AcDbGroup
300

 70
     1
 71
     1
  0
GROUP
  5
1080
102
{ACAD_REACTORS
330
D
102
}
330
D
100
AcDbGroup
300

 70
     1
 71
     1
  0
GROUP
  5
17411
102
{ACAD_REACTORS
330
D
102
}
330
D
100
AcDbGroup
300

 70
     1
 71
     1
  0
GROUP
  5
17487
102
{ACAD_REACTORS
330
D
102
}
330
D
100
AcDbGroup
300

 70
     1
 71
     1
  0
GROUP
  5
4992
102
{ACAD_REACTORS
330
D
102
}
330
D
100
AcDbGroup
300

 70
     1
 71
     1
  0
GROUP
  5
1746C
102
{ACAD_REACTORS
330
D
102
}
330
D
100
AcDbGroup
300

 70
     1
 71
     1
  0
GROUP
  5
173B3
102
{ACAD_REACTORS
330
D
102
}
330
D
100
AcDbGroup
300

 70
     1
 71
     1
  0
GROUP
  5
17421
102
{ACAD_REACTORS
330
D
102
}
330
D
100
AcDbGroup
300

 70
     1
 71
     1
  0
GROUP
  5
2FE3
102
{ACAD_REACTORS
330
D
102
}
330
D
100
AcDbGroup
300

 70
     1
 71
     1
  0
GROUP
  5
1161
102
{ACAD_REACTORS
330
D
102
}
330
D
100
AcDbGroup
300

 70
     1
 71
     1
  0
GROUP
  5
5E3F
102
{ACAD_REACTORS
330
D
102
}
330
D
100
AcDbGroup
300

 70
     1
 71
     1
  0
GROUP
  5
173BB
102
{ACAD_REACTORS
330
D
102
}
330
D
100
AcDbGroup
300

 70
     1
 71
     1
  0
GROUP
  5
17488
102
{ACAD_REACTORS
330
D
102
}
330
D
100
AcDbGroup
300

 70
     1
 71
     1
  0
GROUP
  5
173E7
102
{ACAD_REACTORS
330
D
102
}
330
D
100
AcDbGroup
300

 70
     1
 71
     1
  0
GROUP
  5
1748C
102
{ACAD_REACTORS
330
D
102
}
330
D
100
AcDbGroup
300

 70
     1
 71
     1
  0
GROUP
  5
106A1
102
{ACAD_REACTORS
330
D
102
}
330
D
100
AcDbGroup
300

 70
     1
 71
     1
  0
GROUP
  5
18556
102
{ACAD_REACTORS
330
D
102
}
330
D
100
AcDbGroup
300

 70
     1
 71
     1
  0
GROUP
  5
18558
102
{ACAD_REACTORS
330
D
102
}
330
D
100
AcDbGroup
300

 70
     1
 71
     1
  0
GROUP
  5
173A6
102
{ACAD_REACTORS
330
D
102
}
330
D
100
AcDbGroup
300

 70
     1
 71
     1
  0
GROUP
  5
1741C
102
{ACAD_REACTORS
330
D
102
}
330
D
100
AcDbGroup
300

 70
     1
 71
     1
  0
GROUP
  5
18559
102
{ACAD_REACTORS
330
D
102
}
330
D
100
AcDbGroup
300

 70
     1
 71
     1
  0
GROUP
  5
18A0C
102
{ACAD_REACTORS
330
D
102
}
330
D
100
AcDbGroup
300

 70
     1
 71
     1
  0
GROUP
  5
1909D
102
{ACAD_REACTORS
330
D
102
}
330
D
100
AcDbGroup
300

 70
     1
 71
     1
  0
GROUP
  5
174E1
102
{ACAD_REACTORS
330
D
102
}
330
D
100
AcDbGroup
300

 70
     1
 71
     1
  0
GROUP
  5
19188
102
{ACAD_REACTORS
330
D
102
}
330
D
100
AcDbGroup
300

 70
     1
 71
     1
  0
GROUP
  5
19189
102
{ACAD_REACTORS
330
D
102
}
330
D
100
AcDbGroup
300

 70
     1
 71
     1
  0
GROUP
  5
1918A
102
{ACAD_REACTORS
330
D
102
}
330
D
100
AcDbGroup
300

 70
     1
 71
     1
  0
GROUP
  5
B307
102
{ACAD_REACTORS
330
D
102
}
330
D
100
AcDbGroup
300

 70
     1
 71
     1
  0
GROUP
  5
1918B
102
{ACAD_REACTORS
330
D
102
}
330
D
100
AcDbGroup
300

 70
     1
 71
     1
  0
GROUP
  5
13780
102
{ACAD_REACTORS
330
D
102
}
330
D
100
AcDbGroup
300

 70
     1
 71
     1
  0
GROUP
  5
1918C
102
{ACAD_REACTORS
330
D
102
}
330
D
100
AcDbGroup
300

 70
     1
 71
     1
  0
GROUP
  5
1918D
102
{ACAD_REACTORS
330
D
102
}
330
D
100
AcDbGroup
300

 70
     1
 71
     1
  0
GROUP
  5
17440
102
{ACAD_REACTORS
330
D
102
}
330
D
100
AcDbGroup
300

 70
     1
 71
     1
  0
GROUP
  5
1918E
102
{ACAD_REACTORS
330
D
102
}
330
D
100
AcDbGroup
300

 70
     1
 71
     1
  0
GROUP
  5
1918F
102
{ACAD_REACTORS
330
D
102
}
330
D
100
AcDbGroup
300

 70
     1
 71
     1
  0
GROUP
  5
1457D
102
{ACAD_REACTORS
330
D
102
}
330
D
100
AcDbGroup
300

 70
     1
 71
     1
  0
GROUP
  5
19196
102
{ACAD_REACTORS
330
D
102
}
330
D
100
AcDbGroup
300

 70
     1
 71
     1
  0
GROUP
  5
19197
102
{ACAD_REACTORS
330
D
102
}
330
D
100
AcDbGroup
300

 70
     1
 71
     1
  0
GROUP
  5
191AE
102
{ACAD_REACTORS
330
D
102
}
330
D
100
AcDbGroup
300

 70
     1
 71
     1
  0
GROUP
  5
191B4
102
{ACAD_REACTORS
330
D
102
}
330
D
100
AcDbGroup
300

 70
     1
 71
     1
  0
GROUP
  5
173F2
102
{ACAD_REACTORS
330
D
102
}
330
D
100
AcDbGroup
300

 70
     1
 71
     1
  0
GROUP
  5
191ED
102
{ACAD_REACTORS
330
D
102
}
330
D
100
AcDbGroup
300

 70
     1
 71
     1
  0
GROUP
  5
174A6
102
{ACAD_REACTORS
330
D
102
}
330
D
100
AcDbGroup
300

 70
     1
 71
     1
  0
GROUP
  5
191F3
102
{ACAD_REACTORS
330
D
102
}
330
D
100
AcDbGroup
300

 70
     1
 71
     1
  0
GROUP
  5
19211
102
{ACAD_REACTORS
330
D
102
}
330
D
100
AcDbGroup
300

 70
     1
 71
     1
  0
GROUP
  5
174AF
102
{ACAD_REACTORS
330
D
102
}
330
D
100
AcDbGroup
300

 70
     1
 71
     1
  0
GROUP
  5
65A8
102
{ACAD_REACTORS
330
D
102
}
330
D
100
AcDbGroup
300

 70
     1
 71
     1
  0
GROUP
  5
1744A
102
{ACAD_REACTORS
330
D
102
}
330
D
100
AcDbGroup
300

 70
     1
 71
     1
  0
GROUP
  5
19234
102
{ACAD_REACTORS
330
D
102
}
330
D
100
AcDbGroup
300

 70
     1
 71
     1
  0
GROUP
  5
19298
102
{ACAD_REACTORS
330
D
102
}
330
D
100
AcDbGroup
300

 70
     1
 71
     1
340
19297
340
19296
340
19295
340
19294
  0
GROUP
  5
194A7
102
{ACAD_REACTORS
330
D
102
}
330
D
100
AcDbGroup
300

 70
     1
 71
     1
  0
GROUP
  5
174FB
102
{ACAD_REACTORS
330
D
102
}
330
D
100
AcDbGroup
300

 70
     1
 71
     1
  0
GROUP
  5
194A8
102
{ACAD_REACTORS
330
D
102
}
330
D
100
AcDbGroup
300

 70
     1
 71
     1
  0
GROUP
  5
194A9
102
{ACAD_REACTORS
330
D
102
}
330
D
100
AcDbGroup
300

 70
     1
 71
     1
  0
GROUP
  5
174A7
102
{ACAD_REACTORS
330
D
102
}
330
D
100
AcDbGroup
300

 70
     1
 71
     1
  0
GROUP
  5
174A8
102
{ACAD_REACTORS
330
D
102
}
330
D
100
AcDbGroup
300

 70
     1
 71
     1
  0
GROUP
  5
174A9
102
{ACAD_REACTORS
330
D
102
}
330
D
100
AcDbGroup
300

 70
     1
 71
     1
  0
GROUP
  5
3286
102
{ACAD_REACTORS
330
D
102
}
330
D
100
AcDbGroup
300

 70
     1
 71
     1
  0
GROUP
  5
E318
102
{ACAD_REACTORS
330
D
102
}
330
D
100
AcDbGroup
300

 70
     1
 71
     1
  0
GROUP
  5
A393
102
{ACAD_REACTORS
330
D
102
}
330
D
100
AcDbGroup
300

 70
     1
 71
     1
  0
GROUP
  5
1119
102
{ACAD_REACTORS
330
D
102
}
330
D
100
AcDbGroup
300

 70
     1
 71
     1
  0
GROUP
  5
14860
102
{ACAD_REACTORS
330
D
102
}
330
D
100
AcDbGroup
300

 70
     1
 71
     1
  0
GROUP
  5
4A97
102
{ACAD_REACTORS
330
D
102
}
330
D
100
AcDbGroup
300

 70
     1
 71
     1
  0
GROUP
  5
17444
102
{ACAD_REACTORS
330
D
102
}
330
D
100
AcDbGroup
300

 70
     1
 71
     1
  0
GROUP
  5
1748D
102
{ACAD_REACTORS
330
D
102
}
330
D
100
AcDbGroup
300

 70
     1
 71
     1
  0
GROUP
  5
BCEC
102
{ACAD_REACTORS
330
D
102
}
330
D
100
AcDbGroup
300

 70
     1
 71
     1
  0
GROUP
  5
1737B
102
{ACAD_REACTORS
330
D
102
}
330
D
100
AcDbGroup
300

 70
     1
 71
     1
  0
GROUP
  5
174AA
102
{ACAD_REACTORS
330
D
102
}
330
D
100
AcDbGroup
300

 70
     1
 71
     1
  0
GROUP
  5
4A96
102
{ACAD_REACTORS
330
D
102
}
330
D
100
AcDbGroup
300

 70
     1
 71
     1
  0
GROUP
  5
173EB
102
{ACAD_REACTORS
330
D
102
}
330
D
100
AcDbGroup
300

 70
     1
 71
     1
  0
GROUP
  5
E31C
102
{ACAD_REACTORS
330
D
102
}
330
D
100
AcDbGroup
300

 70
     1
 71
     1
  0
GROUP
  5
881D
102
{ACAD_REACTORS
330
D
102
}
330
D
100
AcDbGroup
300

 70
     1
 71
     1
  0
GROUP
  5
880E
102
{ACAD_REACTORS
330
D
102
}
330
D
100
AcDbGroup
300

 70
     1
 71
     1
  0
GROUP
  5
17473
102
{ACAD_REACTORS
330
D
102
}
330
D
100
AcDbGroup
300

 70
     1
 71
     1
  0
GROUP
  5
109B
102
{ACAD_REACTORS
330
D
102
}
330
D
100
AcDbGroup
300

 70
     1
 71
     1
  0
GROUP
  5
174C5
102
{ACAD_REACTORS
330
D
102
}
330
D
100
AcDbGroup
300

 70
     1
 71
     1
  0
GROUP
  5
106D5
102
{ACAD_REACTORS
330
D
102
}
330
D
100
AcDbGroup
300

 70
     1
 71
     1
  0
GROUP
  5
174AB
102
{ACAD_REACTORS
330
D
102
}
330
D
100
AcDbGroup
300

 70
     1
 71
     1
  0
GROUP
  5
4983
102
{ACAD_REACTORS
330
D
102
}
330
D
100
AcDbGroup
300

 70
     1
 71
     1
  0
GROUP
  5
174C6
102
{ACAD_REACTORS
330
D
102
}
330
D
100
AcDbGroup
300

 70
     1
 71
     1
  0
GROUP
  5
174C7
102
{ACAD_REACTORS
330
D
102
}
330
D
100
AcDbGroup
300

 70
     1
 71
     1
  0
GROUP
  5
174C8
102
{ACAD_REACTORS
330
D
102
}
330
D
100
AcDbGroup
300

 70
     1
 71
     1
  0
GROUP
  5
17371
102
{ACAD_REACTORS
330
D
102
}
330
D
100
AcDbGroup
300

 70
     1
 71
     1
  0
GROUP
  5
141E9
102
{ACAD_REACTORS
330
D
102
}
330
D
100
AcDbGroup
300

 70
     1
 71
     1
  0
GROUP
  5
49C4
102
{ACAD_REACTORS
330
D
102
}
330
D
100
AcDbGroup
300

 70
     1
 71
     1
  0
GROUP
  5
64AD
102
{ACAD_REACTORS
330
D
102
}
330
D
100
AcDbGroup
300

 70
     1
 71
     1
  0
GROUP
  5
A9D3
102
{ACAD_REACTORS
330
D
102
}
330
D
100
AcDbGroup
300

 70
     1
 71
     1
  0
GROUP
  5
1746D
102
{ACAD_REACTORS
330
D
102
}
330
D
100
AcDbGroup
300

 70
     1
 71
     1
  0
GROUP
  5
12454
102
{ACAD_REACTORS
330
D
102
}
330
D
100
AcDbGroup
300

 70
     1
 71
     1
  0
GROUP
  5
E2B0
102
{ACAD_REACTORS
330
D
102
}
330
D
100
AcDbGroup
300

 70
     1
 71
     1
  0
GROUP
  5
173B8
102
{ACAD_REACTORS
330
D
102
}
330
D
100
AcDbGroup
300

 70
     1
 71
     1
  0
GROUP
  5
174C9
102
{ACAD_REACTORS
330
D
102
}
330
D
100
AcDbGroup
300

 70
     1
 71
     1
  0
GROUP
  5
619C
102
{ACAD_REACTORS
330
D
102
}
330
D
100
AcDbGroup
300

 70
     1
 71
     1
  0
GROUP
  5
1741D
102
{ACAD_REACTORS
330
D
102
}
330
D
100
AcDbGroup
300

 70
     1
 71
     1
  0
GROUP
  5
10E3
102
{ACAD_REACTORS
330
D
102
}
330
D
100
AcDbGroup
300

 70
     1
 71
     1
  0
GROUP
  5
A9A1
102
{ACAD_REACTORS
330
D
102
}
330
D
100
AcDbGroup
300

 70
     1
 71
     1
  0
GROUP
  5
1739C
102
{ACAD_REACTORS
330
D
102
}
330
D
100
AcDbGroup
300

 70
     1
 71
     1
  0
GROUP
  5
173A3
102
{ACAD_REACTORS
330
D
102
}
330
D
100
AcDbGroup
300

 70
     1
 71
     1
  0
GROUP
  5
114F
102
{ACAD_REACTORS
330
D
102
}
330
D
100
AcDbGroup
300

 70
     1
 71
     1
  0
GROUP
  5
1737F
102
{ACAD_REACTORS
330
D
102
}
330
D
100
AcDbGroup
300

 70
     1
 71
     1
  0
GROUP
  5
174CA
102
{ACAD_REACTORS
330
D
102
}
330
D
100
AcDbGroup
300

 70
     1
 71
     1
  0
GROUP
  5
42BF
102
{ACAD_REACTORS
330
D
102
}
330
D
100
AcDbGroup
300

 70
     1
 71
     1
  0
GROUP
  5
19559
102
{ACAD_REACTORS
330
D
102
}
330
D
100
AcDbGroup
300

 70
     1
 71
     1
340
16E75
340
16E6B
340
16E77
340
16E7F
340
16E6A
340
16E99
340
16E98
340
16E93
340
16E94
340
16E9A
340
16E9B
340
16E8B
340
16EAA
340
16EA8
340
16E8A
340
16EA9
  0
GROUP
  5
174E2
102
{ACAD_REACTORS
330
D
102
}
330
D
100
AcDbGroup
300

 70
     1
 71
     1
  0
GROUP
  5
174E3
102
{ACAD_REACTORS
330
D
102
}
330
D
100
AcDbGroup
300

 70
     1
 71
     1
  0
GROUP
  5
174E4
102
{ACAD_REACTORS
330
D
102
}
330
D
100
AcDbGroup
300

 70
     1
 71
     1
  0
GROUP
  5
173AF
102
{ACAD_REACTORS
330
D
102
}
330
D
100
AcDbGroup
300

 70
     1
 71
     1
  0
GROUP
  5
7AE6
102
{ACAD_REACTORS
330
D
102
}
330
D
100
AcDbGroup
300

 70
     1
 71
     1
  0
GROUP
  5
10DCF
102
{ACAD_REACTORS
330
D
102
}
330
D
100
AcDbGroup
300

 70
     1
 71
     1
  0
GROUP
  5
4989
102
{ACAD_REACTORS
330
D
102
}
330
D
100
AcDbGroup
300

 70
     1
 71
     1
  0
GROUP
  5
17492
102
{ACAD_REACTORS
330
D
102
}
330
D
100
AcDbGroup
300

 70
     1
 71
     1
  0
GROUP
  5
DCBE
102
{ACAD_REACTORS
330
D
102
}
330
D
100
AcDbGroup
300

 70
     1
 71
     1
  0
GROUP
  5
147F8
102
{ACAD_REACTORS
330
D
102
}
330
D
100
AcDbGroup
300

 70
     1
 71
     1
  0
GROUP
  5
173F0
102
{ACAD_REACTORS
330
D
102
}
330
D
100
AcDbGroup
300

 70
     1
 71
     1
  0
GROUP
  5
174E5
102
{ACAD_REACTORS
330
D
102
}
330
D
100
AcDbGroup
300

 70
     1
 71
     1
  0
GROUP
  5
31CE
102
{ACAD_REACTORS
330
D
102
}
330
D
100
AcDbGroup
300

 70
     1
 71
     1
  0
GROUP
  5
1744B
102
{ACAD_REACTORS
330
D
102
}
330
D
100
AcDbGroup
300

 70
     1
 71
     1
  0
GROUP
  5
E31A
102
{ACAD_REACTORS
330
D
102
}
330
D
100
AcDbGroup
300

 70
     1
 71
     1
  0
GROUP
  5
10DCE
102
{ACAD_REACTORS
330
D
102
}
330
D
100
AcDbGroup
300

 70
     1
 71
     1
  0
GROUP
  5
173DD
102
{ACAD_REACTORS
330
D
102
}
330
D
100
AcDbGroup
300

 70
     1
 71
     1
  0
GROUP
  5
173BC
102
{ACAD_REACTORS
330
D
102
}
330
D
100
AcDbGroup
300

 70
     1
 71
     1
  0
GROUP
  5
174E6
102
{ACAD_REACTORS
330
D
102
}
330
D
100
AcDbGroup
300

 70
     1
 71
     1
  0
GROUP
  5
3398
102
{ACAD_REACTORS
330
D
102
}
330
D
100
AcDbGroup
300

 70
     1
 71
     1
  0
GROUP
  5
174FC
102
{ACAD_REACTORS
330
D
102
}
330
D
100
AcDbGroup
300

 70
     1
 71
     1
  0
GROUP
  5
174FD
102
{ACAD_REACTORS
330
D
102
}
330
D
100
AcDbGroup
300

 70
     1
 71
     1
  0
GROUP
  5
174FE
102
{ACAD_REACTORS
330
D
102
}
330
D
100
AcDbGroup
300

 70
     1
 71
     1
  0
GROUP
  5
8218
102
{ACAD_REACTORS
330
D
102
}
330
D
100
AcDbGroup
300

 70
     1
 71
     1
  0
GROUP
  5
1739D
102
{ACAD_REACTORS
330
D
102
}
330
D
100
AcDbGroup
300

 70
     1
 71
     1
  0
GROUP
  5
8043
102
{ACAD_REACTORS
330
D
102
}
330
D
100
AcDbGroup
300

 70
     1
 71
     1
  0
GROUP
  5
174B4
102
{ACAD_REACTORS
330
D
102
}
330
D
100
AcDbGroup
300

 70
     1
 71
     1
  0
GROUP
  5
9656
102
{ACAD_REACTORS
330
D
102
}
330
D
100
AcDbGroup
300

 70
     1
 71
     1
  0
GROUP
  5
10EAD
102
{ACAD_REACTORS
330
D
102
}
330
D
100
AcDbGroup
300

 70
     1
 71
     1
  0
GROUP
  5
17422
102
{ACAD_REACTORS
330
D
102
}
330
D
100
AcDbGroup
300

 70
     1
 71
     1
  0
GROUP
  5
174FF
102
{ACAD_REACTORS
330
D
102
}
330
D
100
AcDbGroup
300

 70
     3
 71
     1
  0
GROUP
  5
1736D
102
{ACAD_REACTORS
330
D
102
}
330
D
100
AcDbGroup
300

 70
     1
 71
     1
  0
GROUP
  5
10FAE
102
{ACAD_REACTORS
330
D
102
}
330
D
100
AcDbGroup
300

 70
     1
 71
     1
  0
GROUP
  5
17384
102
{ACAD_REACTORS
330
D
102
}
330
D
100
AcDbGroup
300

 70
     1
 71
     1
  0
GROUP
  5
17410
102
{ACAD_REACTORS
330
D
102
}
330
D
100
AcDbGroup
300

 70
     1
 71
     1
  0
GROUP
  5
173F3
102
{ACAD_REACTORS
330
D
102
}
330
D
100
AcDbGroup
300

 70
     1
 71
     1
  0
GROUP
  5
3522
102
{ACAD_REACTORS
330
D
102
}
330
D
100
AcDbGroup
300

 70
     1
 71
     1
  0
GROUP
  5
DC69
102
{ACAD_REACTORS
330
D
102
}
330
D
100
AcDbGroup
300

 70
     1
 71
     1
  0
LAYOUT
  5
741
102
{ACAD_REACTORS
330
73F
102
}
330
73F
100
AcDbPlotSettings
  1

  2
IBM Infoprint 1316J RPCS_A4-00.pc3
  4
A4
  6

 40
0.0
 41
0.0
 42
0.97332763671875
 43
0.925994873046875
 44
209.9733276367187
 45
296.9259948730469
 46
39.21
 47
25.42
 48
71.70495497489969
 49
-132.1582817732621
140
316.860705169144
141
-1.579700184139483
142
1.0
143
1.0
 70
 11956
 72
     1
 73
     1
 74
     4
  7
monochrome.ctb
 75
    16
147
1.0
148
-71.70495497489969
149
132.1582817732621
100
AcDbLayout
  1
Model
 70
     1
 71
     0
 10
0.0
 20
0.0
 11
12.0
 21
9.0
 12
0.0
 22
0.0
 32
0.0
 14
0.0
 24
0.0
 34
0.0
 15
0.0
 25
0.0
 35
0.0
146
0.0
 13
0.0
 23
0.0
 33
0.0
 16
1.0
 26
0.0
 36
0.0
 17
0.0
 27
1.0
 37
0.0
 76
     0
330
18
  0
LAYOUT
  5
742
102
{ACAD_REACTORS
330
73F
102
}
330
73F
100
AcDbPlotSettings
  1

  2
Adobe PDF
  4
A3
  6

 40
3.174999999999999
 41
3.174999999999999
 42
3.174987999999999
 43
3.174987999999999
 44
297.03183
 45
420.1583249999999
 46
0.0
 47
0.0
 48
0.0
 49
0.0
140
0.0
141
0.0
142
1.0
143
1.0
 70
   688
 72
     1
 73
     1
 74
     5
  7
monochrome.ctb
 75
    16
147
1.0
148
0.0
149
0.0
100
AcDbLayout
  1
ﾚｲｱｳﾄ1
 70
     0
 71
     1
 10
-3.174987999999999
 20
-3.174999999999999
 11
416.983337
 21
293.85683
 12
0.0
 22
0.0
 32
0.0
 14
-0.0143111418271929
 24
-0.0114217696407195
 34
-0.0015258207003583
 15
404.5265565691786
 25
288.0191689867872
 35
0.0000000349246037
146
0.0
 13
0.0
 23
0.0
 33
0.0
 16
1.0
 26
0.0
 36
0.0
 17
0.0
 27
1.0
 37
0.0
 76
     0
330
15
331
23
  0
MLINESTYLE
  5
1C
102
{ACAD_REACTORS
330
1B
102
}
330
1B
100
AcDbMlineStyle
  2
STANDARD
 70
     0
  3

 62
   256
 51
90.0
 52
90.0
 71
     2
 49
0.5
 62
   256
  6
BYLAYER
 49
-0.5
 62
   256
  6
BYLAYER
  0
ACDBPLACEHOLDER
  5
73E
102
{ACAD_REACTORS
330
73D
102
}
330
73D
  0
DICTIONARYVAR
  5
11AD
102
{ACAD_REACTORS
330
11AC
102
}
330
11AC
100
DictionaryVariables
280
     0
  1
1
  0
DICTIONARYVAR
  5
B4C6
102
{ACAD_REACTORS
330
11AC
102
}
330
11AC
100
DictionaryVariables
280
     0
  1
96
  0
XRECORD
  5
18201
102
{ACAD_REACTORS
330
16FB9
102
}
330
16FB9
100
AcDbXrecord
280
     1
  1
-pegc
  1
*-pegc
  1
*
  1
*
 70
     0
  1
*
  1
*
  0
XRECORD
  5
16FBA
102
{ACAD_REACTORS
330
16FB9
102
}
330
16FB9
100
AcDbXrecord
280
     1
  1
0
  1
*0
  1
*
  1
*
 70
     0
  1
*
  1
*
  0
XRECORD
  5
18202
102
{ACAD_REACTORS
330
16FB9
102
}
330
16FB9
100
AcDbXrecord
280
     1
  1
00'S
  1
00*
  1
*
  1
*
 70
     0
  1
*
  1
*
  0
XRECORD
  5
18203
102
{ACAD_REACTORS
330
16FB9
102
}
330
16FB9
100
AcDbXrecord
280
     1
  1
00aok
  1
00AOK*
  1
*
  1
*
 70
     0
  1
*
  1
*
  0
XRECORD
  5
18204
102
{ACAD_REACTORS
330
16FB9
102
}
330
16FB9
100
AcDbXrecord
280
     1
  1
00OK
  1
00OK*
  1
*
  1
*
 70
     0
  1
*
  1
*
  0
XRECORD
  5
18205
102
{ACAD_REACTORS
330
16FB9
102
}
330
16FB9
100
AcDbXrecord
280
     1
  1
03
  1
*03*
  1
*
  1
*
 70
     0
  1
*
  1
*
  0
XRECORD
  5
18206
102
{ACAD_REACTORS
330
16FB9
102
}
330
16FB9
100
AcDbXrecord
280
     1
  1
06
  1
06*
  1
*
  1
*
 70
     0
  1
*
  1
*
  0
XRECORD
  5
18207
102
{ACAD_REACTORS
330
16FB9
102
}
330
16FB9
100
AcDbXrecord
280
     1
  1
06siki
  1
06*siki*,sikiti,00waku,*|*
  1
*
  1
*
 70
     0
  1
*
  1
*
  0
XRECORD
  5
18208
102
{ACAD_REACTORS
330
16FB9
102
}
330
16FB9
100
AcDbXrecord
280
     1
  1
06siki2
  1
06*siki*,sikiti,00waku,*|*
  1
*
  1
*
 70
     0
  1
*
  1
*
  0
XRECORD
  5
18209
102
{ACAD_REACTORS
330
16FB9
102
}
330
16FB9
100
AcDbXrecord
280
     1
  1
07
  1
260307***
  1
*
  1
*
 70
     1
  1
*
  1
*
  0
XRECORD
  5
1820A
102
{ACAD_REACTORS
330
16FB9
102
}
330
16FB9
100
AcDbXrecord
280
     1
  1
09
  1
09*.*
  1
*
  1
*
 70
     0
  1
*
  1
*
  0
XRECORD
  5
1820B
102
{ACAD_REACTORS
330
16FB9
102
}
330
16FB9
100
AcDbXrecord
280
     1
  1
1
  1
*1*
  1
*
  1
*
 70
     1
  1
*
  1
*
  0
XRECORD
  5
1820C
102
{ACAD_REACTORS
330
16FB9
102
}
330
16FB9
100
AcDbXrecord
280
     1
  1
1- ALL LAYERS
  1
0*,1*
  1
*
  1
*
 70
     0
  1
*
  1
*
  0
XRECORD
  5
1820D
102
{ACAD_REACTORS
330
16FB9
102
}
330
16FB9
100
AcDbXrecord
280
     1
  1
10
  1
*-10
  1
*
  1
*
 70
     0
  1
*
  1
*
  0
XRECORD
  5
1820E
102
{ACAD_REACTORS
330
16FB9
102
}
330
16FB9
100
AcDbXrecord
280
     1
  1
10-FRAME
  1
*10-*
  1
*
  1
*
 70
     0
  1
*
  1
*
  0
XRECORD
  5
1820F
102
{ACAD_REACTORS
330
16FB9
102
}
330
16FB9
100
AcDbXrecord
280
     1
  1
100
  1
100*
  1
*
  1
*
 70
     0
  1
*
  1
*
  0
XRECORD
  5
18210
102
{ACAD_REACTORS
330
16FB9
102
}
330
16FB9
100
AcDbXrecord
280
     1
  1
100layer
  1
*100
  1
*
  1
*
 70
     0
  1
*
  1
*
  0
XRECORD
  5
18211
102
{ACAD_REACTORS
330
16FB9
102
}
330
16FB9
100
AcDbXrecord
280
     1
  1
101
  1
*101
  1
*
  1
*
 70
   256
  1
*
  1
*
  0
XRECORD
  5
16FBB
102
{ACAD_REACTORS
330
16FB9
102
}
330
16FB9
100
AcDbXrecord
280
     1
  1
11
  1
*11
  1
*
  1
*
 70
     0
  1
*
  1
*
  0
XRECORD
  5
18212
102
{ACAD_REACTORS
330
16FB9
102
}
330
16FB9
100
AcDbXrecord
280
     1
  1
11-EQUIP
  1
*11-*
  1
*
  1
*
 70
     0
  1
*
  1
*
  0
XRECORD
  5
18213
102
{ACAD_REACTORS
330
16FB9
102
}
330
16FB9
100
AcDbXrecord
280
     1
  1
12-PIPE
  1
*12-*
  1
*
  1
*
 70
     0
  1
*
  1
*
  0
XRECORD
  5
18214
102
{ACAD_REACTORS
330
16FB9
102
}
330
16FB9
100
AcDbXrecord
280
     1
  1
1248A-163
  1
*1248A-163*
  1
*
  1
*
 70
     0
  1
*
  1
*
  0
XRECORD
  5
18215
102
{ACAD_REACTORS
330
16FB9
102
}
330
16FB9
100
AcDbXrecord
280
     1
  1
1316A-161
  1
*1316A-161*
  1
*
  1
*
 70
     0
  1
*
  1
*
  0
XRECORD
  5
18216
102
{ACAD_REACTORS
330
16FB9
102
}
330
16FB9
100
AcDbXrecord
280
     1
  1
14-6
  1
*
  1
*
  1
*
 70
    20
  1
*
  1
*
  0
XRECORD
  5
16FBC
102
{ACAD_REACTORS
330
16FB9
102
}
330
16FB9
100
AcDbXrecord
280
     1
  1
150_
  1
150_*
  1
*
  1
*
 70
     0
  1
*
  1
*
  0
XRECORD
  5
18217
102
{ACAD_REACTORS
330
16FB9
102
}
330
16FB9
100
AcDbXrecord
280
     1
  1
153
  1
*
  1
253
  1
*
 70
     0
  1
*
  1
*
  0
XRECORD
  5
16FBD
102
{ACAD_REACTORS
330
16FB9
102
}
330
16FB9
100
AcDbXrecord
280
     1
  1
160_
  1
160_*
  1
*
  1
*
 70
     0
  1
*
  1
*
  0
XRECORD
  5
16FBE
102
{ACAD_REACTORS
330
16FB9
102
}
330
16FB9
100
AcDbXrecord
280
     1
  1
170_
  1
170_*
  1
*
  1
*
 70
     0
  1
*
  1
*
  0
XRECORD
  5
16FBF
102
{ACAD_REACTORS
330
16FB9
102
}
330
16FB9
100
AcDbXrecord
280
     1
  1
171_
  1
171_*
  1
*
  1
*
 70
     0
  1
*
  1
*
  0
XRECORD
  5
18218
102
{ACAD_REACTORS
330
16FB9
102
}
330
16FB9
100
AcDbXrecord
280
     1
  1
192 Scale
  1
192-*
  1
*
  1
*
 70
     0
  1
*
  1
*
  0
XRECORD
  5
18219
102
{ACAD_REACTORS
330
16FB9
102
}
330
16FB9
100
AcDbXrecord
280
     1
  1
1ST FLOOR
  1
*_1
  1
*
  1
*
 70
     0
  1
*
  1
*
  0
XRECORD
  5
1821A
102
{ACAD_REACTORS
330
16FB9
102
}
330
16FB9
100
AcDbXrecord
280
     1
  1
1階建具キープラン
  1
*
  1
*
  1
*
 70
    13
  1
*
  1
*
  0
XRECORD
  5
1821B
102
{ACAD_REACTORS
330
16FB9
102
}
330
16FB9
100
AcDbXrecord
280
     1
  1
1階平面図
  1
*
  1
*
  1
*
 70
     0
  1
*
  1
*
  0
XRECORD
  5
1821C
102
{ACAD_REACTORS
330
16FB9
102
}
330
16FB9
100
AcDbXrecord
280
     1
  1
2
  1
*
  1
2
  1
*
 70
     0
  1
*
  1
*
  0
XRECORD
  5
1821D
102
{ACAD_REACTORS
330
16FB9
102
}
330
16FB9
100
AcDbXrecord
280
     1
  1
20
  1
*-20
  1
*
  1
*
 70
     0
  1
*
  1
*
  0
XRECORD
  5
1821E
102
{ACAD_REACTORS
330
16FB9
102
}
330
16FB9
100
AcDbXrecord
280
     1
  1
253
  1
*
  1
253
  1
*
 70
     0
  1
*
  1
*
  0
XRECORD
  5
1821F
102
{ACAD_REACTORS
330
16FB9
102
}
330
16FB9
100
AcDbXrecord
280
     1
  1
254
  1
*
  1
*254,white
  1
*
 70
     0
  1
*
  1
*
  0
XRECORD
  5
18220
102
{ACAD_REACTORS
330
16FB9
102
}
330
16FB9
100
AcDbXrecord
280
     1
  1
2floor office
  1
2ofc*
  1
*
  1
*
 70
     0
  1
*
  1
*
  0
XRECORD
  5
18221
102
{ACAD_REACTORS
330
16FB9
102
}
330
16FB9
100
AcDbXrecord
280
     1
  1
2LAYER
  1
*2
  1
*
  1
*
 70
     0
  1
*
  1
*
  0
XRECORD
  5
18222
102
{ACAD_REACTORS
330
16FB9
102
}
330
16FB9
100
AcDbXrecord
280
     1
  1
2nd floor
  1
*_2
  1
*
  1
*
 70
     0
  1
*
  1
*
  0
XRECORD
  5
18223
102
{ACAD_REACTORS
330
16FB9
102
}
330
16FB9
100
AcDbXrecord
280
     1
  1
2階平面図
  1
*
  1
*
  1
*
 70
     0
  1
*
  1
*
  0
XRECORD
  5
18224
102
{ACAD_REACTORS
330
16FB9
102
}
330
16FB9
100
AcDbXrecord
280
     1
  1
2階平面図キープラン
  1
*
  1
*
  1
*
 70
     0
  1
*
  1
*
  0
XRECORD
  5
18225
102
{ACAD_REACTORS
330
16FB9
102
}
330
16FB9
100
AcDbXrecord
280
     1
  1
3
  1
*
  1
3
  1
*
 70
     0
  1
*
  1
*
  0
XRECORD
  5
18226
102
{ACAD_REACTORS
330
16FB9
102
}
330
16FB9
100
AcDbXrecord
280
     1
  1
30
  1
*-30
  1
*
  1
*
 70
     0
  1
*
  1
*
  0
XRECORD
  5
18227
102
{ACAD_REACTORS
330
16FB9
102
}
330
16FB9
100
AcDbXrecord
280
     1
  1
300
  1
*300*
  1
*
  1
*
 70
     0
  1
*
  1
*
  0
XRECORD
  5
18228
102
{ACAD_REACTORS
330
16FB9
102
}
330
16FB9
100
AcDbXrecord
280
     1
  1
300layer
  1
*300
  1
*
  1
*
 70
     0
  1
*
  1
*
  0
XRECORD
  5
16FC0
102
{ACAD_REACTORS
330
16FB9
102
}
330
16FB9
100
AcDbXrecord
280
     1
  1
350_
  1
350_*
  1
*
  1
*
 70
     0
  1
*
  1
*
  0
XRECORD
  5
18229
102
{ACAD_REACTORS
330
16FB9
102
}
330
16FB9
100
AcDbXrecord
280
     1
  1
3a
  1
*-3a(hidden)
  1
*
  1
*
 70
     0
  1
*
  1
*
  0
XRECORD
  5
1822A
102
{ACAD_REACTORS
330
16FB9
102
}
330
16FB9
100
AcDbXrecord
280
     1
  1
3D
  1
3D*
  1
*
  1
*
 70
     0
  1
*
  1
*
  0
XRECORD
  5
16FC1
102
{ACAD_REACTORS
330
16FB9
102
}
330
16FB9
100
AcDbXrecord
280
     1
  1
4
  1
*4
  1
*
  1
*
 70
     0
  1
*
  1
*
  0
XRECORD
  5
1822B
102
{ACAD_REACTORS
330
16FB9
102
}
330
16FB9
100
AcDbXrecord
280
     1
  1
40
  1
*-40
  1
*
  1
*
 70
     0
  1
*
  1
*
  0
XRECORD
  5
1822C
102
{ACAD_REACTORS
330
16FB9
102
}
330
16FB9
100
AcDbXrecord
280
     1
  1
400
  1
*400
  1
*
  1
*
 70
     0
  1
*
  1
*
  0
XRECORD
  5
1822D
102
{ACAD_REACTORS
330
16FB9
102
}
330
16FB9
100
AcDbXrecord
280
     1
  1
44
  1
*
  1
4
  1
*
 70
     0
  1
*
  1
*
  0
XRECORD
  5
1822E
102
{ACAD_REACTORS
330
16FB9
102
}
330
16FB9
100
AcDbXrecord
280
     1
  1
4a
  1
*4a
  1
*
  1
*
 70
     0
  1
*
  1
*
  0
XRECORD
  5
16FC2
102
{ACAD_REACTORS
330
16FB9
102
}
330
16FB9
100
AcDbXrecord
280
     1
  1
5
  1
*5
  1
*
  1
*
 70
     0
  1
*
  1
*
  0
XRECORD
  5
1822F
102
{ACAD_REACTORS
330
16FB9
102
}
330
16FB9
100
AcDbXrecord
280
     1
  1
50
  1
*-50
  1
*
  1
*
 70
     0
  1
*
  1
*
  0
XRECORD
  5
18230
102
{ACAD_REACTORS
330
16FB9
102
}
330
16FB9
100
AcDbXrecord
280
     1
  1
500
  1
*500*
  1
*
  1
*
 70
     0
  1
*
  1
*
  0
XRECORD
  5
18231
102
{ACAD_REACTORS
330
16FB9
102
}
330
16FB9
100
AcDbXrecord
280
     1
  1
50ayer
  1
*50
  1
*
  1
*
 70
     0
  1
*
  1
*
  0
XRECORD
  5
18232
102
{ACAD_REACTORS
330
16FB9
102
}
330
16FB9
100
AcDbXrecord
280
     1
  1
50LAYER
  1
*50
  1
*
  1
*
 70
     0
  1
*
  1
*
  0
XRECORD
  5
18233
102
{ACAD_REACTORS
330
16FB9
102
}
330
16FB9
100
AcDbXrecord
280
     1
  1
50off
  1
50*
  1
*
  1
*
 70
     0
  1
*
  1
*
  0
XRECORD
  5
18234
102
{ACAD_REACTORS
330
16FB9
102
}
330
16FB9
100
AcDbXrecord
280
     1
  1
54
  1
*54*
  1
*
  1
*
 70
     0
  1
*
  1
*
  0
XRECORD
  5
18235
102
{ACAD_REACTORS
330
16FB9
102
}
330
16FB9
100
AcDbXrecord
280
     1
  1
540a
  1
*540a*
  1
*
  1
*
 70
     0
  1
*
  1
*
  0
XRECORD
  5
18236
102
{ACAD_REACTORS
330
16FB9
102
}
330
16FB9
100
AcDbXrecord
280
     1
  1
540ab
  1
*540a*,*540b*
  1
*
  1
*
 70
     0
  1
*
  1
*
  0
XRECORD
  5
18237
102
{ACAD_REACTORS
330
16FB9
102
}
330
16FB9
100
AcDbXrecord
280
     1
  1
540b
  1
*540b*
  1
*
  1
*
 70
     0
  1
*
  1
*
  0
XRECORD
  5
18238
102
{ACAD_REACTORS
330
16FB9
102
}
330
16FB9
100
AcDbXrecord
280
     1
  1
540C
  1
*540C*
  1
*
  1
*
 70
     0
  1
*
  1
*
  0
XRECORD
  5
18239
102
{ACAD_REACTORS
330
16FB9
102
}
330
16FB9
100
AcDbXrecord
280
     1
  1
540cd
  1
*540d*,*540c*
  1
*
  1
*
 70
     0
  1
*
  1
*
  0
XRECORD
  5
1823A
102
{ACAD_REACTORS
330
16FB9
102
}
330
16FB9
100
AcDbXrecord
280
     1
  1
540d
  1
*540d*
  1
*
  1
*
 70
     0
  1
*
  1
*
  0
XRECORD
  5
1823B
102
{ACAD_REACTORS
330
16FB9
102
}
330
16FB9
100
AcDbXrecord
280
     1
  1
54NW
  1
*54NW*
  1
*
  1
*
 70
     0
  1
*
  1
*
  0
XRECORD
  5
1823C
102
{ACAD_REACTORS
330
16FB9
102
}
330
16FB9
100
AcDbXrecord
280
     1
  1
56
  1
*56*
  1
*
  1
*
 70
     0
  1
*
  1
*
  0
XRECORD
  5
1823D
102
{ACAD_REACTORS
330
16FB9
102
}
330
16FB9
100
AcDbXrecord
280
     1
  1
57加工件
  1
57514*
  1
*
  1
*
 70
     0
  1
*
  1
*
  0
XRECORD
  5
1823E
102
{ACAD_REACTORS
330
16FB9
102
}
330
16FB9
100
AcDbXrecord
280
     1
  1
57標準件
  1
S57514*
  1
*
  1
*
 70
     0
  1
*
  1
*
  0
XRECORD
  5
1823F
102
{ACAD_REACTORS
330
16FB9
102
}
330
16FB9
100
AcDbXrecord
280
     1
  1
58
  1
*58*
  1
*
  1
*
 70
     0
  1
*
  1
*
  0
XRECORD
  5
18240
102
{ACAD_REACTORS
330
16FB9
102
}
330
16FB9
100
AcDbXrecord
280
     1
  1
58J
  1
*58*
  1
*
  1
*
 70
     0
  1
*
  1
*
  0
XRECORD
  5
18241
102
{ACAD_REACTORS
330
16FB9
102
}
330
16FB9
100
AcDbXrecord
280
     1
  1
58NW
  1
*58NW*
  1
*
  1
*
 70
     0
  1
*
  1
*
  0
XRECORD
  5
18242
102
{ACAD_REACTORS
330
16FB9
102
}
330
16FB9
100
AcDbXrecord
280
     1
  1
6
  1
*
  1
6
  1
*
 70
     0
  1
*
  1
*
  0
XRECORD
  5
18243
102
{ACAD_REACTORS
330
16FB9
102
}
330
16FB9
100
AcDbXrecord
280
     1
  1
60
  1
*-60
  1
*
  1
*
 70
     0
  1
*
  1
*
  0
XRECORD
  5
18244
102
{ACAD_REACTORS
330
16FB9
102
}
330
16FB9
100
AcDbXrecord
280
     1
  1
60FB
  1
*60FB
  1
*
  1
*
 70
     0
  1
*
  1
*
  0
XRECORD
  5
18245
102
{ACAD_REACTORS
330
16FB9
102
}
330
16FB9
100
AcDbXrecord
280
     1
  1
60HVM
  1
*60HVM
  1
*
  1
*
 70
     0
  1
*
  1
*
  0
XRECORD
  5
18246
102
{ACAD_REACTORS
330
16FB9
102
}
330
16FB9
100
AcDbXrecord
280
     1
  1
60SU
  1
*60SU
  1
*
  1
*
 70
     0
  1
*
  1
*
  0
XRECORD
  5
18247
102
{ACAD_REACTORS
330
16FB9
102
}
330
16FB9
100
AcDbXrecord
280
     1
  1
62SU
  1
*62SU
  1
*
  1
*
 70
     0
  1
*
  1
*
  0
XRECORD
  5
18248
102
{ACAD_REACTORS
330
16FB9
102
}
330
16FB9
100
AcDbXrecord
280
     1
  1
64 Scale
  1
64-*
  1
*
  1
*
 70
     0
  1
*
  1
*
  0
XRECORD
  5
18249
102
{ACAD_REACTORS
330
16FB9
102
}
330
16FB9
100
AcDbXrecord
280
     1
  1
65
  1
*65
  1
*
  1
*
 70
     0
  1
*
  1
*
  0
XRECORD
  5
1824A
102
{ACAD_REACTORS
330
16FB9
102
}
330
16FB9
100
AcDbXrecord
280
     1
  1
655
  1
*655*
  1
*
  1
*
 70
     0
  1
*
  1
*
  0
XRECORD
  5
16FC3
102
{ACAD_REACTORS
330
16FB9
102
}
330
16FB9
100
AcDbXrecord
280
     1
  1
7
  1
*7
  1
*
  1
*
 70
     0
  1
*
  1
*
  0
XRECORD
  5
1824B
102
{ACAD_REACTORS
330
16FB9
102
}
330
16FB9
100
AcDbXrecord
280
     1
  1
70
  1
*-70
  1
*
  1
*
 70
     0
  1
*
  1
*
  0
XRECORD
  5
1824C
102
{ACAD_REACTORS
330
16FB9
102
}
330
16FB9
100
AcDbXrecord
280
     1
  1
7a
  1
*7a
  1
*
  1
*
 70
     0
  1
*
  1
*
  0
XRECORD
  5
1824D
102
{ACAD_REACTORS
330
16FB9
102
}
330
16FB9
100
AcDbXrecord
280
     1
  1
8
  1
*
  1
8
  1
*
 70
     0
  1
*
  1
*
  0
XRECORD
  5
1824E
102
{ACAD_REACTORS
330
16FB9
102
}
330
16FB9
100
AcDbXrecord
280
     1
  1
80
  1
*-80
  1
*
  1
*
 70
     0
  1
*
  1
*
  0
XRECORD
  5
1824F
102
{ACAD_REACTORS
330
16FB9
102
}
330
16FB9
100
AcDbXrecord
280
     1
  1
81514加工件
  1
81514*
  1
*
  1
*
 70
     0
  1
*
  1
*
  0
XRECORD
  5
18250
102
{ACAD_REACTORS
330
16FB9
102
}
330
16FB9
100
AcDbXrecord
280
     1
  1
81標準件
  1
S81514*
  1
*
  1
*
 70
     0
  1
*
  1
*
  0
XRECORD
  5
18251
102
{ACAD_REACTORS
330
16FB9
102
}
330
16FB9
100
AcDbXrecord
280
     1
  1
9
  1
*
  1
9
  1
*
 70
     0
  1
*
  1
*
  0
XRECORD
  5
18252
102
{ACAD_REACTORS
330
16FB9
102
}
330
16FB9
100
AcDbXrecord
280
     1
  1
901101
  1
*
  1
*
  1
*
 70
     0
  1
*
  1
*
  0
XRECORD
  5
18253
102
{ACAD_REACTORS
330
16FB9
102
}
330
16FB9
100
AcDbXrecord
280
     1
  1
973 fab
  1
973*
  1
*
  1
*
 70
     0
  1
*
  1
*
  0
XRECORD
  5
18254
102
{ACAD_REACTORS
330
16FB9
102
}
330
16FB9
100
AcDbXrecord
280
     1
  1
\U+C0AC\U+C6A9
  1
*
  1
*
  1
*
 70
   256
  1
*
  1
*
  0
XRECORD
  5
18255
102
{ACAD_REACTORS
330
16FB9
102
}
330
16FB9
100
AcDbXrecord
280
     1
  1
\U+D50C\U+B85C\U+D130 \U+C791\U+C5C5\U+CE35
  1
*
  1
*
  1
*
 70
  1025
  1
*
  1
*
  0
XRECORD
  5
18256
102
{ACAD_REACTORS
330
16FB9
102
}
330
16FB9
100
AcDbXrecord
280
     1
  1
\U+D604\U+C7AC \U+C791\U+C5C5\U+CE35
  1
*
  1
*
  1
*
 70
     1
  1
*
  1
*
  0
XRECORD
  5
18257
102
{ACAD_REACTORS
330
16FB9
102
}
330
16FB9
100
AcDbXrecord
280
     1
  1
\U+D604\U+C7AC \U+C7A0\U+AE08
  1
*
  1
*
  1
*
 70
   257
  1
*
  1
*
  0
XRECORD
  5
18258
102
{ACAD_REACTORS
330
16FB9
102
}
330
16FB9
100
AcDbXrecord
280
     1
  1
\U+F770煎攪 濛機類
  1
*
  1
*
  1
*
 70
  1025
  1
*
  1
*
  0
XRECORD
  5
18259
102
{ACAD_REACTORS
330
16FB9
102
}
330
16FB9
100
AcDbXrecord
280
     1
  1
\U+F7A3營 濡\U+65CE
  1
*
  1
*
  1
*
 70
   257
  1
*
  1
*
  0
XRECORD
  5
1825A
102
{ACAD_REACTORS
330
16FB9
102
}
330
16FB9
100
AcDbXrecord
280
     1
  1
\U+F7A3營 濛機類
  1
*
  1
*
  1
*
 70
     1
  1
*
  1
*
  0
XRECORD
  5
1825B
102
{ACAD_REACTORS
330
16FB9
102
}
330
16FB9
100
AcDbXrecord
280
     1
  1
_
  1
*_*
  1
*
  1
*
 70
     0
  1
*
  1
*
  0
XRECORD
  5
1825C
102
{ACAD_REACTORS
330
16FB9
102
}
330
16FB9
100
AcDbXrecord
280
     1
  1
_Demolition_
  1
*-DEMO
  1
*
  1
*
 70
     0
  1
*
  1
*
  0
XRECORD
  5
1825D
102
{ACAD_REACTORS
330
16FB9
102
}
330
16FB9
100
AcDbXrecord
280
     1
  1
_Existing_
  1
*-EXST
  1
*
  1
*
 70
     0
  1
*
  1
*
  0
XRECORD
  5
1825E
102
{ACAD_REACTORS
330
16FB9
102
}
330
16FB9
100
AcDbXrecord
280
     1
  1
_New Work_
  1
*-NEWW
  1
*
  1
*
 70
     0
  1
*
  1
*
  0
XRECORD
  5
1825F
102
{ACAD_REACTORS
330
16FB9
102
}
330
16FB9
100
AcDbXrecord
280
     1
  1
A
  1
*
  1
*
  1
*
 70
     0
  1
*
  1
*
  0
XRECORD
  5
18260
102
{ACAD_REACTORS
330
16FB9
102
}
330
16FB9
100
AcDbXrecord
280
     1
  1
A-
  1
A-*
  1
*
  1
*
 70
     0
  1
*
  1
*
  0
XRECORD
  5
18261
102
{ACAD_REACTORS
330
16FB9
102
}
330
16FB9
100
AcDbXrecord
280
     1
  1
A-ANNO-REVS
  1
*REVS*
  1
*
  1
*
 70
     0
  1
*
  1
*
  0
XRECORD
  5
18262
102
{ACAD_REACTORS
330
16FB9
102
}
330
16FB9
100
AcDbXrecord
280
     1
  1
A-Gfa
  1
*A-Gfa*
  1
*
  1
*
 70
     0
  1
*
  1
*
  0
XRECORD
  5
18263
102
{ACAD_REACTORS
330
16FB9
102
}
330
16FB9
100
AcDbXrecord
280
     1
  1
a-roof
  1
a-roof*
  1
*
  1
*
 70
     0
  1
*
  1
*
  0
XRECORD
  5
18264
102
{ACAD_REACTORS
330
16FB9
102
}
330
16FB9
100
AcDbXrecord
280
     1
  1
A-WALL
  1
*WALL*
  1
*
  1
*
 70
     0
  1
*
  1
*
  0
XRECORD
  5
18265
102
{ACAD_REACTORS
330
16FB9
102
}
330
16FB9
100
AcDbXrecord
280
     1
  1
A1
  1
A1*
  1
*
  1
*
 70
     0
  1
*
  1
*
  0
XRECORD
  5
18266
102
{ACAD_REACTORS
330
16FB9
102
}
330
16FB9
100
AcDbXrecord
280
     1
  1
A10
  1
A10*
  1
*
  1
*
 70
     0
  1
*
  1
*
  0
XRECORD
  5
18267
102
{ACAD_REACTORS
330
16FB9
102
}
330
16FB9
100
AcDbXrecord
280
     1
  1
A12
  1
A12*
  1
*
  1
*
 70
     0
  1
*
  1
*
  0
XRECORD
  5
18268
102
{ACAD_REACTORS
330
16FB9
102
}
330
16FB9
100
AcDbXrecord
280
     1
  1
A13
  1
A13*
  1
*
  1
*
 70
     0
  1
*
  1
*
  0
XRECORD
  5
18269
102
{ACAD_REACTORS
330
16FB9
102
}
330
16FB9
100
AcDbXrecord
280
     1
  1
A19
  1
A19*
  1
*
  1
*
 70
     0
  1
*
  1
*
  0
XRECORD
  5
1826A
102
{ACAD_REACTORS
330
16FB9
102
}
330
16FB9
100
AcDbXrecord
280
     1
  1
A20
  1
A20*
  1
*
  1
*
 70
     0
  1
*
  1
*
  0
XRECORD
  5
1826B
102
{ACAD_REACTORS
330
16FB9
102
}
330
16FB9
100
AcDbXrecord
280
     1
  1
a22
  1
a22*
  1
*
  1
*
 70
     0
  1
*
  1
*
  0
XRECORD
  5
1826C
102
{ACAD_REACTORS
330
16FB9
102
}
330
16FB9
100
AcDbXrecord
280
     1
  1
A22 ASSEMBLY
  1
*A22*
  1
*
  1
*
 70
     0
  1
*
  1
*
  0
XRECORD
  5
1826D
102
{ACAD_REACTORS
330
16FB9
102
}
330
16FB9
100
AcDbXrecord
280
     1
  1
A23
  1
A23*
  1
*
  1
*
 70
     0
  1
*
  1
*
  0
XRECORD
  5
1826E
102
{ACAD_REACTORS
330
16FB9
102
}
330
16FB9
100
AcDbXrecord
280
     1
  1
A24
  1
A24*
  1
*
  1
*
 70
     0
  1
*
  1
*
  0
XRECORD
  5
1826F
102
{ACAD_REACTORS
330
16FB9
102
}
330
16FB9
100
AcDbXrecord
280
     1
  1
aa
  1
*aa*
  1
*
  1
*
 70
     0
  1
*
  1
*
  0
XRECORD
  5
18270
102
{ACAD_REACTORS
330
16FB9
102
}
330
16FB9
100
AcDbXrecord
280
     1
  1
AC-CORP
  1
AC*
  1
*
  1
*
 70
     0
  1
*
  1
*
  0
XRECORD
  5
18271
102
{ACAD_REACTORS
330
16FB9
102
}
330
16FB9
100
AcDbXrecord
280
     1
  1
AC-LAYERS
  1
AC*
  1
*
  1
*
 70
     0
  1
*
  1
*
  0
XRECORD
  5
18272
102
{ACAD_REACTORS
330
16FB9
102
}
330
16FB9
100
AcDbXrecord
280
     1
  1
ACL
  1
ACL*
  1
*
  1
*
 70
     0
  1
*
  1
*
  0
XRECORD
  5
18273
102
{ACAD_REACTORS
330
16FB9
102
}
330
16FB9
100
AcDbXrecord
280
     1
  1
Active vp Frozen
  1
*
  1
*
  1
*
 70
    16
  1
*
  1
*
  0
XRECORD
  5
18274
102
{ACAD_REACTORS
330
16FB9
102
}
330
16FB9
100
AcDbXrecord
280
     1
  1
Active vp Thawed
  1
*
  1
*
  1
*
 70
    48
  1
*
  1
*
  0
XRECORD
  5
18275
102
{ACAD_REACTORS
330
16FB9
102
}
330
16FB9
100
AcDbXrecord
280
     1
  1
Active-Inactive-Freeze
  1
*
  1
*
  1
*
 70
    16
  1
*
  1
*
  0
XRECORD
  5
18276
102
{ACAD_REACTORS
330
16FB9
102
}
330
16FB9
100
AcDbXrecord
280
     1
  1
ADI
  1
ADI*
  1
*
  1
*
 70
     0
  1
*
  1
*
  0
XRECORD
  5
18277
102
{ACAD_REACTORS
330
16FB9
102
}
330
16FB9
100
AcDbXrecord
280
     1
  1
ADJ
  1
*adj*
  1
*
  1
*
 70
     0
  1
*
  1
*
  0
XRECORD
  5
18278
102
{ACAD_REACTORS
330
16FB9
102
}
330
16FB9
100
AcDbXrecord
280
     1
  1
aeq
  1
*aeq*
  1
*
  1
*
 70
     0
  1
*
  1
*
  0
XRECORD
  5
18279
102
{ACAD_REACTORS
330
16FB9
102
}
330
16FB9
100
AcDbXrecord
280
     1
  1
AEQ60HVM
  1
AEQ60HVM*
  1
*
  1
*
 70
     0
  1
*
  1
*
  0
XRECORD
  5
1827A
102
{ACAD_REACTORS
330
16FB9
102
}
330
16FB9
100
AcDbXrecord
280
     1
  1
AEQACNW
  1
*AEQACNW*
  1
*
  1
*
 70
     0
  1
*
  1
*
  0
XRECORD
  5
1827B
102
{ACAD_REACTORS
330
16FB9
102
}
330
16FB9
100
AcDbXrecord
280
     1
  1
AEQFI
  1
*AEQFI*
  1
*
  1
*
 70
     0
  1
*
  1
*
  0
XRECORD
  5
1827C
102
{ACAD_REACTORS
330
16FB9
102
}
330
16FB9
100
AcDbXrecord
280
     1
  1
AEQFIFU
  1
*AEQFIFU*
  1
*
  1
*
 70
     0
  1
*
  1
*
  0
XRECORD
  5
1827D
102
{ACAD_REACTORS
330
16FB9
102
}
330
16FB9
100
AcDbXrecord
280
     1
  1
AEQMO
  1
*AEQMO*
  1
*
  1
*
 70
     0
  1
*
  1
*
  0
XRECORD
  5
1827E
102
{ACAD_REACTORS
330
16FB9
102
}
330
16FB9
100
AcDbXrecord
280
     1
  1
afl
  1
aflcw*
  1
*
  1
*
 70
     0
  1
*
  1
*
  0
XRECORD
  5
1827F
102
{ACAD_REACTORS
330
16FB9
102
}
330
16FB9
100
AcDbXrecord
280
     1
  1
AGUA Y DREN
  1
A-DS-*
  1
*
  1
*
 70
     0
  1
*
  1
*
  0
XRECORD
  5
18280
102
{ACAD_REACTORS
330
16FB9
102
}
330
16FB9
100
AcDbXrecord
280
     1
  1
ALL
  1
*
  1
*
  1
*
 70
     0
  1
*
  1
*
  0
XRECORD
  5
18281
102
{ACAD_REACTORS
330
16FB9
102
}
330
16FB9
100
AcDbXrecord
280
     1
  1
all frozen
  1
*
  1
*
  1
*
 70
     4
  1
*
  1
*
  0
XRECORD
  5
18282
102
{ACAD_REACTORS
330
16FB9
102
}
330
16FB9
100
AcDbXrecord
280
     1
  1
All Levels
  1
(lv*
  1
*
  1
*
 70
     0
  1
*
  1
*
  0
XRECORD
  5
18283
102
{ACAD_REACTORS
330
16FB9
102
}
330
16FB9
100
AcDbXrecord
280
     1
  1
All Phases
  1
(ph*
  1
*
  1
*
 70
     0
  1
*
  1
*
  0
XRECORD
  5
18284
102
{ACAD_REACTORS
330
16FB9
102
}
330
16FB9
100
AcDbXrecord
280
     1
  1
AM
  1
AM*
  1
*
  1
*
 70
     0
  1
*
  1
*
  0
XRECORD
  5
18285
102
{ACAD_REACTORS
330
16FB9
102
}
330
16FB9
100
AcDbXrecord
280
     1
  1
amarillo
  1
*
  1
yellow
  1
*
 70
     0
  1
*
  1
*
  0
XRECORD
  5
18286
102
{ACAD_REACTORS
330
16FB9
102
}
330
16FB9
100
AcDbXrecord
280
     1
  1
ame-aoe
  1
*ame*,*aoe*
  1
*
  1
*
 70
     0
  1
*
  1
*
  0
XRECORD
  5
18287
102
{ACAD_REACTORS
330
16FB9
102
}
330
16FB9
100
AcDbXrecord
280
     1
  1
AMHS
  1
*AAM*
  1
*
  1
*
 70
     0
  1
*
  1
*
  0
XRECORD
  5
18288
102
{ACAD_REACTORS
330
16FB9
102
}
330
16FB9
100
AcDbXrecord
280
     1
  1
amz
  1
aeqamz*
  1
*
  1
*
 70
     0
  1
*
  1
*
  0
XRECORD
  5
18289
102
{ACAD_REACTORS
330
16FB9
102
}
330
16FB9
100
AcDbXrecord
280
     1
  1
ANO
  1
ANO*
  1
*
  1
*
 70
     0
  1
*
  1
*
  0
XRECORD
  5
1828A
102
{ACAD_REACTORS
330
16FB9
102
}
330
16FB9
100
AcDbXrecord
280
     1
  1
APFREEZE
  1
*
  1
*
  1
*
 70
    31
  1
*
  1
*
  0
XRECORD
  5
1828B
102
{ACAD_REACTORS
330
16FB9
102
}
330
16FB9
100
AcDbXrecord
280
     1
  1
ARCH-NEW
  1
A*NW
  1
*
  1
*
 70
     0
  1
*
  1
*
  0
XRECORD
  5
1828C
102
{ACAD_REACTORS
330
16FB9
102
}
330
16FB9
100
AcDbXrecord
280
     1
  1
ARCH-REMOVAL
  1
A*DM
  1
*
  1
*
 70
     0
  1
*
  1
*
  0
XRECORD
  5
1828D
102
{ACAD_REACTORS
330
16FB9
102
}
330
16FB9
100
AcDbXrecord
280
     1
  1
Architectural
  1
A-*
  1
*
  1
*
 70
     0
  1
*
  1
*
  0
XRECORD
  5
1828E
102
{ACAD_REACTORS
330
16FB9
102
}
330
16FB9
100
AcDbXrecord
280
     1
  1
ARE
  1
*ARE*
  1
*
  1
*
 70
     0
  1
*
  1
*
  0
XRECORD
  5
1828F
102
{ACAD_REACTORS
330
16FB9
102
}
330
16FB9
100
AcDbXrecord
280
     1
  1
area
  1
*area*
  1
*
  1
*
 70
     0
  1
*
  1
*
  0
XRECORD
  5
18290
102
{ACAD_REACTORS
330
16FB9
102
}
330
16FB9
100
AcDbXrecord
280
     1
  1
area pattern
  1
*area*
  1
*
  1
*
 70
     0
  1
*
  1
*
  0
XRECORD
  5
18291
102
{ACAD_REACTORS
330
16FB9
102
}
330
16FB9
100
AcDbXrecord
280
     1
  1
ARR
  1
ARR*
  1
*
  1
*
 70
     0
  1
*
  1
*
  0
XRECORD
  5
18292
102
{ACAD_REACTORS
330
16FB9
102
}
330
16FB9
100
AcDbXrecord
280
     1
  1
AS-
  1
AS-*
  1
*
  1
*
 70
     0
  1
*
  1
*
  0
XRECORD
  5
18293
102
{ACAD_REACTORS
330
16FB9
102
}
330
16FB9
100
AcDbXrecord
280
     1
  1
AS-MAST_AS1-
  1
AS-MAST_AS1-*
  1
*
  1
*
 70
     0
  1
*
  1
*
  0
XRECORD
  5
18294
102
{ACAD_REACTORS
330
16FB9
102
}
330
16FB9
100
AcDbXrecord
280
     1
  1
ASDFCA
  1
846304*
  1
*
  1
*
 70
     0
  1
*
  1
*
  0
XRECORD
  5
18295
102
{ACAD_REACTORS
330
16FB9
102
}
330
16FB9
100
AcDbXrecord
280
     1
  1
AWAFU
  1
*AWAFU
  1
*
  1
*
 70
     0
  1
*
  1
*
  0
XRECORD
  5
18296
102
{ACAD_REACTORS
330
16FB9
102
}
330
16FB9
100
AcDbXrecord
280
     1
  1
AX
  1
*AX*
  1
*
  1
*
 70
     0
  1
*
  1
*
  0
XRECORD
  5
18297
102
{ACAD_REACTORS
330
16FB9
102
}
330
16FB9
100
AcDbXrecord
280
     1
  1
B
  1
B-*
  1
*
  1
*
 70
     0
  1
*
  1
*
  0
XRECORD
  5
18298
102
{ACAD_REACTORS
330
16FB9
102
}
330
16FB9
100
AcDbXrecord
280
     1
  1
B10
  1
B10*
  1
*
  1
*
 70
     0
  1
*
  1
*
  0
XRECORD
  5
18299
102
{ACAD_REACTORS
330
16FB9
102
}
330
16FB9
100
AcDbXrecord
280
     1
  1
B13
  1
*B13*
  1
*
  1
*
 70
     0
  1
*
  1
*
  0
XRECORD
  5
1829A
102
{ACAD_REACTORS
330
16FB9
102
}
330
16FB9
100
AcDbXrecord
280
     1
  1
B15
  1
B15*
  1
*
  1
*
 70
     0
  1
*
  1
*
  0
XRECORD
  5
1829B
102
{ACAD_REACTORS
330
16FB9
102
}
330
16FB9
100
AcDbXrecord
280
     1
  1
B16
  1
B16*
  1
*
  1
*
 70
     0
  1
*
  1
*
  0
XRECORD
  5
1829C
102
{ACAD_REACTORS
330
16FB9
102
}
330
16FB9
100
AcDbXrecord
280
     1
  1
B17
  1
B17*
  1
*
  1
*
 70
     0
  1
*
  1
*
  0
XRECORD
  5
1829D
102
{ACAD_REACTORS
330
16FB9
102
}
330
16FB9
100
AcDbXrecord
280
     1
  1
B19
  1
B19*
  1
*
  1
*
 70
     0
  1
*
  1
*
  0
XRECORD
  5
1829E
102
{ACAD_REACTORS
330
16FB9
102
}
330
16FB9
100
AcDbXrecord
280
     1
  1
B21
  1
B21*
  1
*
  1
*
 70
     0
  1
*
  1
*
  0
XRECORD
  5
1829F
102
{ACAD_REACTORS
330
16FB9
102
}
330
16FB9
100
AcDbXrecord
280
     1
  1
B29
  1
B29*
  1
*
  1
*
 70
     0
  1
*
  1
*
  0
XRECORD
  5
182A0
102
{ACAD_REACTORS
330
16FB9
102
}
330
16FB9
100
AcDbXrecord
280
     1
  1
B32
  1
*B32*
  1
*
  1
*
 70
     0
  1
*
  1
*
  0
XRECORD
  5
182A1
102
{ACAD_REACTORS
330
16FB9
102
}
330
16FB9
100
AcDbXrecord
280
     1
  1
B34
  1
B34*
  1
*
  1
*
 70
     1
  1
*
  1
*
  0
XRECORD
  5
182A2
102
{ACAD_REACTORS
330
16FB9
102
}
330
16FB9
100
AcDbXrecord
280
     1
  1
BASE
  1
*-PBASE
  1
*
  1
*
 70
     0
  1
*
  1
*
  0
XRECORD
  5
182A3
102
{ACAD_REACTORS
330
16FB9
102
}
330
16FB9
100
AcDbXrecord
280
     1
  1
BASEMENT
  1
*_0
  1
*
  1
*
 70
     0
  1
*
  1
*
  0
XRECORD
  5
182A4
102
{ACAD_REACTORS
330
16FB9
102
}
330
16FB9
100
AcDbXrecord
280
     1
  1
beh
  1
*-beh
  1
*
  1
*
 70
     0
  1
*
  1
*
  0
XRECORD
  5
182A5
102
{ACAD_REACTORS
330
16FB9
102
}
330
16FB9
100
AcDbXrecord
280
     1
  1
behn
  1
*-behn
  1
*
  1
*
 70
     0
  1
*
  1
*
  0
XRECORD
  5
182A6
102
{ACAD_REACTORS
330
16FB9
102
}
330
16FB9
100
AcDbXrecord
280
     1
  1
BIN
  1
*
  1
*
  1
*
 70
     1
  1
*
  1
*
  0
XRECORD
  5
182A7
102
{ACAD_REACTORS
330
16FB9
102
}
330
16FB9
100
AcDbXrecord
280
     1
  1
BLACK
  1
*
  1
*WHITE
  1
*
 70
     0
  1
*
  1
*
  0
XRECORD
  5
182A8
102
{ACAD_REACTORS
330
16FB9
102
}
330
16FB9
100
AcDbXrecord
280
     1
  1
blue
  1
*
  1
blue
  1
*
 70
     0
  1
*
  1
*
  0
XRECORD
  5
182A9
102
{ACAD_REACTORS
330
16FB9
102
}
330
16FB9
100
AcDbXrecord
280
     1
  1
bmlite
  1
*lite*
  1
*
  1
*
 70
     0
  1
*
  1
*
  0
XRECORD
  5
182AA
102
{ACAD_REACTORS
330
16FB9
102
}
330
16FB9
100
AcDbXrecord
280
     1
  1
Bridge
  1
B-*
  1
*
  1
*
 70
     0
  1
*
  1
*
  0
XRECORD
  5
182AB
102
{ACAD_REACTORS
330
16FB9
102
}
330
16FB9
100
AcDbXrecord
280
     1
  1
brown
  1
*
  1
brown
  1
*
 70
     0
  1
*
  1
*
  0
XRECORD
  5
182AC
102
{ACAD_REACTORS
330
16FB9
102
}
330
16FB9
100
AcDbXrecord
280
     1
  1
Building Layers
  1
-bldg*
  1
*
  1
*
 70
     0
  1
*
  1
*
  0
XRECORD
  5
182AD
102
{ACAD_REACTORS
330
16FB9
102
}
330
16FB9
100
AcDbXrecord
280
     1
  1
C
  1
C-*
  1
*
  1
*
 70
     0
  1
*
  1
*
  0
XRECORD
  5
182AE
102
{ACAD_REACTORS
330
16FB9
102
}
330
16FB9
100
AcDbXrecord
280
     1
  1
c5
  1
*
  1
*
  1
c5
 70
     0
  1
*
  1
*
  0
XRECORD
  5
182AF
102
{ACAD_REACTORS
330
16FB9
102
}
330
16FB9
100
AcDbXrecord
280
     1
  1
CASE ERECTOR
  1
*
  1
*
  1
*
 70
     3
  1
*
  1
*
  0
XRECORD
  5
182B0
102
{ACAD_REACTORS
330
16FB9
102
}
330
16FB9
100
AcDbXrecord
280
     1
  1
cc
  1
*
  1
*
  1
*
 70
     0
  1
*
  1
*
  0
XRECORD
  5
182B1
102
{ACAD_REACTORS
330
16FB9
102
}
330
16FB9
100
AcDbXrecord
280
     1
  1
CENTER
  1
*
  1
*
  1
CADRACENTER
 70
     0
  1
*
  1
*
  0
XRECORD
  5
182B2
102
{ACAD_REACTORS
330
16FB9
102
}
330
16FB9
100
AcDbXrecord
280
     1
  1
CENTERLINES
  1
*CL*
  1
*
  1
*
 70
     0
  1
*
  1
*
  0
XRECORD
  5
182B3
102
{ACAD_REACTORS
330
16FB9
102
}
330
16FB9
100
AcDbXrecord
280
     1
  1
chairs
  1
*ch*
  1
*
  1
*
 70
     0
  1
*
  1
*
  0
XRECORD
  5
182B4
102
{ACAD_REACTORS
330
16FB9
102
}
330
16FB9
100
AcDbXrecord
280
     1
  1
change
  1
*change*
  1
*
  1
*
 70
     0
  1
*
  1
*
  0
XRECORD
  5
182B5
102
{ACAD_REACTORS
330
16FB9
102
}
330
16FB9
100
AcDbXrecord
280
     1
  1
che
  1
che*
  1
*
  1
*
 70
     0
  1
*
  1
*
  0
XRECORD
  5
182B6
102
{ACAD_REACTORS
330
16FB9
102
}
330
16FB9
100
AcDbXrecord
280
     1
  1
CHECK PARTS
  1
*
  1
*
  1
*
 70
     0
  1
*
  1
*
  0
XRECORD
  5
182B7
102
{ACAD_REACTORS
330
16FB9
102
}
330
16FB9
100
AcDbXrecord
280
     1
  1
Civil
  1
C-*
  1
*
  1
*
 70
     0
  1
*
  1
*
  0
XRECORD
  5
182B8
102
{ACAD_REACTORS
330
16FB9
102
}
330
16FB9
100
AcDbXrecord
280
     1
  1
clg layers
  1
clg*
  1
*
  1
*
 70
     0
  1
*
  1
*
  0
XRECORD
  5
182B9
102
{ACAD_REACTORS
330
16FB9
102
}
330
16FB9
100
AcDbXrecord
280
     1
  1
closeoff
  1
105*
  1
*
  1
*
 70
     0
  1
*
  1
*
  0
XRECORD
  5
182BA
102
{ACAD_REACTORS
330
16FB9
102
}
330
16FB9
100
AcDbXrecord
280
     1
  1
Color
  1
*
  1
8
  1
*
 70
     0
  1
*
  1
*
  0
XRECORD
  5
182BB
102
{ACAD_REACTORS
330
16FB9
102
}
330
16FB9
100
AcDbXrecord
280
     1
  1
color 210
  1
*
  1
*210
  1
*
 70
     0
  1
*
  1
*
  0
XRECORD
  5
182BC
102
{ACAD_REACTORS
330
16FB9
102
}
330
16FB9
100
AcDbXrecord
280
     1
  1
color 250
  1
*
  1
250
  1
*
 70
     0
  1
*
  1
*
  0
XRECORD
  5
182BD
102
{ACAD_REACTORS
330
16FB9
102
}
330
16FB9
100
AcDbXrecord
280
     1
  1
color 31
  1
*
  1
*31
  1
*
 70
     0
  1
*
  1
*
  0
XRECORD
  5
182BE
102
{ACAD_REACTORS
330
16FB9
102
}
330
16FB9
100
AcDbXrecord
280
     1
  1
COLOR 44
  1
*
  1
44
  1
*
 70
     0
  1
*
  1
*
  0
XRECORD
  5
182BF
102
{ACAD_REACTORS
330
16FB9
102
}
330
16FB9
100
AcDbXrecord
280
     1
  1
COLOR25
  1
*
  1
25
  1
*
 70
     0
  1
*
  1
*
  0
XRECORD
  5
182C0
102
{ACAD_REACTORS
330
16FB9
102
}
330
16FB9
100
AcDbXrecord
280
     1
  1
COLOR7
  1
*
  1
*7
  1
*
 70
     0
  1
*
  1
*
  0
XRECORD
  5
182C1
102
{ACAD_REACTORS
330
16FB9
102
}
330
16FB9
100
AcDbXrecord
280
     1
  1
COLOR8
  1
*
  1
*8
  1
*
 70
     0
  1
*
  1
*
  0
XRECORD
  5
182C2
102
{ACAD_REACTORS
330
16FB9
102
}
330
16FB9
100
AcDbXrecord
280
     1
  1
COLOR9
  1
*
  1
*9
  1
*
 70
     0
  1
*
  1
*
  0
XRECORD
  5
182C3
102
{ACAD_REACTORS
330
16FB9
102
}
330
16FB9
100
AcDbXrecord
280
     1
  1
com
  1
com*
  1
*
  1
*
 70
     0
  1
*
  1
*
  0
XRECORD
  5
182C4
102
{ACAD_REACTORS
330
16FB9
102
}
330
16FB9
100
AcDbXrecord
280
     1
  1
CONJUNTO
  1
CON-*
  1
*
  1
*
 70
     0
  1
*
  1
*
  0
XRECORD
  5
182C5
102
{ACAD_REACTORS
330
16FB9
102
}
330
16FB9
100
AcDbXrecord
280
     1
  1
CONTOURS
  1
*CONT*
  1
*
  1
*
 70
     0
  1
*
  1
*
  0
XRECORD
  5
182C6
102
{ACAD_REACTORS
330
16FB9
102
}
330
16FB9
100
AcDbXrecord
280
     1
  1
conveyor
  1
con*
  1
*
  1
*
 70
     0
  1
*
  1
*
  0
XRECORD
  5
182C7
102
{ACAD_REACTORS
330
16FB9
102
}
330
16FB9
100
AcDbXrecord
280
     1
  1
conveyors
  1
*conv*
  1
*
  1
*
 70
     0
  1
*
  1
*
  0
XRECORD
  5
182C8
102
{ACAD_REACTORS
330
16FB9
102
}
330
16FB9
100
AcDbXrecord
280
     1
  1
cyan
  1
*
  1
4
  1
*
 70
     0
  1
*
  1
*
  0
XRECORD
  5
182C9
102
{ACAD_REACTORS
330
16FB9
102
}
330
16FB9
100
AcDbXrecord
280
     1
  1
d&p
  1
u*,PUR*
  1
*
  1
*
 70
     0
  1
*
  1
*
  0
XRECORD
  5
182CA
102
{ACAD_REACTORS
330
16FB9
102
}
330
16FB9
100
AcDbXrecord
280
     1
  1
D's
  1
d*
  1
*
  1
*
 70
     0
  1
*
  1
*
  0
XRECORD
  5
182CB
102
{ACAD_REACTORS
330
16FB9
102
}
330
16FB9
100
AcDbXrecord
280
     1
  1
d1cbk
  1
rag-2-9-c*
  1
*
  1
*
 70
     0
  1
*
  1
*
  0
XRECORD
  5
182CC
102
{ACAD_REACTORS
330
16FB9
102
}
330
16FB9
100
AcDbXrecord
280
     1
  1
D21-D41-F31
  1
*D21-D41-F31*
  1
*
  1
*
 70
     0
  1
*
  1
*
  0
XRECORD
  5
182CD
102
{ACAD_REACTORS
330
16FB9
102
}
330
16FB9
100
AcDbXrecord
280
     1
  1
D21-D41-F31OFF
  1
*D21-D41-F31*
  1
*
  1
*
 70
    12
  1
*
  1
*
  0
XRECORD
  5
182CE
102
{ACAD_REACTORS
330
16FB9
102
}
330
16FB9
100
AcDbXrecord
280
     1
  1
DEFPOINTS
  1
*DEFPOINTS
  1
*
  1
*
 70
     0
  1
*
  1
*
  0
XRECORD
  5
182CF
102
{ACAD_REACTORS
330
16FB9
102
}
330
16FB9
100
AcDbXrecord
280
     1
  1
DEMO
  1
*DM
  1
*
  1
*
 70
     0
  1
*
  1
*
  0
XRECORD
  5
182D0
102
{ACAD_REACTORS
330
16FB9
102
}
330
16FB9
100
AcDbXrecord
280
     1
  1
det's
  1
u*
  1
*
  1
*
 70
     0
  1
*
  1
*
  0
XRECORD
  5
182D1
102
{ACAD_REACTORS
330
16FB9
102
}
330
16FB9
100
AcDbXrecord
280
     1
  1
DET-
  1
*
  1
*
  1
*
 70
     0
  1
*
  1
*
  0
XRECORD
  5
182D2
102
{ACAD_REACTORS
330
16FB9
102
}
330
16FB9
100
AcDbXrecord
280
     1
  1
DETAILED TOOLS
  1
*-D
  1
*
  1
*
 70
     0
  1
*
  1
*
  0
XRECORD
  5
182D3
102
{ACAD_REACTORS
330
16FB9
102
}
330
16FB9
100
AcDbXrecord
280
     1
  1
details
  1
U05D*
  1
*
  1
*
 70
     0
  1
*
  1
*
  0
XRECORD
  5
182D4
102
{ACAD_REACTORS
330
16FB9
102
}
330
16FB9
100
AcDbXrecord
280
     1
  1
DIM
  1
*DIM*
  1
*
  1
*
 70
     0
  1
*
  1
*
  0
XRECORD
  5
182D5
102
{ACAD_REACTORS
330
16FB9
102
}
330
16FB9
100
AcDbXrecord
280
     1
  1
DIM-NOTES
  1
17*,18*
  1
*
  1
*
 70
     0
  1
*
  1
*
  0
XRECORD
  5
182D6
102
{ACAD_REACTORS
330
16FB9
102
}
330
16FB9
100
AcDbXrecord
280
     1
  1
DIM50
  1
*DIM*50*
  1
*
  1
*
 70
     0
  1
*
  1
*
  0
XRECORD
  5
182D7
102
{ACAD_REACTORS
330
16FB9
102
}
330
16FB9
100
AcDbXrecord
280
     1
  1
DIMS
  1
*DIM*
  1
*
  1
*
 70
     0
  1
*
  1
*
  0
XRECORD
  5
182D8
102
{ACAD_REACTORS
330
16FB9
102
}
330
16FB9
100
AcDbXrecord
280
     1
  1
DM
  1
*DM
  1
*
  1
*
 70
     0
  1
*
  1
*
  0
XRECORD
  5
182D9
102
{ACAD_REACTORS
330
16FB9
102
}
330
16FB9
100
AcDbXrecord
280
     1
  1
dm00q3
  1
*dm00q3*,*DM00Q4*
  1
*
  1
*
 70
     0
  1
*
  1
*
  0
XRECORD
  5
182DA
102
{ACAD_REACTORS
330
16FB9
102
}
330
16FB9
100
AcDbXrecord
280
     1
  1
DONOTERASE
  1
*DONOT*
  1
*
  1
*
 70
     0
  1
*
  1
*
  0
XRECORD
  5
182DB
102
{ACAD_REACTORS
330
16FB9
102
}
330
16FB9
100
AcDbXrecord
280
     1
  1
door
  1
*door*
  1
*
  1
*
 70
     0
  1
*
  1
*
  0
XRECORD
  5
182DC
102
{ACAD_REACTORS
330
16FB9
102
}
330
16FB9
100
AcDbXrecord
280
     1
  1
door-iden
  1
*door-iden*
  1
*
  1
*
 70
     0
  1
*
  1
*
  0
XRECORD
  5
182DD
102
{ACAD_REACTORS
330
16FB9
102
}
330
16FB9
100
AcDbXrecord
280
     1
  1
doors
  1
ado*
  1
*
  1
*
 70
     0
  1
*
  1
*
  0
XRECORD
  5
182DE
102
{ACAD_REACTORS
330
16FB9
102
}
330
16FB9
100
AcDbXrecord
280
     1
  1
DOR-H
  1
*
  1
7
  1
*
 70
     0
  1
*
  1
*
  0
XRECORD
  5
182DF
102
{ACAD_REACTORS
330
16FB9
102
}
330
16FB9
100
AcDbXrecord
280
     1
  1
drain
  1
ar-dr*
  1
*
  1
*
 70
     0
  1
*
  1
*
  0
XRECORD
  5
182E0
102
{ACAD_REACTORS
330
16FB9
102
}
330
16FB9
100
AcDbXrecord
280
     1
  1
DX
  1
*DX*
  1
*
  1
*
 70
     0
  1
*
  1
*
  0
XRECORD
  5
182E1
102
{ACAD_REACTORS
330
16FB9
102
}
330
16FB9
100
AcDbXrecord
280
     1
  1
e
  1
e*
  1
*
  1
*
 70
     0
  1
*
  1
*
  0
XRECORD
  5
182E2
102
{ACAD_REACTORS
330
16FB9
102
}
330
16FB9
100
AcDbXrecord
280
     1
  1
E0
  1
E0*
  1
*
  1
*
 70
     0
  1
*
  1
*
  0
XRECORD
  5
182E3
102
{ACAD_REACTORS
330
16FB9
102
}
330
16FB9
100
AcDbXrecord
280
     1
  1
E10
  1
E10*
  1
*
  1
*
 70
     1
  1
*
  1
*
  0
XRECORD
  5
182E4
102
{ACAD_REACTORS
330
16FB9
102
}
330
16FB9
100
AcDbXrecord
280
     1
  1
E11
  1
E11*
  1
*
  1
*
 70
     1
  1
*
  1
*
  0
XRECORD
  5
182E5
102
{ACAD_REACTORS
330
16FB9
102
}
330
16FB9
100
AcDbXrecord
280
     1
  1
E12
  1
E12*
  1
*
  1
*
 70
     0
  1
*
  1
*
  0
XRECORD
  5
182E6
102
{ACAD_REACTORS
330
16FB9
102
}
330
16FB9
100
AcDbXrecord
280
     1
  1
E13
  1
E13*
  1
*
  1
*
 70
     1
  1
*
  1
*
  0
XRECORD
  5
182E7
102
{ACAD_REACTORS
330
16FB9
102
}
330
16FB9
100
AcDbXrecord
280
     1
  1
E14
  1
E14*
  1
*
  1
*
 70
     1
  1
*
  1
*
  0
XRECORD
  5
182E8
102
{ACAD_REACTORS
330
16FB9
102
}
330
16FB9
100
AcDbXrecord
280
     1
  1
E15
  1
E15*
  1
*
  1
*
 70
     1
  1
*
  1
*
  0
XRECORD
  5
182E9
102
{ACAD_REACTORS
330
16FB9
102
}
330
16FB9
100
AcDbXrecord
280
     1
  1
E16
  1
E16*
  1
*
  1
*
 70
     1
  1
*
  1
*
  0
XRECORD
  5
182EA
102
{ACAD_REACTORS
330
16FB9
102
}
330
16FB9
100
AcDbXrecord
280
     1
  1
E17
  1
E17*
  1
*
  1
*
 70
     1
  1
*
  1
*
  0
XRECORD
  5
182EB
102
{ACAD_REACTORS
330
16FB9
102
}
330
16FB9
100
AcDbXrecord
280
     1
  1
E18
  1
E18*
  1
*
  1
*
 70
     1
  1
*
  1
*
  0
XRECORD
  5
182EC
102
{ACAD_REACTORS
330
16FB9
102
}
330
16FB9
100
AcDbXrecord
280
     1
  1
E19
  1
E19*
  1
*
  1
*
 70
     0
  1
*
  1
*
  0
XRECORD
  5
182ED
102
{ACAD_REACTORS
330
16FB9
102
}
330
16FB9
100
AcDbXrecord
280
     1
  1
E51
  1
E51*
  1
*
  1
*
 70
     1
  1
*
  1
*
  0
XRECORD
  5
182EE
102
{ACAD_REACTORS
330
16FB9
102
}
330
16FB9
100
AcDbXrecord
280
     1
  1
E52
  1
E52*
  1
*
  1
*
 70
     1
  1
*
  1
*
  0
XRECORD
  5
182EF
102
{ACAD_REACTORS
330
16FB9
102
}
330
16FB9
100
AcDbXrecord
280
     1
  1
E54
  1
E54*
  1
*
  1
*
 70
     1
  1
*
  1
*
  0
XRECORD
  5
182F0
102
{ACAD_REACTORS
330
16FB9
102
}
330
16FB9
100
AcDbXrecord
280
     1
  1
E55
  1
E55*
  1
*
  1
*
 70
     1
  1
*
  1
*
  0
XRECORD
  5
182F1
102
{ACAD_REACTORS
330
16FB9
102
}
330
16FB9
100
AcDbXrecord
280
     1
  1
E56
  1
E56*
  1
*
  1
*
 70
     0
  1
*
  1
*
  0
XRECORD
  5
182F2
102
{ACAD_REACTORS
330
16FB9
102
}
330
16FB9
100
AcDbXrecord
280
     1
  1
E58
  1
E58*
  1
*
  1
*
 70
     1
  1
*
  1
*
  0
XRECORD
  5
182F3
102
{ACAD_REACTORS
330
16FB9
102
}
330
16FB9
100
AcDbXrecord
280
     1
  1
E63
  1
E63*
  1
*
  1
*
 70
     0
  1
*
  1
*
  0
XRECORD
  5
182F4
102
{ACAD_REACTORS
330
16FB9
102
}
330
16FB9
100
AcDbXrecord
280
     1
  1
ELEC
  1
E*
  1
*
  1
*
 70
     0
  1
*
  1
*
  0
XRECORD
  5
182F5
102
{ACAD_REACTORS
330
16FB9
102
}
330
16FB9
100
AcDbXrecord
280
     1
  1
ELEC-NEW
  1
E*NW
  1
*
  1
*
 70
     0
  1
*
  1
*
  0
XRECORD
  5
182F6
102
{ACAD_REACTORS
330
16FB9
102
}
330
16FB9
100
AcDbXrecord
280
     1
  1
ELEC-REMOVAL
  1
E*DM
  1
*
  1
*
 70
     0
  1
*
  1
*
  0
XRECORD
  5
182F7
102
{ACAD_REACTORS
330
16FB9
102
}
330
16FB9
100
AcDbXrecord
280
     1
  1
elect
  1
p*
  1
*
  1
*
 70
     0
  1
*
  1
*
  0
XRECORD
  5
182F8
102
{ACAD_REACTORS
330
16FB9
102
}
330
16FB9
100
AcDbXrecord
280
     1
  1
ELECTRIC
  1
ELEC*
  1
*
  1
*
 70
     0
  1
*
  1
*
  0
XRECORD
  5
182F9
102
{ACAD_REACTORS
330
16FB9
102
}
330
16FB9
100
AcDbXrecord
280
     1
  1
Electrical
  1
E-*
  1
*
  1
*
 70
     0
  1
*
  1
*
  0
XRECORD
  5
182FA
102
{ACAD_REACTORS
330
16FB9
102
}
330
16FB9
100
AcDbXrecord
280
     1
  1
ELECTRICO
  1
ELEC-*
  1
*
  1
*
 70
     0
  1
*
  1
*
  0
XRECORD
  5
182FB
102
{ACAD_REACTORS
330
16FB9
102
}
330
16FB9
100
AcDbXrecord
280
     1
  1
ELEVATOR-CHECK
  1
GCG000-2B|*
  1
*
  1
*
 70
     0
  1
*
  1
*
  0
XRECORD
  5
182FC
102
{ACAD_REACTORS
330
16FB9
102
}
330
16FB9
100
AcDbXrecord
280
     1
  1
EQUIPMENT
  1
*11*
  1
*
  1
*
 70
     0
  1
*
  1
*
  0
XRECORD
  5
182FD
102
{ACAD_REACTORS
330
16FB9
102
}
330
16FB9
100
AcDbXrecord
280
     1
  1
ETCH FAB
  1
D1CFET*
  1
*
  1
*
 70
     0
  1
*
  1
*
  0
XRECORD
  5
182FE
102
{ACAD_REACTORS
330
16FB9
102
}
330
16FB9
100
AcDbXrecord
280
     1
  1
EXH
  1
EXH*
  1
*
  1
*
 70
     0
  1
*
  1
*
  0
XRECORD
  5
182FF
102
{ACAD_REACTORS
330
16FB9
102
}
330
16FB9
100
AcDbXrecord
280
     1
  1
f
  1
*f2*
  1
*
  1
*
 70
     0
  1
*
  1
*
  0
XRECORD
  5
18300
102
{ACAD_REACTORS
330
16FB9
102
}
330
16FB9
100
AcDbXrecord
280
     1
  1
F10
  1
F10*
  1
*
  1
*
 70
     0
  1
*
  1
*
  0
XRECORD
  5
18301
102
{ACAD_REACTORS
330
16FB9
102
}
330
16FB9
100
AcDbXrecord
280
     1
  1
F15
  1
F15*
  1
*
  1
*
 70
     0
  1
*
  1
*
  0
XRECORD
  5
18302
102
{ACAD_REACTORS
330
16FB9
102
}
330
16FB9
100
AcDbXrecord
280
     1
  1
F16
  1
F16*
  1
*
  1
*
 70
     0
  1
*
  1
*
  0
XRECORD
  5
18303
102
{ACAD_REACTORS
330
16FB9
102
}
330
16FB9
100
AcDbXrecord
280
     1
  1
F17
  1
F17*
  1
*
  1
*
 70
     0
  1
*
  1
*
  0
XRECORD
  5
18304
102
{ACAD_REACTORS
330
16FB9
102
}
330
16FB9
100
AcDbXrecord
280
     1
  1
F18
  1
*
  1
*
  1
*
 70
     0
  1
*
  1
*
  0
XRECORD
  5
18305
102
{ACAD_REACTORS
330
16FB9
102
}
330
16FB9
100
AcDbXrecord
280
     1
  1
F19
  1
F19*
  1
*
  1
*
 70
     0
  1
*
  1
*
  0
XRECORD
  5
18306
102
{ACAD_REACTORS
330
16FB9
102
}
330
16FB9
100
AcDbXrecord
280
     1
  1
F22
  1
F22*
  1
*
  1
*
 70
     0
  1
*
  1
*
  0
XRECORD
  5
18307
102
{ACAD_REACTORS
330
16FB9
102
}
330
16FB9
100
AcDbXrecord
280
     1
  1
F23
  1
*
  1
*
  1
*
 70
     0
  1
*
  1
*
  0
XRECORD
  5
18308
102
{ACAD_REACTORS
330
16FB9
102
}
330
16FB9
100
AcDbXrecord
280
     1
  1
F24 ASSEMBLY
  1
*F24*
  1
*
  1
*
 70
     0
  1
*
  1
*
  0
XRECORD
  5
18309
102
{ACAD_REACTORS
330
16FB9
102
}
330
16FB9
100
AcDbXrecord
280
     1
  1
f26
  1
*
  1
*
  1
*
 70
     0
  1
*
  1
*
  0
XRECORD
  5
1830A
102
{ACAD_REACTORS
330
16FB9
102
}
330
16FB9
100
AcDbXrecord
280
     1
  1
F27
  1
F27*
  1
*
  1
*
 70
     0
  1
*
  1
*
  0
XRECORD
  5
1830B
102
{ACAD_REACTORS
330
16FB9
102
}
330
16FB9
100
AcDbXrecord
280
     1
  1
F29
  1
*F29
  1
*
  1
*
 70
     1
  1
*
  1
*
  0
XRECORD
  5
1830C
102
{ACAD_REACTORS
330
16FB9
102
}
330
16FB9
100
AcDbXrecord
280
     1
  1
F30
  1
F30*
  1
*
  1
*
 70
     0
  1
*
  1
*
  0
XRECORD
  5
1830D
102
{ACAD_REACTORS
330
16FB9
102
}
330
16FB9
100
AcDbXrecord
280
     1
  1
F34
  1
F34*
  1
*
  1
*
 70
     0
  1
*
  1
*
  0
XRECORD
  5
1830E
102
{ACAD_REACTORS
330
16FB9
102
}
330
16FB9
100
AcDbXrecord
280
     1
  1
FAB
  1
*047*
  1
*
  1
*
 70
     0
  1
*
  1
*
  0
XRECORD
  5
1830F
102
{ACAD_REACTORS
330
16FB9
102
}
330
16FB9
100
AcDbXrecord
280
     1
  1
FAB TOOLS
  1
D1CFET*AEQFI*
  1
*
  1
*
 70
     0
  1
*
  1
*
  0
XRECORD
  5
18310
102
{ACAD_REACTORS
330
16FB9
102
}
330
16FB9
100
AcDbXrecord
280
     1
  1
FD
  1
*
  1
7
  1
*
 70
     0
  1
*
  1
*
  0
XRECORD
  5
18311
102
{ACAD_REACTORS
330
16FB9
102
}
330
16FB9
100
AcDbXrecord
280
     1
  1
Fill
  1
a-fill*
  1
*
  1
*
 70
     0
  1
*
  1
*
  0
XRECORD
  5
18312
102
{ACAD_REACTORS
330
16FB9
102
}
330
16FB9
100
AcDbXrecord
280
     1
  1
Finish
  1
*finish*
  1
*
  1
*
 70
     0
  1
*
  1
*
  0
XRECORD
  5
18313
102
{ACAD_REACTORS
330
16FB9
102
}
330
16FB9
100
AcDbXrecord
280
     1
  1
Fire
  1
F-*
  1
*
  1
*
 70
     0
  1
*
  1
*
  0
XRECORD
  5
18314
102
{ACAD_REACTORS
330
16FB9
102
}
330
16FB9
100
AcDbXrecord
280
     1
  1
fix
  1
*fix*
  1
*
  1
*
 70
     0
  1
*
  1
*
  0
XRECORD
  5
18315
102
{ACAD_REACTORS
330
16FB9
102
}
330
16FB9
100
AcDbXrecord
280
     1
  1
FLEXLINK
  1
FL-*
  1
*
  1
*
 70
     0
  1
*
  1
*
  0
XRECORD
  5
18316
102
{ACAD_REACTORS
330
16FB9
102
}
330
16FB9
100
AcDbXrecord
280
     1
  1
floor
  1
*aflra*
  1
*
  1
*
 70
     0
  1
*
  1
*
  0
XRECORD
  5
18317
102
{ACAD_REACTORS
330
16FB9
102
}
330
16FB9
100
AcDbXrecord
280
     1
  1
floor2
  1
*fl2
  1
*
  1
*
 70
     0
  1
*
  1
*
  0
XRECORD
  5
18318
102
{ACAD_REACTORS
330
16FB9
102
}
330
16FB9
100
AcDbXrecord
280
     1
  1
floor3
  1
*fl3
  1
*
  1
*
 70
     0
  1
*
  1
*
  0
XRECORD
  5
18319
102
{ACAD_REACTORS
330
16FB9
102
}
330
16FB9
100
AcDbXrecord
280
     1
  1
floor5
  1
*fl5
  1
*
  1
*
 70
     0
  1
*
  1
*
  0
XRECORD
  5
1831A
102
{ACAD_REACTORS
330
16FB9
102
}
330
16FB9
100
AcDbXrecord
280
     1
  1
FLOW
  1
FLOW*
  1
*
  1
*
 70
     0
  1
*
  1
*
  0
XRECORD
  5
1831B
102
{ACAD_REACTORS
330
16FB9
102
}
330
16FB9
100
AcDbXrecord
280
     1
  1
fpc
  1
fpc
  1
*
  1
*
 70
     0
  1
*
  1
*
  0
XRECORD
  5
1831C
102
{ACAD_REACTORS
330
16FB9
102
}
330
16FB9
100
AcDbXrecord
280
     1
  1
FPREQ
  1
FPREQ*
  1
*
  1
*
 70
     0
  1
*
  1
*
  0
XRECORD
  5
1831D
102
{ACAD_REACTORS
330
16FB9
102
}
330
16FB9
100
AcDbXrecord
280
     1
  1
Fr
  1
*
  1
*
  1
*
 70
     4
  1
*
  1
*
  0
XRECORD
  5
1831E
102
{ACAD_REACTORS
330
16FB9
102
}
330
16FB9
100
AcDbXrecord
280
     1
  1
FRAME
  1
*10-*
  1
*
  1
*
 70
     0
  1
*
  1
*
  0
XRECORD
  5
1831F
102
{ACAD_REACTORS
330
16FB9
102
}
330
16FB9
100
AcDbXrecord
280
     1
  1
FREEZE
  1
*
  1
*
  1
*
 70
     4
  1
*
  1
*
  0
XRECORD
  5
18320
102
{ACAD_REACTORS
330
16FB9
102
}
330
16FB9
100
AcDbXrecord
280
     1
  1
Freeze-Thaw
  1
*
  1
*
  1
*
 70
     4
  1
*
  1
*
  0
XRECORD
  5
18321
102
{ACAD_REACTORS
330
16FB9
102
}
330
16FB9
100
AcDbXrecord
280
     1
  1
front
  1
*
  1
*
  1
*
 70
     0
  1
*
  1
*
  0
XRECORD
  5
18322
102
{ACAD_REACTORS
330
16FB9
102
}
330
16FB9
100
AcDbXrecord
280
     1
  1
FROZE
  1
*
  1
*
  1
*
 70
     4
  1
*
  1
*
  0
XRECORD
  5
18323
102
{ACAD_REACTORS
330
16FB9
102
}
330
16FB9
100
AcDbXrecord
280
     1
  1
frozen
  1
*
  1
*
  1
*
 70
     4
  1
*
  1
*
  0
XRECORD
  5
18324
102
{ACAD_REACTORS
330
16FB9
102
}
330
16FB9
100
AcDbXrecord
280
     1
  1
FROZZED
  1
*
  1
*
  1
*
 70
     4
  1
*
  1
*
  0
XRECORD
  5
18325
102
{ACAD_REACTORS
330
16FB9
102
}
330
16FB9
100
AcDbXrecord
280
     1
  1
frz
  1
*
  1
*
  1
*
 70
     4
  1
*
  1
*
  0
XRECORD
  5
18326
102
{ACAD_REACTORS
330
16FB9
102
}
330
16FB9
100
AcDbXrecord
280
     1
  1
frzn
  1
*
  1
*
  1
*
 70
     4
  1
*
  1
*
  0
XRECORD
  5
18327
102
{ACAD_REACTORS
330
16FB9
102
}
330
16FB9
100
AcDbXrecord
280
     1
  1
fu
  1
*fu
  1
*
  1
*
 70
     0
  1
*
  1
*
  0
XRECORD
  5
18328
102
{ACAD_REACTORS
330
16FB9
102
}
330
16FB9
100
AcDbXrecord
280
     1
  1
FURNITURE
  1
afU*
  1
*
  1
*
 70
     0
  1
*
  1
*
  0
XRECORD
  5
18329
102
{ACAD_REACTORS
330
16FB9
102
}
330
16FB9
100
AcDbXrecord
280
     1
  1
furniture layers
  1
afu*
  1
*
  1
*
 70
     0
  1
*
  1
*
  0
XRECORD
  5
1832A
102
{ACAD_REACTORS
330
16FB9
102
}
330
16FB9
100
AcDbXrecord
280
     1
  1
FUTURE
  1
*FUT*
  1
*
  1
*
 70
     0
  1
*
  1
*
  0
XRECORD
  5
1832B
102
{ACAD_REACTORS
330
16FB9
102
}
330
16FB9
100
AcDbXrecord
280
     1
  1
G-REV
  1
*
  1
*
  1
*
 70
     0
  1
*
  1
*
  0
XRECORD
  5
1832C
102
{ACAD_REACTORS
330
16FB9
102
}
330
16FB9
100
AcDbXrecord
280
     1
  1
G_CUT
  1
*CUT*
  1
*
  1
*
 70
     0
  1
*
  1
*
  0
XRECORD
  5
1832D
102
{ACAD_REACTORS
330
16FB9
102
}
330
16FB9
100
AcDbXrecord
280
     1
  1
gasline
  1
*
  1
*
  1
*
 70
     0
  1
*
  1
*
  0
XRECORD
  5
1832E
102
{ACAD_REACTORS
330
16FB9
102
}
330
16FB9
100
AcDbXrecord
280
     1
  1
GEN7A
  1
10
  1
*
  1
CENTER*
 70
     0
  1
*
  1
*
  0
XRECORD
  5
1832F
102
{ACAD_REACTORS
330
16FB9
102
}
330
16FB9
100
AcDbXrecord
280
     1
  1
General
  1
G-*
  1
*
  1
*
 70
     0
  1
*
  1
*
  0
XRECORD
  5
18330
102
{ACAD_REACTORS
330
16FB9
102
}
330
16FB9
100
AcDbXrecord
280
     1
  1
GG
  1
*
  1
*
  1
*
 70
     1
  1
*
  1
*
  0
XRECORD
  5
18331
102
{ACAD_REACTORS
330
16FB9
102
}
330
16FB9
100
AcDbXrecord
280
     1
  1
GRAY
  1
*
  1
*9
  1
*
 70
     0
  1
*
  1
*
  0
XRECORD
  5
18332
102
{ACAD_REACTORS
330
16FB9
102
}
330
16FB9
100
AcDbXrecord
280
     1
  1
GRAYS
  1
*
  1
*257
  1
*
 70
     0
  1
*
  1
*
  0
XRECORD
  5
18333
102
{ACAD_REACTORS
330
16FB9
102
}
330
16FB9
100
AcDbXrecord
280
     1
  1
green
  1
*
  1
3
  1
*
 70
     0
  1
*
  1
*
  0
XRECORD
  5
18334
102
{ACAD_REACTORS
330
16FB9
102
}
330
16FB9
100
AcDbXrecord
280
     1
  1
grid
  1
*-PGRID
  1
*
  1
*
 70
     1
  1
*
  1
*
  0
XRECORD
  5
18335
102
{ACAD_REACTORS
330
16FB9
102
}
330
16FB9
100
AcDbXrecord
280
     1
  1
Grids
  1
*grid*
  1
*
  1
*
 70
     0
  1
*
  1
*
  0
XRECORD
  5
18336
102
{ACAD_REACTORS
330
16FB9
102
}
330
16FB9
100
AcDbXrecord
280
     1
  1
GRIDTXT
  1
*-PGRIDT
  1
*
  1
*
 70
     0
  1
*
  1
*
  0
XRECORD
  5
18337
102
{ACAD_REACTORS
330
16FB9
102
}
330
16FB9
100
AcDbXrecord
280
     1
  1
guides
  1
guides*
  1
*
  1
*
 70
     0
  1
*
  1
*
  0
XRECORD
  5
18338
102
{ACAD_REACTORS
330
16FB9
102
}
330
16FB9
100
AcDbXrecord
280
     1
  1
HAISEN
  1
*1,HAISEN
  1
*
  1
*
 70
     0
  1
*
  1
*
  0
XRECORD
  5
18339
102
{ACAD_REACTORS
330
16FB9
102
}
330
16FB9
100
AcDbXrecord
280
     1
  1
HATCH
  1
*HATCH
  1
*
  1
*
 70
     0
  1
*
  1
*
  0
XRECORD
  5
1833A
102
{ACAD_REACTORS
330
16FB9
102
}
330
16FB9
100
AcDbXrecord
280
     1
  1
HID
  1
*HID
  1
*
  1
*
 70
     0
  1
*
  1
*
  0
XRECORD
  5
1833B
102
{ACAD_REACTORS
330
16FB9
102
}
330
16FB9
100
AcDbXrecord
280
     1
  1
HIDDEN
  1
*HID
  1
*
  1
*
 70
     0
  1
*
  1
*
  0
XRECORD
  5
1833C
102
{ACAD_REACTORS
330
16FB9
102
}
330
16FB9
100
AcDbXrecord
280
     1
  1
hidden lines
  1
*
  1
*
  1
hidden*
 70
    16
  1
*
  1
*
  0
XRECORD
  5
1833D
102
{ACAD_REACTORS
330
16FB9
102
}
330
16FB9
100
AcDbXrecord
280
     1
  1
hidden lines-2
  1
*
  1
*
  1
hidden*
 70
    48
  1
*
  1
*
  0
XRECORD
  5
1833E
102
{ACAD_REACTORS
330
16FB9
102
}
330
16FB9
100
AcDbXrecord
280
     1
  1
HOSE
  1
*HOSE*
  1
*
  1
*
 70
     0
  1
*
  1
*
  0
XRECORD
  5
1833F
102
{ACAD_REACTORS
330
16FB9
102
}
330
16FB9
100
AcDbXrecord
280
     1
  1
HVM
  1
*AEQ60HVM
  1
*
  1
*
 70
     0
  1
*
  1
*
  0
XRECORD
  5
18340
102
{ACAD_REACTORS
330
16FB9
102
}
330
16FB9
100
AcDbXrecord
280
     1
  1
Hytrol Layers
  1
*hy
  1
*
  1
*
 70
     0
  1
*
  1
*
  0
XRECORD
  5
18341
102
{ACAD_REACTORS
330
16FB9
102
}
330
16FB9
100
AcDbXrecord
280
     1
  1
I
  1
*I*wall*
  1
*
  1
*
 70
     0
  1
*
  1
*
  0
XRECORD
  5
18342
102
{ACAD_REACTORS
330
16FB9
102
}
330
16FB9
100
AcDbXrecord
280
     1
  1
IDEN
  1
*IDEN*
  1
*
  1
*
 70
     0
  1
*
  1
*
  0
XRECORD
  5
18343
102
{ACAD_REACTORS
330
16FB9
102
}
330
16FB9
100
AcDbXrecord
280
     1
  1
ILLUSTRATOR
  1
*
  1
*
  1
*
 70
    12
  1
*
  1
*
  0
XRECORD
  5
18344
102
{ACAD_REACTORS
330
16FB9
102
}
330
16FB9
100
AcDbXrecord
280
     1
  1
int
  1
*int
  1
*
  1
*
 70
     0
  1
*
  1
*
  0
XRECORD
  5
18345
102
{ACAD_REACTORS
330
16FB9
102
}
330
16FB9
100
AcDbXrecord
280
     1
  1
Interior
  1
I-*
  1
*
  1
*
 70
     0
  1
*
  1
*
  0
XRECORD
  5
18346
102
{ACAD_REACTORS
330
16FB9
102
}
330
16FB9
100
AcDbXrecord
280
     1
  1
Invisible
  1
*
  1
*
  1
Invisible
 70
     0
  1
*
  1
*
  0
XRECORD
  5
18347
102
{ACAD_REACTORS
330
16FB9
102
}
330
16FB9
100
AcDbXrecord
280
     1
  1
IPM
  1
IPM
  1
*
  1
*
 70
     0
  1
*
  1
*
  0
XRECORD
  5
18348
102
{ACAD_REACTORS
330
16FB9
102
}
330
16FB9
100
AcDbXrecord
280
     1
  1
Item
  1
*item*
  1
*
  1
*
 70
     0
  1
*
  1
*
  0
XRECORD
  5
18349
102
{ACAD_REACTORS
330
16FB9
102
}
330
16FB9
100
AcDbXrecord
280
     1
  1
j
  1
j*
  1
*
  1
*
 70
     0
  1
*
  1
*
  0
XRECORD
  5
1834A
102
{ACAD_REACTORS
330
16FB9
102
}
330
16FB9
100
AcDbXrecord
280
     1
  1
JIZNI
  1
*-J
  1
*
  1
*
 70
     0
  1
*
  1
*
  0
XRECORD
  5
1834B
102
{ACAD_REACTORS
330
16FB9
102
}
330
16FB9
100
AcDbXrecord
280
     1
  1
jkhg8
  1
814706*
  1
*
  1
*
 70
     0
  1
*
  1
*
  0
XRECORD
  5
1834C
102
{ACAD_REACTORS
330
16FB9
102
}
330
16FB9
100
AcDbXrecord
280
     1
  1
KABESHIN
  1
*A12
  1
*
  1
*
 70
     0
  1
*
  1
*
  0
XRECORD
  5
1834D
102
{ACAD_REACTORS
330
16FB9
102
}
330
16FB9
100
AcDbXrecord
280
     1
  1
kerb
  1
*kerb*
  1
*
  1
*
 70
     0
  1
*
  1
*
  0
XRECORD
  5
1834E
102
{ACAD_REACTORS
330
16FB9
102
}
330
16FB9
100
AcDbXrecord
280
     1
  1
key
  1
keyplan
  1
*
  1
*
 70
     0
  1
*
  1
*
  0
XRECORD
  5
16FC4
102
{ACAD_REACTORS
330
16FB9
102
}
330
16FB9
100
AcDbXrecord
280
     1
  1
kiseki
  1
kiseki*
  1
*
  1
*
 70
     0
  1
*
  1
*
  0
XRECORD
  5
1834F
102
{ACAD_REACTORS
330
16FB9
102
}
330
16FB9
100
AcDbXrecord
280
     1
  1
L1
  1
*
  1
*
  1
*
 70
     0
  1
*
  1
*
  0
XRECORD
  5
18350
102
{ACAD_REACTORS
330
16FB9
102
}
330
16FB9
100
AcDbXrecord
280
     1
  1
L10
  1
L10*
  1
*
  1
*
 70
     0
  1
*
  1
*
  0
XRECORD
  5
18351
102
{ACAD_REACTORS
330
16FB9
102
}
330
16FB9
100
AcDbXrecord
280
     1
  1
L11
  1
L11*
  1
*
  1
*
 70
     0
  1
*
  1
*
  0
XRECORD
  5
18352
102
{ACAD_REACTORS
330
16FB9
102
}
330
16FB9
100
AcDbXrecord
280
     1
  1
L11P
  1
L11P*
  1
*
  1
*
 70
     0
  1
*
  1
*
  0
XRECORD
  5
18353
102
{ACAD_REACTORS
330
16FB9
102
}
330
16FB9
100
AcDbXrecord
280
     1
  1
L12
  1
L12*
  1
*
  1
*
 70
     0
  1
*
  1
*
  0
XRECORD
  5
18354
102
{ACAD_REACTORS
330
16FB9
102
}
330
16FB9
100
AcDbXrecord
280
     1
  1
L13
  1
L13*
  1
*
  1
*
 70
     0
  1
*
  1
*
  0
XRECORD
  5
18355
102
{ACAD_REACTORS
330
16FB9
102
}
330
16FB9
100
AcDbXrecord
280
     1
  1
L15 ASSEMBLY
  1
*L15*
  1
*
  1
*
 70
     0
  1
*
  1
*
  0
XRECORD
  5
18356
102
{ACAD_REACTORS
330
16FB9
102
}
330
16FB9
100
AcDbXrecord
280
     1
  1
L16
  1
L16*
  1
*
  1
*
 70
     0
  1
*
  1
*
  0
XRECORD
  5
18357
102
{ACAD_REACTORS
330
16FB9
102
}
330
16FB9
100
AcDbXrecord
280
     1
  1
L18
  1
L18*
  1
*
  1
*
 70
     0
  1
*
  1
*
  0
XRECORD
  5
18358
102
{ACAD_REACTORS
330
16FB9
102
}
330
16FB9
100
AcDbXrecord
280
     1
  1
L2
  1
*
  1
*
  1
*
 70
     0
  1
*
  1
*
  0
XRECORD
  5
18359
102
{ACAD_REACTORS
330
16FB9
102
}
330
16FB9
100
AcDbXrecord
280
     1
  1
L21
  1
L21*
  1
*
  1
*
 70
     0
  1
*
  1
*
  0
XRECORD
  5
1835A
102
{ACAD_REACTORS
330
16FB9
102
}
330
16FB9
100
AcDbXrecord
280
     1
  1
L78
  1
L78*
  1
*
  1
*
 70
     0
  1
*
  1
*
  0
XRECORD
  5
1835B
102
{ACAD_REACTORS
330
16FB9
102
}
330
16FB9
100
AcDbXrecord
280
     1
  1
laa
  1
1551-laa-*
  1
*
  1
*
 70
     0
  1
*
  1
*
  0
XRECORD
  5
1835C
102
{ACAD_REACTORS
330
16FB9
102
}
330
16FB9
100
AcDbXrecord
280
     1
  1
Land Design
  1
L-*
  1
*
  1
*
 70
     0
  1
*
  1
*
  0
XRECORD
  5
1835D
102
{ACAD_REACTORS
330
16FB9
102
}
330
16FB9
100
AcDbXrecord
280
     1
  1
LAY OFF
  1
xref*10*,*30*,*PFIX-IDEN-50*,*SPCE*,*GFA*,*DOOR-IDEN*,*GLAZ-IDEN*,*mcut*,*clng*,*mbnd*,grid*30*,*20*,*10,*500*
  1
*
  1
*
 70
     0
  1
*
  1
*
  0
XRECORD
  5
1835E
102
{ACAD_REACTORS
330
16FB9
102
}
330
16FB9
100
AcDbXrecord
280
     1
  1
lay-dwg-off
  1
20*,*30*,*5**acc*,*case*,*dim*,*door*,*detl*,*drop*,*elev*,*eqpm*,*exst*,*gfa*,*hral*,*kerb*,*lev*,*note*,*pfix*,*plnt*,*phase*,*roof*,*symb*,*sign*,*sect*,*spcl*,*wall*ceil*,*fire*,*half*,*open*,*part*,*above*,*below*,*comp*,*10
  1
*
  1
*
 70
     0
  1
*
  1
*
  0
XRECORD
  5
1835F
102
{ACAD_REACTORS
330
16FB9
102
}
330
16FB9
100
AcDbXrecord
280
     1
  1
lay-grid-off
  1
*xmko*,*5*,*20*,*30*,*10
  1
*
  1
*
 70
     0
  1
*
  1
*
  0
XRECORD
  5
18360
102
{ACAD_REACTORS
330
16FB9
102
}
330
16FB9
100
AcDbXrecord
280
     1
  1
LAYER
  1
*
  1
*
  1
*
 70
     0
  1
*
  1
*
  0
XRECORD
  5
18361
102
{ACAD_REACTORS
330
16FB9
102
}
330
16FB9
100
AcDbXrecord
280
     1
  1
LAYER FREEZE
  1
*10*
  1
*
  1
*
 70
     0
  1
*
  1
*
  0
XRECORD
  5
18362
102
{ACAD_REACTORS
330
16FB9
102
}
330
16FB9
100
AcDbXrecord
280
     1
  1
LAYER ON
  1
*FLOR-IDEN-100*,*GRID-IDEN-100*,*GRID-100*
  1
*
  1
*
 70
     0
  1
*
  1
*
  0
XRECORD
  5
18363
102
{ACAD_REACTORS
330
16FB9
102
}
330
16FB9
100
AcDbXrecord
280
     1
  1
Layers on
  1
*
  1
*
  1
*
 70
     1
  1
*
  1
*
  0
XRECORD
  5
18364
102
{ACAD_REACTORS
330
16FB9
102
}
330
16FB9
100
AcDbXrecord
280
     1
  1
length
  1
*length*
  1
*
  1
*
 70
     0
  1
*
  1
*
  0
XRECORD
  5
18365
102
{ACAD_REACTORS
330
16FB9
102
}
330
16FB9
100
AcDbXrecord
280
     1
  1
Level 1
  1
(lv1)*
  1
*
  1
*
 70
     0
  1
*
  1
*
  0
XRECORD
  5
18366
102
{ACAD_REACTORS
330
16FB9
102
}
330
16FB9
100
AcDbXrecord
280
     1
  1
Level 2
  1
(lv2)*
  1
*
  1
*
 70
     0
  1
*
  1
*
  0
XRECORD
  5
18367
102
{ACAD_REACTORS
330
16FB9
102
}
330
16FB9
100
AcDbXrecord
280
     1
  1
Level 3
  1
(lv3)*
  1
*
  1
*
 70
     0
  1
*
  1
*
  0
XRECORD
  5
18368
102
{ACAD_REACTORS
330
16FB9
102
}
330
16FB9
100
AcDbXrecord
280
     1
  1
Level 4
  1
(lv4)*
  1
*
  1
*
 70
     0
  1
*
  1
*
  0
XRECORD
  5
18369
102
{ACAD_REACTORS
330
16FB9
102
}
330
16FB9
100
AcDbXrecord
280
     1
  1
level floor
  1
*level*floor*
  1
*
  1
*
 70
     0
  1
*
  1
*
  0
XRECORD
  5
1836A
102
{ACAD_REACTORS
330
16FB9
102
}
330
16FB9
100
AcDbXrecord
280
     1
  1
level platform
  1
*level*platform*
  1
*
  1
*
 70
     0
  1
*
  1
*
  0
XRECORD
  5
1836B
102
{ACAD_REACTORS
330
16FB9
102
}
330
16FB9
100
AcDbXrecord
280
     1
  1
LEVEL4
  1
*LEVEL4*
  1
*
  1
*
 70
     0
  1
*
  1
*
  0
XRECORD
  5
1836C
102
{ACAD_REACTORS
330
16FB9
102
}
330
16FB9
100
AcDbXrecord
280
     1
  1
lift frame
  1
*
  1
*
  1
*
 70
   256
  1
*
  1
*
  0
XRECORD
  5
1836D
102
{ACAD_REACTORS
330
16FB9
102
}
330
16FB9
100
AcDbXrecord
280
     1
  1
LIGHTING
  1
*
  1
*
  1
*
 70
     0
  1
*
  1
*211, 212, 140
  0
XRECORD
  5
1836E
102
{ACAD_REACTORS
330
16FB9
102
}
330
16FB9
100
AcDbXrecord
280
     1
  1
lighting stuff
  1
*f
  1
*
  1
*
 70
     0
  1
*
  1
*
  0
XRECORD
  5
1836F
102
{ACAD_REACTORS
330
16FB9
102
}
330
16FB9
100
AcDbXrecord
280
     1
  1
lights
  1
*f*
  1
*
  1
*
 70
     0
  1
*
  1
*
  0
XRECORD
  5
18370
102
{ACAD_REACTORS
330
16FB9
102
}
330
16FB9
100
AcDbXrecord
280
     1
  1
LOCK
  1
*
  1
*
  1
*
 70
   256
  1
*
  1
*
  0
XRECORD
  5
18371
102
{ACAD_REACTORS
330
16FB9
102
}
330
16FB9
100
AcDbXrecord
280
     1
  1
LRC-FT-NOS-LAM
  1
*LRC*,*FT*,*NOS*,*LAM*
  1
*
  1
*
 70
     0
  1
*
  1
*
  0
XRECORD
  5
18372
102
{ACAD_REACTORS
330
16FB9
102
}
330
16FB9
100
AcDbXrecord
280
     1
  1
LRP
  1
AEQ-Q*
  1
*
  1
*
 70
     0
  1
*
  1
*
  0
XRECORD
  5
18373
102
{ACAD_REACTORS
330
16FB9
102
}
330
16FB9
100
AcDbXrecord
280
     1
  1
M
  1
*_M2
  1
GREEN
  1
*
 70
     0
  1
*
  1
*
  0
XRECORD
  5
18374
102
{ACAD_REACTORS
330
16FB9
102
}
330
16FB9
100
AcDbXrecord
280
     1
  1
m-
  1
m-*
  1
*
  1
*
 70
     0
  1
*
  1
*
  0
XRECORD
  5
18375
102
{ACAD_REACTORS
330
16FB9
102
}
330
16FB9
100
AcDbXrecord
280
     1
  1
M-EQPM
  1
*EQ*
  1
*
  1
*
 70
     0
  1
*
  1
*
  0
XRECORD
  5
18376
102
{ACAD_REACTORS
330
16FB9
102
}
330
16FB9
100
AcDbXrecord
280
     1
  1
M-WALL
  1
M-WALL*
  1
*
  1
*
 70
     0
  1
*
  1
*
  0
XRECORD
  5
18377
102
{ACAD_REACTORS
330
16FB9
102
}
330
16FB9
100
AcDbXrecord
280
     1
  1
M31
  1
*M31*
  1
*
  1
*
 70
     0
  1
*
  1
*
  0
XRECORD
  5
18378
102
{ACAD_REACTORS
330
16FB9
102
}
330
16FB9
100
AcDbXrecord
280
     1
  1
M31FROZE
  1
*M31*
  1
*
  1
*
 70
    12
  1
*
  1
*
  0
XRECORD
  5
18379
102
{ACAD_REACTORS
330
16FB9
102
}
330
16FB9
100
AcDbXrecord
280
     1
  1
M500-SERIES
  1
M50*
  1
*
  1
*
 70
     0
  1
*
  1
*
  0
XRECORD
  5
1837A
102
{ACAD_REACTORS
330
16FB9
102
}
330
16FB9
100
AcDbXrecord
280
     1
  1
MA
  1
06*
  1
*
  1
*
 70
     0
  1
*
  1
*
  0
XRECORD
  5
1837B
102
{ACAD_REACTORS
330
16FB9
102
}
330
16FB9
100
AcDbXrecord
280
     1
  1
magenta
  1
*
  1
6
  1
*
 70
     0
  1
*
  1
*
  0
XRECORD
  5
1837C
102
{ACAD_REACTORS
330
16FB9
102
}
330
16FB9
100
AcDbXrecord
280
     1
  1
Magneta
  1
*
  1
Magneta
  1
*
 70
     0
  1
*
  1
*
  0
XRECORD
  5
1837D
102
{ACAD_REACTORS
330
16FB9
102
}
330
16FB9
100
AcDbXrecord
280
     1
  1
many
  1
*
  1
1,2,3,4,5,6,7
  1
*
 70
     0
  1
*
  1
*
  0
XRECORD
  5
1837E
102
{ACAD_REACTORS
330
16FB9
102
}
330
16FB9
100
AcDbXrecord
280
     1
  1
MBND
  1
*MBND*
  1
*
  1
*
 70
     0
  1
*
  1
*
  0
XRECORD
  5
1837F
102
{ACAD_REACTORS
330
16FB9
102
}
330
16FB9
100
AcDbXrecord
280
     1
  1
mdi
  1
*mdi
  1
*
  1
*
 70
     0
  1
*
  1
*
  0
XRECORD
  5
18380
102
{ACAD_REACTORS
330
16FB9
102
}
330
16FB9
100
AcDbXrecord
280
     1
  1
MECH
  1
M*
  1
*
  1
*
 70
     0
  1
*
  1
*
  0
XRECORD
  5
18381
102
{ACAD_REACTORS
330
16FB9
102
}
330
16FB9
100
AcDbXrecord
280
     1
  1
MECH-NEW
  1
M*NW
  1
*
  1
*
 70
     0
  1
*
  1
*
  0
XRECORD
  5
18382
102
{ACAD_REACTORS
330
16FB9
102
}
330
16FB9
100
AcDbXrecord
280
     1
  1
MECH-REMOVAL
  1
M*DM
  1
*
  1
*
 70
     0
  1
*
  1
*
  0
XRECORD
  5
18383
102
{ACAD_REACTORS
330
16FB9
102
}
330
16FB9
100
AcDbXrecord
280
     1
  1
mechanical
  1
m*
  1
*
  1
*
 70
     0
  1
*
  1
*
  0
XRECORD
  5
18384
102
{ACAD_REACTORS
330
16FB9
102
}
330
16FB9
100
AcDbXrecord
280
     1
  1
Mechnical
  1
M-*
  1
*
  1
*
 70
     0
  1
*
  1
*
  0
XRECORD
  5
18385
102
{ACAD_REACTORS
330
16FB9
102
}
330
16FB9
100
AcDbXrecord
280
     1
  1
MEDIUM BLACK
  1
*
  1
*
  1
*
 70
     0
  1
*
  1
MEDIUM BLACK
  0
XRECORD
  5
18386
102
{ACAD_REACTORS
330
16FB9
102
}
330
16FB9
100
AcDbXrecord
280
     1
  1
MEST BRUGTE
  1
T2,T3,T5,TX2,TX3,TX5,P2,P3,D1,DIM,CEN
  1
*
  1
*
 70
     0
  1
*
  1
*
  0
XRECORD
  5
18387
102
{ACAD_REACTORS
330
16FB9
102
}
330
16FB9
100
AcDbXrecord
280
     1
  1
MEST BRUGTE LAG
  1
T2,T3,T5,TX2,TX3,TX5,P2,P3,DIM,CEN
  1
*
  1
*
 70
     0
  1
*
  1
*
  0
XRECORD
  5
18388
102
{ACAD_REACTORS
330
16FB9
102
}
330
16FB9
100
AcDbXrecord
280
     1
  1
mike
  1
*
  1
*
  1
*spline
 70
     0
  1
*
  1
*
  0
XRECORD
  5
18389
102
{ACAD_REACTORS
330
16FB9
102
}
330
16FB9
100
AcDbXrecord
280
     1
  1
mike1
  1
*AM_ON
  1
*
  1
*
 70
     0
  1
*
  1
*
  0
XRECORD
  5
1838A
102
{ACAD_REACTORS
330
16FB9
102
}
330
16FB9
100
AcDbXrecord
280
     1
  1
MPR
  1
MPR*
  1
*
  1
*
 70
     0
  1
*
  1
*
  0
XRECORD
  5
1838B
102
{ACAD_REACTORS
330
16FB9
102
}
330
16FB9
100
AcDbXrecord
280
     1
  1
mprhv
  1
mprhv*
  1
*
  1
*
 70
     0
  1
*
  1
*
  0
XRECORD
  5
1838C
102
{ACAD_REACTORS
330
16FB9
102
}
330
16FB9
100
AcDbXrecord
280
     1
  1
N5000-137
  1
*N5000-137*
  1
*
  1
*
 70
     0
  1
*
  1
*
  0
XRECORD
  5
1838D
102
{ACAD_REACTORS
330
16FB9
102
}
330
16FB9
100
AcDbXrecord
280
     1
  1
new
  1
*102262
  1
*
  1
*
 70
     0
  1
*
  1
*
  0
XRECORD
  5
1838E
102
{ACAD_REACTORS
330
16FB9
102
}
330
16FB9
100
AcDbXrecord
280
     1
  1
NEW-N
  1
???N*
  1
*
  1
*
 70
     0
  1
*
  1
*
  0
XRECORD
  5
1838F
102
{ACAD_REACTORS
330
16FB9
102
}
330
16FB9
100
AcDbXrecord
280
     1
  1
NEW1
  1
*35075
  1
*
  1
*
 70
     0
  1
*
  1
*
  0
XRECORD
  5
18390
102
{ACAD_REACTORS
330
16FB9
102
}
330
16FB9
100
AcDbXrecord
280
     1
  1
NF
  1
NF*
  1
*
  1
*
 70
     1
  1
*
  1
*
  0
XRECORD
  5
18391
102
{ACAD_REACTORS
330
16FB9
102
}
330
16FB9
100
AcDbXrecord
280
     1
  1
NonPlot
  1
*nplt*
  1
*
  1
*
 70
     0
  1
*
  1
*
  0
XRECORD
  5
18392
102
{ACAD_REACTORS
330
16FB9
102
}
330
16FB9
100
AcDbXrecord
280
     1
  1
NORMAL
  1
*
  1
*
  1
*
 70
     0
  1
*
  1
NORMAL
  0
XRECORD
  5
18393
102
{ACAD_REACTORS
330
16FB9
102
}
330
16FB9
100
AcDbXrecord
280
     1
  1
NOTE
  1
*NOTE_TAG
  1
*
  1
*
 70
     0
  1
*
  1
*
  0
XRECORD
  5
18394
102
{ACAD_REACTORS
330
16FB9
102
}
330
16FB9
100
AcDbXrecord
280
     1
  1
NOTES
  1
*NOTE*
  1
*
  1
*
 70
     0
  1
*
  1
*
  0
XRECORD
  5
18395
102
{ACAD_REACTORS
330
16FB9
102
}
330
16FB9
100
AcDbXrecord
280
     1
  1
NOTES-DIM
  1
17*,18*,19*
  1
*
  1
*
 70
     0
  1
*
  1
*
  0
XRECORD
  5
18396
102
{ACAD_REACTORS
330
16FB9
102
}
330
16FB9
100
AcDbXrecord
280
     1
  1
NR
  1
0NR*
  1
*
  1
*
 70
     0
  1
*
  1
*
  0
XRECORD
  5
18397
102
{ACAD_REACTORS
330
16FB9
102
}
330
16FB9
100
AcDbXrecord
280
     1
  1
NUBE
  1
*
  1
*
  1
*
 70
     0
  1
*
  1
*
  0
XRECORD
  5
18398
102
{ACAD_REACTORS
330
16FB9
102
}
330
16FB9
100
AcDbXrecord
280
     1
  1
NUM
  1
NUM*
  1
*
  1
*
 70
     0
  1
*
  1
*
  0
XRECORD
  5
18399
102
{ACAD_REACTORS
330
16FB9
102
}
330
16FB9
100
AcDbXrecord
280
     1
  1
number
  1
*no*
  1
*
  1
*
 70
     0
  1
*
  1
*
  0
XRECORD
  5
1839A
102
{ACAD_REACTORS
330
16FB9
102
}
330
16FB9
100
AcDbXrecord
280
     1
  1
nvd
  1
aeqnvd*
  1
*
  1
*
 70
     0
  1
*
  1
*
  0
XRECORD
  5
1839B
102
{ACAD_REACTORS
330
16FB9
102
}
330
16FB9
100
AcDbXrecord
280
     1
  1
NW
  1
*NW
  1
*
  1
*
 70
     0
  1
*
  1
*
  0
XRECORD
  5
1839C
102
{ACAD_REACTORS
330
16FB9
102
}
330
16FB9
100
AcDbXrecord
280
     1
  1
O
  1
*O
  1
*
  1
*
 70
     0
  1
*
  1
*
  0
XRECORD
  5
1839D
102
{ACAD_REACTORS
330
16FB9
102
}
330
16FB9
100
AcDbXrecord
280
     1
  1
OBJ
  1
*-OBJ
  1
*
  1
*
 70
     0
  1
*
  1
*
  0
XRECORD
  5
1839E
102
{ACAD_REACTORS
330
16FB9
102
}
330
16FB9
100
AcDbXrecord
280
     1
  1
OFF
  1
*
  1
*
  1
*
 70
     3
  1
*
  1
*
  0
XRECORD
  5
1839F
102
{ACAD_REACTORS
330
16FB9
102
}
330
16FB9
100
AcDbXrecord
280
     1
  1
OFF and Thawed
  1
*
  1
*
  1
*
 70
    15
  1
*
  1
*
  0
XRECORD
  5
183A0
102
{ACAD_REACTORS
330
16FB9
102
}
330
16FB9
100
AcDbXrecord
280
     1
  1
old
  1
*old*
  1
*
  1
*
 70
     0
  1
*
  1
*
  0
XRECORD
  5
183A1
102
{ACAD_REACTORS
330
16FB9
102
}
330
16FB9
100
AcDbXrecord
280
     1
  1
ON
  1
*
  1
*
  1
*
 70
     1
  1
*
  1
*
  0
XRECORD
  5
183A2
102
{ACAD_REACTORS
330
16FB9
102
}
330
16FB9
100
AcDbXrecord
280
     1
  1
On and Frozen
  1
*
  1
*
  1
*
 70
     5
  1
*
  1
*
  0
XRECORD
  5
183A3
102
{ACAD_REACTORS
330
16FB9
102
}
330
16FB9
100
AcDbXrecord
280
     1
  1
On and Thawed
  1
*
  1
*
  1
*
 70
    13
  1
*
  1
*
  0
XRECORD
  5
183A4
102
{ACAD_REACTORS
330
16FB9
102
}
330
16FB9
100
AcDbXrecord
280
     1
  1
On Off
  1
*
  1
*
  1
*
 70
     1
  1
*
  1
*
  0
XRECORD
  5
183A5
102
{ACAD_REACTORS
330
16FB9
102
}
330
16FB9
100
AcDbXrecord
280
     1
  1
On-Off
  1
*
  1
*
  1
*
 70
     1
  1
*
  1
*
  0
XRECORD
  5
183A6
102
{ACAD_REACTORS
330
16FB9
102
}
330
16FB9
100
AcDbXrecord
280
     1
  1
ON-thaw
  1
*
  1
*
  1
*
 70
    13
  1
*
  1
*
  0
XRECORD
  5
183A7
102
{ACAD_REACTORS
330
16FB9
102
}
330
16FB9
100
AcDbXrecord
280
     1
  1
On-THAWED
  1
*
  1
*
  1
*
 70
    13
  1
*
  1
*
  0
XRECORD
  5
183A8
102
{ACAD_REACTORS
330
16FB9
102
}
330
16FB9
100
AcDbXrecord
280
     1
  1
ON_OFF
  1
*
  1
*
  1
*
 70
    13
  1
*
  1
*
  0
XRECORD
  5
183A9
102
{ACAD_REACTORS
330
16FB9
102
}
330
16FB9
100
AcDbXrecord
280
     1
  1
Outline
  1
*outline*
  1
*
  1
*
 70
     0
  1
*
  1
*
  0
XRECORD
  5
183AA
102
{ACAD_REACTORS
330
16FB9
102
}
330
16FB9
100
AcDbXrecord
280
     1
  1
p
  1
P*
  1
*
  1
*
 70
     0
  1
*
  1
*
  0
XRECORD
  5
183AB
102
{ACAD_REACTORS
330
16FB9
102
}
330
16FB9
100
AcDbXrecord
280
     1
  1
p&d
  1
pur*,u09*
  1
*
  1
*
 70
     0
  1
*
  1
*
  0
XRECORD
  5
183AC
102
{ACAD_REACTORS
330
16FB9
102
}
330
16FB9
100
AcDbXrecord
280
     1
  1
panel
  1
panel
  1
*
  1
*
 70
     0
  1
*
  1
*
  0
XRECORD
  5
183AD
102
{ACAD_REACTORS
330
16FB9
102
}
330
16FB9
100
AcDbXrecord
280
     1
  1
paref
  1
*-paref
  1
*
  1
*
 70
     0
  1
*
  1
*
  0
XRECORD
  5
183AE
102
{ACAD_REACTORS
330
16FB9
102
}
330
16FB9
100
AcDbXrecord
280
     1
  1
parefn
  1
*-parefn
  1
*
  1
*
 70
     0
  1
*
  1
*
  0
XRECORD
  5
183AF
102
{ACAD_REACTORS
330
16FB9
102
}
330
16FB9
100
AcDbXrecord
280
     1
  1
PATT
  1
*PATT*
  1
*
  1
*
 70
     0
  1
*
  1
*
  0
XRECORD
  5
183B0
102
{ACAD_REACTORS
330
16FB9
102
}
330
16FB9
100
AcDbXrecord
280
     1
  1
PBASE
  1
*PBASE
  1
*
  1
*
 70
     0
  1
*
  1
*
  0
XRECORD
  5
183B1
102
{ACAD_REACTORS
330
16FB9
102
}
330
16FB9
100
AcDbXrecord
280
     1
  1
PEGC
  1
*PEGC
  1
*
  1
*
 70
     0
  1
*
  1
*
  0
XRECORD
  5
183B2
102
{ACAD_REACTORS
330
16FB9
102
}
330
16FB9
100
AcDbXrecord
280
     1
  1
PEGCT
  1
*PEGCT
  1
*
  1
*
 70
     0
  1
*
  1
*
  0
XRECORD
  5
183B3
102
{ACAD_REACTORS
330
16FB9
102
}
330
16FB9
100
AcDbXrecord
280
     1
  1
PENO
  1
*PENO*
  1
*
  1
*
 70
     0
  1
*
  1
*
  0
XRECORD
  5
183B4
102
{ACAD_REACTORS
330
16FB9
102
}
330
16FB9
100
AcDbXrecord
280
     1
  1
PF
  1
*PF
  1
*
  1
*
 70
     0
  1
*
  1
*
  0
XRECORD
  5
183B5
102
{ACAD_REACTORS
330
16FB9
102
}
330
16FB9
100
AcDbXrecord
280
     1
  1
PFISS
  1
PFISS*
  1
*
  1
*
 70
     0
  1
*
  1
*
  0
XRECORD
  5
183B6
102
{ACAD_REACTORS
330
16FB9
102
}
330
16FB9
100
AcDbXrecord
280
     1
  1
pgear
  1
*pgear*
  1
*
  1
*
 70
     0
  1
*
  1
*
  0
XRECORD
  5
183B7
102
{ACAD_REACTORS
330
16FB9
102
}
330
16FB9
100
AcDbXrecord
280
     1
  1
PGRID
  1
*PGRID
  1
*
  1
*
 70
     0
  1
*
  1
*
  0
XRECORD
  5
183B8
102
{ACAD_REACTORS
330
16FB9
102
}
330
16FB9
100
AcDbXrecord
280
     1
  1
PGRIDT
  1
*PGRIDT
  1
*
  1
*
 70
     0
  1
*
  1
*
  0
XRECORD
  5
183B9
102
{ACAD_REACTORS
330
16FB9
102
}
330
16FB9
100
AcDbXrecord
280
     1
  1
phase
  1
*phase*
  1
*
  1
*
 70
     0
  1
*
  1
*
  0
XRECORD
  5
183BA
102
{ACAD_REACTORS
330
16FB9
102
}
330
16FB9
100
AcDbXrecord
280
     1
  1
Phase 1
  1
(ph1)*
  1
*
  1
*
 70
     0
  1
*
  1
*
  0
XRECORD
  5
183BB
102
{ACAD_REACTORS
330
16FB9
102
}
330
16FB9
100
AcDbXrecord
280
     1
  1
Phase 2
  1
(ph2)*
  1
*
  1
*
 70
     0
  1
*
  1
*
  0
XRECORD
  5
183BC
102
{ACAD_REACTORS
330
16FB9
102
}
330
16FB9
100
AcDbXrecord
280
     1
  1
Phase 3
  1
(ph3)*
  1
*
  1
*
 70
     0
  1
*
  1
*
  0
XRECORD
  5
183BD
102
{ACAD_REACTORS
330
16FB9
102
}
330
16FB9
100
AcDbXrecord
280
     1
  1
Phase 4
  1
(ph4)*
  1
*
  1
*
 70
     0
  1
*
  1
*
  0
XRECORD
  5
183BE
102
{ACAD_REACTORS
330
16FB9
102
}
330
16FB9
100
AcDbXrecord
280
     1
  1
PIPING
  1
12*,13*
  1
*
  1
*
 70
     0
  1
*
  1
*
  0
XRECORD
  5
183BF
102
{ACAD_REACTORS
330
16FB9
102
}
330
16FB9
100
AcDbXrecord
280
     1
  1
pl
  1
pl
  1
*
  1
*
 70
     0
  1
*
  1
*
  0
XRECORD
  5
183C0
102
{ACAD_REACTORS
330
16FB9
102
}
330
16FB9
100
AcDbXrecord
280
     1
  1
plan layers
  1
afl*
  1
*
  1
*
 70
     0
  1
*
  1
*
  0
XRECORD
  5
183C1
102
{ACAD_REACTORS
330
16FB9
102
}
330
16FB9
100
AcDbXrecord
280
     1
  1
PLANTAS
  1
P-*
  1
*
  1
*
 70
     0
  1
*
  1
*
  0
XRECORD
  5
183C2
102
{ACAD_REACTORS
330
16FB9
102
}
330
16FB9
100
AcDbXrecord
280
     1
  1
plenum
  1
*
  1
*
  1
*
 70
   263
  1
*
  1
*
  0
XRECORD
  5
183C3
102
{ACAD_REACTORS
330
16FB9
102
}
330
16FB9
100
AcDbXrecord
280
     1
  1
PLOT
  1
*
  1
*
  1
*
 70
     0
  1
*
  1
*
  0
XRECORD
  5
183C4
102
{ACAD_REACTORS
330
16FB9
102
}
330
16FB9
100
AcDbXrecord
280
     1
  1
Plumbing
  1
P-*
  1
*
  1
*
 70
     0
  1
*
  1
*
  0
XRECORD
  5
183C5
102
{ACAD_REACTORS
330
16FB9
102
}
330
16FB9
100
AcDbXrecord
280
     1
  1
PRI-1
  1
PRI_P1*
  1
*
  1
*
 70
     0
  1
*
  1
*
  0
XRECORD
  5
183C6
102
{ACAD_REACTORS
330
16FB9
102
}
330
16FB9
100
AcDbXrecord
280
     1
  1
PRI-2
  1
PRI_P2*
  1
*
  1
*
 70
     0
  1
*
  1
*
  0
XRECORD
  5
183C7
102
{ACAD_REACTORS
330
16FB9
102
}
330
16FB9
100
AcDbXrecord
280
     1
  1
PRI-3
  1
PRI_P3*
  1
*
  1
*
 70
     0
  1
*
  1
*
  0
XRECORD
  5
183C8
102
{ACAD_REACTORS
330
16FB9
102
}
330
16FB9
100
AcDbXrecord
280
     1
  1
PRI-4
  1
PRI_P4*
  1
*
  1
*
 70
     0
  1
*
  1
*
  0
XRECORD
  5
183C9
102
{ACAD_REACTORS
330
16FB9
102
}
330
16FB9
100
AcDbXrecord
280
     1
  1
PRI-5
  1
PRI_P5*
  1
*
  1
*
 70
     0
  1
*
  1
*
  0
XRECORD
  5
183CA
102
{ACAD_REACTORS
330
16FB9
102
}
330
16FB9
100
AcDbXrecord
280
     1
  1
PRI-Aero
  1
PRI_Aero*
  1
*
  1
*
 70
     0
  1
*
  1
*
  0
XRECORD
  5
183CB
102
{ACAD_REACTORS
330
16FB9
102
}
330
16FB9
100
AcDbXrecord
280
     1
  1
print
  1
*
  1
7
  1
*
 70
  1280
  1
*
  1
*
  0
XRECORD
  5
183CC
102
{ACAD_REACTORS
330
16FB9
102
}
330
16FB9
100
AcDbXrecord
280
     1
  1
PRJC
  1
*PRJC*
  1
*
  1
*
 70
     0
  1
*
  1
*
  0
XRECORD
  5
183CD
102
{ACAD_REACTORS
330
16FB9
102
}
330
16FB9
100
AcDbXrecord
280
     1
  1
process
  1
p*
  1
*
  1
*
 70
     0
  1
*
  1
*
  0
XRECORD
  5
183CE
102
{ACAD_REACTORS
330
16FB9
102
}
330
16FB9
100
AcDbXrecord
280
     1
  1
PT
  1
PT*
  1
*
  1
*
 70
     0
  1
*
  1
*
  0
XRECORD
  5
183CF
102
{ACAD_REACTORS
330
16FB9
102
}
330
16FB9
100
AcDbXrecord
280
     1
  1
pur
  1
pur*
  1
*
  1
*
 70
     0
  1
*
  1
*
  0
XRECORD
  5
183D0
102
{ACAD_REACTORS
330
16FB9
102
}
330
16FB9
100
AcDbXrecord
280
     1
  1
PURCHASED
  1
L16P*
  1
*
  1
*
 70
     0
  1
*
  1
*
  0
XRECORD
  5
183D1
102
{ACAD_REACTORS
330
16FB9
102
}
330
16FB9
100
AcDbXrecord
280
     1
  1
PVGRID
  1
*PVGRID
  1
*
  1
*
 70
     0
  1
*
  1
*
  0
XRECORD
  5
183D2
102
{ACAD_REACTORS
330
16FB9
102
}
330
16FB9
100
AcDbXrecord
280
     1
  1
Q
  1
Q*
  1
*
  1
*
 70
     0
  1
*
  1
*
  0
XRECORD
  5
183D3
102
{ACAD_REACTORS
330
16FB9
102
}
330
16FB9
100
AcDbXrecord
280
     1
  1
qt
  1
*qt*
  1
*
  1
*
 70
     0
  1
*
  1
*
  0
XRECORD
  5
183D4
102
{ACAD_REACTORS
330
16FB9
102
}
330
16FB9
100
AcDbXrecord
280
     1
  1
RED
  1
*
  1
red
  1
*
 70
     0
  1
*
  1
*
  0
XRECORD
  5
183D5
102
{ACAD_REACTORS
330
16FB9
102
}
330
16FB9
100
AcDbXrecord
280
     1
  1
REF
  1
*REF*
  1
*
  1
*
 70
     0
  1
*
  1
*
  0
XRECORD
  5
183D6
102
{ACAD_REACTORS
330
16FB9
102
}
330
16FB9
100
AcDbXrecord
280
     1
  1
REMOVAL
  1
*DM
  1
*
  1
*
 70
     0
  1
*
  1
*
  0
XRECORD
  5
183D7
102
{ACAD_REACTORS
330
16FB9
102
}
330
16FB9
100
AcDbXrecord
280
     1
  1
rev
  1
*rev*
  1
*
  1
*
 70
     0
  1
*
  1
*
  0
XRECORD
  5
183D8
102
{ACAD_REACTORS
330
16FB9
102
}
330
16FB9
100
AcDbXrecord
280
     1
  1
room
  1
*room*
  1
*
  1
*
 70
     0
  1
*
  1
*
  0
XRECORD
  5
183D9
102
{ACAD_REACTORS
330
16FB9
102
}
330
16FB9
100
AcDbXrecord
280
     1
  1
ROOMS
  1
*A-FLOR-RPRM
  1
*
  1
*
 70
     0
  1
*
  1
*
  0
XRECORD
  5
183DA
102
{ACAD_REACTORS
330
16FB9
102
}
330
16FB9
100
AcDbXrecord
280
     1
  1
S-GRID
  1
S-GRID*
  1
*
  1
*
 70
     0
  1
*
  1
*
  0
XRECORD
  5
183DB
102
{ACAD_REACTORS
330
16FB9
102
}
330
16FB9
100
AcDbXrecord
280
     1
  1
S10
  1
*S10*
  1
*
  1
*
 70
     0
  1
*
  1
*
  0
XRECORD
  5
183DC
102
{ACAD_REACTORS
330
16FB9
102
}
330
16FB9
100
AcDbXrecord
280
     1
  1
S11
  1
*S11*
  1
*
  1
*
 70
     0
  1
*
  1
*
  0
XRECORD
  5
183DD
102
{ACAD_REACTORS
330
16FB9
102
}
330
16FB9
100
AcDbXrecord
280
     1
  1
S12
  1
*S12*
  1
*
  1
*
 70
     0
  1
*
  1
*
  0
XRECORD
  5
183DE
102
{ACAD_REACTORS
330
16FB9
102
}
330
16FB9
100
AcDbXrecord
280
     1
  1
s13
  1
*s13*
  1
*
  1
*
 70
     0
  1
*
  1
*
  0
XRECORD
  5
183DF
102
{ACAD_REACTORS
330
16FB9
102
}
330
16FB9
100
AcDbXrecord
280
     1
  1
S14
  1
S14*
  1
*
  1
*
 70
     0
  1
*
  1
*
  0
XRECORD
  5
183E0
102
{ACAD_REACTORS
330
16FB9
102
}
330
16FB9
100
AcDbXrecord
280
     1
  1
S16
  1
*S16*
  1
*
  1
*
 70
     0
  1
*
  1
*
  0
XRECORD
  5
183E1
102
{ACAD_REACTORS
330
16FB9
102
}
330
16FB9
100
AcDbXrecord
280
     1
  1
S17
  1
*S17*
  1
*
  1
*
 70
     0
  1
*
  1
*
  0
XRECORD
  5
183E2
102
{ACAD_REACTORS
330
16FB9
102
}
330
16FB9
100
AcDbXrecord
280
     1
  1
S18
  1
*S18*
  1
*
  1
*
 70
     0
  1
*
  1
*
  0
XRECORD
  5
183E3
102
{ACAD_REACTORS
330
16FB9
102
}
330
16FB9
100
AcDbXrecord
280
     1
  1
S51
  1
*S51*
  1
*
  1
*
 70
     0
  1
*
  1
*
  0
XRECORD
  5
183E4
102
{ACAD_REACTORS
330
16FB9
102
}
330
16FB9
100
AcDbXrecord
280
     1
  1
S55
  1
*S55*
  1
*
  1
*
 70
     0
  1
*
  1
*
  0
XRECORD
  5
183E5
102
{ACAD_REACTORS
330
16FB9
102
}
330
16FB9
100
AcDbXrecord
280
     1
  1
S_s
  1
s*
  1
*
  1
*
 70
     0
  1
*
  1
*
  0
XRECORD
  5
183E6
102
{ACAD_REACTORS
330
16FB9
102
}
330
16FB9
100
AcDbXrecord
280
     1
  1
SCO
  1
*SCO*
  1
*
  1
*
 70
     0
  1
*
  1
*
  0
XRECORD
  5
183E7
102
{ACAD_REACTORS
330
16FB9
102
}
330
16FB9
100
AcDbXrecord
280
     1
  1
Screw
  1
*screw*
  1
*
  1
*
 70
     0
  1
*
  1
*
  0
XRECORD
  5
183E8
102
{ACAD_REACTORS
330
16FB9
102
}
330
16FB9
100
AcDbXrecord
280
     1
  1
sd001
  1
*
  1
*
  1
*
 70
     0
  1
*
  1
*
  0
XRECORD
  5
183E9
102
{ACAD_REACTORS
330
16FB9
102
}
330
16FB9
100
AcDbXrecord
280
     1
  1
sdfdf
  1
8141*****
  1
*
  1
*
 70
     0
  1
*
  1
*
  0
XRECORD
  5
183EA
102
{ACAD_REACTORS
330
16FB9
102
}
330
16FB9
100
AcDbXrecord
280
     1
  1
SEC-DWG-OFF
  1
*XREF1*30*,*50*,*20*,*10,*-INT*,*INSL*,*SITE*LEVEL*TEXT*,*BOUND*LINE*,*TOPO*
  1
*
  1
*
 70
     0
  1
*
  1
*
  0
XRECORD
  5
183EB
102
{ACAD_REACTORS
330
16FB9
102
}
330
16FB9
100
AcDbXrecord
280
     1
  1
SECT
  1
*SECT*
  1
*
  1
*
 70
     0
  1
*
  1
*
  0
XRECORD
  5
183EC
102
{ACAD_REACTORS
330
16FB9
102
}
330
16FB9
100
AcDbXrecord
280
     1
  1
sect's
  1
*sect*
  1
*
  1
*
 70
     0
  1
*
  1
*
  0
XRECORD
  5
183ED
102
{ACAD_REACTORS
330
16FB9
102
}
330
16FB9
100
AcDbXrecord
280
     1
  1
SEVERNI
  1
*-S
  1
*
  1
*
 70
     0
  1
*
  1
*
  0
XRECORD
  5
183EE
102
{ACAD_REACTORS
330
16FB9
102
}
330
16FB9
100
AcDbXrecord
280
     1
  1
SHITU
  1
*SHITUMEI*
  1
*
  1
*
 70
     0
  1
*
  1
*
  0
XRECORD
  5
183EF
102
{ACAD_REACTORS
330
16FB9
102
}
330
16FB9
100
AcDbXrecord
280
     1
  1
SHITUMEI
  1
*SHITUMEI2
  1
*
  1
*
 70
     0
  1
*
  1
*
  0
XRECORD
  5
183F0
102
{ACAD_REACTORS
330
16FB9
102
}
330
16FB9
100
AcDbXrecord
280
     1
  1
Show all layers ON
  1
*
  1
*
  1
*
 70
     1
  1
*
  1
*
  0
XRECORD
  5
183F1
102
{ACAD_REACTORS
330
16FB9
102
}
330
16FB9
100
AcDbXrecord
280
     1
  1
soldraw
  1
*-*
  1
*
  1
*
 70
     0
  1
*
  1
*
  0
XRECORD
  5
183F2
102
{ACAD_REACTORS
330
16FB9
102
}
330
16FB9
100
AcDbXrecord
280
     1
  1
Solid
  1
So_
  1
*
  1
*
 70
     0
  1
*
  1
*
  0
XRECORD
  5
183F3
102
{ACAD_REACTORS
330
16FB9
102
}
330
16FB9
100
AcDbXrecord
280
     1
  1
SOLVIEW
  1
*HID,*VIS
  1
*
  1
*
 70
     0
  1
*
  1
*
  0
XRECORD
  5
183F4
102
{ACAD_REACTORS
330
16FB9
102
}
330
16FB9
100
AcDbXrecord
280
     1
  1
SP00RED
  1
*SP_00*
  1
*RED
  1
*
 70
     0
  1
*
  1
*
  0
XRECORD
  5
183F5
102
{ACAD_REACTORS
330
16FB9
102
}
330
16FB9
100
AcDbXrecord
280
     1
  1
space
  1
*spce*
  1
*
  1
*
 70
     0
  1
*
  1
*
  0
XRECORD
  5
183F6
102
{ACAD_REACTORS
330
16FB9
102
}
330
16FB9
100
AcDbXrecord
280
     1
  1
SPC
  1
*-NW
  1
*
  1
*
 70
     0
  1
*
  1
*
  0
XRECORD
  5
183F7
102
{ACAD_REACTORS
330
16FB9
102
}
330
16FB9
100
AcDbXrecord
280
     1
  1
SPOTS
  1
CH*.*
  1
*
  1
*
 70
     0
  1
*
  1
*
  0
XRECORD
  5
183F8
102
{ACAD_REACTORS
330
16FB9
102
}
330
16FB9
100
AcDbXrecord
280
     1
  1
SQIAP-1A
  1
SQAP*
  1
*
  1
*
 70
     0
  1
*
  1
*
  0
XRECORD
  5
183F9
102
{ACAD_REACTORS
330
16FB9
102
}
330
16FB9
100
AcDbXrecord
280
     1
  1
ssp-sdr-qdr-ga
  1
*ssp*,*sdr*,*qdr*,*ga*
  1
*
  1
*
 70
     0
  1
*
  1
*
  0
XRECORD
  5
183FA
102
{ACAD_REACTORS
330
16FB9
102
}
330
16FB9
100
AcDbXrecord
280
     1
  1
sss
  1
s-anno-text,s-anno-note,s-anno-patt
  1
*
  1
*
 70
     0
  1
*
  1
*
  0
XRECORD
  5
183FB
102
{ACAD_REACTORS
330
16FB9
102
}
330
16FB9
100
AcDbXrecord
280
     1
  1
STAIR
  1
STAIR*
  1
*
  1
*
 70
     0
  1
*
  1
*
  0
XRECORD
  5
183FC
102
{ACAD_REACTORS
330
16FB9
102
}
330
16FB9
100
AcDbXrecord
280
     1
  1
standard
  1
*
  1
*
  1
*
 70
     0
  1
*
  1
*
  0
XRECORD
  5
183FD
102
{ACAD_REACTORS
330
16FB9
102
}
330
16FB9
100
AcDbXrecord
280
     1
  1
Standard Layers
  1
*(S)
  1
*
  1
*
 70
     0
  1
*
  1
*
  0
XRECORD
  5
183FE
102
{ACAD_REACTORS
330
16FB9
102
}
330
16FB9
100
AcDbXrecord
280
     1
  1
STRUC
  1
*COL*
  1
*
  1
*
 70
     0
  1
*
  1
*
  0
XRECORD
  5
183FF
102
{ACAD_REACTORS
330
16FB9
102
}
330
16FB9
100
AcDbXrecord
280
     1
  1
Structural
  1
S-*
  1
*
  1
*
 70
     0
  1
*
  1
*
  0
XRECORD
  5
18400
102
{ACAD_REACTORS
330
16FB9
102
}
330
16FB9
100
AcDbXrecord
280
     1
  1
structural1
  1
*s*
  1
*
  1
*
 70
     0
  1
*
  1
*
  0
XRECORD
  5
18401
102
{ACAD_REACTORS
330
16FB9
102
}
330
16FB9
100
AcDbXrecord
280
     1
  1
structure
  1
*
  1
*
  1
*
 70
   256
  1
*
  1
*
  0
XRECORD
  5
18402
102
{ACAD_REACTORS
330
16FB9
102
}
330
16FB9
100
AcDbXrecord
280
     1
  1
structure & vertical frame
  1
s*
  1
*
  1
*
 70
     0
  1
*
  1
*
  0
XRECORD
  5
18403
102
{ACAD_REACTORS
330
16FB9
102
}
330
16FB9
100
AcDbXrecord
280
     1
  1
stuff
  1
*stuff
  1
*
  1
*
 70
     0
  1
*
  1
*
  0
XRECORD
  5
18404
102
{ACAD_REACTORS
330
16FB9
102
}
330
16FB9
100
AcDbXrecord
280
     1
  1
Survey
  1
C-SURV-*
  1
*
  1
*
 70
     0
  1
*
  1
*
  0
XRECORD
  5
18405
102
{ACAD_REACTORS
330
16FB9
102
}
330
16FB9
100
AcDbXrecord
280
     1
  1
T
  1
T*
  1
*
  1
*
 70
     0
  1
*
  1
*
  0
XRECORD
  5
18406
102
{ACAD_REACTORS
330
16FB9
102
}
330
16FB9
100
AcDbXrecord
280
     1
  1
T13
  1
T13*
  1
*
  1
*
 70
     0
  1
*
  1
*
  0
XRECORD
  5
18407
102
{ACAD_REACTORS
330
16FB9
102
}
330
16FB9
100
AcDbXrecord
280
     1
  1
T14
  1
T14*
  1
*
  1
*
 70
     0
  1
*
  1
*
  0
XRECORD
  5
18408
102
{ACAD_REACTORS
330
16FB9
102
}
330
16FB9
100
AcDbXrecord
280
     1
  1
T14 & T15
  1
T14*;T15*
  1
*
  1
*
 70
     0
  1
*
  1
*
  0
XRECORD
  5
18409
102
{ACAD_REACTORS
330
16FB9
102
}
330
16FB9
100
AcDbXrecord
280
     1
  1
T15
  1
T15*
  1
*
  1
*
 70
     0
  1
*
  1
*
  0
XRECORD
  5
1840A
102
{ACAD_REACTORS
330
16FB9
102
}
330
16FB9
100
AcDbXrecord
280
     1
  1
T15 & T17
  1
T15*;T17*
  1
*
  1
*
 70
     0
  1
*
  1
*
  0
XRECORD
  5
1840B
102
{ACAD_REACTORS
330
16FB9
102
}
330
16FB9
100
AcDbXrecord
280
     1
  1
T16
  1
T16*
  1
*
  1
*
 70
     0
  1
*
  1
*
  0
XRECORD
  5
1840C
102
{ACAD_REACTORS
330
16FB9
102
}
330
16FB9
100
AcDbXrecord
280
     1
  1
T62211
  1
*
  1
*
  1
*
 70
     0
  1
*
  1
*
  0
XRECORD
  5
1840D
102
{ACAD_REACTORS
330
16FB9
102
}
330
16FB9
100
AcDbXrecord
280
     1
  1
T_s
  1
t*
  1
*
  1
*
 70
     0
  1
*
  1
*
  0
XRECORD
  5
1840E
102
{ACAD_REACTORS
330
16FB9
102
}
330
16FB9
100
AcDbXrecord
280
     1
  1
team room
  1
afu
  1
*
  1
*
 70
     0
  1
*
  1
*
  0
XRECORD
  5
1840F
102
{ACAD_REACTORS
330
16FB9
102
}
330
16FB9
100
AcDbXrecord
280
     1
  1
telecom
  1
t*
  1
*
  1
*
 70
     0
  1
*
  1
*
  0
XRECORD
  5
18410
102
{ACAD_REACTORS
330
16FB9
102
}
330
16FB9
100
AcDbXrecord
280
     1
  1
temp
  1
temp
  1
*
  1
*
 70
     0
  1
*
  1
*
  0
XRECORD
  5
18411
102
{ACAD_REACTORS
330
16FB9
102
}
330
16FB9
100
AcDbXrecord
280
     1
  1
TEMPLATE
  1
AEQ*
  1
*
  1
*
 70
     0
  1
*
  1
*
  0
XRECORD
  5
18412
102
{ACAD_REACTORS
330
16FB9
102
}
330
16FB9
100
AcDbXrecord
280
     1
  1
TEST
  1
*
  1
*
  1
*
 70
     0
  1
*
  1
*
  0
XRECORD
  5
18413
102
{ACAD_REACTORS
330
16FB9
102
}
330
16FB9
100
AcDbXrecord
280
     1
  1
Text
  1
*text*
  1
*
  1
*
 70
     0
  1
*
  1
*
  0
XRECORD
  5
18414
102
{ACAD_REACTORS
330
16FB9
102
}
330
16FB9
100
AcDbXrecord
280
     1
  1
TEXT1
  1
*TEXT*
  1
*
  1
*
 70
     0
  1
*
  1
*
  0
XRECORD
  5
18415
102
{ACAD_REACTORS
330
16FB9
102
}
330
16FB9
100
AcDbXrecord
280
     1
  1
TEXTOS
  1
TXT*
  1
*
  1
*
 70
     0
  1
*
  1
*
  0
XRECORD
  5
18416
102
{ACAD_REACTORS
330
16FB9
102
}
330
16FB9
100
AcDbXrecord
280
     1
  1
TEXTURAS
  1
*TEXTURAS
  1
*
  1
*
 70
     0
  1
*
  1
*
  0
XRECORD
  5
18417
102
{ACAD_REACTORS
330
16FB9
102
}
330
16FB9
100
AcDbXrecord
280
     1
  1
tg
  1
aeqtg*
  1
*
  1
*
 70
     0
  1
*
  1
*
  0
XRECORD
  5
18418
102
{ACAD_REACTORS
330
16FB9
102
}
330
16FB9
100
AcDbXrecord
280
     1
  1
THAW
  1
*
  1
*
  1
*
 70
    12
  1
*
  1
*
  0
XRECORD
  5
18419
102
{ACAD_REACTORS
330
16FB9
102
}
330
16FB9
100
AcDbXrecord
280
     1
  1
THAWED
  1
*
  1
*
  1
*
 70
    15
  1
*
  1
*
  0
XRECORD
  5
1841A
102
{ACAD_REACTORS
330
16FB9
102
}
330
16FB9
100
AcDbXrecord
280
     1
  1
TITLE BLOCKS
  1
*TB*
  1
*
  1
*
 70
     0
  1
*
  1
*
  0
XRECORD
  5
1841B
102
{ACAD_REACTORS
330
16FB9
102
}
330
16FB9
100
AcDbXrecord
280
     1
  1
tools
  1
aeq6*
  1
*
  1
*
 70
     0
  1
*
  1
*
  0
XRECORD
  5
1841C
102
{ACAD_REACTORS
330
16FB9
102
}
330
16FB9
100
AcDbXrecord
280
     1
  1
TOPO_CRAP
  1
*SP_00*
  1
*CYAN
  1
*
 70
     0
  1
*
  1
*
  0
XRECORD
  5
1841D
102
{ACAD_REACTORS
330
16FB9
102
}
330
16FB9
100
AcDbXrecord
280
     1
  1
TOPO_CRAP YELL
  1
*SP_00*
  1
*YELLOW
  1
*
 70
     0
  1
*
  1
*
  0
XRECORD
  5
1841E
102
{ACAD_REACTORS
330
16FB9
102
}
330
16FB9
100
AcDbXrecord
280
     1
  1
TORISHIN
  1
*A11
  1
*
  1
*
 70
     0
  1
*
  1
*
  0
XRECORD
  5
1841F
102
{ACAD_REACTORS
330
16FB9
102
}
330
16FB9
100
AcDbXrecord
280
     1
  1
try1
  1
cus_stamp
  1
*
  1
*
 70
     0
  1
*
  1
*
  0
XRECORD
  5
18420
102
{ACAD_REACTORS
330
16FB9
102
}
330
16FB9
100
AcDbXrecord
280
     1
  1
tsb
  1
aeqtsb*
  1
*
  1
*
 70
     0
  1
*
  1
*
  0
XRECORD
  5
18421
102
{ACAD_REACTORS
330
16FB9
102
}
330
16FB9
100
AcDbXrecord
280
     1
  1
tt
  1
*tt*
  1
*
  1
*
 70
     0
  1
*
  1
*
  0
XRECORD
  5
18422
102
{ACAD_REACTORS
330
16FB9
102
}
330
16FB9
100
AcDbXrecord
280
     1
  1
TT1709
  1
*TT-1709**
  1
*
  1
*
 70
     0
  1
*
  1
*
  0
XRECORD
  5
18423
102
{ACAD_REACTORS
330
16FB9
102
}
330
16FB9
100
AcDbXrecord
280
     1
  1
tunnel
  1
*tunnel*
  1
*
  1
*
 70
     0
  1
*
  1
*
  0
XRECORD
  5
18424
102
{ACAD_REACTORS
330
16FB9
102
}
330
16FB9
100
AcDbXrecord
280
     1
  1
UNDERSCORE
  1
*_*
  1
*
  1
*
 70
     0
  1
*
  1
*
  0
XRECORD
  5
18425
102
{ACAD_REACTORS
330
16FB9
102
}
330
16FB9
100
AcDbXrecord
280
     1
  1
unfr
  1
*
  1
*
  1
*
 70
    12
  1
*
  1
*
  0
XRECORD
  5
18426
102
{ACAD_REACTORS
330
16FB9
102
}
330
16FB9
100
AcDbXrecord
280
     1
  1
UNFRZ
  1
*
  1
*
  1
*
 70
    12
  1
*
  1
*
  0
XRECORD
  5
18427
102
{ACAD_REACTORS
330
16FB9
102
}
330
16FB9
100
AcDbXrecord
280
     1
  1
units
  1
U*
  1
*
  1
*
 70
     0
  1
*
  1
*
  0
XRECORD
  5
18428
102
{ACAD_REACTORS
330
16FB9
102
}
330
16FB9
100
AcDbXrecord
280
     1
  1
UNLOCK
  1
*
  1
*
  1
*
 70
   768
  1
*
  1
*
  0
XRECORD
  5
18429
102
{ACAD_REACTORS
330
16FB9
102
}
330
16FB9
100
AcDbXrecord
280
     1
  1
utillity
  1
*utillity*
  1
*
  1
*
 70
     0
  1
*
  1
*
  0
XRECORD
  5
1842A
102
{ACAD_REACTORS
330
16FB9
102
}
330
16FB9
100
AcDbXrecord
280
     1
  1
V
  1
*VPOR*
  1
*
  1
*
 70
     0
  1
*
  1
*
  0
XRECORD
  5
1842B
102
{ACAD_REACTORS
330
16FB9
102
}
330
16FB9
100
AcDbXrecord
280
     1
  1
vertical lift
  1
*
  1
*
  1
*
 70
   257
  1
*
  1
*
  0
XRECORD
  5
1842C
102
{ACAD_REACTORS
330
16FB9
102
}
330
16FB9
100
AcDbXrecord
280
     1
  1
VERY LIGHT GRAY
  1
*
  1
*
  1
*
 70
     0
  1
*
  1
VERY LIGHT GRAY
  0
XRECORD
  5
1842D
102
{ACAD_REACTORS
330
16FB9
102
}
330
16FB9
100
AcDbXrecord
280
     1
  1
VIS
  1
*VIS
  1
*
  1
*
 70
     0
  1
*
  1
*
  0
XRECORD
  5
1842E
102
{ACAD_REACTORS
330
16FB9
102
}
330
16FB9
100
AcDbXrecord
280
     1
  1
VMB
  1
*
  1
*
  1
*
 70
     0
  1
*
  1
*
  0
XRECORD
  5
1842F
102
{ACAD_REACTORS
330
16FB9
102
}
330
16FB9
100
AcDbXrecord
280
     1
  1
vuteq
  1
*
  1
*
  1
*
 70
     0
  1
*
  1
*
  0
XRECORD
  5
18430
102
{ACAD_REACTORS
330
16FB9
102
}
330
16FB9
100
AcDbXrecord
280
     1
  1
VYHODNI
  1
*-V
  1
*
  1
*
 70
     0
  1
*
  1
*
  0
XRECORD
  5
18431
102
{ACAD_REACTORS
330
16FB9
102
}
330
16FB9
100
AcDbXrecord
280
     1
  1
W
  1
*W
  1
*
  1
*
 70
     0
  1
*
  1
*
  0
XRECORD
  5
18432
102
{ACAD_REACTORS
330
16FB9
102
}
330
16FB9
100
AcDbXrecord
280
     1
  1
walls
  1
awamo*
  1
*
  1
*
 70
     0
  1
*
  1
*
  0
XRECORD
  5
18433
102
{ACAD_REACTORS
330
16FB9
102
}
330
16FB9
100
AcDbXrecord
280
     1
  1
walls-doors
  1
awamo*,ado*
  1
*
  1
*
 70
     0
  1
*
  1
*
  0
XRECORD
  5
18434
102
{ACAD_REACTORS
330
16FB9
102
}
330
16FB9
100
AcDbXrecord
280
     1
  1
weather
  1
*w*
  1
*
  1
*
 70
     0
  1
*
  1
*
  0
XRECORD
  5
18435
102
{ACAD_REACTORS
330
16FB9
102
}
330
16FB9
100
AcDbXrecord
280
     1
  1
weatherline
  1
*w*
  1
*
  1
*
 70
     0
  1
*
  1
*
  0
XRECORD
  5
18436
102
{ACAD_REACTORS
330
16FB9
102
}
330
16FB9
100
AcDbXrecord
280
     1
  1
white
  1
*
  1
white
  1
*
 70
     0
  1
*
  1
*
  0
XRECORD
  5
18437
102
{ACAD_REACTORS
330
16FB9
102
}
330
16FB9
100
AcDbXrecord
280
     1
  1
wk
  1
*wk*
  1
*
  1
*
 70
     0
  1
*
  1
*
  0
XRECORD
  5
18438
102
{ACAD_REACTORS
330
16FB9
102
}
330
16FB9
100
AcDbXrecord
280
     1
  1
X
  1
X*
  1
*
  1
*
 70
     0
  1
*
  1
*
  0
XRECORD
  5
18439
102
{ACAD_REACTORS
330
16FB9
102
}
330
16FB9
100
AcDbXrecord
280
     1
  1
x1a-1-0-
  1
x1a-1-0-*
  1
*
  1
*
 70
     0
  1
*
  1
*
  0
XRECORD
  5
1843A
102
{ACAD_REACTORS
330
16FB9
102
}
330
16FB9
100
AcDbXrecord
280
     1
  1
xfa
  1
x*
  1
*
  1
*
 70
     0
  1
*
  1
*
  0
XRECORD
  5
1843B
102
{ACAD_REACTORS
330
16FB9
102
}
330
16FB9
100
AcDbXrecord
280
     1
  1
XREF
  1
*
  1
11,13
  1
*
 70
     0
  1
*
  1
*
  0
XRECORD
  5
1843C
102
{ACAD_REACTORS
330
16FB9
102
}
330
16FB9
100
AcDbXrecord
280
     1
  1
XREF_1
  1
*
  1
*
  1
*
 70
   256
  1
*
  1
*
  0
XRECORD
  5
1843D
102
{ACAD_REACTORS
330
16FB9
102
}
330
16FB9
100
AcDbXrecord
280
     1
  1
y
  1
*
  1
2
  1
*
 70
     0
  1
*
  1
*
  0
XRECORD
  5
1843E
102
{ACAD_REACTORS
330
16FB9
102
}
330
16FB9
100
AcDbXrecord
280
     1
  1
yellow
  1
*
  1
2
  1
*
 70
     0
  1
*
  1
*
  0
XRECORD
  5
1843F
102
{ACAD_REACTORS
330
16FB9
102
}
330
16FB9
100
AcDbXrecord
280
     1
  1
Z'S
  1
Z*
  1
*
  1
*
 70
     0
  1
*
  1
*
  0
XRECORD
  5
18440
102
{ACAD_REACTORS
330
16FB9
102
}
330
16FB9
100
AcDbXrecord
280
     1
  1
Z10
  1
Z10*
  1
*
  1
*
 70
     0
  1
*
  1
*
  0
XRECORD
  5
18441
102
{ACAD_REACTORS
330
16FB9
102
}
330
16FB9
100
AcDbXrecord
280
     1
  1
Z11
  1
Z11*
  1
*
  1
*
 70
     0
  1
*
  1
*
  0
XRECORD
  5
18442
102
{ACAD_REACTORS
330
16FB9
102
}
330
16FB9
100
AcDbXrecord
280
     1
  1
Z12
  1
Z12*
  1
*
  1
*
 70
     0
  1
*
  1
*
  0
XRECORD
  5
18443
102
{ACAD_REACTORS
330
16FB9
102
}
330
16FB9
100
AcDbXrecord
280
     1
  1
Z14
  1
Z14*
  1
*
  1
*
 70
     0
  1
*
  1
*
  0
XRECORD
  5
18444
102
{ACAD_REACTORS
330
16FB9
102
}
330
16FB9
100
AcDbXrecord
280
     1
  1
Z51
  1
Z51*
  1
*
  1
*
 70
     0
  1
*
  1
*
  0
XRECORD
  5
18445
102
{ACAD_REACTORS
330
16FB9
102
}
330
16FB9
100
AcDbXrecord
280
     1
  1
ZAPADNI
  1
*-Z
  1
*
  1
*
 70
     0
  1
*
  1
*
  0
XRECORD
  5
18446
102
{ACAD_REACTORS
330
16FB9
102
}
330
16FB9
100
AcDbXrecord
280
     1
  1
ZNEW
  1
ZNEW*
  1
*
  1
*
 70
     0
  1
*
  1
*
  0
XRECORD
  5
18447
102
{ACAD_REACTORS
330
16FB9
102
}
330
16FB9
100
AcDbXrecord
280
     1
  1
ZZ-NEW
  1
ZZ-NEW*
  1
*
  1
*
 70
     0
  1
*
  1
*
  0
XRECORD
  5
18448
102
{ACAD_REACTORS
330
16FB9
102
}
330
16FB9
100
AcDbXrecord
280
     1
  1
ｭｫｭnｼh
  1
8154*010
  1
*
  1
*
 70
     0
  1
*
  1
*
  0
XRECORD
  5
18449
102
{ACAD_REACTORS
330
16FB9
102
}
330
16FB9
100
AcDbXrecord
280
     1
  1
ｷｰﾌﾟﾗﾝ
  1
*
  1
*
  1
*
 70
     0
  1
*
  1
*
  0
XRECORD
  5
1844A
102
{ACAD_REACTORS
330
16FB9
102
}
330
16FB9
100
AcDbXrecord
280
     1
  1
ﾌﾘｰｽﾞ画層非表示
  1
*
  1
*
  1
*
 70
    12
  1
*
  1
*
  0
XRECORD
  5
1844B
102
{ACAD_REACTORS
330
16FB9
102
}
330
16FB9
100
AcDbXrecord
280
     1
  1
ﾌﾘｰｽﾞ画面非表示
  1
*
  1
*
  1
*
 70
    12
  1
*
  1
*
  0
XRECORD
  5
1844C
102
{ACAD_REACTORS
330
16FB9
102
}
330
16FB9
100
AcDbXrecord
280
     1
  1
１
  1
*動線
  1
*
  1
*
 70
     0
  1
*
  1
*
  0
XRECORD
  5
1844D
102
{ACAD_REACTORS
330
16FB9
102
}
330
16FB9
100
AcDbXrecord
280
     1
  1
２Ｆ床レベル
  1
*y*
  1
*
  1
*
 70
     0
  1
*
  1
*
  0
XRECORD
  5
1844E
102
{ACAD_REACTORS
330
16FB9
102
}
330
16FB9
100
AcDbXrecord
280
     1
  1
Ｎレイアウト
  1
*l*
  1
*
  1
*
 70
     0
  1
*
  1
*
  0
XRECORD
  5
1844F
102
{ACAD_REACTORS
330
16FB9
102
}
330
16FB9
100
AcDbXrecord
280
     1
  1
Ｎレイアウト　バリアフリー
  1
*b*
  1
*
  1
*
 70
     0
  1
*
  1
*
  0
XRECORD
  5
18450
102
{ACAD_REACTORS
330
16FB9
102
}
330
16FB9
100
AcDbXrecord
280
     1
  1
Ｎ建具関係仕様
  1
*t*
  1
*
  1
*
 70
     0
  1
*
  1
*
  0
XRECORD
  5
18451
102
{ACAD_REACTORS
330
16FB9
102
}
330
16FB9
100
AcDbXrecord
280
     1
  1
Ｎ室間差圧
  1
*f*
  1
*
  1
*
 70
     0
  1
*
  1
*
  0
XRECORD
  5
18452
102
{ACAD_REACTORS
330
16FB9
102
}
330
16FB9
100
AcDbXrecord
280
     1
  1
Ｎ床仕上
  1
*y*
  1
*
  1
*
 70
     0
  1
*
  1
*
  0
XRECORD
  5
18453
102
{ACAD_REACTORS
330
16FB9
102
}
330
16FB9
100
AcDbXrecord
280
     1
  1
Ｎ清浄度
  1
*s*
  1
*
  1
*
 70
     0
  1
*
  1
*
  0
XRECORD
  5
18454
102
{ACAD_REACTORS
330
16FB9
102
}
330
16FB9
100
AcDbXrecord
280
     1
  1
Ｎ動線図（人）
  1
*h*
  1
*
  1
*
 70
     0
  1
*
  1
*
  0
XRECORD
  5
18455
102
{ACAD_REACTORS
330
16FB9
102
}
330
16FB9
100
AcDbXrecord
280
     1
  1
Ｎ動線図（物）
  1
*m*
  1
*
  1
*
 70
     0
  1
*
  1
*
  0
XRECORD
  5
18456
102
{ACAD_REACTORS
330
16FB9
102
}
330
16FB9
100
AcDbXrecord
280
     1
  1
クラス別
  1
*c*
  1
*
  1
*
 70
    12
  1
*
  1
*
  0
XRECORD
  5
18457
102
{ACAD_REACTORS
330
16FB9
102
}
330
16FB9
100
AcDbXrecord
280
     1
  1
フリーズ解除
  1
*
  1
*
  1
*
 70
    12
  1
*
  1
*
  0
XRECORD
  5
18458
102
{ACAD_REACTORS
330
16FB9
102
}
330
16FB9
100
AcDbXrecord
280
     1
  1
レイアウト
  1
*l*
  1
*
  1
*
 70
     0
  1
*
  1
*
  0
XRECORD
  5
18459
102
{ACAD_REACTORS
330
16FB9
102
}
330
16FB9
100
AcDbXrecord
280
     1
  1
ロック解除
  1
*
  1
*
  1
*
 70
   768
  1
*
  1
*
  0
XRECORD
  5
1845A
102
{ACAD_REACTORS
330
16FB9
102
}
330
16FB9
100
AcDbXrecord
280
     1
  1
一般図
  1
hatch
  1
*
  1
*
 70
     7
  1
*
  1
*
  0
XRECORD
  5
1845B
102
{ACAD_REACTORS
330
16FB9
102
}
330
16FB9
100
AcDbXrecord
280
     1
  1
印刷
  1
*
  1
*
  1
*
 70
    13
  1
*
  1
*
  0
XRECORD
  5
1845C
102
{ACAD_REACTORS
330
16FB9
102
}
330
16FB9
100
AcDbXrecord
280
     1
  1
餌辨
  1
*
  1
*
  1
*
 70
   256
  1
*
  1
*
  0
XRECORD
  5
1845D
102
{ACAD_REACTORS
330
16FB9
102
}
330
16FB9
100
AcDbXrecord
280
     1
  1
黄色
  1
*
  1
YELLOW
  1
*
 70
     0
  1
*
  1
*
  0
XRECORD
  5
1845E
102
{ACAD_REACTORS
330
16FB9
102
}
330
16FB9
100
AcDbXrecord
280
     1
  1
可見層
  1
*
  1
*
  1
*
 70
     1
  1
*
  1
*
  0
XRECORD
  5
1845F
102
{ACAD_REACTORS
330
16FB9
102
}
330
16FB9
100
AcDbXrecord
280
     1
  1
各模組名稱
  1
T*
  1
*
  1
*
 70
     0
  1
*
  1
*
  0
XRECORD
  5
18460
102
{ACAD_REACTORS
330
16FB9
102
}
330
16FB9
100
AcDbXrecord
280
     1
  1
基礎伏図
  1
SIZE,HOJO,ZATU,HATCH,GL-HARI,GL-HASIRA,KISO,KUI,MOJI-K1,GL-FUGO,SUNPO-K1,SUNPO,SUNPO2,SUNPO1,KIJUN3,KIJUN,SIZE
  1
*
  1
*
 70
     0
  1
*
  1
*
  0
XRECORD
  5
18461
102
{ACAD_REACTORS
330
16FB9
102
}
330
16FB9
100
AcDbXrecord
280
     1
  1
使用中
  1
使用中
  1
*
  1
*
 70
     1
  1
*
  1
*
  0
XRECORD
  5
18462
102
{ACAD_REACTORS
330
16FB9
102
}
330
16FB9
100
AcDbXrecord
280
     1
  1
紫
  1
*
  1
Magenta
  1
*
 70
     0
  1
*
  1
*
  0
XRECORD
  5
18463
102
{ACAD_REACTORS
330
16FB9
102
}
330
16FB9
100
AcDbXrecord
280
     1
  1
重要層
  1
8154*010
  1
*
  1
*
 70
     0
  1
*
  1
*
  0
XRECORD
  5
18464
102
{ACAD_REACTORS
330
16FB9
102
}
330
16FB9
100
AcDbXrecord
280
     1
  1
上階躯体図
  1
KUTAI-Z,SIZE,HOJO,ZATU,HATCH,BR-S,KABE2,KABE,MAJIKIRI,KOBARI-S,KOBARI-R,HARI-S,HARI-R,HASIRA-S,HASIRA-R,MOJI-K2,FL-FUGO,FUGO-W,SUNPO-K2,SUNPO,SUNPO2,SUNPO1,KIJUN2,KIJUN1,KIJUN,
  1
*
  1
*
 70
     0
  1
*
  1
*
  0
XRECORD
  5
18465
102
{ACAD_REACTORS
330
16FB9
102
}
330
16FB9
100
AcDbXrecord
280
     1
  1
色番号8
  1
*
  1
8
  1
*
 70
     0
  1
*
  1
*
  0
XRECORD
  5
18466
102
{ACAD_REACTORS
330
16FB9
102
}
330
16FB9
100
AcDbXrecord
280
     1
  1
真建築住防様式
  1
*
  1
*
  1
*
 70
     0
  1
*
  1
*
  0
XRECORD
  5
18467
102
{ACAD_REACTORS
330
16FB9
102
}
330
16FB9
100
AcDbXrecord
280
     1
  1
水
  1
*
  1
cyan
  1
*
 70
     0
  1
*
  1
*
  0
XRECORD
  5
18468
102
{ACAD_REACTORS
330
16FB9
102
}
330
16FB9
100
AcDbXrecord
280
     1
  1
水色
  1
*
  1
Cyan
  1
*
 70
     0
  1
*
  1
*
  0
XRECORD
  5
18469
102
{ACAD_REACTORS
330
16FB9
102
}
330
16FB9
100
AcDbXrecord
280
     1
  1
清浄度
  1
*s*
  1
*
  1
*
 70
     0
  1
*
  1
*
  0
XRECORD
  5
1846A
102
{ACAD_REACTORS
330
16FB9
102
}
330
16FB9
100
AcDbXrecord
280
     1
  1
青
  1
*
  1
blue
  1
*
 70
     0
  1
*
  1
*
  0
XRECORD
  5
1846B
102
{ACAD_REACTORS
330
16FB9
102
}
330
16FB9
100
AcDbXrecord
280
     1
  1
全画層表示
  1
*
  1
*
  1
*
 70
     1
  1
*
  1
*
  0
XRECORD
  5
1846C
102
{ACAD_REACTORS
330
16FB9
102
}
330
16FB9
100
AcDbXrecord
280
     1
  1
中２階平面図
  1
*
  1
*
  1
*
 70
     0
  1
*
  1
*
  0
XRECORD
  5
1846D
102
{ACAD_REACTORS
330
16FB9
102
}
330
16FB9
100
AcDbXrecord
280
     1
  1
動線図　人
  1
*h*
  1
*
  1
*
 70
    12
  1
*
  1
*
  0
XRECORD
  5
1846E
102
{ACAD_REACTORS
330
16FB9
102
}
330
16FB9
100
AcDbXrecord
280
     1
  1
動線図　物
  1
*m*
  1
*
  1
*
 70
    12
  1
*
  1
*
  0
XRECORD
  5
1846F
102
{ACAD_REACTORS
330
16FB9
102
}
330
16FB9
100
AcDbXrecord
280
     1
  1
配管
  1
PIPE*
  1
*
  1
*
 70
     0
  1
*
  1
*
  0
XRECORD
  5
18470
102
{ACAD_REACTORS
330
16FB9
102
}
330
16FB9
100
AcDbXrecord
280
     1
  1
表示画層のみ表示
  1
*
  1
*
  1
*
 70
    13
  1
*
  1
*
  0
XRECORD
  5
18471
102
{ACAD_REACTORS
330
16FB9
102
}
330
16FB9
100
AcDbXrecord
280
     1
  1
平面詳細図
  1
*
  1
*
  1
*
 70
     0
  1
*
  1
*
  0
XRECORD
  5
18472
102
{ACAD_REACTORS
330
16FB9
102
}
330
16FB9
100
AcDbXrecord
280
     1
  1
法規チェック－区画
  1
*92
  1
*
  1
*
 70
     0
  1
*
  1
*
  0
XRECORD
  5
18473
102
{ACAD_REACTORS
330
16FB9
102
}
330
16FB9
100
AcDbXrecord
280
     1
  1
法規チェック－範囲
  1
*0
  1
*
  1
*
 70
     0
  1
*
  1
*
  0
XRECORD
  5
18474
102
{ACAD_REACTORS
330
16FB9
102
}
330
16FB9
100
AcDbXrecord
280
     1
  1
防災
  1
B*
  1
*
  1
*
 70
   768
  1
*
  1
*
  0
XRECORD
  5
18475
102
{ACAD_REACTORS
330
16FB9
102
}
330
16FB9
100
AcDbXrecord
280
     1
  1
面積
  1
*
  1
*
  1
*
 70
     3
  1
*
  1
*
  0
XRECORD
  5
18476
102
{ACAD_REACTORS
330
16FB9
102
}
330
16FB9
100
AcDbXrecord
280
     1
  1
緑
  1
*
  1
Green
  1
*
 70
     0
  1
*
  1
*
  0
XRECORD
  5
18477
102
{ACAD_REACTORS
330
16FB9
102
}
330
16FB9
100
AcDbXrecord
280
     1
  1
圓心及或中線之1
  1
*
  1
120
  1
*
 70
   276
  1
*
  1
*
  0
XRECORD
  5
18478
102
{ACAD_REACTORS
330
16FB9
102
}
330
16FB9
100
AcDbXrecord
280
     1
  1
圓心及或中線之2
  1
*
  1
120;41
  1
*
 70
     0
  1
*
  1
*
  0
ENDSEC
  0
EOF
