  0
SECTION
  2
HEADER
  9
$ACADVER
  1
AC1015
  9
$ACADMAINTVER
 70
    10
  9
$DWGCODEPAGE
  3
ANSI_932
  9
$INSBASE
 10
0.0
 20
0.0
 30
0.0
  9
$EXTMIN
 10
1295.883276165959
 20
-121.8312627725194
 30
0.0
  9
$EXTMAX
 10
1610.791619563327
 20
109.1131114268168
 30
0.0
  9
$LIMMIN
 10
0.0
 20
0.0
  9
$LIMMAX
 10
420.0
 20
297.0
  9
$ORTHOMODE
 70
     0
  9
$REGENMODE
 70
     1
  9
$FILLMODE
 70
     1
  9
$QTEXTMODE
 70
     0
  9
$MIRRTEXT
 70
     1
  9
$LTSCALE
 40
1.0
  9
$ATTMODE
 70
     1
  9
$TEXTSIZE
 40
2.5
  9
$TRACEWID
 40
1.0
  9
$TEXTSTYLE
  7
STANDARD
  9
$CLAYER
  8
寸法
  9
$CELTYPE
  6
BYLAYER
  9
$CECOLOR
 62
   256
  9
$CELTSCALE
 40
1.0
  9
$DISPSILH
 70
     0
  9
$DIMSCALE
 40
1.0
  9
$DIMASZ
 40
1.5
  9
$DIMEXO
 40
0.5
  9
$DIMDLI
 40
5.0
  9
$DIMRND
 40
0.0
  9
$DIMDLE
 40
0.0
  9
$DIMEXE
 40
0.75
  9
$DIMTP
 40
0.0
  9
$DIMTM
 40
0.0
  9
$DIMTXT
 40
3.0
  9
$DIMCEN
 40
2.5
  9
$DIMTSZ
 40
0.0
  9
$DIMTOL
 70
     0
  9
$DIMLIM
 70
     0
  9
$DIMTIH
 70
     0
  9
$DIMTOH
 70
     0
  9
$DIMSE1
 70
     0
  9
$DIMSE2
 70
     0
  9
$DIMTAD
 70
     1
  9
$DIMZIN
 70
     9
  9
$DIMBLK
  1

  9
$DIMASO
 70
     1
  9
$DIMSHO
 70
     1
  9
$DIMPOST
  1

  9
$DIMAPOST
  1

  9
$DIMALT
 70
     0
  9
$DIMALTD
 70
     4
  9
$DIMALTF
 40
0.0394
  9
$DIMLFAC
 40
1.0
  9
$DIMTOFL
 70
     1
  9
$DIMTVP
 40
0.0
  9
$DIMTIX
 70
     0
  9
$DIMSOXD
 70
     0
  9
$DIMSAH
 70
     1
  9
$DIMBLK1
  1
OPEN
  9
$DIMBLK2
  1
OPEN
  9
$DIMSTYLE
  2
STANDARD
  9
$DIMCLRD
 70
     0
  9
$DIMCLRE
 70
     0
  9
$DIMCLRT
 70
     7
  9
$DIMTFAC
 40
1.0
  9
$DIMGAP
 40
0.5
  9
$DIMJUST
 70
     0
  9
$DIMSD1
 70
     0
  9
$DIMSD2
 70
     0
  9
$DIMTOLJ
 70
     1
  9
$DIMTZIN
 70
     9
  9
$DIMALTZ
 70
     0
  9
$DIMALTTZ
 70
     0
  9
$DIMUPT
 70
     0
  9
$DIMDEC
 70
     4
  9
$DIMTDEC
 70
     4
  9
$DIMALTU
 70
     8
  9
$DIMALTTD
 70
     4
  9
$DIMTXSTY
  7
STANDARD
  9
$DIMAUNIT
 70
     0
  9
$DIMADEC
 70
     0
  9
$DIMALTRND
 40
0.0
  9
$DIMAZIN
 70
     2
  9
$DIMDSEP
 70
    46
  9
$DIMATFIT
 70
     3
  9
$DIMFRAC
 70
     0
  9
$DIMLDRBLK
  1
OPEN
  9
$DIMLUNIT
 70
     2
  9
$DIMLWD
 70
    -2
  9
$DIMLWE
 70
    -2
  9
$DIMTMOVE
 70
     0
  9
$LUNITS
 70
     2
  9
$LUPREC
 70
     4
  9
$SKETCHINC
 40
1.0
  9
$FILLETRAD
 40
10.0
  9
$AUNITS
 70
     0
  9
$AUPREC
 70
     0
  9
$MENU
  1
.
  9
$ELEVATION
 40
0.0
  9
$PELEVATION
 40
0.0
  9
$THICKNESS
 40
0.0
  9
$LIMCHECK
 70
     0
  9
$CHAMFERA
 40
0.5
  9
$CHAMFERB
 40
0.5
  9
$CHAMFERC
 40
20.0
  9
$CHAMFERD
 40
0.0
  9
$SKPOLY
 70
     0
  9
$TDCREATE
 40
2453095.611059641
  9
$TDUCREATE
 40
2453095.236059640
  9
$TDUPDATE
 40
2456072.654241528
  9
$TDUUPDATE
 40
2456072.279241527
  9
$TDINDWG
 40
2.9789717245
  9
$TDUSRTIMER
 40
2.9789706829
  9
$USRTIMER
 70
     1
  9
$ANGBASE
 50
0.0
  9
$ANGDIR
 70
     0
  9
$PDMODE
 70
     0
  9
$PDSIZE
 40
0.0
  9
$PLINEWID
 40
0.0
  9
$SPLFRAME
 70
     0
  9
$SPLINETYPE
 70
     6
  9
$SPLINESEGS
 70
     8
  9
$HANDSEED
  5
5A3B
  9
$SURFTAB1
 70
     6
  9
$SURFTAB2
 70
     6
  9
$SURFTYPE
 70
     6
  9
$SURFU
 70
     6
  9
$SURFV
 70
     6
  9
$UCSBASE
  2

  9
$UCSNAME
  2

  9
$UCSORG
 10
0.0
 20
0.0
 30
0.0
  9
$UCSXDIR
 10
1.0
 20
0.0
 30
0.0
  9
$UCSYDIR
 10
0.0
 20
1.0
 30
0.0
  9
$UCSORTHOREF
  2

  9
$UCSORTHOVIEW
 70
     0
  9
$UCSORGTOP
 10
0.0
 20
0.0
 30
0.0
  9
$UCSORGBOTTOM
 10
0.0
 20
0.0
 30
0.0
  9
$UCSORGLEFT
 10
0.0
 20
0.0
 30
0.0
  9
$UCSORGRIGHT
 10
0.0
 20
0.0
 30
0.0
  9
$UCSORGFRONT
 10
0.0
 20
0.0
 30
0.0
  9
$UCSORGBACK
 10
0.0
 20
0.0
 30
0.0
  9
$PUCSBASE
  2

  9
$PUCSNAME
  2

  9
$PUCSORG
 10
0.0
 20
0.0
 30
0.0
  9
$PUCSXDIR
 10
1.0
 20
0.0
 30
0.0
  9
$PUCSYDIR
 10
0.0
 20
1.0
 30
0.0
  9
$PUCSORTHOREF
  2

  9
$PUCSORTHOVIEW
 70
     0
  9
$PUCSORGTOP
 10
0.0
 20
0.0
 30
0.0
  9
$PUCSORGBOTTOM
 10
0.0
 20
0.0
 30
0.0
  9
$PUCSORGLEFT
 10
0.0
 20
0.0
 30
0.0
  9
$PUCSORGRIGHT
 10
0.0
 20
0.0
 30
0.0
  9
$PUCSORGFRONT
 10
0.0
 20
0.0
 30
0.0
  9
$PUCSORGBACK
 10
0.0
 20
0.0
 30
0.0
  9
$USERI1
 70
     0
  9
$USERI2
 70
     0
  9
$USERI3
 70
     0
  9
$USERI4
 70
     0
  9
$USERI5
 70
     0
  9
$USERR1
 40
0.0
  9
$USERR2
 40
0.0
  9
$USERR3
 40
0.0
  9
$USERR4
 40
0.0
  9
$USERR5
 40
0.0
  9
$WORLDVIEW
 70
     1
  9
$SHADEDGE
 70
     3
  9
$SHADEDIF
 70
    70
  9
$TILEMODE
 70
     0
  9
$MAXACTVP
 70
    48
  9
$PINSBASE
 10
0.0
 20
0.0
 30
0.0
  9
$PLIMCHECK
 70
     0
  9
$PEXTMIN
 10
-0.0065794145109521
 20
-0.0030515435603888
 30
-0.0000000000112498
  9
$PEXTMAX
 10
288.0119980604647
 20
210.0035506887249
 30
0.0000000000002956
  9
$PLIMMIN
 10
-5.796854487704763
 20
-5.792022758150494
  9
$PLIMMAX
 10
291.1291403853421
 20
204.1813048785682
  9
$UNITMODE
 70
     0
  9
$VISRETAIN
 70
     1
  9
$PLINEGEN
 70
     0
  9
$PSLTSCALE
 70
     0
  9
$TREEDEPTH
 70
  3020
  9
$CMLSTYLE
  2
STANDARD
  9
$CMLJUST
 70
     0
  9
$CMLSCALE
 40
20.0
  9
$PROXYGRAPHICS
 70
     1
  9
$MEASUREMENT
 70
     1
  9
$CELWEIGHT
370
    -1
  9
$ENDCAPS
280
     0
  9
$JOINSTYLE
280
     0
  9
$LWDISPLAY
290
     0
  9
$INSUNITS
 70
     0
  9
$HYPERLINKBASE
  1

  9
$STYLESHEET
  1

  9
$XEDIT
290
     1
  9
$CEPSNTYPE
380
     0
  9
$PSTYLEMODE
290
     1
  9
$FINGERPRINTGUID
  2
{0FC43A6F-16A9-11D5-BFD6-00004C030E53}
  9
$VERSIONGUID
  2
{CE6A7E01-F6DC-4AC6-8552-DBECADEB4DED}
  9
$EXTNAMES
290
     1
  9
$PSVPSCALE
 40
0.0
  9
$OLESTARTUP
290
     0
  0
ENDSEC
  0
SECTION
  2
CLASSES
  0
CLASS
  1
HATCH
  2
AcDbHatch
  3
AutoCAD 2000
 90
    32768
280
     0
281
     1
  0
CLASS
  1
LWPOLYLINE
  2
AcDbPolyline
  3
AutoCAD 2000
 90
    32768
280
     0
281
     1
  0
CLASS
  1
ACDBDICTIONARYWDFLT
  2
AcDbDictionaryWithDefault
  3
AutoCAD 2000
 90
        0
280
     0
281
     0
  0
CLASS
  1
ACDBPLACEHOLDER
  2
AcDbPlaceHolder
  3
AutoCAD 2000
 90
        0
280
     0
281
     0
  0
CLASS
  1
LAYOUT
  2
AcDbLayout
  3
AutoCAD 2000
 90
        0
280
     0
281
     0
  0
CLASS
  1
DICTIONARYVAR
  2
AcDbDictionaryVar
  3
AutoCAD 2000
 90
        0
280
     0
281
     0
  0
ENDSEC
  0
SECTION
  2
TABLES
  0
TABLE
  2
VPORT
  5
8
330
0
100
AcDbSymbolTable
 70
     1
  0
VPORT
  5
59BA
330
8
100
AcDbSymbolTableRecord
100
AcDbViewportTableRecord
  2
*Active
 70
     0
 10
0.0
 20
0.0
 11
1.0
 21
1.0
 12
1453.352571957577
 22
-6.3612415244271
 13
0.0
 23
0.0
 14
10.0
 24
10.0
 15
10.0
 25
10.0
 16
0.0
 26
0.0
 36
1.0
 17
0.0
 27
0.0
 37
0.0
 40
232.684950905317
 41
1.52919254658385
 42
50.0
 43
0.0
 44
0.0
 50
0.0
 51
0.0
 71
     0
 72
   100
 73
     1
 74
     0
 75
     0
 76
     0
 77
     0
 78
     0
281
     0
 65
     1
110
0.0
120
0.0
130
0.0
111
1.0
121
0.0
131
0.0
112
0.0
122
1.0
132
0.0
 79
     0
146
0.0
  0
ENDTAB
  0
TABLE
  2
LTYPE
  5
5
330
0
100
AcDbSymbolTable
 70
     8
  0
LTYPE
  5
12
330
5
100
AcDbSymbolTableRecord
100
AcDbLinetypeTableRecord
  2
BYBLOCK
 70
     0
  3

 72
    65
 73
     0
 40
0.0
  0
LTYPE
  5
13
330
5
100
AcDbSymbolTableRecord
100
AcDbLinetypeTableRecord
  2
BYLAYER
 70
     0
  3

 72
    65
 73
     0
 40
0.0
  0
LTYPE
  5
14
330
5
100
AcDbSymbolTableRecord
100
AcDbLinetypeTableRecord
  2
CONTINUOUS
 70
     0
  3
Solid line
 72
    65
 73
     0
 40
0.0
  0
LTYPE
  5
82E
330
5
100
AcDbSymbolTableRecord
100
AcDbLinetypeTableRecord
  2
DASHDOT
 70
     0
  3
Dash dot __ . __ . __ . __ . __ . __ . __ . __
 72
    65
 73
     4
 40
25.4
 49
12.7
 74
     0
 49
-6.349999999999999
 74
     0
 49
0.0
 74
     0
 49
-6.349999999999999
 74
     0
  0
LTYPE
  5
82F
330
5
100
AcDbSymbolTableRecord
100
AcDbLinetypeTableRecord
  2
DASHED
 70
     0
  3
Dashed __ __ __ __ __ __ __ __ __ __ __ __ __ _
 72
    65
 73
     2
 40
19.04999999999999
 49
12.7
 74
     0
 49
-6.349999999999999
 74
     0
  0
LTYPE
  5
8BB
330
5
100
AcDbSymbolTableRecord
100
AcDbLinetypeTableRecord
  2
HIDDEN2
 70
     0
  3
Hidden (.5x) _ _ _ _ _ _ _ _ _ _ _ _ _ _ _ _ _
 72
    65
 73
     2
 40
0.1875
 49
0.125
 74
     0
 49
-0.0625
 74
     0
  0
LTYPE
  5
1DDA
330
5
100
AcDbSymbolTableRecord
100
AcDbLinetypeTableRecord
  2
CENTER
 70
     0
  3
____ _ ____ _ ____ _ ____ _ ____ _ ____ _ ____ 
 72
    65
 73
     4
 40
2.0
 49
1.25
 74
     0
 49
-0.25
 74
     0
 49
0.25
 74
     0
 49
-0.25
 74
     0
  0
LTYPE
  5
1DDB
330
5
100
AcDbSymbolTableRecord
100
AcDbLinetypeTableRecord
  2
HIDDEN
 70
     0
  3
__ __ __ __ __ __ __ __ __ __ __ __ __ __ __ __
 72
    65
 73
     2
 40
0.375
 49
0.25
 74
     0
 49
-0.125
 74
     0
  0
LTYPE
  5
1DDC
330
5
100
AcDbSymbolTableRecord
100
AcDbLinetypeTableRecord
  2
PHANTOM
 70
     0
  3
Phantom ______  __  __  ______  __  __  ______
 72
    65
 73
     6
 40
2.5
 49
1.25
 74
     0
 49
-0.25
 74
     0
 49
0.25
 74
     0
 49
-0.25
 74
     0
 49
0.25
 74
     0
 49
-0.25
 74
     0
  0
ENDTAB
  0
TABLE
  2
LAYER
  5
2
102
{ACAD_XDICTIONARY
360
56AD
102
}
330
0
100
AcDbSymbolTable
 70
    21
  0
LAYER
  5
E
330
2
100
AcDbSymbolTableRecord
100
AcDbLayerTableRecord
  2
0
 70
     0
 62
     7
  6
CONTINUOUS
370
    -3
390
682
  0
LAYER
  5
2C
330
2
100
AcDbSymbolTableRecord
100
AcDbLayerTableRecord
  2
M_VIEW
 70
     0
 62
    -1
  6
CONTINUOUS
370
    -3
390
682
  0
LAYER
  5
68C
330
2
100
AcDbSymbolTableRecord
100
AcDbLayerTableRecord
  2
wakumoji
 70
     0
 62
     7
  6
CONTINUOUS
370
    -3
390
682
  0
LAYER
  5
68D
330
2
100
AcDbSymbolTableRecord
100
AcDbLayerTableRecord
  2
wakumoji1
 70
     0
 62
    -7
  6
CONTINUOUS
370
    -3
390
682
  0
LAYER
  5
8BC
330
2
100
AcDbSymbolTableRecord
100
AcDbLayerTableRecord
  2
DEFPOINTS
 70
     0
 62
     7
  6
CONTINUOUS
290
     0
370
    -3
390
682
  0
LAYER
  5
8BD
330
2
100
AcDbSymbolTableRecord
100
AcDbLayerTableRecord
  2
中心線
 70
     0
 62
    13
  6
DASHDOT
370
    13
390
682
  0
LAYER
  5
8BE
330
2
100
AcDbSymbolTableRecord
100
AcDbLayerTableRecord
  2
ﾌﾞﾛｯｸ
 70
     0
 62
    40
  6
CONTINUOUS
370
    30
390
682
  0
LAYER
  5
A19
330
2
100
AcDbSymbolTableRecord
100
AcDbLayerTableRecord
  2
基板
 70
     0
 62
     3
  6
CONTINUOUS
370
    -3
390
682
  0
LAYER
  5
A1B
330
2
100
AcDbSymbolTableRecord
100
AcDbLayerTableRecord
  2
ｾﾑｽ
 70
     0
 62
    11
  6
CONTINUOUS
370
    -3
390
682
  0
LAYER
  5
C05
330
2
100
AcDbSymbolTableRecord
100
AcDbLayerTableRecord
  2
寸法
 70
     0
 62
     4
  6
CONTINUOUS
370
    13
390
682
  0
LAYER
  5
46D0
330
2
100
AcDbSymbolTableRecord
100
AcDbLayerTableRecord
  2
CIRCUIT
 70
     0
 62
     7
  6
CONTINUOUS
370
    -3
390
682
  0
LAYER
  5
46D1
330
2
100
AcDbSymbolTableRecord
100
AcDbLayerTableRecord
  2
A
 70
     0
 62
     7
  6
CONTINUOUS
370
    -3
390
682
  0
LAYER
  5
46D2
330
2
100
AcDbSymbolTableRecord
100
AcDbLayerTableRecord
  2
PIC11
 70
     0
 62
     7
  6
CONTINUOUS
370
    -3
390
682
  0
LAYER
  5
4CDB
330
2
100
AcDbSymbolTableRecord
100
AcDbLayerTableRecord
  2
FRAME025
 70
     0
 62
    -7
  6
CONTINUOUS
370
    -3
390
682
  0
LAYER
  5
4D69
330
2
100
AcDbSymbolTableRecord
100
AcDbLayerTableRecord
  2
文字
 70
     0
 62
    40
  6
CONTINUOUS
370
    13
390
682
  0
LAYER
  5
56BA
330
2
100
AcDbSymbolTableRecord
100
AcDbLayerTableRecord
  2
CENTER
 70
     0
 62
     1
  6
CENTER
370
    13
390
682
  0
ENDTAB
  0
TABLE
  2
STYLE
  5
3
330
0
100
AcDbSymbolTable
 70
     9
  0
STYLE
  5
F
330
3
100
AcDbSymbolTableRecord
100
AcDbTextStyleTableRecord
  2
STANDARD
 70
     0
 40
0.0
 41
1.0
 50
0.0
 71
     0
 42
2.5
  3
isocp.shx
  4
bigfont.shx
  0
STYLE
  5
35
330
3
100
AcDbSymbolTableRecord
100
AcDbTextStyleTableRecord
  2
MSｺﾞｼｯｸ
 70
     0
 40
0.0
 41
1.0
 50
0.0
 71
     0
 42
5.0
  3
MS Gothic.ttf
  4

1001
ACAD
1000
MS Gothic
1071
    32817
  0
STYLE
  5
8BF
330
3
100
AcDbSymbolTableRecord
100
AcDbTextStyleTableRecord
  2
MSｺﾞｼｯｸ-0
 70
     0
 40
0.0
 41
1.0
 50
0.0
 71
     0
 42
4.0
  3
simplex.shx
  4
bigfont.shx
  0
STYLE
  5
4CDC
330
3
100
AcDbSymbolTableRecord
100
AcDbTextStyleTableRecord
  2
MS明朝
 70
     0
 40
0.0
 41
1.0
 50
0.0
 71
     0
 42
2.5
  3
MS Mincho.ttf
  4

1001
ACAD
1000
MS Mincho
1071
    32785
  0
ENDTAB
  0
TABLE
  2
VIEW
  5
6
330
0
100
AcDbSymbolTable
 70
     0
  0
ENDTAB
  0
TABLE
  2
UCS
  5
7
330
0
100
AcDbSymbolTable
 70
     0
  0
ENDTAB
  0
TABLE
  2
APPID
  5
9
330
0
100
AcDbSymbolTable
 70
     1
  0
APPID
  5
10
330
9
100
AcDbSymbolTableRecord
100
AcDbRegAppTableRecord
  2
ACAD
 70
     0
  0
ENDTAB
  0
TABLE
  2
DIMSTYLE
  5
A
330
0
100
AcDbSymbolTable
 70
    15
100
AcDbDimStyleTable
 71
     1
340
1D
  0
DIMSTYLE
105
1D
102
{ACAD_REACTORS
330
4C68
330
53D5
330
53DC
330
53DB
330
53DD
330
53E3
330
5520
330
5539
330
5733
330
5810
330
583B
102
}
330
A
100
AcDbSymbolTableRecord
100
AcDbDimStyleTableRecord
  2
STANDARD
 70
     0
340
F
  0
DIMSTYLE
105
4D6D
330
A
100
AcDbSymbolTableRecord
100
AcDbDimStyleTableRecord
  2
ｺﾋﾟｰ - まこ-10
 70
     0
 40
0.8299999999999998
 41
2.0
 42
0.5
 44
0.8
 73
     0
 74
     0
 77
     3
 78
     8
 79
     2
140
3.0
141
0.0
147
0.5
176
     4
177
     4
178
    40
179
     7
271
     8
272
     8
340
8BF
341
83F
342
83F
371
    13
372
    13
  0
ENDTAB
  0
TABLE
  2
BLOCK_RECORD
  5
1
330
0
100
AcDbSymbolTable
 70
    19
  0
BLOCK_RECORD
  5
18
330
1
100
AcDbSymbolTableRecord
100
AcDbBlockTableRecord
  2
*MODEL_SPACE
340
685
  0
BLOCK_RECORD
  5
15
330
1
100
AcDbSymbolTableRecord
100
AcDbBlockTableRecord
  2
*PAPER_SPACE
340
686
  0
BLOCK_RECORD
  5
24
330
1
100
AcDbSymbolTableRecord
100
AcDbBlockTableRecord
  2
_OPEN
340
0
102
{BLKREFS
331
F75
331
F76
331
F81
331
F82
331
54E0
331
54E1
331
54EA
331
54EB
331
54F3
331
54F4
331
54FC
331
54FD
331
5505
331
5506
331
55D9
331
55DA
331
55E2
331
55E3
331
5612
331
5613
331
5624
331
5625
331
5698
331
5699
331
588D
331
5894
331
5895
331
58BC
331
58BD
331
59D9
331
59DA
331
59E1
331
59E7
331
59E8
331
59F2
331
59F3
331
59FC
331
59FD
331
5A05
331
5A06
331
5A0F
331
5A10
331
5A1A
331
5A1B
331
5A23
331
5A24
331
5A2C
331
5A2D
331
5A35
331
5A36
102
}
  0
BLOCK_RECORD
  5
83F
330
1
100
AcDbSymbolTableRecord
100
AcDbBlockTableRecord
  2
_Open30
340
0
  0
BLOCK_RECORD
  5
4C96
330
1
100
AcDbSymbolTableRecord
100
AcDbBlockTableRecord
  2
*D7
340
0
  0
BLOCK_RECORD
  5
53FC
330
1
100
AcDbSymbolTableRecord
100
AcDbBlockTableRecord
  2
*D8
340
0
  0
BLOCK_RECORD
  5
5408
330
1
100
AcDbSymbolTableRecord
100
AcDbBlockTableRecord
  2
*D9
340
0
  0
BLOCK_RECORD
  5
5414
330
1
100
AcDbSymbolTableRecord
100
AcDbBlockTableRecord
  2
*D10
340
0
  0
BLOCK_RECORD
  5
5422
330
1
100
AcDbSymbolTableRecord
100
AcDbBlockTableRecord
  2
*D11
340
0
  0
BLOCK_RECORD
  5
543B
330
1
100
AcDbSymbolTableRecord
100
AcDbBlockTableRecord
  2
*D12
340
0
  0
BLOCK_RECORD
  5
5575
330
1
100
AcDbSymbolTableRecord
100
AcDbBlockTableRecord
  2
*D13
340
0
  0
BLOCK_RECORD
  5
5581
330
1
100
AcDbSymbolTableRecord
100
AcDbBlockTableRecord
  2
*D14
340
0
  0
BLOCK_RECORD
  5
5734
330
1
100
AcDbSymbolTableRecord
100
AcDbBlockTableRecord
  2
*D15
340
0
  0
BLOCK_RECORD
  5
5811
330
1
100
AcDbSymbolTableRecord
100
AcDbBlockTableRecord
  2
*D16
340
0
  0
BLOCK_RECORD
  5
583C
330
1
100
AcDbSymbolTableRecord
100
AcDbBlockTableRecord
  2
*D17
340
0
  0
ENDTAB
  0
ENDSEC
  0
SECTION
  2
BLOCKS
  0
BLOCK
  5
19
330
18
100
AcDbEntity
  8
0
100
AcDbBlockBegin
  2
*MODEL_SPACE
 70
     0
 10
0.0
 20
0.0
 30
0.0
  3
*MODEL_SPACE
  1

  0
ENDBLK
  5
1A
330
18
100
AcDbEntity
  8
0
100
AcDbBlockEnd
  0
BLOCK
  5
16
330
15
100
AcDbEntity
 67
     1
  8
0
100
AcDbBlockBegin
  2
*PAPER_SPACE
 70
     0
 10
0.0
 20
0.0
 30
0.0
  3
*PAPER_SPACE
  1

  0
ENDBLK
  5
17
330
15
100
AcDbEntity
 67
     1
  8
0
100
AcDbBlockEnd
  0
BLOCK
  5
25
330
24
100
AcDbEntity
  8
0
100
AcDbBlockBegin
  2
_OPEN
 70
     0
 10
0.0
 20
0.0
 30
0.0
  3
_OPEN
  1

  0
LINE
  5
26
330
24
100
AcDbEntity
  8
0
  6
ByBlock
 62
     0
100
AcDbLine
 10
-1.0
 20
0.1666666666666666
 30
0.0
 11
0.0
 21
0.0
 31
0.0
  0
LINE
  5
27
330
24
100
AcDbEntity
  8
0
  6
ByBlock
 62
     0
100
AcDbLine
 10
0.0
 20
0.0
 30
0.0
 11
-1.0
 21
-0.1666666666666666
 31
0.0
  0
LINE
  5
28
330
24
100
AcDbEntity
  8
0
  6
ByBlock
 62
     0
100
AcDbLine
 10
0.0
 20
0.0
 30
0.0
 11
-1.0
 21
0.0
 31
0.0
  0
ENDBLK
  5
29
330
24
100
AcDbEntity
  8
0
100
AcDbBlockEnd
  0
BLOCK
  5
843
330
83F
100
AcDbEntity
  8
0
100
AcDbBlockBegin
  2
_Open30
 70
     0
 10
0.0
 20
0.0
 30
0.0
  3
_Open30
  1

  0
LINE
  5
840
330
83F
100
AcDbEntity
  8
0
  6
ByBlock
 62
     0
370
    -2
100
AcDbLine
 10
-1.0
 20
0.26794919
 30
0.0
 11
0.0
 21
0.0
 31
0.0
  0
LINE
  5
841
330
83F
100
AcDbEntity
  8
0
  6
ByBlock
 62
     0
370
    -2
100
AcDbLine
 10
0.0
 20
0.0
 30
0.0
 11
-1.0
 21
-0.26794919
 31
0.0
  0
LINE
  5
842
330
83F
100
AcDbEntity
  8
0
  6
ByBlock
 62
     0
370
    -2
100
AcDbLine
 10
0.0
 20
0.0
 30
0.0
 11
-1.0
 21
0.0
 31
0.0
  0
ENDBLK
  5
844
330
83F
100
AcDbEntity
  8
0
100
AcDbBlockEnd
  0
BLOCK
  5
4CA0
330
4C96
100
AcDbEntity
  8
0
100
AcDbBlockBegin
  2
*D7
 70
     1
 10
0.0
 20
0.0
 30
0.0
  3
*D7
  1

  0
LINE
  5
5A32
330
4C96
100
AcDbEntity
  8
寸法
 62
     0
370
    -2
100
AcDbLine
 10
1476.466391563286
 20
-20.31046531089261
 30
0.0
 11
1476.466391563286
 21
-3.075591016421231
 31
0.0
  0
LINE
  5
5A33
330
4C96
100
AcDbEntity
  8
寸法
 62
     0
370
    -2
100
AcDbLine
 10
1549.532039988766
 20
-19.98545850121762
 30
0.0
 11
1549.532039988766
 21
-3.075591016421231
 31
0.0
  0
LINE
  5
5A34
330
4C96
100
AcDbEntity
  8
寸法
 62
     0
370
    -2
100
AcDbLine
 10
1478.466391563286
 20
-4.575591016421231
 30
0.0
 11
1547.532039988766
 21
-4.575591016421231
 31
0.0
  0
INSERT
  5
5A35
330
4C96
100
AcDbEntity
  8
寸法
 62
     0
370
    -2
100
AcDbBlockReference
  2
_OPEN
 10
1476.466391563286
 20
-4.575591016421231
 30
0.0
 41
2.0
 42
2.0
 43
2.0
 50
180.0
  0
INSERT
  5
5A36
330
4C96
100
AcDbEntity
  8
寸法
 62
     0
370
    -2
100
AcDbBlockReference
  2
_OPEN
 10
1549.532039988766
 20
-4.575591016421231
 30
0.0
 41
2.0
 42
2.0
 43
2.0
  0
MTEXT
  5
5A37
330
4C96
100
AcDbEntity
  8
寸法
 62
     7
100
AcDbMText
 10
1512.999215776026
 20
-1.976606244847627
 30
0.0
 40
3.0
 41
0.0
 71
     5
 72
     1
  1
\A1;※　Ｌ
  7
MSｺﾞｼｯｸ
 73
     1
 44
1.0
  0
POINT
  5
5A38
330
4C96
100
AcDbEntity
  8
DEFPOINTS
 62
     0
100
AcDbPoint
 10
1476.466391563286
 20
-21.31046531089261
 30
0.0
  0
POINT
  5
5A39
330
4C96
100
AcDbEntity
  8
DEFPOINTS
 62
     0
100
AcDbPoint
 10
1549.532039988766
 20
-20.98545850121762
 30
0.0
  0
POINT
  5
5A3A
330
4C96
100
AcDbEntity
  8
DEFPOINTS
 62
     0
100
AcDbPoint
 10
1549.532039988766
 20
-4.575591016421231
 30
0.0
  0
ENDBLK
  5
4CA1
330
4C96
100
AcDbEntity
  8
0
100
AcDbBlockEnd
  0
BLOCK
  5
5406
330
53FC
100
AcDbEntity
  8
0
100
AcDbBlockBegin
  2
*D8
 70
     1
 10
0.0
 20
0.0
 30
0.0
  3
*D8
  1

  0
LINE
  5
5A29
330
53FC
100
AcDbEntity
  8
寸法
 62
     0
370
    -2
100
AcDbLine
 10
1356.521445475873
 20
-37.61046531089312
 30
0.0
 11
1356.521445475873
 21
-53.03371573216424
 31
0.0
  0
LINE
  5
5A2A
330
53FC
100
AcDbEntity
  8
寸法
 62
     0
370
    -2
100
AcDbLine
 10
1376.521445475873
 20
-37.61046531089312
 30
0.0
 11
1376.521445475873
 21
-53.03371573216424
 31
0.0
  0
LINE
  5
5A2B
330
53FC
100
AcDbEntity
  8
寸法
 62
     0
370
    -2
100
AcDbLine
 10
1358.021445475873
 20
-52.28371573216424
 30
0.0
 11
1375.021445475873
 21
-52.28371573216424
 31
0.0
  0
INSERT
  5
5A2C
330
53FC
100
AcDbEntity
  8
寸法
 62
     0
370
    -2
100
AcDbBlockReference
  2
_OPEN
 10
1356.521445475873
 20
-52.28371573216424
 30
0.0
 41
1.5
 42
1.5
 43
1.5
 50
180.0
  0
INSERT
  5
5A2D
330
53FC
100
AcDbEntity
  8
寸法
 62
     0
370
    -2
100
AcDbBlockReference
  2
_OPEN
 10
1376.521445475873
 20
-52.28371573216424
 30
0.0
 41
1.5
 42
1.5
 43
1.5
  0
MTEXT
  5
5A2E
330
53FC
100
AcDbEntity
  8
寸法
 62
     7
100
AcDbMText
 10
1366.521445475873
 20
-50.28371573216425
 30
0.0
 40
3.0
 41
0.0
 71
     5
 72
     1
  1
\A1;20
  7
MSｺﾞｼｯｸ
 73
     1
 44
1.0
  0
POINT
  5
5A2F
330
53FC
100
AcDbEntity
  8
DEFPOINTS
 62
     0
100
AcDbPoint
 10
1356.521445475873
 20
-37.11046531089312
 30
0.0
  0
POINT
  5
5A30
330
53FC
100
AcDbEntity
  8
DEFPOINTS
 62
     0
100
AcDbPoint
 10
1376.521445475873
 20
-37.11046531089312
 30
0.0
  0
POINT
  5
5A31
330
53FC
100
AcDbEntity
  8
DEFPOINTS
 62
     0
100
AcDbPoint
 10
1376.521445475873
 20
-52.28371573216424
 30
0.0
  0
ENDBLK
  5
5407
330
53FC
100
AcDbEntity
  8
0
100
AcDbBlockEnd
  0
BLOCK
  5
5412
330
5408
100
AcDbEntity
  8
0
100
AcDbBlockBegin
  2
*D9
 70
     1
 10
0.0
 20
0.0
 30
0.0
  3
*D9
  1

  0
LINE
  5
5A20
330
5408
100
AcDbEntity
  8
寸法
 62
     0
370
    -2
100
AcDbLine
 10
1360.021445475873
 20
-35.43546531089271
 30
0.0
 11
1360.021445475873
 21
-47.03371573216425
 31
0.0
  0
LINE
  5
5A21
330
5408
100
AcDbEntity
  8
寸法
 62
     0
370
    -2
100
AcDbLine
 10
1367.021445475873
 20
-35.43546531089317
 30
0.0
 11
1367.021445475873
 21
-47.03371573216425
 31
0.0
  0
LINE
  5
5A22
330
5408
100
AcDbEntity
  8
寸法
 62
     0
370
    -2
100
AcDbLine
 10
1361.521445475873
 20
-46.28371573216425
 30
0.0
 11
1365.521445475873
 21
-46.28371573216425
 31
0.0
  0
INSERT
  5
5A23
330
5408
100
AcDbEntity
  8
寸法
 62
     0
370
    -2
100
AcDbBlockReference
  2
_OPEN
 10
1360.021445475873
 20
-46.28371573216425
 30
0.0
 41
1.5
 42
1.5
 43
1.5
 50
180.0
  0
INSERT
  5
5A24
330
5408
100
AcDbEntity
  8
寸法
 62
     0
370
    -2
100
AcDbBlockReference
  2
_OPEN
 10
1367.021445475873
 20
-46.28371573216425
 30
0.0
 41
1.5
 42
1.5
 43
1.5
  0
MTEXT
  5
5A25
330
5408
100
AcDbEntity
  8
寸法
 62
     7
100
AcDbMText
 10
1363.521445475873
 20
-44.28371573216424
 30
0.0
 40
3.0
 41
0.0
 71
     5
 72
     1
  1
\A1;7
  7
MSｺﾞｼｯｸ
 73
     1
 44
1.0
  0
POINT
  5
5A26
330
5408
100
AcDbEntity
  8
DEFPOINTS
 62
     0
100
AcDbPoint
 10
1360.021445475873
 20
-34.93546531089271
 30
0.0
  0
POINT
  5
5A27
330
5408
100
AcDbEntity
  8
DEFPOINTS
 62
     0
100
AcDbPoint
 10
1367.021445475873
 20
-34.93546531089317
 30
0.0
  0
POINT
  5
5A28
330
5408
100
AcDbEntity
  8
DEFPOINTS
 62
     0
100
AcDbPoint
 10
1367.021445475873
 20
-46.28371573216425
 30
0.0
  0
ENDBLK
  5
5413
330
5408
100
AcDbEntity
  8
0
100
AcDbBlockEnd
  0
BLOCK
  5
5420
330
5414
100
AcDbEntity
  8
0
100
AcDbBlockBegin
  2
*D10
 70
     1
 10
0.0
 20
0.0
 30
0.0
  3
*D10
  1

  0
LINE
  5
5A15
330
5414
100
AcDbEntity
  8
寸法
 62
     0
370
    -2
100
AcDbLine
 10
1356.521445475873
 20
-37.61046531089312
 30
0.0
 11
1356.521445475873
 21
-47.03371573216425
 31
0.0
  0
LINE
  5
5A16
330
5414
100
AcDbEntity
  8
寸法
 62
     0
370
    -2
100
AcDbLine
 10
1360.021445475873
 20
-35.43546531089271
 30
0.0
 11
1360.021445475873
 21
-47.03371573216425
 31
0.0
  0
LINE
  5
5A17
330
5414
100
AcDbEntity
  8
寸法
 62
     0
370
    -2
100
AcDbLine
 10
1361.521445475873
 20
-46.28371573216425
 30
0.0
 11
1363.021445475873
 21
-46.28371573216425
 31
0.0
  0
LINE
  5
5A18
330
5414
100
AcDbEntity
  8
寸法
 62
     0
370
    -2
100
AcDbLine
 10
1355.021445475873
 20
-46.28371573216425
 30
0.0
 11
1347.069668826127
 21
-46.28371573216425
 31
0.0
  0
LINE
  5
5A19
330
5414
100
AcDbEntity
  8
寸法
 62
     0
370
    -2
100
AcDbLine
 10
1360.021445475873
 20
-46.28371573216425
 30
0.0
 11
1356.521445475873
 21
-46.28371573216425
 31
0.0
  0
INSERT
  5
5A1A
330
5414
100
AcDbEntity
  8
寸法
 62
     0
370
    -2
100
AcDbBlockReference
  2
_OPEN
 10
1360.021445475873
 20
-46.28371573216425
 30
0.0
 41
1.5
 42
1.5
 43
1.5
 50
180.0
  0
INSERT
  5
5A1B
330
5414
100
AcDbEntity
  8
寸法
 62
     0
370
    -2
100
AcDbBlockReference
  2
_OPEN
 10
1356.521445475873
 20
-46.28371573216425
 30
0.0
 41
1.5
 42
1.5
 43
1.5
  0
MTEXT
  5
5A1C
330
5414
100
AcDbEntity
  8
寸法
 62
     7
100
AcDbMText
 10
1350.295557151
 20
-44.28371573216424
 30
0.0
 40
3.0
 41
0.0
 71
     5
 72
     1
  1
\A1;3.5
  7
MSｺﾞｼｯｸ
 73
     1
 44
1.0
  0
POINT
  5
5A1D
330
5414
100
AcDbEntity
  8
DEFPOINTS
 62
     0
100
AcDbPoint
 10
1356.521445475873
 20
-37.11046531089312
 30
0.0
  0
POINT
  5
5A1E
330
5414
100
AcDbEntity
  8
DEFPOINTS
 62
     0
100
AcDbPoint
 10
1360.021445475873
 20
-34.93546531089271
 30
0.0
  0
POINT
  5
5A1F
330
5414
100
AcDbEntity
  8
DEFPOINTS
 62
     0
100
AcDbPoint
 10
1360.021445475873
 20
-46.28371573216425
 30
0.0
  0
ENDBLK
  5
5421
330
5414
100
AcDbEntity
  8
0
100
AcDbBlockEnd
  0
BLOCK
  5
542D
330
5422
100
AcDbEntity
  8
0
100
AcDbBlockBegin
  2
*D11
 70
     1
 10
0.0
 20
0.0
 30
0.0
  3
*D11
  1

  0
LINE
  5
5A0B
330
5422
100
AcDbEntity
  8
寸法
 62
     0
370
    -2
100
AcDbLine
 10
1357.271445475873
 20
-32.61046531089312
 30
0.0
 11
1342.084138978375
 21
-32.61046531089312
 31
0.0
  0
LINE
  5
5A0C
330
5422
100
AcDbEntity
  8
寸法
 62
     0
370
    -2
100
AcDbLine
 10
1356.021445475873
 20
-37.11046531089312
 30
0.0
 11
1342.084138978375
 21
-37.11046531089312
 31
0.0
  0
LINE
  5
5A0D
330
5422
100
AcDbEntity
  8
寸法
 62
     0
370
    -2
100
AcDbLine
 10
1342.834138978375
 20
-34.11046531089312
 30
0.0
 11
1342.834138978375
 21
-35.61046531089312
 31
0.0
  0
LINE
  5
5A0E
330
5422
100
AcDbEntity
  8
寸法
 62
     0
370
    -2
100
AcDbLine
 10
1342.834138978375
 20
-37.11046531089312
 30
0.0
 11
1342.834138978375
 21
-45.10792723982713
 31
0.0
  0
INSERT
  5
5A0F
330
5422
100
AcDbEntity
  8
寸法
 62
     0
370
    -2
100
AcDbBlockReference
  2
_OPEN
 10
1342.834138978375
 20
-32.61046531089312
 30
0.0
 41
1.5
 42
1.5
 43
1.5
 50
90.0
  0
INSERT
  5
5A10
330
5422
100
AcDbEntity
  8
寸法
 62
     0
370
    -2
100
AcDbBlockReference
  2
_OPEN
 10
1342.834138978375
 20
-37.11046531089312
 30
0.0
 41
1.5
 42
1.5
 43
1.5
 50
270.0
  0
MTEXT
  5
5A11
330
5422
100
AcDbEntity
  8
寸法
 62
     7
100
AcDbMText
 10
1340.834138978375
 20
-41.85919627535992
 30
0.0
 40
3.0
 41
0.0
 71
     5
 72
     1
  1
\A1;4.5
  7
MSｺﾞｼｯｸ
 11
0.0000000000000001
 21
1.0
 31
0.0
 73
     1
 44
1.0
  0
POINT
  5
5A12
330
5422
100
AcDbEntity
  8
DEFPOINTS
 62
     0
100
AcDbPoint
 10
1357.771445475873
 20
-32.61046531089312
 30
0.0
  0
POINT
  5
5A13
330
5422
100
AcDbEntity
  8
DEFPOINTS
 62
     0
100
AcDbPoint
 10
1356.521445475873
 20
-37.11046531089312
 30
0.0
  0
POINT
  5
5A14
330
5422
100
AcDbEntity
  8
DEFPOINTS
 62
     0
100
AcDbPoint
 10
1342.834138978375
 20
-37.11046531089312
 30
0.0
  0
ENDBLK
  5
542E
330
5422
100
AcDbEntity
  8
0
100
AcDbBlockEnd
  0
BLOCK
  5
5445
330
543B
100
AcDbEntity
  8
0
100
AcDbBlockBegin
  2
*D12
 70
     1
 10
0.0
 20
0.0
 30
0.0
  3
*D12
  1

  0
LINE
  5
5A02
330
543B
100
AcDbEntity
  8
寸法
 62
     0
370
    -2
100
AcDbLine
 10
1356.021445475873
 20
-28.11046531089312
 30
0.0
 11
1336.084138978375
 21
-28.11046531089312
 31
0.0
  0
LINE
  5
5A03
330
543B
100
AcDbEntity
  8
寸法
 62
     0
370
    -2
100
AcDbLine
 10
1356.021445475873
 20
-37.11046531089312
 30
0.0
 11
1336.084138978375
 21
-37.11046531089312
 31
0.0
  0
LINE
  5
5A04
330
543B
100
AcDbEntity
  8
寸法
 62
     0
370
    -2
100
AcDbLine
 10
1336.834138978375
 20
-29.61046531089312
 30
0.0
 11
1336.834138978375
 21
-35.61046531089312
 31
0.0
  0
INSERT
  5
5A05
330
543B
100
AcDbEntity
  8
寸法
 62
     0
370
    -2
100
AcDbBlockReference
  2
_OPEN
 10
1336.834138978375
 20
-28.11046531089312
 30
0.0
 41
1.5
 42
1.5
 43
1.5
 50
90.0
  0
INSERT
  5
5A06
330
543B
100
AcDbEntity
  8
寸法
 62
     0
370
    -2
100
AcDbBlockReference
  2
_OPEN
 10
1336.834138978375
 20
-37.11046531089312
 30
0.0
 41
1.5
 42
1.5
 43
1.5
 50
270.0
  0
MTEXT
  5
5A07
330
543B
100
AcDbEntity
  8
寸法
 62
     7
100
AcDbMText
 10
1334.834138978375
 20
-32.61046531089291
 30
0.0
 40
3.0
 41
0.0
 71
     5
 72
     1
  1
\A1;9
  7
MSｺﾞｼｯｸ
 11
0.0000000000000001
 21
1.0
 31
0.0
 73
     1
 44
1.0
  0
POINT
  5
5A08
330
543B
100
AcDbEntity
  8
DEFPOINTS
 62
     0
100
AcDbPoint
 10
1356.521445475873
 20
-28.11046531089312
 30
0.0
  0
POINT
  5
5A09
330
543B
100
AcDbEntity
  8
DEFPOINTS
 62
     0
100
AcDbPoint
 10
1356.521445475873
 20
-37.11046531089312
 30
0.0
  0
POINT
  5
5A0A
330
543B
100
AcDbEntity
  8
DEFPOINTS
 62
     0
100
AcDbPoint
 10
1336.834138978375
 20
-37.11046531089312
 30
0.0
  0
ENDBLK
  5
5446
330
543B
100
AcDbEntity
  8
0
100
AcDbBlockEnd
  0
BLOCK
  5
557F
330
5575
100
AcDbEntity
  8
0
100
AcDbBlockBegin
  2
*D13
 70
     1
 10
0.0
 20
0.0
 30
0.0
  3
*D13
  1

  0
LINE
  5
59E4
330
5575
100
AcDbEntity
  8
寸法
 62
     0
370
    -2
100
AcDbLine
 10
1356.021445475873
 20
21.8054846156224
 30
0.0
 11
1343.130417335898
 21
21.8054846156224
 31
0.0
  0
LINE
  5
59E5
330
5575
100
AcDbEntity
  8
寸法
 62
     0
370
    -2
100
AcDbLine
 10
1356.021445475873
 20
34.3054846156224
 30
0.0
 11
1343.130417335898
 21
34.3054846156224
 31
0.0
  0
LINE
  5
59E6
330
5575
100
AcDbEntity
  8
寸法
 62
     0
370
    -2
100
AcDbLine
 10
1343.880417335898
 20
23.3054846156224
 30
0.0
 11
1343.880417335898
 21
32.8054846156224
 31
0.0
  0
INSERT
  5
59E7
330
5575
100
AcDbEntity
  8
寸法
 62
     0
370
    -2
100
AcDbBlockReference
  2
_OPEN
 10
1343.880417335898
 20
21.8054846156224
 30
0.0
 41
1.5
 42
1.5
 43
1.5
 50
270.0
  0
INSERT
  5
59E8
330
5575
100
AcDbEntity
  8
寸法
 62
     0
370
    -2
100
AcDbBlockReference
  2
_OPEN
 10
1343.880417335898
 20
34.3054846156224
 30
0.0
 41
1.5
 42
1.5
 43
1.5
 50
90.0
  0
MTEXT
  5
59E9
330
5575
100
AcDbEntity
  8
寸法
 62
     7
100
AcDbMText
 10
1341.880417335898
 20
28.05548461562262
 30
0.0
 40
3.0
 41
0.0
 71
     5
 72
     1
  1
\A1;12.5
  7
MSｺﾞｼｯｸ
 11
0.0000000000000001
 21
1.0
 31
0.0
 73
     1
 44
1.0
  0
POINT
  5
59EA
330
5575
100
AcDbEntity
  8
DEFPOINTS
 62
     0
100
AcDbPoint
 10
1356.521445475873
 20
21.8054846156224
 30
0.0
  0
POINT
  5
59EB
330
5575
100
AcDbEntity
  8
DEFPOINTS
 62
     0
100
AcDbPoint
 10
1356.521445475873
 20
34.3054846156224
 30
0.0
  0
POINT
  5
59EC
330
5575
100
AcDbEntity
  8
DEFPOINTS
 62
     0
100
AcDbPoint
 10
1343.880417335898
 20
34.3054846156224
 30
0.0
  0
ENDBLK
  5
5580
330
5575
100
AcDbEntity
  8
0
100
AcDbBlockEnd
  0
BLOCK
  5
558D
330
5581
100
AcDbEntity
  8
0
100
AcDbBlockBegin
  2
*D14
 70
     1
 10
0.0
 20
0.0
 30
0.0
  3
*D14
  1

  0
LINE
  5
59ED
330
5581
100
AcDbEntity
  8
寸法
 62
     0
370
    -2
100
AcDbLine
 10
1356.021445475873
 20
34.3054846156224
 30
0.0
 11
1343.133617536801
 21
34.3054846156224
 31
0.0
  0
LINE
  5
59EE
330
5581
100
AcDbEntity
  8
寸法
 62
     0
370
    -2
100
AcDbLine
 10
1357.146443670542
 20
37.30548461562239
 30
0.0
 11
1343.133617536801
 21
37.30548461562239
 31
0.0
  0
LINE
  5
59EF
330
5581
100
AcDbEntity
  8
寸法
 62
     0
370
    -2
100
AcDbLine
 10
1343.883617536801
 20
32.8054846156224
 30
0.0
 11
1343.883617536801
 21
31.3054846156224
 31
0.0
  0
LINE
  5
59F0
330
5581
100
AcDbEntity
  8
寸法
 62
     0
370
    -2
100
AcDbLine
 10
1343.883617536801
 20
38.8054846156224
 30
0.0
 11
1343.883617536801
 21
45.34101761054625
 31
0.0
  0
LINE
  5
59F1
330
5581
100
AcDbEntity
  8
寸法
 62
     0
370
    -2
100
AcDbLine
 10
1343.883617536801
 20
34.3054846156224
 30
0.0
 11
1343.883617536801
 21
37.30548461562239
 31
0.0
  0
INSERT
  5
59F2
330
5581
100
AcDbEntity
  8
寸法
 62
     0
370
    -2
100
AcDbBlockReference
  2
_OPEN
 10
1343.883617536801
 20
34.3054846156224
 30
0.0
 41
1.5
 42
1.5
 43
1.5
 50
90.0
  0
INSERT
  5
59F3
330
5581
100
AcDbEntity
  8
寸法
 62
     0
370
    -2
100
AcDbBlockReference
  2
_OPEN
 10
1343.883617536801
 20
37.30548461562239
 30
0.0
 41
1.5
 42
1.5
 43
1.5
 50
270.0
  0
MTEXT
  5
59F4
330
5581
100
AcDbEntity
  8
寸法
 62
     7
100
AcDbMText
 10
1341.632348501268
 20
42.82325111308454
 30
0.0
 40
3.0
 41
0.0
 71
     5
 72
     1
  1
\A1;(3)
  7
MSｺﾞｼｯｸ
 11
0.0000000000000001
 21
1.0
 31
0.0
 73
     1
 44
1.0
  0
POINT
  5
59F5
330
5581
100
AcDbEntity
  8
DEFPOINTS
 62
     0
100
AcDbPoint
 10
1356.521445475873
 20
34.3054846156224
 30
0.0
  0
POINT
  5
59F6
330
5581
100
AcDbEntity
  8
DEFPOINTS
 62
     0
100
AcDbPoint
 10
1357.646443670542
 20
37.30548461562239
 30
0.0
  0
POINT
  5
59F7
330
5581
100
AcDbEntity
  8
DEFPOINTS
 62
     0
100
AcDbPoint
 10
1343.883617536801
 20
37.30548461562239
 30
0.0
  0
ENDBLK
  5
558E
330
5581
100
AcDbEntity
  8
0
100
AcDbBlockEnd
  0
BLOCK
  5
573E
330
5734
100
AcDbEntity
  8
0
100
AcDbBlockBegin
  2
*D15
 70
     1
 10
0.0
 20
0.0
 30
0.0
  3
*D15
  1

  0
LINE
  5
59D5
330
5734
100
AcDbEntity
  8
寸法
 62
     0
370
    -2
100
AcDbLine
 10
1365.185390485287
 20
65.54521332981164
 30
0.0
 11
1365.038167346042
 21
65.74726616268185
 31
0.0
  0
LINE
  5
59D6
330
5734
100
AcDbEntity
  8
寸法
 62
     0
370
    -2
100
AcDbLine
 10
1369.388089408983
 20
68.60745462611237
 30
0.0
 11
1369.240866269737
 21
68.80950745898269
 31
0.0
  0
LINE
  5
59D7
330
5734
100
AcDbEntity
  8
寸法
 62
     0
370
    -2
100
AcDbLine
 10
1366.692153760997
 20
66.02444649954339
 30
0.0
 11
1368.470218690253
 21
67.3200101249015
 31
0.0
  0
LINE
  5
59D8
330
5734
100
AcDbEntity
  8
寸法
 62
     0
370
    -2
100
AcDbLine
 10
1369.682535687473
 20
68.20334896037286
 30
0.0
 11
1383.309306943871
 21
78.13231661525697
 31
0.0
  0
INSERT
  5
59D9
330
5734
100
AcDbEntity
  8
寸法
 62
     0
370
    -2
100
AcDbBlockReference
  2
_OPEN
 10
1365.479836763778
 20
65.14110766407203
 30
0.0
 41
1.5
 42
1.5
 43
1.5
 50
216.0784600100741
  0
INSERT
  5
59DA
330
5734
100
AcDbEntity
  8
寸法
 62
     0
370
    -2
100
AcDbBlockReference
  2
_OPEN
 10
1369.682535687473
 20
68.20334896037286
 30
0.0
 41
1.5
 42
1.5
 43
1.5
 50
36.07846001007416
  0
MTEXT
  5
59DB
330
5734
100
AcDbEntity
  8
寸法
 62
     7
100
AcDbMText
 10
1375.771840282015
 20
75.43515724366478
 30
0.0
 40
3.0
 41
0.0
 71
     5
 72
     1
  1
\A1;（φ5.2）
  7
MSｺﾞｼｯｸ
 11
0.8082113314798684
 21
0.5888925569809303
 31
0.0
 73
     1
 44
1.0
  0
POINT
  5
59DC
330
5734
100
AcDbEntity
  8
DEFPOINTS
 62
     0
100
AcDbPoint
 10
1365.479836763778
 20
65.14110766407168
 30
0.0
  0
POINT
  5
59DD
330
5734
100
AcDbEntity
  8
DEFPOINTS
 62
     0
100
AcDbPoint
 10
1369.682535687474
 20
68.20334896037252
 30
0.0
  0
POINT
  5
59DE
330
5734
100
AcDbEntity
  8
DEFPOINTS
 62
     0
100
AcDbPoint
 10
1369.682535687473
 20
68.20334896037286
 30
0.0
  0
ENDBLK
  5
573F
330
5734
100
AcDbEntity
  8
0
100
AcDbBlockEnd
  0
BLOCK
  5
5818
330
5811
100
AcDbEntity
  8
0
100
AcDbBlockBegin
  2
*D16
 70
     1
 10
0.0
 20
0.0
 30
0.0
  3
*D16
  1

  0
LINE
  5
59DF
330
5811
100
AcDbEntity
  8
寸法
 62
     0
370
    -2
100
AcDbLine
 10
1407.259757622204
 20
77.77420075599252
 30
0.0
 11
1371.395635597148
 21
62.91683265305585
 31
0.0
  0
MTEXT
  5
59E0
330
5811
100
AcDbEntity
  8
寸法
 62
     7
100
AcDbMText
 10
1389.144401547862
 20
72.74759518383223
 30
0.0
 40
3.0
 41
0.0
 71
     5
 72
     1
  1
\A1;R21（曲げ半径MIN.）
  7
MSｺﾞｼｯｸ
 11
0.9238616592266639
 21
0.3827265794414538
 31
0.0
 73
     1
 44
1.0
  0
INSERT
  5
59E1
330
5811
100
AcDbEntity
  8
寸法
 62
     0
370
    -2
100
AcDbBlockReference
  2
_OPEN
 10
1370.009843108308
 20
62.34274278389364
 30
0.0
 41
1.5
 42
1.5
 43
1.5
 50
202.5026758567537
  0
POINT
  5
59E2
330
5811
100
AcDbEntity
  8
DEFPOINTS
 62
     0
100
AcDbPoint
 10
1370.009843108308
 20
62.34274278389364
 30
0.0
  0
POINT
  5
59E3
330
5811
100
AcDbEntity
  8
DEFPOINTS
 62
     0
100
AcDbPoint
 10
1350.608748264547
 20
54.30548461562267
 30
0.0
  0
ENDBLK
  5
5819
330
5811
100
AcDbEntity
  8
0
100
AcDbBlockEnd
  0
BLOCK
  5
5846
330
583C
100
AcDbEntity
  8
0
100
AcDbBlockBegin
  2
*D17
 70
     1
 10
0.0
 20
0.0
 30
0.0
  3
*D17
  1

  0
LINE
  5
59F8
330
583C
100
AcDbEntity
  8
寸法
 62
     0
370
    -2
100
AcDbLine
 10
1356.021445475873
 20
34.3054846156224
 30
0.0
 11
1333.805785315941
 21
34.3054846156224
 31
0.0
  0
LINE
  5
59F9
330
583C
100
AcDbEntity
  8
寸法
 62
     0
370
    -2
100
AcDbLine
 10
1371.108748264548
 20
54.3054846156224
 30
0.0
 11
1333.805785315941
 21
54.30548461562241
 31
0.0
  0
LINE
  5
59FA
330
583C
100
AcDbEntity
  8
寸法
 62
     0
370
    -2
100
AcDbLine
 10
1334.555785315941
 20
52.80548461562241
 30
0.0
 11
1334.555785315941
 21
35.8054846156224
 31
0.0
  0
LINE
  5
59FB
330
583C
100
AcDbEntity
  8
寸法
 62
     0
370
    -2
100
AcDbLine
 10
1334.555785315941
 20
34.3054846156224
 30
0.0
 11
1334.555785315941
 21
-2.565073760012109
 31
0.0
  0
INSERT
  5
59FC
330
583C
100
AcDbEntity
  8
寸法
 62
     0
370
    -2
100
AcDbBlockReference
  2
_OPEN
 10
1334.555785315941
 20
54.30548461562241
 30
0.0
 41
1.5
 42
1.5
 43
1.5
 50
90.0
  0
INSERT
  5
59FD
330
583C
100
AcDbEntity
  8
寸法
 62
     0
370
    -2
100
AcDbBlockReference
  2
_OPEN
 10
1334.555785315941
 20
34.3054846156224
 30
0.0
 41
1.5
 42
1.5
 43
1.5
 50
270.0
  0
MTEXT
  5
59FE
330
583C
100
AcDbEntity
  8
寸法
 62
     7
100
AcDbMText
 10
1332.258831001221
 20
15.12020542780536
 30
0.0
 40
3.0
 41
0.0
 71
     5
 72
     1
  1
\A1;20（曲げ起点MIN.）
  7
MSｺﾞｼｯｸ
 11
0.0000000000000001
 21
1.0
 31
0.0
 73
     1
 44
1.0
  0
POINT
  5
59FF
330
583C
100
AcDbEntity
  8
DEFPOINTS
 62
     0
100
AcDbPoint
 10
1356.521445475873
 20
34.3054846156224
 30
0.0
  0
POINT
  5
5A00
330
583C
100
AcDbEntity
  8
DEFPOINTS
 62
     0
100
AcDbPoint
 10
1371.608748264548
 20
54.3054846156224
 30
0.0
  0
POINT
  5
5A01
330
583C
100
AcDbEntity
  8
DEFPOINTS
 62
     0
100
AcDbPoint
 10
1334.555785315941
 20
54.30548461562241
 30
0.0
  0
ENDBLK
  5
5847
330
583C
100
AcDbEntity
  8
0
100
AcDbBlockEnd
  0
ENDSEC
  0
SECTION
  2
ENTITIES
  0
LWPOLYLINE
  5
4C5D
330
18
100
AcDbEntity
  8
基板
100
AcDbPolyline
 90
        4
 70
     0
 43
0.0
 10
1466.458771548046
 20
-23.11046531089261
 10
1466.458771548046
 20
-28.11046531089261
 10
1476.458771548046
 20
-28.11046531089284
 10
1476.458771548046
 20
-23.11046531089261
  0
LINE
  5
4C5E
330
18
100
AcDbEntity
  8
0
 62
     3
100
AcDbLine
 10
1466.458771548046
 20
-26.51046531089262
 30
0.0
 11
1476.466391563286
 21
-26.51046531089262
 31
0.0
  0
LINE
  5
4C5F
330
18
100
AcDbEntity
  8
0
 62
     3
100
AcDbLine
 10
1466.458771548046
 20
-23.11046531089261
 30
0.0
 11
1476.466391563286
 21
-23.11046531089261
 31
0.0
  0
LWPOLYLINE
  5
4C60
330
18
100
AcDbEntity
  8
ﾌﾞﾛｯｸ
 48
5.0
100
AcDbPolyline
 90
        4
 70
     1
 43
0.0
 10
1476.958771548046
 20
-28.11046531089261
 10
1464.458771548046
 20
-28.11046531089261
 10
1464.458771548046
 20
-37.11046531089261
 10
1476.958771548046
 20
-37.11046531089261
  0
LINE
  5
4C63
330
18
100
AcDbEntity
  8
ﾌﾞﾛｯｸ
  6
HIDDEN2
 48
5.0
370
    13
100
AcDbLine
 10
1467.458751973373
 20
-28.11046531089261
 30
0.0
 11
1470.458751973373
 21
-28.11046531089261
 31
0.0
  0
DIMENSION
  5
4C68
330
18
100
AcDbEntity
  8
寸法
100
AcDbDimension
  2
*D7
 10
1549.532039988766
 20
-4.575591016421231
 30
0.0
 11
1512.999215776026
 21
-1.976606244847627
 31
0.0
 70
    32
  1
※　Ｌ
 71
     5
 42
73.0656484254796
  3
STANDARD
100
AcDbAlignedDimension
 13
1476.466391563286
 23
-21.31046531089261
 33
0.0
 14
1549.532039988766
 24
-20.98545850121762
 34
0.0
100
AcDbRotatedDimension
1001
ACAD
1000
DSTYLE
1002
{
1070
   340
1005
35
1070
    47
1040
20.0
1070
    48
1040
20.00000002
1070
    72
1070
     0
1070
    71
1070
     0
1070
    40
1040
2.0
1070
    41
1040
1.0
1070
    42
1040
0.5
1070
    43
1040
5.0
1070
    44
1040
0.75
1070
    73
1070
     0
1070
    74
1070
     0
1070
    77
1070
     1
1070
    78
1070
     9
1070
   140
1040
1.5
1070
   141
1040
2.5
1070
   143
1040
0.0394
1070
   147
1040
0.5
1070
   171
1070
     4
1070
   172
1070
     1
1070
   173
1070
     1
1070
   178
1070
     7
1070
   273
1070
     8
1070
   274
1070
     4
1070
   279
1070
     2
1070
   284
1070
     9
1070
   341
1005
24
1070
   343
1005
24
1070
   344
1005
24
1002
}
  0
LWPOLYLINE
  5
4C69
330
18
100
AcDbEntity
  8
0
100
AcDbPolyline
 90
        4
 70
     1
 43
0.0
 10
1507.966391563286
 20
-20.03546531089261
 10
1517.966391563286
 20
-20.03546531089261
 10
1517.966391563286
 20
-15.03546531089261
 10
1507.966391563286
 20
-15.03546531089261
  0
LINE
  5
4C6A
330
18
100
AcDbEntity
  8
A
 62
     7
100
AcDbLine
 10
1533.03200616266
 20
-28.33546304099956
 30
0.0
 11
1533.03200616266
 21
-27.58546304099955
 31
0.0
  0
LINE
  5
4C6B
330
18
100
AcDbEntity
  8
A
 62
     7
100
AcDbLine
 10
1532.28200616266
 20
-28.33546304099956
 30
0.0
 11
1532.28200616266
 21
-27.58546304099955
 31
0.0
  0
LINE
  5
4C6D
330
18
100
AcDbEntity
  8
A
 62
     7
100
AcDbLine
 10
1532.282039988766
 20
-28.33546758078152
 30
0.0
 11
1533.032039988766
 21
-28.33546758078152
 31
0.0
  0
LINE
  5
4C6E
330
18
100
AcDbEntity
  8
A
 62
     7
100
AcDbLine
 10
1532.282039988766
 20
-20.2354675807815
 30
0.0
 11
1542.782039988765
 21
-20.2354675807815
 31
0.0
  0
LINE
  5
4C6F
330
18
100
AcDbEntity
  8
PIC11
  6
Continuous
100
AcDbLine
 10
1536.36950616266
 20
-16.7104630410004
 30
0.0
 11
1545.14450616266
 21
-18.17296304099959
 31
0.0
  0
LINE
  5
4C70
330
18
100
AcDbEntity
  8
PIC11
  6
Continuous
100
AcDbLine
 10
1540.510852412659
 20
-19.63546304099877
 30
0.0
 11
1536.70700616266
 21
-18.02296304099904
 31
0.0
  0
LINE
  5
4C71
330
18
100
AcDbEntity
  8
A
 62
     7
100
AcDbLine
 10
1532.282039988766
 20
-27.58546758078152
 30
0.0
 11
1542.782039988765
 21
-27.58546758078152
 31
0.0
  0
LINE
  5
4C72
330
18
100
AcDbEntity
  8
A
 62
     7
100
AcDbLine
 10
1532.28200616266
 20
-27.58546304099955
 30
0.0
 11
1532.28200616266
 21
-20.2354675807815
 31
0.0
  0
LWPOLYLINE
  5
4C79
330
18
100
AcDbEntity
  8
0
370
    30
100
AcDbPolyline
 90
        2
 70
     0
 43
0.0
 10
1513.466391563286
 20
-26.51046531089262
 10
1516.264208417754
 20
-26.51046531089262
  0
LINE
  5
4C7A
330
18
100
AcDbEntity
  8
A
 62
     7
100
AcDbLine
 10
1532.28200616266
 20
-26.41046228436924
 30
0.0
 11
1530.282006162661
 21
-26.41046228436918
 31
0.0
  0
LINE
  5
4C7B
330
18
100
AcDbEntity
  8
A
 62
     7
100
AcDbLine
 10
1532.28200616266
 20
-25.41046228436924
 30
0.0
 11
1530.282006162661
 21
-25.41046228436924
 31
0.0
  0
LINE
  5
4C7C
330
18
100
AcDbEntity
  8
A
 62
     7
100
AcDbLine
 10
1532.28200616266
 20
-24.41046228436924
 30
0.0
 11
1530.282006162661
 21
-24.41046228436924
 31
0.0
  0
LINE
  5
4C7D
330
18
100
AcDbEntity
  8
A
 62
     7
100
AcDbLine
 10
1532.28200616266
 20
-23.41046228436924
 30
0.0
 11
1530.282006162661
 21
-23.41046228436924
 31
0.0
  0
LINE
  5
4C7E
330
18
100
AcDbEntity
  8
A
 62
     7
100
AcDbLine
 10
1532.28200616266
 20
-22.41046228436924
 30
0.0
 11
1530.282006162661
 21
-22.41046228436924
 31
0.0
  0
LINE
  5
4C81
330
18
100
AcDbEntity
  8
A
 62
     7
100
AcDbLine
 10
1532.282039988766
 20
-19.4854675807815
 30
0.0
 11
1533.032039988766
 21
-19.4854675807815
 31
0.0
  0
LINE
  5
4C82
330
18
100
AcDbEntity
  8
A
 62
     7
100
AcDbLine
 10
1532.28200616266
 20
-20.23546304099959
 30
0.0
 11
1532.28200616266
 21
-19.48546304099959
 31
0.0
  0
LINE
  5
4C83
330
18
100
AcDbEntity
  8
A
 62
     7
100
AcDbLine
 10
1533.03200616266
 20
-20.23546304099959
 30
0.0
 11
1533.03200616266
 21
-19.48546304099959
 31
0.0
  0
LINE
  5
4C84
330
18
100
AcDbEntity
  8
A
 62
     7
100
AcDbLine
 10
1532.28200616266
 20
-21.41046228436924
 30
0.0
 11
1530.282006162661
 21
-21.41046228436924
 31
0.0
  0
LINE
  5
4C85
330
18
100
AcDbEntity
  8
PIC11
  6
Continuous
100
AcDbLine
 10
1536.70700616266
 20
-18.02296304100041
 30
0.0
 11
1536.36950616266
 21
-16.7104630410004
 31
0.0
  0
LWPOLYLINE
  5
4C88
330
18
100
AcDbEntity
  8
0
100
AcDbPolyline
 90
        4
 70
     1
 43
0.0
 10
1542.782039988765
 20
-20.98545850121762
 10
1549.532039988766
 20
-20.98545850121762
 10
1549.532039988766
 20
-23.61045850121762
 10
1542.782039988765
 20
-23.61045850121762
  0
LINE
  5
4C89
330
18
100
AcDbEntity
  8
A
 62
     7
100
AcDbLine
 10
1542.782006162659
 20
-27.58546304099955
 30
0.0
 11
1542.782006162659
 21
-20.23546304099959
 31
0.0
  0
LWPOLYLINE
  5
4C8A
330
18
100
AcDbEntity
  8
0
100
AcDbPolyline
 90
        4
 70
     1
 43
0.0
 10
1542.782039988765
 20
-26.83546758078152
 10
1549.532039988766
 20
-26.83546758078152
 10
1549.532039988766
 20
-24.21046758078152
 10
1542.782039988765
 20
-24.21046758078152
  0
LINE
  5
4C8B
330
18
100
AcDbEntity
  8
PIC11
  6
Continuous
100
AcDbLine
 10
1545.14450616266
 20
-18.17296304099959
 30
0.0
 11
1545.14450616266
 21
-19.15960079100027
 31
0.0
  0
LINE
  5
4C8C
330
18
100
AcDbEntity
  8
PIC11
  6
Continuous
100
AcDbLine
 10
1545.14450616266
 20
-19.15960079100027
 30
0.0
 11
1542.782006162659
 21
-19.48546304099959
 31
0.0
  0
LINE
  5
4C8D
330
18
100
AcDbEntity
  8
0
100
AcDbLine
 10
1542.782006162659
 20
-19.48546304099959
 30
0.0
 11
1542.782039988765
 21
-20.2354675807815
 31
0.0
  0
LINE
  5
4C8E
330
18
100
AcDbEntity
  8
0
100
AcDbLine
 10
1540.510852412659
 20
-19.63546304099877
 30
0.0
 11
1540.510852412659
 21
-20.2354675807815
 31
0.0
  0
LEADER
  5
4C8F
330
18
100
AcDbEntity
  8
寸法
100
AcDbLeader
  3
STANDARD
 76
     3
 10
1517.239300900071
 20
-13.59061784349262
 30
0.0
 10
1529.103390044525
 20
6.358587340227266
 30
0.0
 10
1558.806941228287
 20
6.358587340227266
 30
0.0
1001
ACAD
1000
DSTYLE
1002
{
1070
    41
1040
1.5
1070
    42
1040
0.5
1070
    43
1040
5.0
1070
    44
1040
0.75
1070
    73
1070
     0
1070
    74
1070
     0
1070
    77
1070
     0
1070
    78
1070
     9
1070
    79
1070
     2
1070
   140
1040
3.0
1070
   141
1040
2.5
1070
   143
1040
0.0394
1070
   147
1040
0.5
1070
   171
1070
     4
1070
   172
1070
     1
1070
   173
1070
     1
1070
   178
1070
     7
1070
   273
1070
     8
1070
   274
1070
     4
1070
   279
1070
     2
1070
   284
1070
     9
1070
   341
1005
24
1070
   343
1005
24
1070
   344
1005
24
1002
}
  0
LWPOLYLINE
  5
4C90
330
18
100
AcDbEntity
  8
0
370
    30
100
AcDbPolyline
 90
        2
 70
     0
 43
0.0
 10
1494.13490679343
 20
-26.51046531089262
 10
1512.466391563286
 20
-26.51046531089262
  0
SPLINE
  5
4C93
330
18
100
AcDbEntity
  8
0
100
AcDbSpline
210
0.0
220
0.0
230
1.0
 70
     8
 71
     3
 72
    11
 73
     7
 74
     5
 42
0.0000000001
 43
0.0000000001
 44
0.0000000001
 40
0.0
 40
0.0
 40
0.0
 40
0.0
 40
1.397542485937368
 40
3.35026494445522
 40
4.747807430392589
 40
6.145349916329957
 40
6.145349916329957
 40
6.145349916329957
 40
6.145349916329957
 10
1492.966392746064
 20
-21.13765225532381
 30
0.0
 10
1492.687680650841
 20
-21.54692778782439
 30
0.0
 10
1492.019536840105
 20
-22.52806537967388
 30
0.0
 10
1492.79219244328
 20
-24.09906054216938
 30
0.0
 10
1493.914630050336
 20
-25.48187566793534
 30
0.0
 10
1493.282471847488
 20
-26.31906005952766
 30
0.0
 10
1492.966392746064
 20
-26.73765225532381
 30
0.0
 11
1492.966392746064
 21
-21.13765225532381
 31
0.0
 11
1492.341392746064
 21
-22.38765225532381
 31
0.0
 11
1492.966392746064
 21
-24.23765225532381
 31
0.0
 11
1493.591392746064
 21
-25.48765225532381
 31
0.0
 11
1492.966392746064
 21
-26.73765225532381
 31
0.0
  0
SPLINE
  5
4C94
330
18
100
AcDbEntity
  8
0
100
AcDbSpline
210
0.0
220
0.0
230
1.0
 70
     8
 71
     3
 72
    11
 73
     7
 74
     5
 42
0.0000000001
 43
0.0000000001
 44
0.0000000001
 40
0.0
 40
0.0
 40
0.0
 40
0.0
 40
1.397542485937368
 40
3.35026494445522
 40
4.747807430392589
 40
6.145349916329957
 40
6.145349916329957
 40
6.145349916329957
 40
6.145349916329957
 10
1493.966392746064
 20
-21.13765225532381
 30
0.0
 10
1493.687680650841
 20
-21.54692778782439
 30
0.0
 10
1493.019536840105
 20
-22.52806537967388
 30
0.0
 10
1493.79219244328
 20
-24.09906054216938
 30
0.0
 10
1494.914630050336
 20
-25.48187566793534
 30
0.0
 10
1494.282471847488
 20
-26.31906005952766
 30
0.0
 10
1493.966392746064
 20
-26.73765225532381
 30
0.0
 11
1493.966392746064
 21
-21.13765225532381
 31
0.0
 11
1493.341392746064
 21
-22.38765225532381
 31
0.0
 11
1493.966392746064
 21
-24.23765225532381
 31
0.0
 11
1494.591392746064
 21
-25.48765225532381
 31
0.0
 11
1493.966392746064
 21
-26.73765225532381
 31
0.0
  0
LWPOLYLINE
  5
4C95
330
18
100
AcDbEntity
  8
0
100
AcDbPolyline
 90
        4
 70
     1
 43
0.0
 10
1512.466391563286
 20
-27.13546531089262
 10
1513.466391563286
 20
-27.13546531089262
 10
1513.466391563286
 20
-20.03546531089261
 10
1512.466391563286
 20
-20.03546531089261
  0
MTEXT
  5
4CAB
330
18
100
AcDbEntity
  8
寸法
 62
     7
100
AcDbMText
 10
1529.690748291483
 20
7.070924457854481
 30
0.0
 40
2.5
 41
0.0
 71
     7
 72
     1
  1
{\fＭＳ Ｐゴシック|b0|i0|c128|p50;装置銘板，検査証}
  7
MSｺﾞｼｯｸ
 73
     1
 44
1.0
1001
ACAD
1000
MTEXTBEGIN
1070
    73
1070
     1
1070
    44
1040
0.8
1070
    74
1070
     0
1000
MTEXTEND
1000
MTEXTBEGIN
1070
    73
1070
     1
1070
    44
1040
0.8
1070
    74
1070
     0
1000
MTEXTEND
  0
MTEXT
  5
4D21
330
18
100
AcDbEntity
  8
CIRCUIT
 62
     7
100
AcDbMText
 10
1459.200409464158
 20
59.07819773814003
 30
0.0
 40
3.0
 41
0.0
 71
     7
 72
     1
  1
{\L\U+203BＬ寸法は以下の通りになります。}
  7
MSｺﾞｼｯｸ
 73
     1
 44
1.0
1001
ACAD
1000
MTEXTBEGIN
1070
    73
1070
     1
1070
    44
1040
0.8
1070
    74
1070
     0
1000
MTEXTEND
1000
MTEXTBEGIN
1070
    73
1070
     1
1070
    44
1040
0.8
1070
    74
1070
     0
1000
MTEXTEND
  0
LINE
  5
4D22
330
18
100
AcDbEntity
  8
0
100
AcDbLine
 10
1498.628994433155
 20
40.68841081533878
 30
0.0
 11
1505.127398683832
 21
40.68841081533878
 31
0.0
  0
MTEXT
  5
4D23
330
18
100
AcDbEntity
  8
CIRCUIT
 62
     7
100
AcDbMText
 10
1463.25252461005
 20
41.19980625363473
 30
0.0
 40
3.0
 41
0.0
 71
     7
 72
     1
  1
例：NSR-PAA4D1A-030 \U+2192 製品型式長さ：300mm
  7
MSｺﾞｼｯｸ
 73
     1
 44
1.0
1001
ACAD
1000
MTEXTBEGIN
1070
    73
1070
     1
1070
    44
1040
0.8
1070
    74
1070
     0
1000
MTEXTEND
1000
MTEXTBEGIN
1070
    73
1070
     1
1070
    44
1040
0.8
1070
    74
1070
     0
1000
MTEXTEND
  0
MTEXT
  5
4D24
330
18
100
AcDbEntity
  8
CIRCUIT
 62
     7
100
AcDbMText
 10
1463.507664877889
 20
45.77282983588406
 30
0.0
 40
3.0
 41
0.0
 71
     7
 72
     1
  1
1m未満の場合、Ｌ＝製品型式長さ＋30 ±20mm
  7
MSｺﾞｼｯｸ
 73
     1
 44
1.0
1001
ACAD
1000
MTEXTBEGIN
1070
    73
1070
     1
1070
    44
1040
0.8
1070
    74
1070
     0
1000
MTEXTEND
1000
MTEXTBEGIN
1070
    73
1070
     1
1070
    44
1040
0.8
1070
    74
1070
     0
1000
MTEXTEND
  0
MTEXT
  5
4D25
330
18
100
AcDbEntity
  8
CIRCUIT
 62
     7
100
AcDbMText
 10
1463.507664877889
 20
50.71747758633387
 30
0.0
 40
3.0
 41
0.0
 71
     7
 72
     1
  1
1m以上の場合、Ｌ＝製品型式長さ±50mm
  7
MSｺﾞｼｯｸ
 73
     1
 44
1.0
1001
ACAD
1000
MTEXTBEGIN
1070
    73
1070
     1
1070
    44
1040
0.8
1070
    74
1070
     0
1000
MTEXTEND
1000
MTEXTBEGIN
1070
    73
1070
     1
1070
    44
1040
0.8
1070
    74
1070
     0
1000
MTEXTEND
  0
MTEXT
  5
4D26
330
18
100
AcDbEntity
  8
CIRCUIT
 62
     7
100
AcDbMText
 10
1470.290912102097
 20
32.27209332233792
 30
0.0
 40
3.0
 41
0.0
 71
     7
 72
     1
  1
Ｌ寸法：330±20mm　（300+30±20）
  7
MSｺﾞｼｯｸ
 73
     1
 44
1.0
1001
ACAD
1000
MTEXTBEGIN
1070
    73
1070
     1
1070
    44
1040
0.8
1070
    74
1070
     0
1000
MTEXTEND
1000
MTEXTBEGIN
1070
    73
1070
     1
1070
    44
1040
0.8
1070
    74
1070
     0
1000
MTEXTEND
  0
LWPOLYLINE
  5
4D27
330
18
100
AcDbEntity
  8
0
 48
0.5
100
AcDbPolyline
 90
        4
 70
     1
 43
0.0
 10
1455.977917666442
 20
64.71452821921025
 10
1556.047293433785
 20
64.71452821921025
 10
1556.047293433785
 20
30.4619038957569
 10
1455.977917666442
 20
30.4619038957569
  0
MTEXT
  5
4D28
330
18
100
AcDbEntity
  8
CIRCUIT
 62
     7
100
AcDbMText
 10
1461.507664877889
 20
55.18058150283718
 30
0.0
 40
3.0
 41
0.0
 71
     7
 72
     1
  1
製品型式長さが
  7
MSｺﾞｼｯｸ
 73
     1
 44
1.0
1001
ACAD
1000
MTEXTBEGIN
1070
    73
1070
     1
1070
    44
1040
0.8
1070
    74
1070
     0
1000
MTEXTEND
1000
MTEXTBEGIN
1070
    73
1070
     1
1070
    44
1040
0.8
1070
    74
1070
     0
1000
MTEXTEND
  0
MTEXT
  5
4D29
330
18
100
AcDbEntity
  8
CIRCUIT
 62
     7
100
AcDbMText
 10
1506.671977840197
 20
36.69739172206641
 30
0.0
 40
3.0
 41
0.0
 71
     7
 72
     1
  1
10mm単位
  7
MSｺﾞｼｯｸ
 73
     1
 44
1.0
1001
ACAD
1000
MTEXTBEGIN
1070
    73
1070
     1
1070
    44
1040
0.8
1070
    74
1070
     0
1000
MTEXTEND
1000
MTEXTBEGIN
1070
    73
1070
     1
1070
    44
1040
0.8
1070
    74
1070
     0
1000
MTEXTEND
  0
LINE
  5
4D2A
330
18
100
AcDbEntity
  8
0
100
AcDbLine
 10
1502.39338362635
 20
37.62303185358518
 30
0.0
 11
1505.39338362635
 21
37.62303185358518
 31
0.0
  0
LINE
  5
4D2B
330
18
100
AcDbEntity
  8
0
100
AcDbLine
 10
1502.39338362635
 20
40.68841081533878
 30
0.0
 11
1502.39338362635
 21
37.68841081533878
 31
0.0
  0
TEXT
  5
4D4C
330
18
100
AcDbEntity
  8
CIRCUIT
 62
     7
100
AcDbText
 10
1562.407178978142
 20
66.22180632089643
 30
0.0
 40
2.7
  1
ﾋﾟﾝ配置表
  7
MSｺﾞｼｯｸ
 72
     1
 11
1570.301595221797
 21
67.57180632089642
 31
0.0
100
AcDbText
 73
     2
  0
TEXT
  5
4D4D
330
18
100
AcDbEntity
  8
CIRCUIT
 62
     7
100
AcDbText
 10
1571.013559305979
 20
60.96664807205146
 30
0.0
 40
2.7
  1
信号
  7
MSｺﾞｼｯｸ
 72
     1
 11
1574.522188747603
 21
62.31664807205146
 31
0.0
100
AcDbText
 73
     2
  0
LINE
  5
4D4E
330
18
100
AcDbEntity
  8
CIRCUIT
 62
     7
100
AcDbLine
 10
1558.931089094925
 20
64.56666137825362
 30
0.0
 11
1583.431074137726
 21
64.56666137825362
 31
0.0
  0
LINE
  5
4D4F
330
18
100
AcDbEntity
  8
CIRCUIT
 62
     7
100
AcDbLine
 10
1558.931074137726
 20
60.06666137825362
 30
0.0
 11
1583.431074137726
 21
60.06666137825362
 31
0.0
  0
TEXT
  5
4D50
330
18
100
AcDbEntity
  8
CIRCUIT
 62
     7
100
AcDbText
 10
1571.432291626792
 20
55.46664807205146
 30
0.0
 40
2.7
  1
Ｐ５
  7
MSｺﾞｼｯｸ
 72
     1
 11
1574.940921068417
 21
56.81664807205146
 31
0.0
100
AcDbText
 73
     2
  0
TEXT
  5
4D51
330
18
100
AcDbEntity
  8
CIRCUIT
 62
     7
100
AcDbText
 10
1571.432291626792
 20
51.02030501280008
 30
0.0
 40
2.7
  1
ＰＳ
  7
MSｺﾞｼｯｸ
 72
     1
 11
1574.940921068417
 21
52.37030501280009
 31
0.0
100
AcDbText
 73
     2
  0
LINE
  5
4D52
330
18
100
AcDbEntity
  8
CIRCUIT
 62
     7
100
AcDbLine
 10
1558.931074137726
 20
50.06666137825362
 30
0.0
 11
1583.431074137726
 21
50.06666137825362
 31
0.0
  0
LINE
  5
4D53
330
18
100
AcDbEntity
  8
CIRCUIT
 62
     7
100
AcDbLine
 10
1558.931074137726
 20
59.06666137825363
 30
0.0
 11
1583.431074137726
 21
59.06666137825363
 31
0.0
  0
LINE
  5
4D54
330
18
100
AcDbEntity
  8
CIRCUIT
 62
     7
100
AcDbLine
 10
1558.931074137726
 20
54.56666137825362
 30
0.0
 11
1583.431074137726
 21
54.56666137825362
 31
0.0
  0
TEXT
  5
4D55
330
18
100
AcDbEntity
  8
CIRCUIT
 62
     7
100
AcDbText
 10
1569.67797690598
 20
37.63150239569207
 30
0.0
 40
2.7
  1
ＰＳ＊
  7
MSｺﾞｼｯｸ
 72
     1
 11
1574.940921068417
 21
38.98150239569207
 31
0.0
100
AcDbText
 73
     2
  0
TEXT
  5
4D56
330
18
100
AcDbEntity
  8
CIRCUIT
 62
     7
100
AcDbText
 10
1569.67797690598
 20
41.94519179519542
 30
0.0
 40
2.7
  1
ＧＮＤ
  7
MSｺﾞｼｯｸ
 72
     1
 11
1574.940921068417
 21
43.29519179519542
 31
0.0
100
AcDbText
 73
     2
  0
LINE
  5
4D57
330
18
100
AcDbEntity
  8
CIRCUIT
 62
     7
100
AcDbLine
 10
1558.931074137726
 20
36.56666137825363
 30
0.0
 11
1583.431074137726
 21
36.56666137825363
 31
0.0
  0
LINE
  5
4D58
330
18
100
AcDbEntity
  8
CIRCUIT
 62
     7
100
AcDbLine
 10
1558.931074137726
 20
41.06666137825363
 30
0.0
 11
1583.431074137726
 21
41.06666137825363
 31
0.0
  0
LINE
  5
4D59
330
18
100
AcDbEntity
  8
CIRCUIT
 62
     7
100
AcDbLine
 10
1558.931074137726
 20
45.56666137825362
 30
0.0
 11
1583.431074137726
 21
45.56666137825362
 31
0.0
  0
TEXT
  5
4D5A
330
18
100
AcDbEntity
  8
CIRCUIT
 62
     7
100
AcDbText
 10
1569.67797690598
 20
32.96664807205146
 30
0.0
 40
2.7
  1
ＰＣ＊
  7
MSｺﾞｼｯｸ
 72
     1
 11
1574.940921068417
 21
34.31664807205146
 31
0.0
100
AcDbText
 73
     2
  0
LINE
  5
4D5B
330
18
100
AcDbEntity
  8
CIRCUIT
 62
     7
100
AcDbLine
 10
1558.931074137726
 20
32.06666137825362
 30
0.0
 11
1583.431074137726
 21
32.06666137825362
 31
0.0
  0
TEXT
  5
4D5C
330
18
100
AcDbEntity
  8
CIRCUIT
 62
     7
100
AcDbText
 10
1571.432291626792
 20
46.48810434890386
 30
0.0
 40
2.7
  1
ＰＣ
  7
MSｺﾞｼｯｸ
 72
     1
 11
1574.940921068417
 21
47.83810434890386
 31
0.0
100
AcDbText
 73
     2
  0
LINE
  5
4D5D
330
18
100
AcDbEntity
  8
CIRCUIT
 62
     7
100
AcDbLine
 10
1566.431089094925
 20
32.06666137825362
 30
0.0
 11
1566.431089094925
 21
64.56666137825362
 31
0.0
  0
LINE
  5
4D5E
330
18
100
AcDbEntity
  8
CIRCUIT
 62
     7
100
AcDbLine
 10
1558.931077381457
 20
32.06666137825362
 30
0.0
 11
1558.931089094925
 21
64.56666137825362
 31
0.0
  0
TEXT
  5
4D5F
330
18
100
AcDbEntity
  8
CIRCUIT
 62
     7
100
AcDbText
 10
1561.786277960098
 20
46.48810434890386
 30
0.0
 40
2.7
  1
3
  7
MSｺﾞｼｯｸ
 72
     1
 11
1562.663435320504
 21
47.83810434890386
 31
0.0
100
AcDbText
 73
     2
  0
TEXT
  5
4D60
330
18
100
AcDbEntity
  8
CIRCUIT
 62
     7
100
AcDbText
 10
1561.786277960098
 20
32.96664807205146
 30
0.0
 40
2.7
  1
6
  7
MSｺﾞｼｯｸ
 72
     1
 11
1562.663435320504
 21
34.31664807205146
 31
0.0
100
AcDbText
 73
     2
  0
TEXT
  5
4D61
330
18
100
AcDbEntity
  8
CIRCUIT
 62
     7
100
AcDbText
 10
1561.786277960098
 20
41.94519179519542
 30
0.0
 40
2.7
  1
4
  7
MSｺﾞｼｯｸ
 72
     1
 11
1562.663435320504
 21
43.29519179519542
 31
0.0
100
AcDbText
 73
     2
  0
TEXT
  5
4D62
330
18
100
AcDbEntity
  8
CIRCUIT
 62
     7
100
AcDbText
 10
1561.786277960098
 20
37.63150239569207
 30
0.0
 40
2.7
  1
5
  7
MSｺﾞｼｯｸ
 72
     1
 11
1562.663435320504
 21
38.98150239569207
 31
0.0
100
AcDbText
 73
     2
  0
TEXT
  5
4D63
330
18
100
AcDbEntity
  8
CIRCUIT
 62
     7
100
AcDbText
 10
1561.786277960098
 20
51.02030501280008
 30
0.0
 40
2.7
  1
2
  7
MSｺﾞｼｯｸ
 72
     1
 11
1562.663435320504
 21
52.37030501280009
 31
0.0
100
AcDbText
 73
     2
  0
TEXT
  5
4D64
330
18
100
AcDbEntity
  8
CIRCUIT
 62
     7
100
AcDbText
 10
1561.786277960098
 20
55.46664807205146
 30
0.0
 40
2.7
  1
1
  7
MSｺﾞｼｯｸ
 72
     1
 11
1562.663435320504
 21
56.81664807205146
 31
0.0
100
AcDbText
 73
     2
  0
TEXT
  5
4D65
330
18
100
AcDbEntity
  8
CIRCUIT
 62
     7
100
AcDbText
 10
1560.031963239286
 20
60.96664807205146
 30
0.0
 40
2.7
  1
ﾋﾟﾝ
  7
MSｺﾞｼｯｸ
 72
     1
 11
1562.663435320504
 21
62.31664807205146
 31
0.0
100
AcDbText
 73
     2
  0
LINE
  5
4D66
330
18
100
AcDbEntity
  8
CIRCUIT
 62
     7
100
AcDbLine
 10
1583.431074137726
 20
64.56666137825362
 30
0.0
 11
1583.431074137727
 21
32.06666137825362
 31
0.0
  0
LEADER
  5
4D74
330
18
100
AcDbEntity
  8
寸法
100
AcDbLeader
  3
STANDARD
 76
     3
 10
1536.954616110907
 20
-29.91871341902704
 30
0.0
 10
1532.802899127861
 20
-59.19983734668865
 30
0.0
 10
1494.502066567551
 20
-59.20305295893759
 30
0.0
1001
ACAD
1000
DSTYLE
1002
{
1070
    40
1040
2.0
1070
    41
1040
1.5
1070
    42
1040
0.5
1070
    43
1040
5.0
1070
    44
1040
0.75
1070
    73
1070
     0
1070
    74
1070
     0
1070
    77
1070
     0
1070
    78
1070
     9
1070
   140
1040
3.0
1070
   141
1040
2.5
1070
   143
1040
0.0394
1070
   147
1040
0.5
1070
   171
1070
     4
1070
   172
1070
     1
1070
   173
1070
     1
1070
   178
1070
     7
1070
   273
1070
     8
1070
   274
1070
     4
1070
   279
1070
     2
1070
   284
1070
     9
1070
   341
1005
24
1070
   343
1005
24
1070
   344
1005
24
1002
}
  0
MTEXT
  5
4D75
330
18
100
AcDbEntity
  8
文字
 62
     7
100
AcDbMText
 10
1496.801283320848
 20
-57.87351529311293
 30
0.0
 40
2.5
 41
0.0
 71
     7
 72
     1
  1
{\fＭＳ Ｐゴシック|b0|i0|c128|p50;ｺﾝﾀｸﾄ：AMP 170363-1\Pｷｬｯﾌﾟ：AMP 172168-1}
  7
MSｺﾞｼｯｸ
 73
     1
 44
1.0
1001
ACAD
1000
MTEXTBEGIN
1070
    73
1070
     1
1070
    44
1040
0.8
1070
    74
1070
     0
1000
MTEXTEND
1000
MTEXTBEGIN
1070
    73
1070
     1
1070
    44
1040
0.8
1070
    74
1070
     0
1000
MTEXTEND
  0
SPLINE
  5
4D91
330
18
100
AcDbEntity
  8
0
100
AcDbSpline
210
0.0
220
0.0
230
1.0
 70
     8
 71
     3
 72
    11
 73
     7
 74
     5
 42
0.0000000001
 43
0.0000000001
 44
0.0000000001
 40
0.0
 40
0.0
 40
0.0
 40
0.0
 40
1.397542485937368
 40
3.35026494445522
 40
4.747807430392589
 40
6.145349916329957
 40
6.145349916329957
 40
6.145349916329957
 40
6.145349916329957
 10
1517.095694370389
 20
-21.13765225532381
 30
0.0
 10
1516.816982275166
 20
-21.54692778782439
 30
0.0
 10
1516.148838464429
 20
-22.52806537967388
 30
0.0
 10
1516.921494067605
 20
-24.09906054216938
 30
0.0
 10
1518.043931674661
 20
-25.48187566793534
 30
0.0
 10
1517.411773471812
 20
-26.31906005952766
 30
0.0
 10
1517.095694370389
 20
-26.73765225532381
 30
0.0
 11
1517.095694370389
 21
-21.13765225532381
 31
0.0
 11
1516.470694370388
 21
-22.38765225532381
 31
0.0
 11
1517.095694370389
 21
-24.23765225532381
 31
0.0
 11
1517.720694370388
 21
-25.48765225532381
 31
0.0
 11
1517.095694370389
 21
-26.73765225532381
 31
0.0
  0
SPLINE
  5
4D92
330
18
100
AcDbEntity
  8
0
100
AcDbSpline
210
0.0
220
0.0
230
1.0
 70
     8
 71
     3
 72
    11
 73
     7
 74
     5
 42
0.0000000001
 43
0.0000000001
 44
0.0000000001
 40
0.0
 40
0.0
 40
0.0
 40
0.0
 40
1.397542485937368
 40
3.35026494445522
 40
4.747807430392589
 40
6.145349916329957
 40
6.145349916329957
 40
6.145349916329957
 40
6.145349916329957
 10
1516.095694370388
 20
-21.13765225532381
 30
0.0
 10
1515.816982275166
 20
-21.54692778782439
 30
0.0
 10
1515.148838464429
 20
-22.52806537967388
 30
0.0
 10
1515.921494067605
 20
-24.09906054216938
 30
0.0
 10
1517.043931674661
 20
-25.48187566793534
 30
0.0
 10
1516.411773471812
 20
-26.31906005952766
 30
0.0
 10
1516.095694370388
 20
-26.73765225532381
 30
0.0
 11
1516.095694370388
 21
-21.13765225532381
 31
0.0
 11
1515.470694370389
 21
-22.38765225532381
 31
0.0
 11
1516.095694370388
 21
-24.23765225532381
 31
0.0
 11
1516.720694370389
 21
-25.48765225532381
 31
0.0
 11
1516.095694370388
 21
-26.73765225532381
 31
0.0
  0
LWPOLYLINE
  5
4D94
330
18
100
AcDbEntity
  8
0
370
    30
100
AcDbPolyline
 90
        2
 70
     0
 43
0.0
 10
1517.264208417754
 20
-26.51046531089262
 10
1519.53200616266
 20
-26.51046531089262
  0
LINE
  5
50AC
330
18
100
AcDbEntity
  8
0
370
    30
100
AcDbLine
 10
1476.466391563286
 20
-21.31046531089261
 30
0.0
 11
1476.466391563286
 21
-26.51046531089262
 31
0.0
  0
LINE
  5
50AD
330
18
100
AcDbEntity
  8
0
370
    30
100
AcDbLine
 10
1476.466391563286
 20
-26.51046531089262
 30
0.0
 11
1493.13490679343
 21
-26.51046531089262
 31
0.0
  0
LINE
  5
50AF
330
18
100
AcDbEntity
  8
0
370
    30
100
AcDbLine
 10
1492.83760870638
 20
-21.31046531089261
 30
0.0
 11
1476.466391563286
 21
-21.31046531089261
 31
0.0
  0
LWPOLYLINE
  5
50B0
330
18
100
AcDbEntity
  8
0
370
    30
100
AcDbPolyline
 90
        2
 70
     0
 43
0.0
 10
1512.466391563286
 20
-21.31046531089261
 10
1493.83760870638
 20
-21.31046531089261
  0
LWPOLYLINE
  5
50B1
330
18
100
AcDbEntity
  8
0
370
    30
100
AcDbPolyline
 90
        2
 70
     0
 43
0.0
 10
1515.966910330704
 20
-21.31046531089261
 10
1513.466391563286
 20
-21.31046531089261
  0
LWPOLYLINE
  5
50B2
330
18
100
AcDbEntity
  8
0
370
    30
100
AcDbPolyline
 90
        2
 70
     0
 43
0.0
 10
1519.53200616266
 20
-21.31046531089261
 10
1516.966910330704
 20
-21.31046531089261
  0
LINE
  5
510A
330
18
100
AcDbEntity
  8
A
 62
     7
100
AcDbLine
 10
1530.28200616266
 20
-19.81046531089266
 30
0.0
 11
1530.28200616266
 21
-28.01046531089257
 31
0.0
  0
LINE
  5
510B
330
18
100
AcDbEntity
  8
A
 62
     7
100
AcDbLine
 10
1525.282006162661
 20
-19.81046531089266
 30
0.0
 11
1530.28200616266
 21
-19.81046531089266
 31
0.0
  0
LINE
  5
510C
330
18
100
AcDbEntity
  8
A
 62
     7
100
AcDbLine
 10
1519.53200616266
 20
-20.81046531089266
 30
0.0
 11
1524.282006162661
 21
-20.81046531089243
 31
0.0
  0
ARC
  5
510D
330
18
100
AcDbEntity
  8
A
 62
     7
100
AcDbCircle
 10
1525.282006162661
 20
-20.31046531089266
 30
0.0
 40
0.5
100
AcDbArc
 50
90.0
 51
180.0
  0
ARC
  5
510E
330
18
100
AcDbEntity
  8
A
 62
     7
100
AcDbCircle
 10
1524.282006162661
 20
-20.3104653108922
 30
0.0
 40
0.5
100
AcDbArc
 50
270.0
 51
0.0
  0
LINE
  5
510F
330
18
100
AcDbEntity
  8
A
 62
     7
100
AcDbLine
 10
1525.282006162661
 20
-28.01046531089234
 30
0.0
 11
1530.28200616266
 21
-28.01046531089257
 31
0.0
  0
LINE
  5
5110
330
18
100
AcDbEntity
  8
A
 62
     7
100
AcDbLine
 10
1524.28200616266
 20
-27.0104653108928
 30
0.0
 11
1519.53200616266
 21
-27.01046531089257
 31
0.0
  0
ARC
  5
5111
330
18
100
AcDbEntity
  8
A
 62
     7
100
AcDbCircle
 10
1525.282006162661
 20
-27.51046531089234
 30
0.0
 40
0.5
100
AcDbArc
 50
180.0
 51
270.0
  0
ARC
  5
5112
330
18
100
AcDbEntity
  8
A
 62
     7
100
AcDbCircle
 10
1524.28200616266
 20
-27.5104653108928
 30
0.0
 40
0.5
100
AcDbArc
 50
0.0
 51
90.0
  0
LINE
  5
5113
330
18
100
AcDbEntity
  8
A
 62
     7
100
AcDbLine
 10
1519.53200616266
 20
-27.01046531089257
 30
0.0
 11
1519.532006162661
 21
-20.81046531089266
 31
0.0
  0
ARC
  5
53D2
330
18
100
AcDbEntity
  8
ｾﾑｽ
100
AcDbCircle
 10
1372.006465050546
 20
-26.51046531089316
 30
0.0
 40
3.0
100
AcDbArc
 50
0.0000000000010248
 51
179.9999999999999
  0
DIMENSION
  5
53D5
330
18
100
AcDbEntity
  8
寸法
100
AcDbDimension
  2
*D8
 10
1376.521445475873
 20
-52.28371573216424
 30
0.0
 11
1366.521445475873
 21
-50.28371573216425
 31
0.0
 70
    32
 71
     5
 42
20.0
  3
STANDARD
100
AcDbAlignedDimension
 13
1356.521445475873
 23
-37.11046531089312
 33
0.0
 14
1376.521445475873
 24
-37.11046531089312
 34
0.0
 50
180.0
100
AcDbRotatedDimension
1001
ACAD
1000
DSTYLE
1002
{
1070
   340
1005
35
1070
    41
1040
1.5
1070
    42
1040
0.5
1070
    43
1040
5.0
1070
    44
1040
0.75
1070
    73
1070
     0
1070
    74
1070
     0
1070
    77
1070
     1
1070
    78
1070
     9
1070
    79
1070
     2
1070
   140
1040
3.0
1070
   141
1040
2.5
1070
   143
1040
0.0394
1070
   147
1040
0.5
1070
   171
1070
     4
1070
   172
1070
     1
1070
   173
1070
     1
1070
   178
1070
     7
1070
   273
1070
     8
1070
   274
1070
     4
1070
   279
1070
     2
1070
   284
1070
     9
1070
   341
1005
24
1070
   343
1005
24
1070
   344
1005
24
1002
}
  0
DIMENSION
  5
53DB
330
18
100
AcDbEntity
  8
寸法
100
AcDbDimension
  2
*D10
 10
1360.021445475873
 20
-46.28371573216425
 30
0.0
 11
1350.295557151
 21
-46.28371573216425
 31
0.0
 70
   160
 71
     5
 42
3.5
  3
STANDARD
100
AcDbAlignedDimension
 13
1356.521445475873
 23
-37.11046531089312
 33
0.0
 14
1360.021445475873
 24
-34.93546531089271
 34
0.0
 50
180.0
100
AcDbRotatedDimension
1001
ACAD
1000
DSTYLE
1002
{
1070
   340
1005
35
1070
    41
1040
1.5
1070
    42
1040
0.5
1070
    43
1040
5.0
1070
    44
1040
0.75
1070
    73
1070
     0
1070
    74
1070
     0
1070
    77
1070
     1
1070
    78
1070
     9
1070
    79
1070
     2
1070
   140
1040
3.0
1070
   141
1040
2.5
1070
   143
1040
0.0394
1070
   147
1040
0.5
1070
   171
1070
     4
1070
   172
1070
     1
1070
   173
1070
     1
1070
   178
1070
     7
1070
   273
1070
     8
1070
   274
1070
     4
1070
   279
1070
     0
1070
   284
1070
     9
1070
   341
1005
24
1070
   343
1005
24
1070
   344
1005
24
1002
}
  0
DIMENSION
  5
53DC
330
18
100
AcDbEntity
  8
寸法
100
AcDbDimension
  2
*D9
 10
1367.021445475873
 20
-46.28371573216425
 30
0.0
 11
1363.521445475873
 21
-44.28371573216424
 31
0.0
 70
    32
 71
     5
 42
7.0
  3
STANDARD
100
AcDbAlignedDimension
 13
1360.021445475873
 23
-34.93546531089271
 33
0.0
 14
1367.021445475873
 24
-34.93546531089317
 34
0.0
 50
180.0
100
AcDbRotatedDimension
1001
ACAD
1000
DSTYLE
1002
{
1070
   340
1005
35
1070
    41
1040
1.5
1070
    42
1040
0.5
1070
    43
1040
5.0
1070
    44
1040
0.75
1070
    73
1070
     0
1070
    74
1070
     0
1070
    77
1070
     1
1070
    78
1070
     9
1070
    79
1070
     2
1070
   140
1040
3.0
1070
   141
1040
2.5
1070
   143
1040
0.0394
1070
   147
1040
0.5
1070
   171
1070
     4
1070
   172
1070
     1
1070
   173
1070
     1
1070
   178
1070
     7
1070
   273
1070
     8
1070
   274
1070
     4
1070
   279
1070
     2
1070
   284
1070
     9
1070
   341
1005
24
1070
   343
1005
24
1070
   344
1005
24
1002
}
  0
DIMENSION
  5
53DD
330
18
100
AcDbEntity
  8
寸法
100
AcDbDimension
  2
*D11
 10
1342.834138978375
 20
-37.11046531089312
 30
0.0
 11
1340.834138978375
 21
-41.85919627535992
 31
0.0
 70
    32
 71
     5
 42
4.5
  3
STANDARD
100
AcDbAlignedDimension
 13
1357.771445475873
 23
-32.61046531089312
 33
0.0
 14
1356.521445475873
 24
-37.11046531089312
 34
0.0
 50
90.0
100
AcDbRotatedDimension
1001
ACAD
1000
DSTYLE
1002
{
1070
   340
1005
35
1070
    41
1040
1.5
1070
    42
1040
0.5
1070
    43
1040
5.0
1070
    44
1040
0.75
1070
    73
1070
     0
1070
    74
1070
     0
1070
    77
1070
     1
1070
    78
1070
     9
1070
    79
1070
     2
1070
   140
1040
3.0
1070
   141
1040
2.5
1070
   143
1040
0.0394
1070
   147
1040
0.5
1070
   171
1070
     4
1070
   172
1070
     1
1070
   173
1070
     1
1070
   178
1070
     7
1070
   273
1070
     8
1070
   274
1070
     4
1070
   279
1070
     0
1070
   284
1070
     9
1070
   341
1005
24
1070
   343
1005
24
1070
   344
1005
24
1002
}
  0
LEADER
  5
53DE
330
18
100
AcDbEntity
  8
文字
 48
0.5
100
AcDbLeader
  3
ｺﾋﾟｰ - まこ-10
 40
3.578680203045685
 41
21.1979695431472
 76
     3
 10
1358.576308937876
 20
-34.84377275215076
 30
0.0
 10
1347.528277280378
 20
-60.77090130272183
 30
0.0
 10
1324.299424136534
 20
-60.7416213057972
 30
0.0
211
-1.0
221
0.0
231
0.0
210
0.0
220
0.0
230
-1.0
213
-27.29070383634825
223
-4.291760789555265
233
0.0
1001
ACAD
1000
DSTYLE
1002
{
1070
   147
1040
0.5
1070
    77
1070
     0
1002
}
  0
DIMENSION
  5
53E3
330
18
100
AcDbEntity
  8
寸法
100
AcDbDimension
  2
*D12
 10
1336.834138978375
 20
-37.11046531089312
 30
0.0
 11
1334.834138978375
 21
-32.61046531089291
 31
0.0
 70
    32
 71
     5
 42
9.000000000000003
  3
STANDARD
100
AcDbAlignedDimension
 13
1356.521445475873
 23
-28.11046531089312
 33
0.0
 14
1356.521445475873
 24
-37.11046531089312
 34
0.0
 50
90.0
100
AcDbRotatedDimension
1001
ACAD
1000
DSTYLE
1002
{
1070
   340
1005
35
1070
    41
1040
1.5
1070
    42
1040
0.5
1070
    43
1040
5.0
1070
    44
1040
0.75
1070
    73
1070
     0
1070
    74
1070
     0
1070
    77
1070
     1
1070
    78
1070
     9
1070
    79
1070
     2
1070
   140
1040
3.0
1070
   141
1040
2.5
1070
   143
1040
0.0394
1070
   147
1040
0.5
1070
   171
1070
     4
1070
   172
1070
     1
1070
   173
1070
     1
1070
   178
1070
     7
1070
   273
1070
     8
1070
   274
1070
     4
1070
   279
1070
     0
1070
   284
1070
     9
1070
   341
1005
24
1070
   343
1005
24
1070
   344
1005
24
1002
}
  0
CIRCLE
  5
53E4
102
{ACAD_REACTORS
330
548A
102
}
330
18
100
AcDbEntity
  8
ﾌﾞﾛｯｸ
 48
5.0
100
AcDbCircle
 10
1367.021445475873
 20
-32.61046531089312
 30
0.0
 40
1.600000000000022
  0
CIRCLE
  5
53E5
102
{ACAD_REACTORS
330
548A
102
}
330
18
100
AcDbEntity
  8
ﾌﾞﾛｯｸ
 48
5.0
100
AcDbCircle
 10
1360.021445475873
 20
-32.61046531089312
 30
0.0
 40
1.600000000000022
  0
LINE
  5
53E6
102
{ACAD_REACTORS
330
548A
102
}
330
18
100
AcDbEntity
  8
中心線
  6
DASHDOT
 48
0.25
100
AcDbLine
 10
1367.021445475873
 20
-34.93546531089317
 30
0.0
 11
1367.021445475873
 21
-30.28546531089308
 31
0.0
  0
LINE
  5
53E7
102
{ACAD_REACTORS
330
548A
102
}
330
18
100
AcDbEntity
  8
中心線
  6
DASHDOT
 48
0.25
100
AcDbLine
 10
1360.021445475873
 20
-34.93546531089271
 30
0.0
 11
1360.021445475873
 21
-30.28546531089262
 31
0.0
  0
LINE
  5
53E8
102
{ACAD_REACTORS
330
548A
102
}
330
18
100
AcDbEntity
  8
中心線
  6
DASHDOT
 48
0.25
100
AcDbLine
 10
1357.771445475873
 20
-32.61046531089312
 30
0.0
 11
1369.271445475873
 21
-32.61046531089312
 31
0.0
  0
LINE
  5
53EC
102
{ACAD_REACTORS
330
548A
102
}
330
18
100
AcDbEntity
  8
ﾌﾞﾛｯｸ
  6
HIDDEN2
 48
5.0
370
    13
100
AcDbLine
 10
1373.521465050546
 20
-28.11046531089312
 30
0.0
 11
1370.521465050546
 21
-28.11046531089312
 31
0.0
  0
DIMENSION
  5
5520
330
18
100
AcDbEntity
  8
寸法
100
AcDbDimension
  2
*D13
 10
1343.880417335898
 20
34.3054846156224
 30
0.0
 11
1341.880417335898
 21
28.05548461562262
 31
0.0
 70
    32
 71
     5
 42
12.5
  3
STANDARD
100
AcDbAlignedDimension
 13
1356.521445475873
 23
21.8054846156224
 33
0.0
 14
1356.521445475873
 24
34.3054846156224
 34
0.0
 50
270.0
100
AcDbRotatedDimension
1001
ACAD
1000
DSTYLE
1002
{
1070
   340
1005
35
1070
    41
1040
1.5
1070
    42
1040
0.5
1070
    43
1040
5.0
1070
    44
1040
0.75
1070
    73
1070
     0
1070
    74
1070
     0
1070
    77
1070
     1
1070
    78
1070
     9
1070
    79
1070
     2
1070
   140
1040
3.0
1070
   141
1040
2.5
1070
   143
1040
0.0394
1070
   147
1040
0.5
1070
   171
1070
     4
1070
   172
1070
     1
1070
   173
1070
     1
1070
   178
1070
     7
1070
   271
1070
     6
1070
   273
1070
     8
1070
   274
1070
     4
1070
   284
1070
     9
1070
   341
1005
24
1070
   343
1005
24
1070
   344
1005
24
1002
}
  0
LINE
  5
5521
330
18
100
AcDbEntity
  8
0
 62
     3
100
AcDbLine
 10
1378.521465050548
 20
23.80548461562149
 30
0.0
 11
1378.521465050548
 21
33.81310463086129
 31
0.0
  0
LINE
  5
5522
330
18
100
AcDbEntity
  8
0
 62
     3
100
AcDbLine
 10
1379.521465050548
 20
23.80548461562149
 30
0.0
 11
1379.521465050548
 21
33.81310463086129
 31
0.0
  0
LINE
  5
5523
330
18
100
AcDbEntity
  8
0
 62
     3
100
AcDbLine
 10
1422.521465050548
 20
23.80548461562148
 30
0.0
 11
1422.521465050548
 21
33.81310463086129
 31
0.0
  0
LWPOLYLINE
  5
5524
330
18
100
AcDbEntity
  8
ﾌﾞﾛｯｸ
 48
5.0
100
AcDbPolyline
 90
        5
 70
     0
 43
0.0
 10
1370.74254849911
 20
34.30548461562239
 10
1356.521445475873
 20
34.3054846156224
 10
1356.521445475873
 20
21.8054846156224
 10
1376.521445475873
 20
21.80548461562239
 10
1376.521445475873
 20
23.80548461562149
  0
LWPOLYLINE
  5
5526
330
18
100
AcDbEntity
  8
基板
100
AcDbPolyline
 90
        5
 70
     0
 43
0.0
 10
1368.521465050546
 20
26.82056420463616
 10
1368.521465050546
 20
23.80548461562149
 10
1423.521465050548
 20
23.80548461562148
 10
1423.521465050548
 20
33.80548461562148
 10
1375.16405359992
 20
33.8054846156231
  0
CIRCLE
  5
5527
330
18
100
AcDbEntity
  8
ｾﾑｽ
370
    30
100
AcDbCircle
 10
1372.021465050546
 20
28.8054846156224
 30
0.0
 40
3.0
  0
LINE
  5
5531
330
18
100
AcDbEntity
  8
A
  6
DASHED
 48
0.2
100
AcDbLine
 10
1357.371445475873
 20
21.8054846156224
 30
0.0
 11
1357.371445475873
 21
60.39185252677004
 31
0.0
  0
LINE
  5
5532
330
18
100
AcDbEntity
  8
A
  6
DASHED
 48
0.2
100
AcDbLine
 10
1363.671445475873
 20
21.8054846156224
 30
0.0
 11
1363.671445475873
 21
60.39185252677004
 31
0.0
  0
LEADER
  5
5534
330
18
100
AcDbEntity
  8
文字
 48
0.5
100
AcDbLeader
  3
ｺﾋﾟｰ - まこ-10
 40
3.578680203045685
 41
21.1979695431472
 76
     3
 10
1356.970259428216
 20
57.69970798334862
 30
0.0
 10
1350.813066733356
 20
70.46803135881129
 30
0.0
 10
1331.485134496491
 20
70.43875136188656
 30
0.0
211
-1.0
221
0.0000000000000001
231
0.0
213
-27.29070383634825
223
4.291760789555269
233
0.0
1001
ACAD
1000
DSTYLE
1002
{
1070
   147
1040
0.5
1070
    77
1070
     0
1002
}
  0
DIMENSION
  5
5539
330
18
100
AcDbEntity
  8
寸法
100
AcDbDimension
  2
*D14
 10
1343.883617536801
 20
37.30548461562239
 30
0.0
 11
1343.883617536801
 21
42.82325111308454
 31
0.0
 70
   160
 71
     5
 42
2.999999999999992
  3
STANDARD
100
AcDbAlignedDimension
 13
1356.521445475873
 23
34.3054846156224
 33
0.0
 14
1357.646443670542
 24
37.30548461562239
 34
0.0
 50
270.0
100
AcDbRotatedDimension
1001
ACAD
1000
DSTYLE
1002
{
1070
   340
1005
35
1070
     3
1000
(<>)
1070
    41
1040
1.5
1070
    42
1040
0.5
1070
    43
1040
5.0
1070
    44
1040
0.75
1070
    73
1070
     0
1070
    74
1070
     0
1070
    77
1070
     3
1070
    78
1070
     9
1070
    79
1070
     2
1070
   140
1040
3.0
1070
   141
1040
2.5
1070
   143
1040
0.0394
1070
   147
1040
0.5
1070
   171
1070
     4
1070
   172
1070
     1
1070
   173
1070
     1
1070
   178
1070
     7
1070
   273
1070
     8
1070
   274
1070
     4
1070
   284
1070
     9
1070
   341
1005
24
1070
   343
1005
24
1070
   344
1005
24
1002
}
  0
LINE
  5
553A
330
18
100
AcDbEntity
  8
0
  6
DASHED
 48
0.05
100
AcDbLine
 10
1357.396443670541
 20
36.80548461562239
 30
0.0
 11
1357.646443670542
 21
37.30548461562239
 31
0.0
  0
LINE
  5
553B
330
18
100
AcDbEntity
  8
0
  6
DASHED
 48
0.05
100
AcDbLine
 10
1362.646443670543
 20
36.80548461562239
 30
0.0
 11
1362.396443670542
 21
37.30548446517787
 31
0.0
  0
LINE
  5
553C
330
18
100
AcDbEntity
  8
0
  6
DASHED
 48
0.05
100
AcDbLine
 10
1364.396443971432
 20
36.80548461562239
 30
0.0
 11
1364.646443670543
 21
37.30548461562239
 31
0.0
  0
LINE
  5
553D
330
18
100
AcDbEntity
  8
0
  6
DASHED
 48
0.05
100
AcDbLine
 10
1369.646443670542
 20
36.80548461562285
 30
0.0
 11
1369.396443670543
 21
37.3054844651779
 31
0.0
  0
LINE
  5
553E
330
18
100
AcDbEntity
  8
0
  6
DASHED
 48
0.05
100
AcDbLine
 10
1362.396443670542
 20
37.30548446517787
 30
0.0
 11
1357.646443670542
 21
37.30548461562239
 31
0.0
  0
LINE
  5
553F
330
18
100
AcDbEntity
  8
0
  6
DASHED
 48
0.05
100
AcDbLine
 10
1369.396443670543
 20
37.30548446517789
 30
0.0
 11
1364.646443670543
 21
37.30548461562194
 31
0.0
  0
LINE
  5
554A
330
18
100
AcDbEntity
  8
0
  6
DASHED
 48
0.05
100
AcDbLine
 10
1362.646443670543
 20
36.80548461562239
 30
0.0
 11
1357.396443670541
 21
36.80548461562239
 31
0.0
  0
LINE
  5
554B
330
18
100
AcDbEntity
  8
0
 48
0.5
100
AcDbLine
 10
1362.646445475873
 20
34.30548461562239
 30
0.0
 11
1357.396445475872
 21
34.3054846156224
 31
0.0
  0
LINE
  5
554C
330
18
100
AcDbEntity
  8
ｾﾑｽ
370
    30
100
AcDbLine
 10
1370.960804878767
 20
27.74482444384239
 30
0.0
 11
1373.082125222327
 21
29.86614478740239
 31
0.0
  0
LINE
  5
554D
330
18
100
AcDbEntity
  8
ｾﾑｽ
370
    30
100
AcDbLine
 10
1373.082125222327
 20
27.74482444384239
 30
0.0
 11
1370.960804878767
 21
29.86614478740239
 31
0.0
  0
LINE
  5
554E
330
18
100
AcDbEntity
  8
0
  6
DASHED
 48
0.05
100
AcDbLine
 10
1362.646443670543
 20
36.80548461562239
 30
0.0
 11
1362.646445475873
 21
34.30548461562239
 31
0.0
  0
LINE
  5
554F
330
18
100
AcDbEntity
  8
0
  6
DASHED
 48
0.05
100
AcDbLine
 10
1369.646443670542
 20
36.80548461562285
 30
0.0
 11
1364.396443670542
 21
36.80548461562239
 31
0.0
  0
LINE
  5
5550
330
18
100
AcDbEntity
  8
0
  6
DASHED
 48
0.05
100
AcDbLine
 10
1364.396443971432
 20
36.80548461562239
 30
0.0
 11
1364.396445475872
 21
34.30548461562239
 31
0.0
  0
LINE
  5
5551
330
18
100
AcDbEntity
  8
0
  6
DASHED
 48
0.05
100
AcDbLine
 10
1369.646443670542
 20
36.80548461562285
 30
0.0
 11
1369.646445475873
 21
34.30548461562239
 31
0.0
  0
LINE
  5
5552
330
18
100
AcDbEntity
  8
0
 48
0.5
100
AcDbLine
 10
1369.646445475873
 20
34.30548461562239
 30
0.0
 11
1364.396445475873
 21
34.30548461562239
 31
0.0
  0
LWPOLYLINE
  5
5553
330
18
100
AcDbEntity
  8
基板
100
AcDbPolyline
 90
        2
 70
     0
 43
0.0
 10
1370.895908851169
 20
33.80548461562325
 10
1368.521465050546
 20
33.80548461562332
  0
LWPOLYLINE
  5
5554
330
18
100
AcDbEntity
  8
基板
100
AcDbPolyline
 90
        2
 70
     0
 43
0.0
 10
1368.521465050546
 20
33.80548461562332
 10
1368.521465050546
 20
30.82930304842367
  0
LINE
  5
5555
330
18
100
AcDbEntity
  8
0
  6
DASHED
 48
0.05
100
AcDbLine
 10
1357.39644397143
 20
36.80548461562239
 30
0.0
 11
1357.396445475872
 21
34.3054846156224
 31
0.0
  0
SPLINE
  5
5556
330
18
100
AcDbEntity
  8
0
100
AcDbSpline
210
0.0
220
0.0
230
1.0
 70
     8
 71
     3
 72
    10
 73
     6
 74
     0
 42
0.0000000001
 43
0.0000000001
 40
20.52640604602157
 40
20.52640604602157
 40
20.52640604602157
 40
20.52640604602157
 40
34.65579117315778
 40
51.98368675973586
 40
69.31158234631556
 40
69.31158234631556
 40
69.31158234631556
 40
69.31158234631556
 10
1350.521445475873
 20
-10.61814528835184
 30
0.0
 10
1354.734014225813
 20
-9.559414424983302
 30
0.0
 10
1364.112763300902
 20
-2.525352618667582
 30
0.0
 10
1378.657692701136
 20
8.383344431509669
 30
0.0
 10
1388.990053351433
 20
0.6340739437879322
 30
0.0
 10
1394.156233676581
 20
-3.240561300073117
 30
0.0
  0
LINE
  5
5557
330
18
100
AcDbEntity
  8
A
  6
PHANTOM
 48
5.0
100
AcDbLine
 10
1450.521445475873
 20
21.80548461562238
 30
0.0
 11
1355.521445475873
 21
21.8054846156224
 31
0.0
  0
SPLINE
  5
5558
330
18
100
AcDbEntity
  8
0
100
AcDbSpline
210
0.0
220
0.0
230
1.0
 70
     8
 71
     3
 72
    11
 73
     7
 74
     0
 42
0.0000000001
 43
0.0000000001
 40
0.0
 40
0.0
 40
0.0
 40
0.0
 40
1.397542485937368
 40
2.795084971874737
 40
4.192627457812106
 40
5.533455748120923
 40
5.533455748120923
 40
5.533455748120923
 40
5.533455748120923
 10
1394.156233676581
 20
-3.240561300073117
 30
0.0
 10
1399.322414001729
 20
-7.115196543934068
 30
0.0
 10
1409.654774652024
 20
-14.86446703165592
 30
0.0
 10
1425.153315627468
 20
-3.240561300073125
 30
0.0
 10
1440.442205902083
 20
8.226106405889083
 30
0.0
 10
1450.564915851551
 20
0.9421690597549385
 30
0.0
 10
1455.521445475873
 20
-2.769106170338389
 30
0.0
  0
LINE
  5
5559
330
18
100
AcDbEntity
  8
A
  6
PHANTOM
 48
5.0
100
AcDbLine
 10
1450.521445475873
 20
0.7955258235019045
 30
0.0
 11
1450.521445475873
 21
21.80548461562238
 31
0.0
  0
LINE
  5
555E
330
18
100
AcDbEntity
  8
A
  6
PHANTOM
 48
5.0
100
AcDbLine
 10
1435.521445475873
 20
3.375531624309587
 30
0.0
 11
1435.521445475873
 21
21.80548461562239
 31
0.0
  0
LINE
  5
555F
330
18
100
AcDbEntity
  8
A
  6
PHANTOM
 48
5.0
100
AcDbLine
 10
1375.521445475873
 20
4.064832866777898
 30
0.0
 11
1375.521445475873
 21
21.80548461562239
 31
0.0
  0
LINE
  5
5560
330
18
100
AcDbEntity
  8
A
  6
PHANTOM
 48
5.0
100
AcDbLine
 10
1355.521445475873
 20
-8.505130166517183
 30
0.0
 11
1355.521445475873
 21
21.8054846156224
 31
0.0
  0
LINE
  5
5561
330
18
100
AcDbEntity
  8
0
  6
DASHED
 48
0.05
100
AcDbLine
 10
1361.521445475873
 20
18.30548461562239
 30
0.0
 11
1358.521445475873
 21
18.30548461562239
 31
0.0
  0
LINE
  5
5562
330
18
100
AcDbEntity
  8
0
  6
DASHED
 48
0.05
100
AcDbLine
 10
1361.271445475873
 20
16.30548461562239
 30
0.0
 11
1358.771445475873
 21
16.30548461562239
 31
0.0
  0
LINE
  5
5563
330
18
100
AcDbEntity
  8
0
  6
DASHED
 48
0.05
100
AcDbLine
 10
1360.021445475873
 20
15.58379677913536
 30
0.0
 11
1358.771445475873
 21
16.30548461562239
 31
0.0
  0
LINE
  5
5564
330
18
100
AcDbEntity
  8
0
  6
DASHED
 48
0.05
100
AcDbLine
 10
1368.521445475873
 20
18.30548461562239
 30
0.0
 11
1365.521445475873
 21
18.30548461562239
 31
0.0
  0
LINE
  5
5565
330
18
100
AcDbEntity
  8
0
  6
DASHED
 48
0.05
100
AcDbLine
 10
1368.271445475873
 20
16.30548461562239
 30
0.0
 11
1365.771445475873
 21
16.30548461562239
 31
0.0
  0
LINE
  5
5566
330
18
100
AcDbEntity
  8
0
  6
DASHED
 48
0.05
100
AcDbLine
 10
1367.021445475873
 20
15.58379677913536
 30
0.0
 11
1368.271445475873
 21
16.30548461562239
 31
0.0
  0
LINE
  5
5567
330
18
100
AcDbEntity
  8
0
  6
DASHED
 48
0.05
100
AcDbLine
 10
1368.521445475873
 20
18.30548461562239
 30
0.0
 11
1368.271445475873
 21
17.87247191373035
 31
0.0
  0
LINE
  5
5568
330
18
100
AcDbEntity
  8
0
  6
DASHED
 48
0.05
100
AcDbLine
 10
1367.021445475873
 20
15.58379677913536
 30
0.0
 11
1365.771445475873
 21
16.30548461562239
 31
0.0
  0
LINE
  5
5569
330
18
100
AcDbEntity
  8
0
  6
DASHED
 48
0.05
100
AcDbLine
 10
1365.521445475873
 20
18.30548461562239
 30
0.0
 11
1365.771445475873
 21
17.87247191373035
 31
0.0
  0
LINE
  5
556A
330
18
100
AcDbEntity
  8
0
  6
DASHED
 48
0.05
100
AcDbLine
 10
1360.021445475873
 20
15.58379677913536
 30
0.0
 11
1361.271445475873
 21
16.30548461562239
 31
0.0
  0
LINE
  5
556B
330
18
100
AcDbEntity
  8
0
  6
DASHED
 48
0.05
100
AcDbLine
 10
1361.521445475873
 20
18.30548461562239
 30
0.0
 11
1361.271445475873
 21
17.87247191373035
 31
0.0
  0
LINE
  5
556C
330
18
100
AcDbEntity
  8
0
  6
DASHED
 48
0.05
100
AcDbLine
 10
1368.271445475873
 20
21.80548461562239
 30
0.0
 11
1368.271445475873
 21
16.30548461562239
 31
0.0
  0
LINE
  5
556D
330
18
100
AcDbEntity
  8
0
  6
DASHED
 48
0.05
100
AcDbLine
 10
1368.521445475873
 20
21.80548461562239
 30
0.0
 11
1368.521445475873
 21
18.30548461562239
 31
0.0
  0
LINE
  5
556E
330
18
100
AcDbEntity
  8
0
  6
DASHED
 48
0.05
100
AcDbLine
 10
1365.521445475873
 20
21.80548461562239
 30
0.0
 11
1365.521445475873
 21
18.30548461562239
 31
0.0
  0
LINE
  5
556F
330
18
100
AcDbEntity
  8
0
  6
DASHED
 48
0.05
100
AcDbLine
 10
1365.771445475873
 20
21.80548461562239
 30
0.0
 11
1365.771445475873
 21
16.30548461562239
 31
0.0
  0
LINE
  5
5570
330
18
100
AcDbEntity
  8
0
  6
DASHED
 48
0.05
100
AcDbLine
 10
1361.271445475873
 20
21.8054846156224
 30
0.0
 11
1361.271445475873
 21
16.30548461562239
 31
0.0
  0
LINE
  5
5571
330
18
100
AcDbEntity
  8
0
  6
DASHED
 48
0.05
100
AcDbLine
 10
1361.521445475873
 20
21.8054846156224
 30
0.0
 11
1361.521445475873
 21
18.30548461562239
 31
0.0
  0
LINE
  5
5572
330
18
100
AcDbEntity
  8
0
  6
DASHED
 48
0.05
100
AcDbLine
 10
1358.521445475873
 20
18.30548461562239
 30
0.0
 11
1358.771445475873
 21
17.87247191373035
 31
0.0
  0
LINE
  5
5573
330
18
100
AcDbEntity
  8
0
  6
DASHED
 48
0.05
100
AcDbLine
 10
1358.521445475873
 20
21.8054846156224
 30
0.0
 11
1358.521445475873
 21
18.30548461562239
 31
0.0
  0
LINE
  5
5574
330
18
100
AcDbEntity
  8
0
  6
DASHED
 48
0.05
100
AcDbLine
 10
1358.771445475873
 20
21.8054846156224
 30
0.0
 11
1358.771445475873
 21
16.30548461562239
 31
0.0
  0
MTEXT
  5
5602
330
18
100
AcDbEntity
  8
文字
100
AcDbMText
 10
1391.793898777693
 20
5.601365284476429
 30
0.0
 40
5.0
 41
0.0
 71
     7
 72
     1
  1
{\fＭＳ Ｐゴシック|b0|i0|c128|p50;ｺｲﾙﾕﾆｯﾄ}
  7
MSｺﾞｼｯｸ
 73
     1
 44
1.0
1001
ACAD
1000
MTEXTBEGIN
1070
    73
1070
     1
1070
    44
1040
0.8
1070
    74
1070
     0
1000
MTEXTEND
1000
MTEXTBEGIN
1070
    73
1070
     1
1070
    44
1040
0.8
1070
    74
1070
     0
1000
MTEXTEND
  0
MTEXT
  5
5605
330
18
100
AcDbEntity
  8
文字
 62
    40
 48
0.5
100
AcDbMText
 10
1332.64551606559
 20
75.09973965380692
 30
0.0
 40
3.0
 41
0.0
 71
     1
 72
     1
  1
ﾓｰﾀ動力線
  7
MSｺﾞｼｯｸ
 73
     1
 44
1.0
  0
MTEXT
  5
5609
330
18
100
AcDbEntity
  8
文字
 62
    40
 48
0.5
100
AcDbMText
 10
1325.490139845502
 20
-56.37610250755597
 30
0.0
 40
3.0
 41
0.0
 71
     1
 72
     1
  1
2-φ3.2貫通
  7
MSｺﾞｼｯｸ
 73
     1
 44
1.0
  0
LINE
  5
560B
330
18
100
AcDbEntity
  8
基板
 48
0.5
100
AcDbLine
 10
1379.521465050548
 20
-23.01046531089316
 30
0.0
 11
1422.521465050548
 21
-23.0104653108927
 31
0.0
  0
LINE
  5
560C
330
18
100
AcDbEntity
  8
基板
 48
0.5
100
AcDbLine
 10
1422.521465050548
 20
-23.0104653108927
 30
0.0
 11
1423.521465050548
 21
-26.5104653108927
 31
0.0
  0
LINE
  5
560D
330
18
100
AcDbEntity
  8
基板
 48
0.5
100
AcDbLine
 10
1423.521465050548
 20
-26.5104653108927
 30
0.0
 11
1378.521465050548
 21
-26.51046531089316
 31
0.0
  0
LINE
  5
560E
330
18
100
AcDbEntity
  8
基板
 48
0.5
100
AcDbLine
 10
1378.521465050548
 20
-26.51046531089316
 30
0.0
 11
1379.521465050548
 21
-23.01046531089316
 31
0.0
  0
LINE
  5
560F
330
18
100
AcDbEntity
  8
寸法
100
AcDbLine
 10
1376.521445475873
 20
-37.61046531089312
 30
0.0
 11
1376.521445475873
 21
-53.03371573216424
 31
0.0
  0
LINE
  5
5610
330
18
100
AcDbEntity
  8
寸法
100
AcDbLine
 10
1423.521465050548
 20
-28.61046531089261
 30
0.0
 11
1423.521465050548
 21
-53.03371573216424
 31
0.0
  0
LINE
  5
5611
330
18
100
AcDbEntity
  8
寸法
100
AcDbLine
 10
1378.021445475873
 20
-52.28371573216424
 30
0.0
 11
1422.021465050548
 21
-52.28371573216424
 31
0.0
  0
INSERT
  5
5612
330
18
100
AcDbEntity
  8
寸法
100
AcDbBlockReference
  2
_OPEN
 10
1376.521445475873
 20
-52.28371573216424
 30
0.0
 41
1.5
 42
1.5
 43
1.5
 50
180.0
  0
INSERT
  5
5613
330
18
100
AcDbEntity
  8
寸法
100
AcDbBlockReference
  2
_OPEN
 10
1423.521465050548
 20
-52.28371573216424
 30
0.0
 41
1.5
 42
1.5
 43
1.5
  0
MTEXT
  5
5614
330
18
100
AcDbEntity
  8
寸法
 62
     7
100
AcDbMText
 10
1400.021455263211
 20
-50.28371573216425
 30
0.0
 40
3.0
 41
0.0
 71
     5
 72
     1
  1
\A1;47
  7
MSｺﾞｼｯｸ
 73
     1
 44
1.0
  0
LINE
  5
5616
330
18
100
AcDbEntity
  8
基板
 48
0.5
100
AcDbLine
 10
1368.521465050548
 20
-26.51046531089316
 30
0.0
 11
1368.521465050548
 21
-28.11046531089306
 31
0.0
  0
LINE
  5
5617
330
18
100
AcDbEntity
  8
基板
 48
0.5
100
AcDbLine
 10
1368.521465050548
 20
-28.11046531089306
 30
0.0
 11
1423.521465050548
 21
-28.11046531089261
 31
0.0
  0
LINE
  5
5618
330
18
100
AcDbEntity
  8
基板
 48
0.5
100
AcDbLine
 10
1423.521465050548
 20
-28.11046531089261
 30
0.0
 11
1423.521465050548
 21
-26.5104653108927
 31
0.0
  0
LINE
  5
5619
330
18
100
AcDbEntity
  8
基板
 48
0.5
100
AcDbLine
 10
1423.521465050548
 20
-26.5104653108927
 30
0.0
 11
1368.521465050548
 21
-26.51046531089316
 31
0.0
  0
LINE
  5
561A
330
18
100
AcDbEntity
  8
ﾌﾞﾛｯｸ
 48
5.0
100
AcDbLine
 10
1356.521445475873
 20
-28.11046531089312
 30
0.0
 11
1376.521445475873
 21
-28.11046531089312
 31
0.0
  0
LINE
  5
561B
330
18
100
AcDbEntity
  8
ﾌﾞﾛｯｸ
 48
5.0
100
AcDbLine
 10
1376.521445475873
 20
-28.11046531089312
 30
0.0
 11
1376.521445475873
 21
-37.11046531089312
 31
0.0
  0
LINE
  5
561C
330
18
100
AcDbEntity
  8
ﾌﾞﾛｯｸ
 48
5.0
100
AcDbLine
 10
1376.521445475873
 20
-37.11046531089312
 30
0.0
 11
1356.521445475873
 21
-37.11046531089312
 31
0.0
  0
LINE
  5
561D
330
18
100
AcDbEntity
  8
ﾌﾞﾛｯｸ
 48
5.0
100
AcDbLine
 10
1356.521445475873
 20
-37.11046531089312
 30
0.0
 11
1356.521445475873
 21
-28.11046531089312
 31
0.0
  0
LINE
  5
5621
330
18
100
AcDbEntity
  8
寸法
100
AcDbLine
 10
1423.021465050548
 20
-23.0104653108927
 30
0.0
 11
1430.991056616723
 21
-23.0104653108927
 31
0.0
  0
LINE
  5
5622
330
18
100
AcDbEntity
  8
寸法
100
AcDbLine
 10
1424.021465050548
 20
-28.11046531089261
 30
0.0
 11
1430.991056616723
 21
-28.11046531089261
 31
0.0
  0
LINE
  5
5623
330
18
100
AcDbEntity
  8
寸法
100
AcDbLine
 10
1430.241056616723
 20
-24.5104653108927
 30
0.0
 11
1430.241056616723
 21
-26.61046531089261
 31
0.0
  0
INSERT
  5
5624
330
18
100
AcDbEntity
  8
寸法
100
AcDbBlockReference
  2
_OPEN
 10
1430.241056616723
 20
-23.0104653108927
 30
0.0
 41
1.5
 42
1.5
 43
1.5
 50
90.0
  0
INSERT
  5
5625
330
18
100
AcDbEntity
  8
寸法
100
AcDbBlockReference
  2
_OPEN
 10
1430.241056616723
 20
-28.11046531089261
 30
0.0
 41
1.5
 42
1.5
 43
1.5
 50
270.0
  0
MTEXT
  5
5626
330
18
100
AcDbEntity
  8
寸法
 62
     7
100
AcDbMText
 10
1428.091056616723
 20
-25.56046531089243
 30
0.0
 40
3.0
 41
0.0
 71
     5
 72
     1
  1
\A1;(5)
  7
MSｺﾞｼｯｸ
 11
0.0000000000000001
 21
1.0
 31
0.0
 73
     1
 44
1.0
  0
LWPOLYLINE
  5
5637
330
18
100
AcDbEntity
  8
文字
100
AcDbPolyline
 90
        4
 70
     1
 43
0.0
 10
1295.883276165959
 20
109.1131114268168
 10
1610.791619563327
 20
109.1131114268168
 10
1610.791619563327
 20
-121.8312627725194
 10
1295.883276165959
 20
-121.8312627725194
  0
MTEXT
  5
569E
330
18
100
AcDbEntity
  8
CIRCUIT
 62
     7
100
AcDbMText
 10
1459.200409464158
 20
22.44019231254651
 30
0.0
 40
3.0
 41
0.0
 71
     7
 72
     1
  1
\U+203B　本センサのケーブルは固定用です。
  7
MSｺﾞｼｯｸ
 73
     1
 44
1.0
1001
ACAD
1000
MTEXTBEGIN
1070
    73
1070
     1
1070
    44
1040
0.8
1070
    74
1070
     0
1000
MTEXTEND
1000
MTEXTBEGIN
1070
    73
1070
     1
1070
    44
1040
0.8
1070
    74
1070
     0
1000
MTEXTEND
  0
LWPOLYLINE
  5
569F
330
18
100
AcDbEntity
  8
0
 48
0.5
100
AcDbPolyline
 90
        4
 70
     1
 43
0.0
 10
1455.977917666442
 20
28.07652279361673
 10
1556.047293433785
 20
28.07652279361673
 10
1556.047293433785
 20
19.5015454296057
 10
1455.977917666442
 20
19.5015454296057
  0
ARC
  5
56D7
102
{ACAD_REACTORS
330
56EB
330
586C
102
}
330
18
100
AcDbEntity
  8
0
370
    30
100
AcDbCircle
 10
1350.608748264548
 20
54.3054846156224
 30
0.0
 40
23.6
100
AcDbArc
 50
0.0
 51
43.28303819960004
  0
ARC
  5
56D8
102
{ACAD_REACTORS
330
56EB
330
586C
102
}
330
18
100
AcDbEntity
  8
CENTER
 48
2.0
100
AcDbCircle
 10
1350.608748264548
 20
54.3054846156224
 30
0.0
 40
21.0
100
AcDbArc
 50
0.0
 51
47.90948317056737
  0
ARC
  5
56D9
102
{ACAD_REACTORS
330
56EB
330
586C
102
}
330
18
100
AcDbEntity
  8
0
370
    30
100
AcDbCircle
 10
1350.608748264548
 20
54.3054846156224
 30
0.0
 40
18.39999999999999
100
AcDbArc
 50
0.0
 51
42.7975971165934
  0
LINE
  5
56DA
102
{ACAD_REACTORS
330
56EB
330
586C
102
}
330
18
100
AcDbEntity
  8
CENTER
 48
2.0
100
AcDbLine
 10
1371.608748264548
 20
54.3054846156224
 30
0.0
 11
1371.608748264548
 21
52.21731394737487
 31
0.0
  0
SPLINE
  5
56DB
102
{ACAD_REACTORS
330
56EB
330
586C
102
}
330
18
100
AcDbEntity
  8
0
100
AcDbSpline
210
0.0
220
0.0
230
1.0
 70
     8
 71
     3
 72
    15
 73
    11
 74
     9
 42
0.0000000001
 43
0.0000000001
 44
0.0000000001
 40
0.0
 40
0.0
 40
0.0
 40
0.0
 40
1.133765210139828
 40
1.425571067544002
 40
2.051284944320074
 40
4.93422290962222
 40
6.972093565130872
 40
8.878290202793245
 40
9.500751037245702
 40
9.874702562883122
 40
9.874702562883122
 40
9.874702562883122
 40
9.874702562883122
 10
1369.008748264548
 20
54.3054846156224
 30
0.0
 10
1368.615570222196
 20
54.18682667027757
 30
0.0
 10
1368.121196928186
 20
54.03762881846049
 30
0.0
 10
1367.905025738701
 20
53.26733124476771
 30
0.0
 10
1369.521721038388
 20
52.92357714944423
 30
0.0
 10
1370.968550434823
 20
52.41944183637096
 30
0.0
 10
1373.236164586465
 20
51.69066195826805
 30
0.0
 10
1374.640452819516
 20
51.33155181648303
 30
0.0
 10
1375.649940557867
 20
51.05161071216674
 30
0.0
 10
1375.795419323179
 20
50.73964987557559
 30
0.0
 10
1375.850017206963
 20
50.62257161013549
 30
0.0
 11
1369.008748264548
 21
54.3054846156224
 31
0.0
 11
1368.046887888782
 21
53.70527784353949
 31
0.0
 11
1367.989473079165
 21
53.4191761167847
 31
0.0
 11
1368.543148845497
 21
53.12769541182014
 31
0.0
 11
1371.309416316214
 21
52.31584838667767
 31
0.0
 11
1373.25396017638
 21
51.70620424090301
 31
0.0
 11
1375.093088810479
 21
51.20501416850403
 31
0.0
 11
1375.657904567664
 21
50.94340252720572
 31
0.0
 11
1375.850017206963
 21
50.62257161013549
 31
0.0
  0
LINE
  5
56DC
102
{ACAD_REACTORS
330
56EB
330
586C
102
}
330
18
100
AcDbEntity
  8
0
100
AcDbLine
 10
1368.067619943971
 20
48.98941084085045
 30
0.0
 11
1367.99341611571
 21
53.40407179742619
 31
0.0
  0
LINE
  5
56DD
102
{ACAD_REACTORS
330
56EB
330
586C
102
}
330
18
100
AcDbEntity
  8
0
370
    30
100
AcDbLine
 10
1374.208748264549
 20
51.44250554281071
 30
0.0
 11
1374.208748264549
 21
54.3054846156224
 31
0.0
  0
SPLINE
  5
56DE
102
{ACAD_REACTORS
330
56EB
330
586C
102
}
330
18
100
AcDbEntity
  8
0
100
AcDbSpline
210
0.0
220
0.0
230
1.0
 70
     8
 71
     3
 72
    15
 73
    11
 74
     9
 42
0.0000000001
 43
0.0000000001
 44
0.0000000001
 40
0.0
 40
0.0
 40
0.0
 40
0.0
 40
1.499034603686761
 40
1.790840461092011
 40
2.416554337861778
 40
5.299492303167526
 40
7.337362958679617
 40
9.226363591835635
 40
9.895149180261721
 40
10.25000639398089
 40
10.25000639398089
 40
10.25000639398089
 40
10.25000639398089
 10
1374.787821298073
 20
38.51499274053056
 30
0.0
 10
1375.209433687345
 20
38.79550716209258
 30
0.0
 10
1375.713118207868
 20
39.13062722857909
 30
0.0
 10
1375.988534203016
 20
40.0131885613883
 30
0.0
 10
1374.361391636386
 20
40.37141473972063
 30
0.0
 10
1372.915363690309
 20
40.84070076728299
 30
0.0
 10
1370.677040777817
 20
41.6475764527501
 30
0.0
 10
1369.199393229797
 20
41.81773949300284
 30
0.0
 10
1368.237936674065
 20
42.22022369632718
 30
0.0
 10
1368.091250595117
 20
42.53703350659188
 30
0.0
 10
1368.040400227042
 20
42.64685916678685
 30
0.0
 11
1374.787821298073
 21
38.51499274053056
 31
0.0
 11
1375.842752650622
 21
39.57999254544207
 31
0.0
 11
1375.900167460231
 21
39.86609427219942
 31
0.0
 11
1375.346491693906
 21
40.15757497716426
 31
0.0
 11
1372.580224223185
 21
40.96942200230713
 31
0.0
 11
1370.635680363016
 21
41.57906614808168
 31
0.0
 11
1368.795105228522
 21
42.00404446087499
 31
0.0
 11
1368.215930508989
 21
42.33845559636655
 31
0.0
 11
1368.040400227042
 21
42.64685916678685
 31
0.0
  0
LWPOLYLINE
  5
56DF
102
{ACAD_REACTORS
330
56EB
330
586C
102
}
330
18
100
AcDbEntity
  8
0
370
    30
100
AcDbPolyline
 90
        4
 70
     0
 43
0.0
 10
1368.392039691907
 20
42.18555017863248
 10
1368.366315600511
 20
38.1208103183903
 10
1374.775377446714
 20
38.09747367813033
 10
1374.794290482432
 20
40.29165819853626
  0
SPLINE
  5
56E0
102
{ACAD_REACTORS
330
56EB
330
586C
102
}
330
18
100
AcDbEntity
  8
0
100
AcDbSpline
210
0.0
220
0.0
230
1.0
 70
     8
 71
     3
 72
    15
 73
    11
 74
     9
 42
0.0000000001
 43
0.0000000001
 44
0.0000000001
 40
0.0
 40
0.0
 40
0.0
 40
0.0
 40
1.787223353028586
 40
2.079029210433614
 40
2.704743087200241
 40
5.58768105250932
 40
7.625551708021411
 40
9.514552341177441
 40
10.18333792959924
 40
10.5381951433227
 40
10.5381951433227
 40
10.5381951433227
 40
10.5381951433227
 10
1374.22570884703
 20
45.22214091518169
 30
0.0
 10
1374.915332753181
 20
45.28205266717818
 30
0.0
 10
1375.717553831298
 20
45.35174640872307
 30
0.0
 10
1376.013704386142
 20
46.35903664490312
 30
0.0
 10
1374.392251056724
 20
46.70811242263723
 30
0.0
 10
1372.941569429226
 20
47.18488329353924
 30
0.0
 10
1370.704479773869
 20
47.98977544476149
 30
0.0
 10
1369.226594462866
 20
48.16032089595763
 30
0.0
 10
1368.265157609266
 20
48.56277341095315
 30
0.0
 10
1368.118470625657
 20
48.87958467625277
 30
0.0
 10
1368.067619943971
 20
48.98941084085318
 30
0.0
 11
1374.22570884703
 21
45.22214091518169
 31
0.0
 11
1375.869972367547
 21
45.92254421950629
 31
0.0
 11
1375.927387177156
 21
46.20864594626342
 31
0.0
 11
1375.373711410835
 21
46.50012665122843
 31
0.0
 11
1372.60744394011
 21
47.31197367637072
 31
0.0
 11
1370.662900079941
 21
47.92161782214527
 31
0.0
 11
1368.822324945447
 21
48.34659613493865
 31
0.0
 11
1368.243150225918
 21
48.68100727042794
 31
0.0
 11
1368.067619943971
 21
48.98941084085318
 31
0.0
  0
LINE
  5
56E1
102
{ACAD_REACTORS
330
56EB
330
586C
102
}
330
18
100
AcDbEntity
  8
0
100
AcDbLine
 10
1375.932438613901
 20
46.16756783102404
 30
0.0
 11
1375.850017206963
 21
50.62257161013555
 31
0.0
  0
LWPOLYLINE
  5
56E2
102
{ACAD_REACTORS
330
56EB
330
586C
102
}
330
18
100
AcDbEntity
  8
0
370
    30
100
AcDbPolyline
 90
        2
 70
     0
 43
0.0
 10
1368.982737154676
 20
48.2948589283596
 10
1368.976837744894
 20
46.67467360127462
  0
LWPOLYLINE
  5
56E3
102
{ACAD_REACTORS
330
56EB
330
586C
102
}
330
18
100
AcDbEntity
  8
0
370
    30
100
AcDbPolyline
 90
        2
 70
     0
 43
0.0
 10
1374.221100082193
 20
45.08935160384807
 10
1374.227297448713
 20
46.7913663272585
  0
LINE
  5
56E4
102
{ACAD_REACTORS
330
56EB
330
586C
102
}
330
18
100
AcDbEntity
  8
0
100
AcDbLine
 10
1375.905218896978
 20
39.82501615695996
 30
0.0
 11
1375.822797490043
 21
44.28001993607146
 31
0.0
  0
LINE
  5
56E5
102
{ACAD_REACTORS
330
56EB
330
586C
102
}
330
18
100
AcDbEntity
  8
0
100
AcDbLine
 10
1368.040400227044
 20
42.64685916678404
 30
0.0
 11
1367.966196398783
 21
47.06152012336487
 31
0.0
  0
SPLINE
  5
56E6
102
{ACAD_REACTORS
330
56EB
330
586C
102
}
330
18
100
AcDbEntity
  8
0
100
AcDbSpline
210
0.0
220
0.0
230
1.0
 70
     8
 71
     3
 72
    15
 73
    11
 74
     9
 42
0.0000000001
 43
0.0000000001
 44
0.0000000001
 40
0.0
 40
0.0
 40
0.0
 40
0.0
 40
1.133765210141349
 40
1.425571067547809
 40
2.051284944314515
 40
4.934222909624202
 40
6.972093565136377
 40
8.878290202793969
 40
9.500751037247383
 40
9.874702562890897
 40
9.874702562890897
 40
9.874702562890897
 40
9.874702562890897
 10
1368.981528547626
 20
47.9629329415584
 30
0.0
 10
1368.588350505273
 20
47.84427499621514
 30
0.0
 10
1368.093977211261
 20
47.69507714439982
 30
0.0
 10
1367.877806021776
 20
46.92477957070833
 30
0.0
 10
1369.49450132145
 20
46.58102547536774
 30
0.0
 10
1370.941330717896
 20
46.07689016230954
 30
0.0
 10
1373.208944869535
 20
45.34811028419867
 30
0.0
 10
1374.613233102595
 20
44.98900014242672
 30
0.0
 10
1375.622720840936
 20
44.70905903809987
 30
0.0
 10
1375.768199606258
 20
44.39709820151146
 30
0.0
 10
1375.822797490045
 20
44.28001993607132
 30
0.0
 11
1368.981528547626
 21
47.9629329415584
 31
0.0
 11
1368.019668171857
 21
47.36272616947845
 31
0.0
 11
1367.96225336224
 21
47.07662444272132
 31
0.0
 11
1368.515929128561
 21
46.78514373775614
 31
0.0
 11
1371.282196599286
 21
45.97329671261168
 31
0.0
 11
1373.226740459454
 21
45.36365256683684
 31
0.0
 11
1375.06586909355
 21
44.8624624944427
 31
0.0
 11
1375.630684850735
 21
44.60085085314211
 31
0.0
 11
1375.822797490045
 21
44.28001993607132
 31
0.0
  0
LINE
  5
56E7
102
{ACAD_REACTORS
330
56EB
330
586C
102
}
330
18
100
AcDbEntity
  8
0
370
    30
100
AcDbLine
 10
1369.008748264548
 20
53.01604624811751
 30
0.0
 11
1369.008748264548
 21
54.3054846156224
 31
0.0
  0
SPLINE
  5
56E8
102
{ACAD_REACTORS
330
56EB
330
586C
102
}
330
18
100
AcDbEntity
  8
寸法
100
AcDbSpline
210
0.0
220
0.0
230
1.0
 70
     8
 71
     3
 72
    11
 73
     7
 74
     0
 42
0.0000000001
 43
0.0000000001
 40
0.0
 40
0.0
 40
0.0
 40
0.0
 40
2.15243268281942
 40
4.858663225114474
 40
8.346691592514048
 40
9.786589509863263
 40
9.786589509863263
 40
9.786589509863263
 40
9.786589509863263
 10
1372.430624102483
 20
38.11545586909007
 30
0.0
 10
1372.449437472775
 20
37.39508479700897
 30
0.0
 10
1372.491904691892
 20
35.76899889695096
 30
0.0
 10
1373.494377725034
 20
33.1053878487512
 30
0.0
 10
1375.289819127986
 20
31.17143024132742
 30
0.0
 10
1376.723071000247
 20
30.3683571868372
 30
0.0
 10
1377.157381005585
 20
30.16216871588891
 30
0.0
  0
SPLINE
  5
56E9
102
{ACAD_REACTORS
330
56EB
330
586C
102
}
330
18
100
AcDbEntity
  8
寸法
100
AcDbSpline
210
0.0
220
0.0
230
1.0
 70
     8
 71
     3
 72
    10
 73
     6
 74
     0
 42
0.0000000001
 43
0.0000000001
 40
0.0
 40
0.0
 40
0.0
 40
0.0
 40
4.681442706891107
 40
10.40492595866938
 40
11.3256954715916
 40
11.3256954715916
 40
11.3256954715916
 40
11.3256954715916
 10
1371.570846523612
 20
38.10914199826031
 30
0.0
 10
1371.641912217374
 20
36.4985420800546
 30
0.0
 10
1371.79986209054
 20
32.91883942273035
 30
0.0
 10
1374.897492516147
 20
30.16238243381792
 30
0.0
 10
1376.879974657395
 20
29.09457511266024
 30
0.0
 10
1377.157381005585
 20
28.955476194226
 30
0.0
  0
SPLINE
  5
56EA
102
{ACAD_REACTORS
330
56EB
330
586C
102
}
330
18
100
AcDbEntity
  8
寸法
100
AcDbSpline
210
0.0
220
0.0
230
1.0
 70
     8
 71
     3
 72
     9
 73
     5
 74
     0
 42
0.0000000001
 43
0.0000000001
 40
0.0
 40
0.0
 40
0.0
 40
0.0
 40
4.754009779385566
 40
8.179722643469077
 40
8.179722643469077
 40
8.179722643469077
 40
8.179722643469077
 10
1373.156758867689
 20
38.10336738307547
 30
0.0
 10
1373.37584198266
 20
36.45159495197908
 30
0.0
 10
1373.752795165234
 20
33.6095645432315
 30
0.0
 10
1376.104590988786
 20
31.92060055634524
 30
0.0
 10
1377.157381005585
 20
31.39965948402532
 30
0.0
  0
CIRCLE
  5
56F0
330
18
100
AcDbEntity
  8
ｾﾑｽ
370
    30
100
AcDbCircle
 10
1372.021465050546
 20
28.8054846156224
 30
0.0
 40
4.044608180448951
  0
DIMENSION
  5
5733
102
{ACAD_REACTORS
330
586C
102
}
330
18
100
AcDbEntity
  8
寸法
100
AcDbDimension
  2
*D15
 10
1369.682535687473
 20
68.20334896037286
 30
0.0
 11
1377.102079814282
 21
73.60950220555037
 31
0.0
 70
   161
 71
     5
 42
5.200000000000045
  3
STANDARD
100
AcDbAlignedDimension
 13
1365.479836763778
 23
65.14110766407168
 33
0.0
 14
1369.682535687473
 24
68.20334896037256
 34
0.0
1001
ACAD
1000
DSTYLE
1002
{
1070
   340
1005
35
1070
     3
1000
（φ<>）
1070
    41
1040
1.5
1070
    42
1040
0.5
1070
    43
1040
5.0
1070
    44
1040
0.75
1070
    73
1070
     0
1070
    74
1070
     0
1070
    77
1070
     1
1070
    78
1070
     9
1070
    79
1070
     2
1070
   140
1040
3.0
1070
   141
1040
2.5
1070
   143
1040
0.0394
1070
   147
1040
0.5
1070
   171
1070
     4
1070
   172
1070
     1
1070
   173
1070
     1
1070
   178
1070
     7
1070
   273
1070
     8
1070
   274
1070
     4
1070
   284
1070
     9
1070
   341
1005
24
1070
   343
1005
24
1070
   344
1005
24
1002
}
  0
DIMENSION
  5
5810
102
{ACAD_REACTORS
330
586C
102
}
330
18
100
AcDbEntity
  8
寸法
100
AcDbDimension
  2
*D16
 10
1350.608748264547
 20
54.30548461562267
 30
0.0
 11
1389.144401547862
 21
72.74759518383223
 31
0.0
 70
    36
 71
     5
 42
21.00000000000113
  3
STANDARD
100
AcDbRadialDimension
 15
1370.009843108308
 25
62.34274278389364
 35
0.0
 40
0.0
1001
ACAD
1000
DSTYLE
1002
{
1070
   340
1005
35
1070
     3
1000
（曲げ半径MIN.）
1070
    41
1040
1.5
1070
    42
1040
0.5
1070
    43
1040
5.0
1070
    44
1040
0.75
1070
    73
1070
     0
1070
    74
1070
     0
1070
    77
1070
     1
1070
    78
1070
     9
1070
    79
1070
     2
1070
   140
1040
3.0
1070
   141
1040
0.0
1070
   143
1040
0.0394
1070
   147
1040
0.5
1070
   171
1070
     4
1070
   172
1070
     0
1070
   173
1070
     1
1070
   178
1070
     7
1070
   271
1070
     6
1070
   273
1070
     8
1070
   274
1070
     4
1070
   284
1070
     9
1070
   341
1005
24
1070
   343
1005
24
1070
   344
1005
24
1002
}
  0
DIMENSION
  5
583B
330
18
100
AcDbEntity
  8
寸法
100
AcDbDimension
  2
*D17
 10
1334.555785315941
 20
54.30548461562241
 30
0.0
 11
1334.555785315941
 21
15.12020542780536
 31
0.0
 70
   160
 71
     5
 42
20.0
  3
STANDARD
100
AcDbAlignedDimension
 13
1356.521445475873
 23
34.3054846156224
 33
0.0
 14
1371.608748264548
 24
54.3054846156224
 34
0.0
 50
90.0
100
AcDbRotatedDimension
1001
ACAD
1000
DSTYLE
1002
{
1070
   340
1005
35
1070
     3
1000
（曲げ起点MIN.）
1070
    41
1040
1.5
1070
    42
1040
0.5
1070
    43
1040
5.0
1070
    44
1040
0.75
1070
    73
1070
     0
1070
    74
1070
     0
1070
    77
1070
     1
1070
    78
1070
     9
1070
    79
1070
     2
1070
   140
1040
3.0
1070
   141
1040
2.5
1070
   143
1040
0.0394
1070
   147
1040
0.5
1070
   171
1070
     4
1070
   172
1070
     1
1070
   173
1070
     1
1070
   178
1070
     7
1070
   273
1070
     8
1070
   274
1070
     4
1070
   284
1070
     9
1070
   341
1005
24
1070
   343
1005
24
1070
   344
1005
24
1002
}
  0
LEADER
  5
5905
330
18
100
AcDbEntity
  8
文字
 48
0.5
100
AcDbLeader
  3
ｺﾋﾟｰ - まこ-10
 40
3.578680203045685
 41
21.1979695431472
 76
     3
 10
1365.85159378618
 20
38.56363583085704
 30
0.0
 10
1347.528277280378
 20
58.50476375271369
 30
0.0
 10
1310.479072625529
 20
58.53404374963832
 30
0.0
211
-1.0
221
0.0
231
0.0
210
0.0
220
0.0
230
-1.0
213
-27.29070383634825
223
-4.291760789555265
233
0.0
1001
ACAD
1000
DSTYLE
1002
{
1070
   147
1040
0.5
1070
    77
1070
     0
1002
}
  0
MTEXT
  5
5906
330
18
100
AcDbEntity
  8
文字
 62
    40
 48
0.5
100
AcDbMText
 10
1310.956129761071
 20
62.89956254787956
 30
0.0
 40
3.0
 41
0.0
 71
     1
 72
     1
  1
M3×16六角ﾎﾞﾙﾄ取付
  7
MSｺﾞｼｯｸ
 73
     1
 44
1.0
  0
HATCH
  5
5947
330
18
100
AcDbEntity
  8
0
100
AcDbHatch
 10
0.0
 20
0.0
 30
0.0
210
0.0
220
0.0
230
1.0
  2
HONEY
 70
     0
 71
     0
 91
        1
 92
        5
 93
        4
 72
     4
 94
        3
 73
     0
 74
     0
 95
       11
 96
        7
 40
2.905232063872722
 40
2.905232063872722
 40
2.905232063872722
 40
2.905232063872722
 40
5.299492303167526
 40
7.337362958679617
 40
9.226363591835635
 40
9.656797686844008
 40
9.656797686844008
 40
9.656797686844008
 40
9.656797686844008
 10
1374.794290482431
 20
40.2916581985386
 10
1373.940157990425
 20
40.50869302413522
 10
1372.754739727117
 20
40.89860285535066
 10
1370.677040777817
 20
41.6475764527501
 10
1369.276030696265
 20
41.8089140702497
 10
1368.512242418606
 20
42.1075612311649
 10
1368.392039691907
 20
42.18555017863415
 72
     1
 10
1368.392039691907
 20
42.1855501786342
 11
1368.36631560051
 21
38.1208103183903
 72
     1
 10
1368.36631560051
 20
38.1208103183903
 11
1374.775377446714
 21
38.09747367813033
 72
     1
 10
1374.775377446714
 20
38.09747367813033
 11
1374.794290482432
 21
40.2916581985385
 97
        0
 75
     0
 76
     1
 52
0.0
 41
0.3
 77
     0
 78
     3
 53
0.0
 43
0.0
 44
0.0
 45
1.428749999999999
 46
0.8248889999999999
 79
     2
 49
0.9524999999999998
 49
-1.904999999999999
 53
119.9999999999999
 43
0.0
 44
0.0
 45
-1.428749829302341
 46
0.824889295657017
 79
     2
 49
0.9524999999999998
 49
-1.904999999999999
 53
60.0
 43
0.0
 44
0.0
 45
0.0000001706976584
 46
1.649778295657016
 79
     2
 49
-1.904999999999999
 49
0.9524999999999998
 47
0.0593525964807919
 98
        1
 10
1370.27255235634
 20
40.3745312406179
  0
LINE
  5
596D
330
18
100
AcDbEntity
  8
CENTER
 48
2.0
100
AcDbLine
 10
1371.608748264548
 20
47.6532900339337
 30
0.0
 11
1371.608748264548
 21
45.86586209431303
 31
0.0
  0
HATCH
  5
59B9
330
18
100
AcDbEntity
  8
0
  6
HIDDEN
 48
10.0
100
AcDbHatch
 10
0.0
 20
0.0
 30
0.0
210
0.0
220
0.0
230
1.0
  2
ANSI31
 70
     0
 71
     0
 91
        4
 92
        7
 72
     0
 73
     1
 93
        9
 10
1363.671445475873
 20
60.39185252677005
 10
1357.371445475873
 20
60.39185252677005
 10
1357.371445475873
 20
36.80548461562239
 10
1357.396443670541
 20
36.80548461562239
 10
1357.646443670542
 20
37.30548461562239
 10
1362.396443670542
 20
37.30548446517787
 10
1362.646443670543
 20
36.80548461562259
 10
1362.646445475873
 20
34.3054846156224
 10
1363.671445475873
 20
34.30548461562239
 97
        0
 92
       22
 72
     0
 73
     1
 93
        5
 10
1362.396443670542
 20
37.30548446517787
 10
1357.646443670543
 20
37.3054846156224
 10
1357.396443971429
 20
36.80548521739774
 10
1357.39644397143
 20
36.80548461562239
 10
1362.646443670543
 20
36.80548461562239
 97
        0
 92
        7
 72
     0
 73
     1
 93
        4
 10
1362.646443670543
 20
36.80548461562239
 10
1357.39644397143
 20
36.80548461562239
 10
1357.396445475872
 20
34.3054846156224
 10
1362.646445475873
 20
34.30548461562239
 97
        0
 92
        7
 72
     0
 73
     1
 93
        4
 10
1363.671445475873
 20
34.30548461562239
 10
1357.371445475873
 20
34.30548461562239
 10
1357.371445475873
 20
21.80548461562239
 10
1363.671445475873
 20
21.80548461562239
 97
        0
 75
     0
 76
     1
 52
0.0
 41
1.0
 77
     0
 78
     1
 53
45.0
 43
0.0
 44
0.0
 45
-2.245064030267287
 46
2.245064030267288
 79
     0
 47
0.0839564761323567
 98
        4
 10
1362.703698902485
 20
49.93756291783279
 10
1359.847952841262
 20
37.09222136539096
 10
1359.847952841262
 20
36.00078769878382
 10
1360.183921971533
 20
31.13131192214916
  0
VIEWPORT
  5
23
330
15
100
AcDbEntity
 67
     1
  8
0
100
AcDbViewport
 10
142.6661429488186
 20
103.5480622500362
 30
0.0
 40
339.712847164481
 41
230.8586230193032
 68
     1
 69
     1
 12
142.6661429488186
 22
103.5480622500362
 13
0.0
 23
0.0
 14
10.0
 24
10.0
 15
10.0
 25
10.0
 16
0.0
 26
0.0
 36
1.0
 17
0.0
 27
0.0
 37
0.0
 42
50.0
 43
0.0
 44
0.0
 45
230.8586230193032
 50
0.0
 51
0.0
 72
   100
 90
    32768
  1

281
     0
 71
     1
 74
     0
110
0.0
120
0.0
130
0.0
111
1.0
121
0.0
131
0.0
112
0.0
122
1.0
132
0.0
 79
     0
146
0.0
  0
VIEWPORT
  5
2E
330
15
100
AcDbEntity
 67
     1
  8
M_VIEW
100
AcDbViewport
 10
144.0
 20
105.0
 30
0.0
 40
288.0
 41
210.0
 68
     2
 69
     2
 12
1448.198494920999
 22
-2.086680274837874
 13
0.0
 23
0.0
 14
10.0
 24
10.0
 15
10.0
 25
10.0
 16
0.0
 26
0.0
 36
1.0
 17
0.0
 27
0.0
 37
0.0
 42
50.0
 43
0.0
 44
0.0
 45
210.0
 50
0.0
 51
0.0
 72
   100
 90
    32768
  1

281
     0
 71
     1
 74
     0
110
0.0
120
0.0
130
0.0
111
1.0
121
0.0
131
0.0
112
0.0
122
1.0
132
0.0
 79
     0
146
0.0
  0
TEXT
  5
5D0
330
15
100
AcDbEntity
 67
     1
  8
wakumoji1
  6
Continuous
100
AcDbText
 10
8.865235070261704
 20
10.96666666666598
 30
0.0
 40
4.0
  1
Ｒ＊－
 41
0.625
100
AcDbText
  0
TEXT
  5
5D4
330
15
100
AcDbEntity
 67
     1
  8
wakumoji1
  6
Continuous
100
AcDbText
 10
9.866692070452764
 20
15.78333333333638
 30
0.0
 40
3.5
  1
Ａ
 72
     1
 11
11.50002540378609
 21
15.78333333333638
 31
0.0
100
AcDbText
  0
TEXT
  5
5D9
330
15
100
AcDbEntity
 67
     1
  8
wakumoji1
  6
Continuous
100
AcDbText
 10
17.86523507026169
 20
15.96666666666598
 30
0.0
 40
4.0
  1
１～＊
 41
0.625
100
AcDbText
  0
TEXT
  5
5EF
330
15
100
AcDbEntity
 67
     1
  8
wakumoji1
  6
Continuous
100
AcDbText
 10
33.89605408586112
 20
16.35134447262123
 30
0.0
 40
3.5
  1
＊＊＊＊＊
100
AcDbText
  0
TEXT
  5
5FE
330
15
100
AcDbEntity
 67
     1
  8
wakumoji
  6
Continuous
100
AcDbText
 10
210.8022848534179
 20
5.8315805819974
 30
0.0
 40
7.0
  1
ＳＥ－３４１８１
 41
0.9529999999999999
  7
MSｺﾞｼｯｸ
100
AcDbText
  0
TEXT
  5
651
330
15
100
AcDbEntity
 67
     1
  8
wakumoji1
  6
Continuous
100
AcDbText
 10
275.402284853418
 20
5.981155417998706
 30
0.0
 40
7.0
  1
Ａ
 41
0.9529999999999999
100
AcDbText
  0
TEXT
  5
673
330
15
100
AcDbEntity
 67
     1
  8
wakumoji1
  6
Continuous
100
AcDbText
 10
105.8652350702616
 20
10.96666666666598
 30
0.0
 40
3.0
  1
'99.**.**
 41
0.6
100
AcDbText
  0
TEXT
  5
122E
330
15
100
AcDbEntity
 67
     1
  8
wakumoji
  6
Continuous
100
AcDbText
 10
258.2652350702616
 20
35.46666666666598
 30
0.0
 40
4.0
  1

 41
0.625
100
AcDbText
  0
TEXT
  5
4CEB
330
15
100
AcDbEntity
 67
     1
  8
FRAME025
  6
Continuous
100
AcDbText
 10
156.462867965644
 20
11.56154148317485
 30
0.0
 40
3.0
  1
'04.08.03
 72
     4
 11
164.4
 21
13.0
 31
0.0
100
AcDbText
  0
MTEXT
  5
4CEC
330
15
100
AcDbEntity
 67
     1
  8
FRAME025
100
AcDbMText
 10
164.9
 20
23.5
 30
0.0
 40
6.0
 41
20.0
 71
     5
 72
     5
  1
渡邊
  7
MS明朝
 73
     1
 44
1.0
1001
ACAD
1000
MTEXTBEGIN
1070
    73
1070
     1
1070
    44
1040
1.0
1070
    74
1070
     0
1000
MTEXTEND
1000
MTEXTBEGIN
1070
    73
1070
     1
1070
    44
1040
1.0
1070
    74
1070
     0
1000
MTEXTEND
1000
MTEXTBEGIN
1070
    73
1070
     1
1070
    44
1040
1.0
1070
    74
1070
     0
1000
MTEXTEND
1000
MTEXTBEGIN
1070
    73
1070
     1
1070
    44
1040
1.0
1070
    74
1070
     0
1000
MTEXTEND
1000
MTEXTBEGIN
1070
    73
1070
     1
1070
    44
1040
1.0
1070
    74
1070
     0
1000
MTEXTEND
1000
MTEXTBEGIN
1070
    73
1070
     1
1070
    44
1040
1.0
1070
    74
1070
     0
1000
MTEXTEND
1000
MTEXTBEGIN
1070
    73
1070
     1
1070
    44
1040
1.0
1070
    74
1070
     0
1000
MTEXTEND
1000
MTEXTBEGIN
1070
    73
1070
     1
1070
    44
1040
1.0
1070
    74
1070
     0
1000
MTEXTEND
1000
MTEXTBEGIN
1070
    73
1070
     1
1070
    44
1040
1.0
1070
    74
1070
     0
1000
MTEXTEND
  0
MTEXT
  5
4CED
330
15
100
AcDbEntity
 67
     1
  8
FRAME025
100
AcDbMText
 10
124.9
 20
23.5
 30
0.0
 40
6.0
 41
20.0
 71
     5
 72
     5
  1
大湊
  7
MS明朝
 73
     1
 44
1.0
1001
ACAD
1000
MTEXTBEGIN
1070
    73
1070
     1
1070
    44
1040
1.0
1070
    74
1070
     0
1000
MTEXTEND
1000
MTEXTBEGIN
1070
    73
1070
     1
1070
    44
1040
1.0
1070
    74
1070
     0
1000
MTEXTEND
1000
MTEXTBEGIN
1070
    73
1070
     1
1070
    44
1040
1.0
1070
    74
1070
     0
1000
MTEXTEND
1000
MTEXTBEGIN
1070
    73
1070
     1
1070
    44
1040
1.0
1070
    74
1070
     0
1000
MTEXTEND
1000
MTEXTBEGIN
1070
    73
1070
     1
1070
    44
1040
1.0
1070
    74
1070
     0
1000
MTEXTEND
1000
MTEXTBEGIN
1070
    73
1070
     1
1070
    44
1040
1.0
1070
    74
1070
     0
1000
MTEXTEND
1000
MTEXTBEGIN
1070
    73
1070
     1
1070
    44
1040
1.0
1070
    74
1070
     0
1000
MTEXTEND
1000
MTEXTBEGIN
1070
    73
1070
     1
1070
    44
1040
1.0
1070
    74
1070
     0
1000
MTEXTEND
1000
MTEXTBEGIN
1070
    73
1070
     1
1070
    44
1040
1.0
1070
    74
1070
     0
1000
MTEXTEND
  0
MTEXT
  5
4CEE
330
15
100
AcDbEntity
 67
     1
  8
FRAME025
100
AcDbMText
 10
144.9
 20
23.5
 30
0.0
 40
6.0
 41
20.0
 71
     5
 72
     5
  1
渡邊
  7
MS明朝
 73
     1
 44
1.0
1001
ACAD
1000
MTEXTBEGIN
1070
    73
1070
     1
1070
    44
1040
1.0
1070
    74
1070
     0
1000
MTEXTEND
1000
MTEXTBEGIN
1070
    73
1070
     1
1070
    44
1040
1.0
1070
    74
1070
     0
1000
MTEXTEND
1000
MTEXTBEGIN
1070
    73
1070
     1
1070
    44
1040
1.0
1070
    74
1070
     0
1000
MTEXTEND
1000
MTEXTBEGIN
1070
    73
1070
     1
1070
    44
1040
1.0
1070
    74
1070
     0
1000
MTEXTEND
1000
MTEXTBEGIN
1070
    73
1070
     1
1070
    44
1040
1.0
1070
    74
1070
     0
1000
MTEXTEND
1000
MTEXTBEGIN
1070
    73
1070
     1
1070
    44
1040
1.0
1070
    74
1070
     0
1000
MTEXTEND
1000
MTEXTBEGIN
1070
    73
1070
     1
1070
    44
1040
1.0
1070
    74
1070
     0
1000
MTEXTEND
1000
MTEXTBEGIN
1070
    73
1070
     1
1070
    44
1040
1.0
1070
    74
1070
     0
1000
MTEXTEND
1000
MTEXTBEGIN
1070
    73
1070
     1
1070
    44
1040
1.0
1070
    74
1070
     0
1000
MTEXTEND
  0
TEXT
  5
4CEF
330
15
100
AcDbEntity
 67
     1
  8
FRAME025
  6
Continuous
100
AcDbText
 10
8.400000000000005
 20
10.5
 30
0.0
 40
4.0
  1
Ｒ１－６７７１０
 41
0.625
100
AcDbText
  0
TEXT
  5
4CF0
330
15
100
AcDbEntity
 67
     1
  8
FRAME025
  6
Continuous
100
AcDbText
 10
14.9
 20
15.64999999999999
 30
0.0
 40
2.5
  1
１－３
 11
14.9
 21
16.89999999999999
 31
0.0
100
AcDbText
 73
     2
  0
TEXT
  5
4CF1
330
15
100
AcDbEntity
 67
     1
  8
FRAME025
  6
Continuous
100
AcDbText
 10
9.900000000000005
 20
15.64999999999999
 30
0.0
 40
2.5
  1
A
 11
9.900000000000005
 21
16.89999999999999
 31
0.0
100
AcDbText
 73
     2
  0
MTEXT
  5
4CF2
330
15
100
AcDbEntity
 67
     1
  8
FRAME025
100
AcDbMText
 10
33.38043583432718
 20
18.59999999999999
 30
0.0
 40
2.5
 41
51.2
 71
     1
 72
     5
  1
1-3:ｹｰﾌﾞﾙ図修正(引出方向の誤り)
 73
     1
 44
1.0
1001
ACAD
1000
MTEXTBEGIN
1070
    73
1070
     1
1070
    44
1040
1.0
1070
    74
1070
     0
1000
MTEXTEND
1000
MTEXTBEGIN
1070
    73
1070
     1
1070
    44
1040
1.0
1070
    74
1070
     0
1000
MTEXTEND
1000
MTEXTBEGIN
1070
    73
1070
     1
1070
    44
1040
1.0
1070
    74
1070
     0
1000
MTEXTEND
1000
MTEXTBEGIN
1070
    73
1070
     1
1070
    44
1040
1.0
1070
    74
1070
     0
1000
MTEXTEND
1000
MTEXTBEGIN
1070
    73
1070
     1
1070
    44
1040
1.0
1070
    74
1070
     0
1000
MTEXTEND
1000
MTEXTBEGIN
1070
    73
1070
     1
1070
    44
1040
1.0
1070
    74
1070
     0
1000
MTEXTEND
1000
MTEXTBEGIN
1070
    73
1070
     1
1070
    44
1040
1.0
1070
    74
1070
     0
1000
MTEXTEND
1000
MTEXTBEGIN
1070
    73
1070
     1
1070
    44
1040
1.0
1070
    74
1070
     0
1000
MTEXTEND
1000
MTEXTBEGIN
1070
    73
1070
     1
1070
    44
1040
1.0
1070
    74
1070
     0
1000
MTEXTEND
  0
TEXT
  5
4CF4
330
15
100
AcDbEntity
 67
     1
  8
FRAME025
  6
Continuous
100
AcDbText
 10
136.462867965644
 20
11.56154148317485
 30
0.0
 40
3.0
  1
'04.08.03
 72
     4
 11
144.4
 21
13.0
 31
0.0
100
AcDbText
  0
TEXT
  5
4CF5
330
15
100
AcDbEntity
 67
     1
  8
FRAME025
  6
Continuous
100
AcDbText
 10
116.462867965644
 20
11.56154148317486
 30
0.0
 40
3.0
  1
'04.08.03
 72
     4
 11
124.3999999999999
 21
13.0
 31
0.0
100
AcDbText
  0
TEXT
  5
5018
330
15
100
AcDbEntity
 67
     1
  8
FRAME025
  6
Continuous
100
AcDbText
 10
9.900000000000005
 20
25.64999999999999
 30
0.0
 40
2.5
  1
B
 11
9.900000000000005
 21
26.89999999999999
 31
0.0
100
AcDbText
 73
     2
  0
TEXT
  5
5019
330
15
100
AcDbEntity
 67
     1
  8
FRAME025
  6
Continuous
100
AcDbText
 10
14.9
 20
25.64999999999999
 30
0.0
 40
2.5
  1
１－７
 11
14.9
 21
26.89999999999999
 31
0.0
100
AcDbText
 73
     2
  0
MTEXT
  5
501A
330
15
100
AcDbEntity
 67
     1
  8
FRAME025
100
AcDbMText
 10
33.38043583432718
 20
28.59999999999999
 30
0.0
 40
2.5
 41
51.2
 71
     1
 72
     5
  1
1:ｹｰﾌﾞﾙ長変更　　2-5:各種説明追記
 73
     1
 44
1.0
1001
ACAD
1000
MTEXTBEGIN
1070
    73
1070
     1
1070
    44
1040
1.0
1070
    74
1070
     0
1000
MTEXTEND
1000
MTEXTBEGIN
1070
    73
1070
     1
1070
    44
1040
1.0
1070
    74
1070
     0
1000
MTEXTEND
1000
MTEXTBEGIN
1070
    73
1070
     1
1070
    44
1040
1.0
1070
    74
1070
     0
1000
MTEXTEND
1000
MTEXTBEGIN
1070
    73
1070
     1
1070
    44
1040
1.0
1070
    74
1070
     0
1000
MTEXTEND
1000
MTEXTBEGIN
1070
    73
1070
     1
1070
    44
1040
1.0
1070
    74
1070
     0
1000
MTEXTEND
1000
MTEXTBEGIN
1070
    73
1070
     1
1070
    44
1040
1.0
1070
    74
1070
     0
1000
MTEXTEND
1000
MTEXTBEGIN
1070
    73
1070
     1
1070
    44
1040
1.0
1070
    74
1070
     0
1000
MTEXTEND
1000
MTEXTBEGIN
1070
    73
1070
     1
1070
    44
1040
1.0
1070
    74
1070
     0
1000
MTEXTEND
1000
MTEXTBEGIN
1070
    73
1070
     1
1070
    44
1040
1.0
1070
    74
1070
     0
1000
MTEXTEND
  0
MTEXT
  5
501B
330
15
100
AcDbEntity
 67
     1
  8
FRAME025
100
AcDbMText
 10
33.38043583432718
 20
23.59999999999999
 30
0.0
 40
2.5
 41
51.2
 71
     1
 72
     5
  1
6,7:誤作図により図差し替え
 73
     1
 44
1.0
1001
ACAD
1000
MTEXTBEGIN
1070
    73
1070
     1
1070
    44
1040
1.0
1070
    74
1070
     0
1000
MTEXTEND
1000
MTEXTBEGIN
1070
    73
1070
     1
1070
    44
1040
1.0
1070
    74
1070
     0
1000
MTEXTEND
1000
MTEXTBEGIN
1070
    73
1070
     1
1070
    44
1040
1.0
1070
    74
1070
     0
1000
MTEXTEND
1000
MTEXTBEGIN
1070
    73
1070
     1
1070
    44
1040
1.0
1070
    74
1070
     0
1000
MTEXTEND
1000
MTEXTBEGIN
1070
    73
1070
     1
1070
    44
1040
1.0
1070
    74
1070
     0
1000
MTEXTEND
1000
MTEXTBEGIN
1070
    73
1070
     1
1070
    44
1040
1.0
1070
    74
1070
     0
1000
MTEXTEND
1000
MTEXTBEGIN
1070
    73
1070
     1
1070
    44
1040
1.0
1070
    74
1070
     0
1000
MTEXTEND
1000
MTEXTBEGIN
1070
    73
1070
     1
1070
    44
1040
1.0
1070
    74
1070
     0
1000
MTEXTEND
1000
MTEXTBEGIN
1070
    73
1070
     1
1070
    44
1040
1.0
1070
    74
1070
     0
1000
MTEXTEND
  0
MTEXT
  5
5072
330
15
100
AcDbEntity
 67
     1
  8
FRAME025
100
AcDbMText
 10
89.78382245388903
 20
17.50781580344505
 30
0.0
 40
3.0
 41
9.4191
 71
     5
 72
     5
  1
大湊
  7
MS明朝
 73
     1
 44
1.0
1001
ACAD
1000
MTEXTBEGIN
1070
    73
1070
     1
1070
    44
1040
1.0
1070
    74
1070
     0
1000
MTEXTEND
1000
MTEXTBEGIN
1070
    73
1070
     1
1070
    44
1040
1.0
1070
    74
1070
     0
1000
MTEXTEND
1000
MTEXTBEGIN
1070
    73
1070
     1
1070
    44
1040
1.0
1070
    74
1070
     0
1000
MTEXTEND
1000
MTEXTBEGIN
1070
    73
1070
     1
1070
    44
1040
1.0
1070
    74
1070
     0
1000
MTEXTEND
1000
MTEXTBEGIN
1070
    73
1070
     1
1070
    44
1040
1.0
1070
    74
1070
     0
1000
MTEXTEND
1000
MTEXTBEGIN
1070
    73
1070
     1
1070
    44
1040
1.0
1070
    74
1070
     0
1000
MTEXTEND
1000
MTEXTBEGIN
1070
    73
1070
     1
1070
    44
1040
1.0
1070
    74
1070
     0
1000
MTEXTEND
1000
MTEXTBEGIN
1070
    73
1070
     1
1070
    44
1040
1.0
1070
    74
1070
     0
1000
MTEXTEND
1000
MTEXTBEGIN
1070
    73
1070
     1
1070
    44
1040
1.0
1070
    74
1070
     0
1000
MTEXTEND
  0
MTEXT
  5
5073
330
15
100
AcDbEntity
 67
     1
  8
FRAME025
100
AcDbMText
 10
99.78382245388903
 20
17.50781580344505
 30
0.0
 40
3.0
 41
9.4191
 71
     5
 72
     5
  1
渡邊
  7
MS明朝
 73
     1
 44
1.0
1001
ACAD
1000
MTEXTBEGIN
1070
    73
1070
     1
1070
    44
1040
1.0
1070
    74
1070
     0
1000
MTEXTEND
1000
MTEXTBEGIN
1070
    73
1070
     1
1070
    44
1040
1.0
1070
    74
1070
     0
1000
MTEXTEND
1000
MTEXTBEGIN
1070
    73
1070
     1
1070
    44
1040
1.0
1070
    74
1070
     0
1000
MTEXTEND
1000
MTEXTBEGIN
1070
    73
1070
     1
1070
    44
1040
1.0
1070
    74
1070
     0
1000
MTEXTEND
1000
MTEXTBEGIN
1070
    73
1070
     1
1070
    44
1040
1.0
1070
    74
1070
     0
1000
MTEXTEND
1000
MTEXTBEGIN
1070
    73
1070
     1
1070
    44
1040
1.0
1070
    74
1070
     0
1000
MTEXTEND
1000
MTEXTBEGIN
1070
    73
1070
     1
1070
    44
1040
1.0
1070
    74
1070
     0
1000
MTEXTEND
1000
MTEXTBEGIN
1070
    73
1070
     1
1070
    44
1040
1.0
1070
    74
1070
     0
1000
MTEXTEND
1000
MTEXTBEGIN
1070
    73
1070
     1
1070
    44
1040
1.0
1070
    74
1070
     0
1000
MTEXTEND
  0
MTEXT
  5
5074
330
15
100
AcDbEntity
 67
     1
  8
FRAME025
100
AcDbMText
 10
109.783822453889
 20
17.50781580344505
 30
0.0
 40
3.0
 41
9.4191
 71
     5
 72
     5
  1
渡邊
  7
MS明朝
 73
     1
 44
1.0
1001
ACAD
1000
MTEXTBEGIN
1070
    73
1070
     1
1070
    44
1040
1.0
1070
    74
1070
     0
1000
MTEXTEND
1000
MTEXTBEGIN
1070
    73
1070
     1
1070
    44
1040
1.0
1070
    74
1070
     0
1000
MTEXTEND
1000
MTEXTBEGIN
1070
    73
1070
     1
1070
    44
1040
1.0
1070
    74
1070
     0
1000
MTEXTEND
1000
MTEXTBEGIN
1070
    73
1070
     1
1070
    44
1040
1.0
1070
    74
1070
     0
1000
MTEXTEND
1000
MTEXTBEGIN
1070
    73
1070
     1
1070
    44
1040
1.0
1070
    74
1070
     0
1000
MTEXTEND
1000
MTEXTBEGIN
1070
    73
1070
     1
1070
    44
1040
1.0
1070
    74
1070
     0
1000
MTEXTEND
1000
MTEXTBEGIN
1070
    73
1070
     1
1070
    44
1040
1.0
1070
    74
1070
     0
1000
MTEXTEND
1000
MTEXTBEGIN
1070
    73
1070
     1
1070
    44
1040
1.0
1070
    74
1070
     0
1000
MTEXTEND
1000
MTEXTBEGIN
1070
    73
1070
     1
1070
    44
1040
1.0
1070
    74
1070
     0
1000
MTEXTEND
  0
TEXT
  5
5075
330
15
100
AcDbEntity
 67
     1
  8
FRAME025
  6
Continuous
100
AcDbText
 10
85.47447930578575
 20
11.14994449930507
 30
0.0
 40
1.799999999999999
  1
'05.01.13
 72
     4
 11
89.78675852639934
 21
12.01301960940016
 31
0.0
100
AcDbText
  0
TEXT
  5
5076
330
15
100
AcDbEntity
 67
     1
  8
FRAME025
  6
Continuous
100
AcDbText
 10
95.45770537679304
 20
11.1051216646594
 30
0.0
 40
1.799999999999999
  1
'05.01.12
 72
     4
 11
99.78675852639934
 21
12.01301960940016
 31
0.0
100
AcDbText
  0
TEXT
  5
5077
330
15
100
AcDbEntity
 67
     1
  8
FRAME025
  6
Continuous
100
AcDbText
 10
105.457705376793
 20
11.1051216646594
 30
0.0
 40
1.799999999999999
  1
'05.01.12
 72
     4
 11
109.7867585263993
 21
12.01301960940016
 31
0.0
100
AcDbText
  0
TEXT
  5
5124
330
15
100
AcDbEntity
 67
     1
  8
FRAME025
  6
Continuous
100
AcDbText
 10
8.400000000000005
 20
20.5
 30
0.0
 40
4.0
  1
Ｒ１－６８６７１
 41
0.625
100
AcDbText
  0
MTEXT
  5
59D4
330
15
100
AcDbEntity
 67
     1
  8
0
 48
0.5
100
AcDbMText
 10
104.5772816634626
 20
23.28161853075636
 30
0.0
 40
6.0
 41
181.5735
 71
     1
 72
     5
  1
{\fＭＳ ゴシック|b0|i0|c128|p49;τﾘﾆｱﾓｰﾀ　NVA-AM用磁極ｾﾝｻﾕﾆｯﾄ NSR-PAA5D1B-***}
 73
     1
 44
1.0
  0
ENDSEC
  0
SECTION
  2
OBJECTS
  0
DICTIONARY
  5
C
330
0
100
AcDbDictionary
281
     1
  3
ACAD_GROUP
350
D
  3
ACAD_LAYOUT
350
683
  3
ACAD_MLINESTYLE
350
1B
  3
ACAD_PLOTSETTINGS
350
684
  3
ACAD_PLOTSTYLENAME
350
681
  3
AcDbVariableDictionary
350
58C3
  0
DICTIONARY
  5
56AD
330
2
100
AcDbDictionary
280
     1
281
     1
  3
ACAD_LAYERFILTERS
360
56AE
  3
ACAD_LAYERSTATES
360
56BE
  0
DICTIONARY
  5
D
102
{ACAD_REACTORS
330
C
102
}
330
C
100
AcDbDictionary
281
     1
  3
*A1
350
EB3
  3
*A10
350
4883
  3
*A11
350
460C
  3
*A12
350
107B
  3
*A13
350
460B
  3
*A14
350
4624
  3
*A15
350
4C40
  3
*A16
350
4882
  3
*A17
350
3F60
  3
*A18
350
45EF
  3
*A19
350
4C4F
  3
*A2
350
4622
  3
*A20
350
4C41
  3
*A21
350
4889
  3
*A22
350
ECB
  3
*A23
350
5310
  3
*A24
350
EB4
  3
*A25
350
4032
  3
*A26
350
5311
  3
*A27
350
56EB
  3
*A28
350
5489
  3
*A29
350
548A
  3
*A3
350
ECA
  3
*A30
350
586C
  3
*A4
350
5312
  3
*A5
350
55A3
  3
*A6
350
115F
  3
*A7
350
45F0
  3
*A8
350
140A
  3
*A9
350
13DE
  0
DICTIONARY
  5
683
102
{ACAD_REACTORS
330
C
102
}
330
C
100
AcDbDictionary
281
     1
  3
Model
350
685
  3
ﾚｲｱｳﾄ1
350
686
  0
DICTIONARY
  5
1B
102
{ACAD_REACTORS
330
C
102
}
330
C
100
AcDbDictionary
281
     1
  3
STANDARD
350
1C
  0
DICTIONARY
  5
684
102
{ACAD_REACTORS
330
C
102
}
330
C
100
AcDbDictionary
281
     1
  0
ACDBDICTIONARYWDFLT
  5
681
102
{ACAD_REACTORS
330
C
102
}
330
C
100
AcDbDictionary
281
     1
  3
Normal
350
682
100
AcDbDictionaryWithDefault
340
682
  0
DICTIONARY
  5
58C3
102
{ACAD_REACTORS
330
C
102
}
330
C
100
AcDbDictionary
281
     1
  3
SORTENTS
350
58C4
  0
DICTIONARY
  5
56AE
102
{ACAD_REACTORS
330
56AD
102
}
330
56AD
100
AcDbDictionary
280
     1
281
     1
  3
0
360
56AF
  3
11
360
56B0
  3
150_
360
56B1
  3
160_
360
56B2
  3
170_
360
56B3
  3
171_
360
56B4
  3
350_
360
56B5
  3
4
360
56B6
  3
5
360
56B7
  3
7
360
56B8
  3
kiseki
360
56B9
  0
DICTIONARY
  5
56BE
102
{ACAD_REACTORS
330
56AD
102
}
330
56AD
100
AcDbDictionary
281
     1
  0
GROUP
  5
EB3
102
{ACAD_REACTORS
330
D
102
}
330
D
100
AcDbGroup
300

 70
     1
 71
     1
  0
GROUP
  5
4883
102
{ACAD_REACTORS
330
D
102
}
330
D
100
AcDbGroup
300

 70
     1
 71
     1
  0
GROUP
  5
460C
102
{ACAD_REACTORS
330
D
102
}
330
D
100
AcDbGroup
300

 70
     1
 71
     1
  0
GROUP
  5
107B
102
{ACAD_REACTORS
330
D
102
}
330
D
100
AcDbGroup
300

 70
     1
 71
     1
  0
GROUP
  5
460B
102
{ACAD_REACTORS
330
D
102
}
330
D
100
AcDbGroup
300

 70
     1
 71
     1
  0
GROUP
  5
4624
102
{ACAD_REACTORS
330
D
102
}
330
D
100
AcDbGroup
300

 70
     1
 71
     1
  0
GROUP
  5
4C40
102
{ACAD_REACTORS
330
D
102
}
330
D
100
AcDbGroup
300

 70
     1
 71
     1
  0
GROUP
  5
4882
102
{ACAD_REACTORS
330
D
102
}
330
D
100
AcDbGroup
300

 70
     1
 71
     1
  0
GROUP
  5
3F60
102
{ACAD_REACTORS
330
D
102
}
330
D
100
AcDbGroup
300

 70
     1
 71
     1
  0
GROUP
  5
45EF
102
{ACAD_REACTORS
330
D
102
}
330
D
100
AcDbGroup
300

 70
     1
 71
     1
  0
GROUP
  5
4C4F
102
{ACAD_REACTORS
330
D
102
}
330
D
100
AcDbGroup
300

 70
     1
 71
     1
  0
GROUP
  5
4622
102
{ACAD_REACTORS
330
D
102
}
330
D
100
AcDbGroup
300

 70
     1
 71
     1
  0
GROUP
  5
4C41
102
{ACAD_REACTORS
330
D
102
}
330
D
100
AcDbGroup
300

 70
     1
 71
     1
  0
GROUP
  5
4889
102
{ACAD_REACTORS
330
D
102
}
330
D
100
AcDbGroup
300

 70
     1
 71
     1
  0
GROUP
  5
ECB
102
{ACAD_REACTORS
330
D
102
}
330
D
100
AcDbGroup
300

 70
     1
 71
     1
  0
GROUP
  5
5310
102
{ACAD_REACTORS
330
D
102
}
330
D
100
AcDbGroup
300

 70
     1
 71
     1
  0
GROUP
  5
EB4
102
{ACAD_REACTORS
330
D
102
}
330
D
100
AcDbGroup
300

 70
     1
 71
     1
  0
GROUP
  5
4032
102
{ACAD_REACTORS
330
D
102
}
330
D
100
AcDbGroup
300

 70
     1
 71
     1
  0
GROUP
  5
5311
102
{ACAD_REACTORS
330
D
102
}
330
D
100
AcDbGroup
300

 70
     1
 71
     1
  0
GROUP
  5
56EB
102
{ACAD_REACTORS
330
D
102
}
330
D
100
AcDbGroup
300

 70
     1
 71
     1
340
56E6
340
56E5
340
56E3
340
56E2
340
56E1
340
56E0
340
56EA
340
56E9
340
56E8
340
56DF
340
56DE
340
56E4
340
56D9
340
56D8
340
56D7
340
56DB
340
56E7
340
56DC
340
56DD
340
56DA
  0
GROUP
  5
5489
102
{ACAD_REACTORS
330
D
102
}
330
D
100
AcDbGroup
300

 70
     1
 71
     1
  0
GROUP
  5
548A
102
{ACAD_REACTORS
330
D
102
}
330
D
100
AcDbGroup
300

 70
     1
 71
     1
340
53E4
340
53E8
340
53EC
340
53E6
340
53E7
340
53E5
  0
GROUP
  5
ECA
102
{ACAD_REACTORS
330
D
102
}
330
D
100
AcDbGroup
300

 70
     1
 71
     1
  0
GROUP
  5
586C
102
{ACAD_REACTORS
330
D
102
}
330
D
100
AcDbGroup
300

 70
     1
 71
     1
340
56D9
340
56E6
340
56E5
340
56E3
340
56E2
340
56E1
340
56E0
340
56EA
340
56E9
340
56E8
340
56DF
340
56DE
340
56E4
340
56D8
340
56D7
340
56DB
340
56E7
340
56DC
340
56DD
340
56DA
340
5810
340
5733
  0
GROUP
  5
5312
102
{ACAD_REACTORS
330
D
102
}
330
D
100
AcDbGroup
300

 70
     1
 71
     1
  0
GROUP
  5
55A3
102
{ACAD_REACTORS
330
D
102
}
330
D
100
AcDbGroup
300

 70
     1
 71
     1
  0
GROUP
  5
115F
102
{ACAD_REACTORS
330
D
102
}
330
D
100
AcDbGroup
300

 70
     1
 71
     1
  0
GROUP
  5
45F0
102
{ACAD_REACTORS
330
D
102
}
330
D
100
AcDbGroup
300

 70
     1
 71
     1
  0
GROUP
  5
140A
102
{ACAD_REACTORS
330
D
102
}
330
D
100
AcDbGroup
300

 70
     1
 71
     1
  0
GROUP
  5
13DE
102
{ACAD_REACTORS
330
D
102
}
330
D
100
AcDbGroup
300

 70
     1
 71
     1
  0
LAYOUT
  5
685
102
{ACAD_REACTORS
330
683
102
}
330
683
100
AcDbPlotSettings
  1

  2
IBM Infoprint 1316J RPCS-A4.pc3
  4
A4
  6

 40
5.873749732971191
 41
5.873747825622558
 42
5.873748779296875
 43
5.873748779296875
 44
296.9259948730469
 45
209.9733276367187
 46
0.0
 47
0.0
 48
0.0
 49
0.0
140
0.0
141
0.0
142
1.0
143
0.7565413888618794
 70
 11952
 72
     1
 73
     0
 74
     0
  7

 75
     0
147
1.321804748190146
148
-431.0099514821218
149
-81.72130883030979
100
AcDbLayout
  1
Model
 70
     1
 71
     0
 10
0.0
 20
0.0
 11
12.0
 21
9.0
 12
0.0
 22
0.0
 32
0.0
 14
0.0
 24
0.0
 34
0.0
 15
0.0
 25
0.0
 35
0.0
146
0.0
 13
0.0
 23
0.0
 33
0.0
 16
1.0
 26
0.0
 36
0.0
 17
0.0
 27
1.0
 37
0.0
 76
     0
330
18
  0
LAYOUT
  5
686
102
{ACAD_REACTORS
330
683
102
}
330
683
100
AcDbPlotSettings
  1

  2
SII LP-1010 (C2 VR)2R.pc3
  4
A4
  6

 40
5.78908348083496
 41
5.789087295532226
 42
5.7890625
 43
5.789077758789062
 44
296.9259948730469
 45
209.9733276367187
 46
0.0
 47
0.0
 48
0.0
 49
0.0
140
0.0
141
0.0
142
1.0
143
1.0
 70
   688
 72
     1
 73
     0
 74
     5
  7
monochrome.ctb
 75
    16
147
1.0
148
0.0077710068698025
149
0.002935462618268
100
AcDbLayout
  1
ﾚｲｱｳﾄ1
 70
     0
 71
     1
 10
-5.796854487704763
 20
-5.792022758150494
 11
291.1291403853421
 21
204.1813048785682
 12
0.0
 22
0.0
 32
0.0
 14
-0.0065794145109521
 24
-0.0030515435603888
 34
-0.0000000000112498
 15
288.0119980604647
 25
210.0035506887249
 35
0.0000000000002956
146
0.0
 13
0.0
 23
0.0
 33
0.0
 16
1.0
 26
0.0
 36
0.0
 17
0.0
 27
1.0
 37
0.0
 76
     0
330
15
331
23
  0
MLINESTYLE
  5
1C
102
{ACAD_REACTORS
330
1B
102
}
330
1B
100
AcDbMlineStyle
  2
STANDARD
 70
     0
  3

 62
   256
 51
90.0
 52
90.0
 71
     2
 49
0.5
 62
   256
  6
BYLAYER
 49
-0.5
 62
   256
  6
BYLAYER
  0
ACDBPLACEHOLDER
  5
682
102
{ACAD_REACTORS
330
681
102
}
330
681
  0
DICTIONARYVAR
  5
58C4
102
{ACAD_REACTORS
330
58C3
102
}
330
58C3
100
DictionaryVariables
280
     0
  1
96
  0
XRECORD
  5
56AF
102
{ACAD_REACTORS
330
56AE
102
}
330
56AE
100
AcDbXrecord
280
     1
  1
0
  1
*0
  1
*
  1
*
 70
     0
  1
*
  1
*
  0
XRECORD
  5
56B0
102
{ACAD_REACTORS
330
56AE
102
}
330
56AE
100
AcDbXrecord
280
     1
  1
11
  1
*11
  1
*
  1
*
 70
     0
  1
*
  1
*
  0
XRECORD
  5
56B1
102
{ACAD_REACTORS
330
56AE
102
}
330
56AE
100
AcDbXrecord
280
     1
  1
150_
  1
150_*
  1
*
  1
*
 70
     0
  1
*
  1
*
  0
XRECORD
  5
56B2
102
{ACAD_REACTORS
330
56AE
102
}
330
56AE
100
AcDbXrecord
280
     1
  1
160_
  1
160_*
  1
*
  1
*
 70
     0
  1
*
  1
*
  0
XRECORD
  5
56B3
102
{ACAD_REACTORS
330
56AE
102
}
330
56AE
100
AcDbXrecord
280
     1
  1
170_
  1
170_*
  1
*
  1
*
 70
     0
  1
*
  1
*
  0
XRECORD
  5
56B4
102
{ACAD_REACTORS
330
56AE
102
}
330
56AE
100
AcDbXrecord
280
     1
  1
171_
  1
171_*
  1
*
  1
*
 70
     0
  1
*
  1
*
  0
XRECORD
  5
56B5
102
{ACAD_REACTORS
330
56AE
102
}
330
56AE
100
AcDbXrecord
280
     1
  1
350_
  1
350_*
  1
*
  1
*
 70
     0
  1
*
  1
*
  0
XRECORD
  5
56B6
102
{ACAD_REACTORS
330
56AE
102
}
330
56AE
100
AcDbXrecord
280
     1
  1
4
  1
*4
  1
*
  1
*
 70
     0
  1
*
  1
*
  0
XRECORD
  5
56B7
102
{ACAD_REACTORS
330
56AE
102
}
330
56AE
100
AcDbXrecord
280
     1
  1
5
  1
*5
  1
*
  1
*
 70
     0
  1
*
  1
*
  0
XRECORD
  5
56B8
102
{ACAD_REACTORS
330
56AE
102
}
330
56AE
100
AcDbXrecord
280
     1
  1
7
  1
*7
  1
*
  1
*
 70
     0
  1
*
  1
*
  0
XRECORD
  5
56B9
102
{ACAD_REACTORS
330
56AE
102
}
330
56AE
100
AcDbXrecord
280
     1
  1
kiseki
  1
kiseki*
  1
*
  1
*
 70
     0
  1
*
  1
*
  0
ENDSEC
  0
EOF
