  0
SECTION
  2
HEADER
  9
$ACADVER
  1
AC1015
  9
$ACADMAINTVER
 70
    10
  9
$DWGCODEPAGE
  3
ANSI_932
  9
$INSBASE
 10
0.0
 20
0.0
 30
0.0
  9
$EXTMIN
 10
230.1925189533631
 20
-3259.856400786858
 30
0.0
  9
$EXTMAX
 10
1225.200351471628
 20
-2595.014381831564
 30
137.5
  9
$LIMMIN
 10
0.0
 20
0.0
  9
$LIMMAX
 10
420.0
 20
297.0
  9
$ORTHOMODE
 70
     0
  9
$REGENMODE
 70
     1
  9
$FILLMODE
 70
     1
  9
$QTEXTMODE
 70
     0
  9
$MIRRTEXT
 70
     0
  9
$LTSCALE
 40
20.0
  9
$ATTMODE
 70
     2
  9
$TEXTSIZE
 40
2.5
  9
$TRACEWID
 40
1.0
  9
$TEXTSTYLE
  7
まこ
  9
$CLAYER
  8
A
  9
$CELTYPE
  6
BYLAYER
  9
$CECOLOR
 62
   256
  9
$CELTSCALE
 40
1.0
  9
$DISPSILH
 70
     0
  9
$DIMSCALE
 40
1.5
  9
$DIMASZ
 40
2.5
  9
$DIMEXO
 40
0.8
  9
$DIMDLI
 40
0.38
  9
$DIMRND
 40
0.0
  9
$DIMDLE
 40
0.0
  9
$DIMEXE
 40
0.18
  9
$DIMTP
 40
0.0
  9
$DIMTM
 40
0.0
  9
$DIMTXT
 40
3.0
  9
$DIMCEN
 40
0.0
  9
$DIMTSZ
 40
0.0
  9
$DIMTOL
 70
     0
  9
$DIMLIM
 70
     0
  9
$DIMTIH
 70
     0
  9
$DIMTOH
 70
     0
  9
$DIMSE1
 70
     0
  9
$DIMSE2
 70
     0
  9
$DIMTAD
 70
     3
  9
$DIMZIN
 70
     8
  9
$DIMBLK
  1
Open30
  9
$DIMASO
 70
     1
  9
$DIMSHO
 70
     1
  9
$DIMPOST
  1

  9
$DIMAPOST
  1

  9
$DIMALT
 70
     0
  9
$DIMALTD
 70
     2
  9
$DIMALTF
 40
25.4
  9
$DIMLFAC
 40
1.0
  9
$DIMTOFL
 70
     0
  9
$DIMTVP
 40
0.0
  9
$DIMTIX
 70
     0
  9
$DIMSOXD
 70
     0
  9
$DIMSAH
 70
     0
  9
$DIMBLK1
  1

  9
$DIMBLK2
  1

  9
$DIMSTYLE
  2
まこ
  9
$DIMCLRD
 70
     4
  9
$DIMCLRE
 70
     4
  9
$DIMCLRT
 70
   256
  9
$DIMTFAC
 40
1.0
  9
$DIMGAP
 40
0.5
  9
$DIMJUST
 70
     0
  9
$DIMSD1
 70
     0
  9
$DIMSD2
 70
     0
  9
$DIMTOLJ
 70
     1
  9
$DIMTZIN
 70
     0
  9
$DIMALTZ
 70
     0
  9
$DIMALTTZ
 70
     0
  9
$DIMUPT
 70
     0
  9
$DIMDEC
 70
     8
  9
$DIMTDEC
 70
     8
  9
$DIMALTU
 70
     2
  9
$DIMALTTD
 70
     2
  9
$DIMTXSTY
  7
まこ
  9
$DIMAUNIT
 70
     0
  9
$DIMADEC
 70
     0
  9
$DIMALTRND
 40
0.0
  9
$DIMAZIN
 70
     0
  9
$DIMDSEP
 70
    46
  9
$DIMATFIT
 70
     1
  9
$DIMFRAC
 70
     0
  9
$DIMLDRBLK
  1
Open30
  9
$DIMLUNIT
 70
     2
  9
$DIMLWD
 70
    13
  9
$DIMLWE
 70
    13
  9
$DIMTMOVE
 70
     0
  9
$LUNITS
 70
     2
  9
$LUPREC
 70
     4
  9
$SKETCHINC
 40
1.0
  9
$FILLETRAD
 40
2.0
  9
$AUNITS
 70
     0
  9
$AUPREC
 70
     0
  9
$MENU
  1
.
  9
$ELEVATION
 40
0.0
  9
$PELEVATION
 40
0.0
  9
$THICKNESS
 40
0.0
  9
$LIMCHECK
 70
     0
  9
$CHAMFERA
 40
1.0
  9
$CHAMFERB
 40
1.0
  9
$CHAMFERC
 40
20.0
  9
$CHAMFERD
 40
0.0
  9
$SKPOLY
 70
     0
  9
$TDCREATE
 40
2451224.660162384
  9
$TDUCREATE
 40
2451224.285162384
  9
$TDUPDATE
 40
2456736.447059815
  9
$TDUUPDATE
 40
2456736.072059814
  9
$TDINDWG
 40
17.5431577546
  9
$TDUSRTIMER
 40
17.5431577546
  9
$USRTIMER
 70
     1
  9
$ANGBASE
 50
0.0
  9
$ANGDIR
 70
     0
  9
$PDMODE
 70
     0
  9
$PDSIZE
 40
0.0
  9
$PLINEWID
 40
0.0
  9
$SPLFRAME
 70
     0
  9
$SPLINETYPE
 70
     6
  9
$SPLINESEGS
 70
     8
  9
$HANDSEED
  5
2BBB9
  9
$SURFTAB1
 70
     6
  9
$SURFTAB2
 70
     6
  9
$SURFTYPE
 70
     6
  9
$SURFU
 70
     6
  9
$SURFV
 70
     6
  9
$UCSBASE
  2

  9
$UCSNAME
  2

  9
$UCSORG
 10
0.0
 20
0.0
 30
0.0
  9
$UCSXDIR
 10
1.0
 20
0.0
 30
0.0
  9
$UCSYDIR
 10
0.0
 20
1.0
 30
0.0
  9
$UCSORTHOREF
  2

  9
$UCSORTHOVIEW
 70
     0
  9
$UCSORGTOP
 10
0.0
 20
0.0
 30
0.0
  9
$UCSORGBOTTOM
 10
0.0
 20
0.0
 30
0.0
  9
$UCSORGLEFT
 10
0.0
 20
0.0
 30
0.0
  9
$UCSORGRIGHT
 10
0.0
 20
0.0
 30
0.0
  9
$UCSORGFRONT
 10
0.0
 20
0.0
 30
0.0
  9
$UCSORGBACK
 10
0.0
 20
0.0
 30
0.0
  9
$PUCSBASE
  2

  9
$PUCSNAME
  2

  9
$PUCSORG
 10
0.0
 20
0.0
 30
0.0
  9
$PUCSXDIR
 10
1.0
 20
0.0
 30
0.0
  9
$PUCSYDIR
 10
0.0
 20
1.0
 30
0.0
  9
$PUCSORTHOREF
  2

  9
$PUCSORTHOVIEW
 70
     0
  9
$PUCSORGTOP
 10
0.0
 20
0.0
 30
0.0
  9
$PUCSORGBOTTOM
 10
0.0
 20
0.0
 30
0.0
  9
$PUCSORGLEFT
 10
0.0
 20
0.0
 30
0.0
  9
$PUCSORGRIGHT
 10
0.0
 20
0.0
 30
0.0
  9
$PUCSORGFRONT
 10
0.0
 20
0.0
 30
0.0
  9
$PUCSORGBACK
 10
0.0
 20
0.0
 30
0.0
  9
$USERI1
 70
     0
  9
$USERI2
 70
     0
  9
$USERI3
 70
     0
  9
$USERI4
 70
     0
  9
$USERI5
 70
     0
  9
$USERR1
 40
245.9999999999999
  9
$USERR2
 40
0.0
  9
$USERR3
 40
0.0
  9
$USERR4
 40
0.0
  9
$USERR5
 40
0.0
  9
$WORLDVIEW
 70
     1
  9
$SHADEDGE
 70
     3
  9
$SHADEDIF
 70
    70
  9
$TILEMODE
 70
     0
  9
$MAXACTVP
 70
    48
  9
$PINSBASE
 10
0.0
 20
0.0
 30
0.0
  9
$PLIMCHECK
 70
     0
  9
$PEXTMIN
 10
-0.0131473917864469
 20
-1.510255289889414
 30
-0.0015258207003583
  9
$PEXTMAX
 10
404.527720507272
 20
288.0160094992691
 30
0.0000000349246037
  9
$PLIMMIN
 10
-7.371316642439809
 20
-4.21892101672941
  9
$PLIMMAX
 10
414.9698683395445
 20
294.3362340259712
  9
$UNITMODE
 70
     0
  9
$VISRETAIN
 70
     1
  9
$PLINEGEN
 70
     0
  9
$PSLTSCALE
 70
     0
  9
$TREEDEPTH
 70
  3020
  9
$CMLSTYLE
  2
STANDARD
  9
$CMLJUST
 70
     0
  9
$CMLSCALE
 40
20.0
  9
$PROXYGRAPHICS
 70
     1
  9
$MEASUREMENT
 70
     0
  9
$CELWEIGHT
370
    -1
  9
$ENDCAPS
280
     0
  9
$JOINSTYLE
280
     0
  9
$LWDISPLAY
290
     0
  9
$INSUNITS
 70
     0
  9
$HYPERLINKBASE
  1

  9
$STYLESHEET
  1
monochrome.ctb
  9
$XEDIT
290
     1
  9
$CEPSNTYPE
380
     0
  9
$PSTYLEMODE
290
     1
  9
$FINGERPRINTGUID
  2
{D14EE3FF-941A-415A-9907-344E0A80D794}
  9
$VERSIONGUID
  2
{3AD02183-1FE6-40AD-BE91-92467DC70C16}
  9
$EXTNAMES
290
     1
  9
$PSVPSCALE
 40
0.0
  9
$OLESTARTUP
290
     0
  0
ENDSEC
  0
SECTION
  2
CLASSES
  0
CLASS
  1
HATCH
  2
AcDbHatch
  3
AutoCAD 2000
 90
    32768
280
     0
281
     1
  0
CLASS
  1
LWPOLYLINE
  2
AcDbPolyline
  3
AutoCAD 2000
 90
    32768
280
     0
281
     1
  0
CLASS
  1
ACDBDICTIONARYWDFLT
  2
AcDbDictionaryWithDefault
  3
AutoCAD 2000
 90
        0
280
     0
281
     0
  0
CLASS
  1
ACDBPLACEHOLDER
  2
AcDbPlaceHolder
  3
AutoCAD 2000
 90
        0
280
     0
281
     0
  0
CLASS
  1
LAYOUT
  2
AcDbLayout
  3
AutoCAD 2000
 90
        0
280
     0
281
     0
  0
CLASS
  1
LONG_TRANSACTION
  2
AcDbLongTransaction
  3
AutoCAD 2000
 90
    32768
280
     0
281
     0
  0
CLASS
  1
LWPOLYLINE
  2
AcDbPolyline
  3
AutoCAD 2000
 90
    32768
280
     0
281
     1
  0
CLASS
  1
HATCH
  2
AcDbHatch
  3
AutoCAD 2000
 90
    32768
280
     0
281
     1
  0
CLASS
  1
XRECORD
  2
AcDbXrecord
  3
AutoCAD 2000
 90
    32768
280
     0
281
     0
  0
CLASS
  1
DICTIONARYVAR
  2
AcDbDictionaryVar
  3
AutoCAD 2000
 90
        0
280
     0
281
     0
  0
ENDSEC
  0
SECTION
  2
TABLES
  0
TABLE
  2
VPORT
  5
8
330
0
100
AcDbSymbolTable
 70
     1
  0
VPORT
  5
2BB1B
330
8
100
AcDbSymbolTableRecord
100
AcDbViewportTableRecord
  2
*Active
 70
     0
 10
0.0
 20
0.0
 11
1.0
 21
1.0
 12
949.1500831497731
 22
-2953.234030015256
 13
0.0
 23
0.0
 14
10.0
 24
10.0
 15
10.0
 25
10.0
 16
0.0
 26
0.0
 36
1.0
 17
0.0
 27
0.0
 37
0.0
 40
279.5540531782551
 41
1.562182741116751
 42
50.0
 43
0.0
 44
0.0
 50
0.0
 51
0.0
 71
     0
 72
   100
 73
     1
 74
     0
 75
     0
 76
     0
 77
     0
 78
     0
281
     0
 65
     1
110
0.0
120
0.0
130
0.0
111
1.0
121
0.0
131
0.0
112
0.0
122
1.0
132
0.0
 79
     0
146
0.0
  0
ENDTAB
  0
TABLE
  2
LTYPE
  5
5
330
0
100
AcDbSymbolTable
 70
    10
  0
LTYPE
  5
12
330
5
100
AcDbSymbolTableRecord
100
AcDbLinetypeTableRecord
  2
BYBLOCK
 70
     0
  3

 72
    65
 73
     0
 40
0.0
  0
LTYPE
  5
13
330
5
100
AcDbSymbolTableRecord
100
AcDbLinetypeTableRecord
  2
BYLAYER
 70
     0
  3

 72
    65
 73
     0
 40
0.0
  0
LTYPE
  5
14
330
5
100
AcDbSymbolTableRecord
100
AcDbLinetypeTableRecord
  2
CONTINUOUS
 70
     0
  3
Solid line
 72
    65
 73
     0
 40
0.0
  0
LTYPE
  5
2F
330
5
100
AcDbSymbolTableRecord
100
AcDbLinetypeTableRecord
  2
DOT
 70
     0
  3
Dot . . . . . . . . . . . . . . . . . . . . . .
 72
    65
 73
     2
 40
0.25
 49
0.0
 74
     0
 49
-0.25
 74
     0
  0
LTYPE
  5
126C
330
5
100
AcDbSymbolTableRecord
100
AcDbLinetypeTableRecord
  2
CENTER
 70
     0
  3
____ _ ____ _ ____ _ ____ _ ____ _ ____ _ ____
 72
    65
 73
     4
 40
2.0
 49
1.25
 74
     0
 49
-0.25
 74
     0
 49
0.25
 74
     0
 49
-0.25
 74
     0
  0
LTYPE
  5
126E
330
5
100
AcDbSymbolTableRecord
100
AcDbLinetypeTableRecord
  2
DASHDOT
 70
     0
  3
__ . __ . __ . __ . __ . __ . __ . __ . __ . __
 72
    65
 73
     4
 40
1.0
 49
0.5
 74
     0
 49
-0.25
 74
     0
 49
0.0
 74
     0
 49
-0.25
 74
     0
  0
LTYPE
  5
1541F
330
5
100
AcDbSymbolTableRecord
100
AcDbLinetypeTableRecord
  2
HIDDEN
 70
     0
  3
_ _ _ _ _ _ _ _ _ _ _ _ _ _ _ _ _ _ _ _ _ _ _
 72
    65
 73
     2
 40
0.375
 49
0.25
 74
     0
 49
-0.125
 74
     0
  0
LTYPE
  5
15420
330
5
100
AcDbSymbolTableRecord
100
AcDbLinetypeTableRecord
  2
CENTER2
 70
     0
  3
Center (.5x) ___ _ ___ _ ___ _ ___ _ ___ _ ___
 72
    65
 73
     4
 40
1.125
 49
0.75
 74
     0
 49
-0.125
 74
     0
 49
0.125
 74
     0
 49
-0.125
 74
     0
  0
LTYPE
  5
15421
330
5
100
AcDbSymbolTableRecord
100
AcDbLinetypeTableRecord
  2
PHANTOM2
 70
     0
  3
Phantom (.5x) ___ _ _ ___ _ _ ___ _ _ ___ _ _
 72
    65
 73
     6
 40
1.25
 49
0.625
 74
     0
 49
-0.125
 74
     0
 49
0.125
 74
     0
 49
-0.125
 74
     0
 49
0.125
 74
     0
 49
-0.125
 74
     0
  0
ENDTAB
  0
TABLE
  2
LAYER
  5
2
102
{ACAD_XDICTIONARY
360
25084
102
}
330
0
100
AcDbSymbolTable
 70
    24
  0
LAYER
  5
E
330
2
100
AcDbSymbolTableRecord
100
AcDbLayerTableRecord
  2
0
 70
     2
 62
     7
  6
CONTINUOUS
370
    35
390
FB5C
  0
LAYER
  5
2C
330
2
100
AcDbSymbolTableRecord
100
AcDbLayerTableRecord
  2
M_VIEW
 70
     4
 62
    -1
  6
CONTINUOUS
370
    -3
390
FB5C
  0
LAYER
  5
30
330
2
100
AcDbSymbolTableRecord
100
AcDbLayerTableRecord
  2
FRAME025
 70
     0
 62
     7
  6
CONTINUOUS
370
    -3
390
FB5C
  0
LAYER
  5
31
330
2
100
AcDbSymbolTableRecord
100
AcDbLayerTableRecord
  2
FRAME050
 70
     0
 62
     7
  6
CONTINUOUS
370
    -3
390
FB5C
  0
LAYER
  5
32
330
2
100
AcDbSymbolTableRecord
100
AcDbLayerTableRecord
  2
FRAME070
 70
     0
 62
     7
  6
CONTINUOUS
370
    -3
390
FB5C
  0
LAYER
  5
12B
330
2
100
AcDbSymbolTableRecord
100
AcDbLayerTableRecord
  2
DEFPOINTS
 70
     4
 62
    -7
  6
CONTINUOUS
290
     0
370
    -3
390
FB5C
  0
LAYER
  5
651
330
2
100
AcDbSymbolTableRecord
100
AcDbLayerTableRecord
  2
FRAME020
 70
     0
 62
    -7
  6
CONTINUOUS
370
    -3
390
FB5C
  0
LAYER
  5
1271
330
2
100
AcDbSymbolTableRecord
100
AcDbLayerTableRecord
  2
A
 70
     0
 62
     7
  6
CONTINUOUS
370
    -3
390
FB5C
  0
LAYER
  5
A9BB
330
2
100
AcDbSymbolTableRecord
100
AcDbLayerTableRecord
  2
文字
 70
     0
 62
     2
  6
CONTINUOUS
370
    30
390
FB5C
  0
LAYER
  5
122DE
330
2
100
AcDbSymbolTableRecord
100
AcDbLayerTableRecord
  2
dimension
 70
     0
 62
    -4
  6
CONTINUOUS
370
    13
390
FB5C
  0
LAYER
  5
15422
330
2
100
AcDbSymbolTableRecord
100
AcDbLayerTableRecord
  2
細線
 70
     0
 62
     4
  6
CONTINUOUS
370
    13
390
FB5C
  0
LAYER
  5
15425
330
2
100
AcDbSymbolTableRecord
100
AcDbLayerTableRecord
  2
中心線
 70
     0
 62
    13
  6
CENTER2
370
    13
390
FB5C
  0
LAYER
  5
15426
330
2
100
AcDbSymbolTableRecord
100
AcDbLayerTableRecord
  2
仮想線
 70
     0
 62
     5
  6
PHANTOM2
370
     9
390
FB5C
  0
LAYER
  5
1A846
330
2
100
AcDbSymbolTableRecord
100
AcDbLayerTableRecord
  2
実線
 70
     0
 62
     3
  6
CONTINUOUS
370
    40
390
FB5C
  0
LAYER
  5
1BB55
330
2
100
AcDbSymbolTableRecord
100
AcDbLayerTableRecord
  2
ﾊｯﾁﾝｸﾞ
 70
     0
 62
   231
  6
CONTINUOUS
370
     5
390
FB5C
  0
LAYER
  5
1F118
330
2
100
AcDbSymbolTableRecord
100
AcDbLayerTableRecord
  2
wakumoji
 70
     0
 62
     7
  6
CONTINUOUS
370
    -3
390
FB5C
  0
LAYER
  5
25091
330
2
100
AcDbSymbolTableRecord
100
AcDbLayerTableRecord
  2
waku
 70
     0
 62
     7
  6
CONTINUOUS
370
    -3
390
FB5C
  0
LAYER
  5
25148
330
2
100
AcDbSymbolTableRecord
100
AcDbLayerTableRecord
  2
破線
 70
     0
 62
     8
  6
HIDDEN
370
    13
390
FB5C
  0
ENDTAB
  0
TABLE
  2
STYLE
  5
3
330
0
100
AcDbSymbolTable
 70
    16
  0
STYLE
  5
F
330
3
100
AcDbSymbolTableRecord
100
AcDbTextStyleTableRecord
  2
STANDARD
 70
     0
 40
0.0
 41
1.0
 50
0.0
 71
     0
 42
2.5
  3
MS Gothic.ttf
  4

1001
ACAD
1000
MS Gothic
1071
    32817
  0
STYLE
  5
34
330
3
100
AcDbSymbolTableRecord
100
AcDbTextStyleTableRecord
  2
TIMESNR
 70
     0
 40
0.0
 41
1.0
 50
0.0
 71
     0
 42
2.0
  3
MS Gothic.ttf
  4

1001
ACAD
1000
MS Gothic
1071
    32817
  0
STYLE
  5
35
330
3
100
AcDbSymbolTableRecord
100
AcDbTextStyleTableRecord
  2
MSｺﾞｼｯｸ
 70
     0
 40
0.0
 41
1.0
 50
0.0
 71
     0
 42
5.0
  3
MS Gothic.ttf
  4

1001
ACAD
1000
MS Gothic
1071
    32817
  0
STYLE
  5
36
330
3
100
AcDbSymbolTableRecord
100
AcDbTextStyleTableRecord
  2
ISOCP
 70
     0
 40
0.0
 41
1.0
 50
0.0
 71
     0
 42
2.5
  3
MS Gothic.ttf
  4

1001
ACAD
1000
MS Gothic
1071
    32817
  0
STYLE
  5
1275
330
3
100
AcDbSymbolTableRecord
100
AcDbTextStyleTableRecord
  2
BIGFONT
 70
     0
 40
2.0
 41
1.0
 50
0.0
 71
     0
 42
2.0
  3
MS Gothic.ttf
  4

1001
ACAD
1000
MS Gothic
1071
    32817
  0
STYLE
  5
1A848
330
3
100
AcDbSymbolTableRecord
100
AcDbTextStyleTableRecord
  2
MSｺﾞｼｯｸ-0
 70
     0
 40
0.0
 41
1.0
 50
0.0
 71
     0
 42
4.0
  3
MS Gothic.ttf
  4

1001
ACAD
1000
MS Gothic
1071
    32817
  0
STYLE
  5
1A849
330
3
100
AcDbSymbolTableRecord
100
AcDbTextStyleTableRecord
  2
まこ
 70
     0
 40
0.0
 41
1.0
 50
0.0
 71
     0
 42
2.5
  3
MS Gothic.ttf
  4

1001
ACAD
1000
MS Gothic
1071
    32817
  0
STYLE
  5
1A84A
330
3
100
AcDbSymbolTableRecord
100
AcDbTextStyleTableRecord
  2
ｽﾀｲﾙ3
 70
     0
 40
10.0
 41
1.0
 50
0.0
 71
     0
 42
10.0
  3
MS Gothic.ttf
  4

1001
ACAD
1000
MS Gothic
1071
    32817
  0
STYLE
  5
1F8B3
330
3
100
AcDbSymbolTableRecord
100
AcDbTextStyleTableRecord
  2
MSｺﾞｼｯｸN
 70
     0
 40
0.0
 41
1.0
 50
0.0
 71
     0
 42
5.0
  3
MS Gothic.ttf
  4

1001
ACAD
1000
MS Gothic
1071
    32817
  0
STYLE
  5
1FA56
330
3
100
AcDbSymbolTableRecord
100
AcDbTextStyleTableRecord
  2
MSゴシックN
 70
     0
 40
0.0
 41
1.0
 50
0.0
 71
     0
 42
5.0
  3
MS Gothic.ttf
  4

1001
ACAD
1000
MS Gothic
1071
    32817
  0
ENDTAB
  0
TABLE
  2
VIEW
  5
6
330
0
100
AcDbSymbolTable
 70
     0
  0
ENDTAB
  0
TABLE
  2
UCS
  5
7
330
0
100
AcDbSymbolTable
 70
     0
  0
ENDTAB
  0
TABLE
  2
APPID
  5
9
330
0
100
AcDbSymbolTable
 70
     4
  0
APPID
  5
10
330
9
100
AcDbSymbolTableRecord
100
AcDbRegAppTableRecord
  2
ACAD
 70
     0
  0
APPID
  5
F013
330
9
100
AcDbSymbolTableRecord
100
AcDbRegAppTableRecord
  2
CONTENTBLOCKDESCRIPTION
 70
     0
  0
APPID
  5
F014
330
9
100
AcDbSymbolTableRecord
100
AcDbRegAppTableRecord
  2
CONTENTBLOCKICON
 70
     0
  0
APPID
  5
1A9A0
330
9
100
AcDbSymbolTableRecord
100
AcDbRegAppTableRecord
  2
DCO15
 70
     0
  0
ENDTAB
  0
TABLE
  2
DIMSTYLE
  5
A
330
0
100
AcDbSymbolTable
 70
    14
100
AcDbDimStyleTable
 71
     2
340
1A84D
340
1D
  0
DIMSTYLE
105
1D
330
A
100
AcDbSymbolTableRecord
100
AcDbDimStyleTableRecord
  2
STANDARD
 70
     0
340
F
  0
DIMSTYLE
105
1A84D
102
{ACAD_REACTORS
330
28F24
330
28F23
330
29036
330
28FDA
330
28FD9
330
28FD8
330
28FD7
330
28F1B
330
28F1A
330
28F19
330
28F22
330
28F18
330
28FDB
330
28F16
102
}
330
A
100
AcDbSymbolTableRecord
100
AcDbDimStyleTableRecord
  2
まこ
 70
     0
 40
1.5
 41
2.5
 42
0.8
 73
     0
 74
     0
 77
     3
 78
     8
140
3.0
141
0.0
147
0.5
176
     4
177
     4
178
   256
271
     8
272
     8
289
     1
340
1A849
341
1215D
342
1215D
371
    13
372
    13
  0
ENDTAB
  0
TABLE
  2
BLOCK_RECORD
  5
1
330
0
100
AcDbSymbolTable
 70
    37
  0
BLOCK_RECORD
  5
18
102
{ACAD_XDICTIONARY
360
EFC6
102
}
330
1
100
AcDbSymbolTableRecord
100
AcDbBlockTableRecord
  2
*MODEL_SPACE
340
FB5D
  0
BLOCK_RECORD
  5
2AACE
102
{ACAD_XDICTIONARY
360
2ABBC
102
}
330
1
100
AcDbSymbolTableRecord
100
AcDbBlockTableRecord
  2
*PAPER_SPACE
340
2ABBF
  0
BLOCK_RECORD
  5
C73
330
1
100
AcDbSymbolTableRecord
100
AcDbBlockTableRecord
  2
*X0
340
0
102
{BLKREFS
331
2AAD7
102
}
  0
BLOCK_RECORD
  5
115C
330
1
100
AcDbSymbolTableRecord
100
AcDbBlockTableRecord
  2
機械A4横_LBP
340
0
102
{BLKREFS
331
187D7
331
2AB75
102
}
  0
BLOCK_RECORD
  5
1215D
330
1
100
AcDbSymbolTableRecord
100
AcDbBlockTableRecord
  2
_Open30
340
0
102
{BLKREFS
331
29EFF
331
29F00
331
29F08
331
29F09
331
29F46
331
29F47
331
29F4F
331
29F50
331
29F58
331
29F59
331
29F61
331
29F62
331
29F6C
331
29F6D
331
29F77
331
29F78
331
29F80
331
29F81
331
29FF3
331
2A000
331
2A00A
331
2A00B
331
2A8CE
331
2A8CF
331
2A8D7
331
2A8D8
102
}
  0
BLOCK_RECORD
  5
153E2
330
1
100
AcDbSymbolTableRecord
100
AcDbBlockTableRecord
  2
_DotSmall
340
0
102
{BLKREFS
331
29FF2
331
2A001
102
}
  0
BLOCK_RECORD
  5
2904B
330
1
100
AcDbSymbolTableRecord
100
AcDbBlockTableRecord
  2
*D23
340
0
  0
BLOCK_RECORD
  5
29057
330
1
100
AcDbSymbolTableRecord
100
AcDbBlockTableRecord
  2
*D24
340
0
  0
BLOCK_RECORD
  5
2906F
330
1
100
AcDbSymbolTableRecord
100
AcDbBlockTableRecord
  2
*D25
340
0
  0
BLOCK_RECORD
  5
2907D
330
1
100
AcDbSymbolTableRecord
100
AcDbBlockTableRecord
  2
*D26
340
0
  0
BLOCK_RECORD
  5
2908B
330
1
100
AcDbSymbolTableRecord
100
AcDbBlockTableRecord
  2
*D27
340
0
  0
BLOCK_RECORD
  5
2909B
330
1
100
AcDbSymbolTableRecord
100
AcDbBlockTableRecord
  2
*D28
340
0
  0
BLOCK_RECORD
  5
290A7
330
1
100
AcDbSymbolTableRecord
100
AcDbBlockTableRecord
  2
*D29
340
0
  0
BLOCK_RECORD
  5
290CB
330
1
100
AcDbSymbolTableRecord
100
AcDbBlockTableRecord
  2
*D30
340
0
  0
BLOCK_RECORD
  5
290D7
330
1
100
AcDbSymbolTableRecord
100
AcDbBlockTableRecord
  2
*D31
340
0
  0
BLOCK_RECORD
  5
290E3
330
1
100
AcDbSymbolTableRecord
100
AcDbBlockTableRecord
  2
*D32
340
0
  0
BLOCK_RECORD
  5
290EF
330
1
100
AcDbSymbolTableRecord
100
AcDbBlockTableRecord
  2
*D33
340
0
  0
BLOCK_RECORD
  5
290FB
330
1
100
AcDbSymbolTableRecord
100
AcDbBlockTableRecord
  2
*D34
340
0
  0
BLOCK_RECORD
  5
29145
330
1
100
AcDbSymbolTableRecord
100
AcDbBlockTableRecord
  2
*D35
340
0
  0
BLOCK_RECORD
  5
29151
330
1
100
AcDbSymbolTableRecord
100
AcDbBlockTableRecord
  2
*D36
340
0
  0
ENDTAB
  0
ENDSEC
  0
SECTION
  2
BLOCKS
  0
BLOCK
  5
19
330
18
100
AcDbEntity
  8
0
100
AcDbBlockBegin
  2
*MODEL_SPACE
 70
     0
 10
0.0
 20
0.0
 30
0.0
  3
*MODEL_SPACE
  1

  0
ENDBLK
  5
1A
330
18
100
AcDbEntity
  8
0
100
AcDbBlockEnd
  0
BLOCK
  5
2ABBD
330
2AACE
100
AcDbEntity
 67
     1
  8
0
100
AcDbBlockBegin
  2
*PAPER_SPACE
 70
     0
 10
0.0
 20
0.0
 30
0.0
  3
*PAPER_SPACE
  1

  0
ENDBLK
  5
2ABBE
330
2AACE
100
AcDbEntity
 67
     1
  8
0
100
AcDbBlockEnd
  0
BLOCK
  5
D62
330
C73
100
AcDbEntity
  8
0
100
AcDbBlockBegin
  2
*X0
 70
     1
 10
0.0
 20
0.0
 30
0.0
  3
*X0
  1

  0
LINE
  5
C74
330
C73
100
AcDbEntity
  8
FRAME025
 62
     0
100
AcDbLine
 10
234.4170293750505
 20
13.47656637501591
 30
0.0
 11
234.3885957500666
 21
13.50499999999998
 31
0.0
  0
LINE
  5
C75
330
C73
100
AcDbEntity
  8
FRAME025
 62
     0
100
AcDbLine
 10
234.3092916652106
 20
13.44270595192333
 30
0.0
 11
234.246997617134
 21
13.50499999999998
 31
0.0
  0
LINE
  5
C76
330
C73
100
AcDbEntity
  8
FRAME025
 62
     0
100
AcDbLine
 10
234.2015539553706
 20
13.40884552883072
 30
0.0
 11
234.1053994842014
 21
13.50499999999994
 31
0.0
  0
LINE
  5
C77
330
C73
100
AcDbEntity
  8
FRAME025
 62
     0
100
AcDbLine
 10
234.0938162455305
 20
13.37498510573817
 30
0.0
 11
233.9638013512686
 21
13.50499999999998
 31
0.0
  0
LINE
  5
C78
330
C73
100
AcDbEntity
  8
FRAME025
 62
     0
100
AcDbLine
 10
233.9860785356906
 20
13.34112468264561
 30
0.0
 11
233.8222032183361
 21
13.50499999999998
 31
0.0
  0
LINE
  5
C79
330
C73
100
AcDbEntity
  8
FRAME025
 62
     0
100
AcDbLine
 10
233.8783408258505
 20
13.307264259553
 30
0.0
 11
233.6806050854035
 21
13.50499999999994
 31
0.0
  0
LINE
  5
C7A
330
C73
100
AcDbEntity
  8
FRAME025
 62
     0
100
AcDbLine
 10
233.7706031160105
 20
13.27340383646043
 30
0.0
 11
233.5390069524708
 21
13.50499999999998
 31
0.0
  0
LINE
  5
C7B
330
C73
100
AcDbEntity
  8
FRAME025
 62
     0
100
AcDbLine
 10
233.6628654061704
 20
13.23954341336785
 30
0.0
 11
233.3974088195382
 21
13.50499999999998
 31
0.0
  0
LINE
  5
C7C
330
C73
100
AcDbEntity
  8
FRAME025
 62
     0
100
AcDbLine
 10
233.5551276963304
 20
13.20568299027526
 30
0.0
 11
233.2558106866057
 21
13.50499999999998
 31
0.0
  0
LINE
  5
C7D
330
C73
100
AcDbEntity
  8
FRAME025
 62
     0
100
AcDbLine
 10
233.4473899864903
 20
13.17182256718267
 30
0.0
 11
233.1142125536731
 21
13.50499999999996
 31
0.0
  0
LINE
  5
C7E
330
C73
100
AcDbEntity
  8
FRAME025
 62
     0
100
AcDbLine
 10
233.3396522766503
 20
13.1379621440901
 30
0.0
 11
232.9726144207405
 21
13.50499999999999
 31
0.0
  0
LINE
  5
C7F
330
C73
100
AcDbEntity
  8
FRAME025
 62
     0
100
AcDbLine
 10
233.2319145668102
 20
13.10410172099752
 30
0.0
 11
232.8310162878079
 21
13.50499999999998
 31
0.0
  0
LINE
  5
C80
330
C73
100
AcDbEntity
  8
FRAME025
 62
     0
100
AcDbLine
 10
233.1241768569703
 20
13.07024129790494
 30
0.0
 11
232.6894181548752
 21
13.50499999999996
 31
0.0
  0
LINE
  5
C81
330
C73
100
AcDbEntity
  8
FRAME025
 62
     0
100
AcDbLine
 10
234.2948260523079
 20
11.8995921025673
 30
0.0
 11
234.1912931548753
 21
12.00312499999998
 31
0.0
  0
LINE
  5
C82
330
C73
100
AcDbEntity
  8
FRAME025
 62
     0
100
AcDbLine
 10
233.0164391471303
 20
13.03638087481234
 30
0.0
 11
232.5478200219426
 21
13.50499999999996
 31
0.0
  0
LINE
  5
C83
330
C73
100
AcDbEntity
  8
FRAME025
 62
     0
100
AcDbLine
 10
234.2796548237795
 20
11.77316519816318
 30
0.0
 11
234.0496950219427
 21
12.00312499999998
 31
0.0
  0
LINE
  5
C84
330
C73
100
AcDbEntity
  8
FRAME025
 62
     0
100
AcDbLine
 10
232.9087014372901
 20
13.00252045171977
 30
0.0
 11
232.40622188901
 21
13.50499999999996
 31
0.0
  0
LINE
  5
C85
330
C73
100
AcDbEntity
  8
FRAME025
 62
     0
100
AcDbLine
 10
234.2644835952509
 20
11.64673829375905
 30
0.0
 11
233.9080968890101
 21
12.00312499999998
 31
0.0
  0
LINE
  5
C86
330
C73
100
AcDbEntity
  8
FRAME025
 62
     0
100
AcDbLine
 10
232.8009637274501
 20
12.96866002862722
 30
0.0
 11
232.2646237560774
 21
13.50499999999999
 31
0.0
  0
LINE
  5
C87
330
C73
100
AcDbEntity
  8
FRAME025
 62
     0
100
AcDbLine
 10
234.2493123667224
 20
11.52031138935494
 30
0.0
 11
233.7664987560775
 21
12.00312499999998
 31
0.0
  0
LINE
  5
C88
330
C73
100
AcDbEntity
  8
FRAME025
 62
     0
100
AcDbLine
 10
232.6932260176101
 20
12.93479960553463
 30
0.0
 11
232.1230256231447
 21
13.50499999999996
 31
0.0
  0
LINE
  5
C89
330
C73
100
AcDbEntity
  8
FRAME025
 62
     0
100
AcDbLine
 10
234.234141138194
 20
11.39388448495083
 30
0.0
 11
233.6249006231448
 21
12.00312499999998
 31
0.0
  0
LINE
  5
C8A
330
C73
100
AcDbEntity
  8
FRAME025
 62
     0
100
AcDbLine
 10
232.5854883077702
 20
12.90093918244205
 30
0.0
 11
231.9814274902121
 21
13.50499999999996
 31
0.0
  0
LINE
  5
C8B
330
C73
100
AcDbEntity
  8
FRAME025
 62
     0
100
AcDbLine
 10
234.2189699096655
 20
11.26745758054672
 30
0.0
 11
233.4833024902121
 21
12.00312499999998
 31
0.0
  0
LINE
  5
C8C
330
C73
100
AcDbEntity
  8
FRAME025
 62
     0
100
AcDbLine
 10
232.4777505979302
 20
12.86707875934948
 30
0.0
 11
231.8398293572796
 21
13.50499999999999
 31
0.0
  0
LINE
  5
C8D
330
C73
100
AcDbEntity
  8
FRAME025
 62
     0
100
AcDbLine
 10
234.203798681137
 20
11.1410306761426
 30
0.0
 11
233.3417043572797
 21
12.00312499999998
 31
0.0
  0
LINE
  5
C8E
330
C73
100
AcDbEntity
  8
FRAME025
 62
     0
100
AcDbLine
 10
232.37001288809
 20
12.83321833625689
 30
0.0
 11
231.698231224347
 21
13.50499999999996
 31
0.0
  0
LINE
  5
C8F
330
C73
100
AcDbEntity
  8
FRAME025
 62
     0
100
AcDbLine
 10
234.1886274526085
 20
11.01460377173846
 30
0.0
 11
233.2001062243469
 21
12.00312499999998
 31
0.0
  0
LINE
  5
C90
330
C73
100
AcDbEntity
  8
FRAME025
 62
     0
100
AcDbLine
 10
232.2622751782501
 20
12.79935791316431
 30
0.0
 11
231.5566330914144
 21
13.50499999999998
 31
0.0
  0
LINE
  5
C91
330
C73
100
AcDbEntity
  8
FRAME025
 62
     0
100
AcDbLine
 10
234.1734562240799
 20
10.88817686733438
 30
0.0
 11
233.0585080914143
 21
12.00312499999999
 31
0.0
  0
LINE
  5
C92
330
C73
100
AcDbEntity
  8
FRAME025
 62
     0
100
AcDbLine
 10
232.1545374684101
 20
12.76549749007173
 30
0.0
 11
231.4150349584819
 21
13.50499999999998
 31
0.0
  0
LINE
  5
C93
330
C73
100
AcDbEntity
  8
FRAME025
 62
     0
100
AcDbLine
 10
234.1582849955516
 20
10.76174996293028
 30
0.0
 11
232.9169099584818
 21
12.00312500000001
 31
0.0
  0
LINE
  5
C94
330
C73
100
AcDbEntity
  8
FRAME025
 62
     0
100
AcDbLine
 10
232.04679975857
 20
12.73163706697914
 30
0.0
 11
231.2734368255492
 21
13.50499999999998
 31
0.0
  0
LINE
  5
C95
330
C73
100
AcDbEntity
  8
FRAME025
 62
     0
100
AcDbLine
 10
234.143113767023
 20
10.63532305852615
 30
0.0
 11
232.7753118255492
 21
12.00312499999997
 31
0.0
  0
LINE
  5
C96
330
C73
100
AcDbEntity
  8
FRAME025
 62
     0
100
AcDbLine
 10
231.9390620487299
 20
12.69777664388657
 30
0.0
 11
231.1318386926165
 21
13.50499999999998
 31
0.0
  0
LINE
  5
C97
330
C73
100
AcDbEntity
  8
FRAME025
 62
     0
100
AcDbLine
 10
234.1279425384946
 20
10.50889615412205
 30
0.0
 11
232.6337136926165
 21
12.00312499999999
 31
0.0
  0
LINE
  5
C98
330
C73
100
AcDbEntity
  8
FRAME025
 62
     0
100
AcDbLine
 10
231.8313243388899
 20
12.66391622079402
 30
0.0
 11
230.990240559684
 21
13.50499999999998
 31
0.0
  0
LINE
  5
C99
330
C73
100
AcDbEntity
  8
FRAME025
 62
     0
100
AcDbLine
 10
234.1127713099659
 20
10.38246924971792
 30
0.0
 11
232.4921155596839
 21
12.00312499999999
 31
0.0
  0
LINE
  5
C9A
330
C73
100
AcDbEntity
  8
FRAME025
 62
     0
100
AcDbLine
 10
231.7235866290499
 20
12.6300557977014
 30
0.0
 11
230.8486424267514
 21
13.50499999999998
 31
0.0
  0
LINE
  5
C9B
330
C73
100
AcDbEntity
  8
FRAME025
 62
     0
100
AcDbLine
 10
234.0976000814376
 20
10.25604234531376
 30
0.0
 11
232.3505174267514
 21
12.00312499999997
 31
0.0
  0
LINE
  5
C9C
330
C73
100
AcDbEntity
  8
FRAME025
 62
     0
100
AcDbLine
 10
231.61584891921
 20
12.59619537460882
 30
0.0
 11
230.7070442938188
 21
13.50499999999998
 31
0.0
  0
LINE
  5
C9D
330
C73
100
AcDbEntity
  8
FRAME025
 62
     0
100
AcDbLine
 10
234.082428852909
 20
10.1296154409097
 30
0.0
 11
232.2089192938188
 21
12.00312499999999
 31
0.0
  0
LINE
  5
C9E
330
C73
100
AcDbEntity
  8
FRAME025
 62
     0
100
AcDbLine
 10
231.5081112093698
 20
12.56233495151627
 30
0.0
 11
230.5654461608861
 21
13.50499999999998
 31
0.0
  0
LINE
  5
C9F
330
C73
100
AcDbEntity
  8
FRAME025
 62
     0
100
AcDbLine
 10
234.0672576243806
 20
10.00318853650559
 30
0.0
 11
232.0673211608862
 21
12.00312499999999
 31
0.0
  0
LINE
  5
CA0
330
C73
100
AcDbEntity
  8
FRAME025
 62
     0
100
AcDbLine
 10
231.4003734995299
 20
12.52847452842366
 30
0.0
 11
230.4238480279535
 21
13.50499999999998
 31
0.0
  0
LINE
  5
CA1
330
C73
100
AcDbEntity
  8
FRAME025
 62
     0
100
AcDbLine
 10
234.052086395852
 20
9.876761632101477
 30
0.0
 11
231.9257230279536
 21
12.00312499999999
 31
0.0
  0
LINE
  5
CA2
330
C73
100
AcDbEntity
  8
FRAME025
 62
     0
100
AcDbLine
 10
231.8435471848315
 20
11.94370271018932
 30
0.0
 11
231.784124895021
 21
12.00312499999998
 31
0.0
  0
LINE
  5
CA3
330
C73
100
AcDbEntity
  8
FRAME025
 62
     0
100
AcDbLine
 10
232.1461036735001
 20
11.64114622152085
 30
0.0
 11
231.8927087215208
 21
11.8945411735001
 31
0.0
  0
LINE
  5
CA4
330
C73
100
AcDbEntity
  8
FRAME025
 62
     0
100
AcDbLine
 10
231.2926357896899
 20
12.49461410533108
 30
0.0
 11
230.2822498950209
 21
13.50499999999998
 31
0.0
  0
LINE
  5
CA5
330
C73
100
AcDbEntity
  8
FRAME025
 62
     0
100
AcDbLine
 10
234.0369151673236
 20
9.750334727697376
 30
0.0
 11
232.4455777101893
 21
11.34167218483165
 31
0.0
  0
LINE
  5
CA6
330
C73
100
AcDbEntity
  8
FRAME025
 62
     0
100
AcDbLine
 10
231.6538401420105
 20
11.99181162007788
 30
0.0
 11
231.6425267620883
 21
12.00312499999998
 31
0.0
  0
LINE
  5
CA7
330
C73
100
AcDbEntity
  8
FRAME025
 62
     0
100
AcDbLine
 10
232.23853073721
 20
11.40712102487823
 30
0.0
 11
231.6586835248783
 21
11.9869682372101
 31
0.0
  0
LINE
  5
CA8
330
C73
100
AcDbEntity
  8
FRAME025
 62
     0
100
AcDbLine
 10
231.1848980798498
 20
12.46075368223847
 30
0.0
 11
230.1406517620883
 21
13.50499999999998
 31
0.0
  0
LINE
  5
CA9
330
C73
100
AcDbEntity
  8
FRAME025
 62
     0
100
AcDbLine
 10
234.021743938795
 20
9.623907823293222
 30
0.0
 11
232.4936866200779
 21
11.15196514201045
 31
0.0
  0
LINE
  5
CAA
330
C73
100
AcDbEntity
  8
FRAME025
 62
     0
100
AcDbLine
 10
232.2546822196711
 20
11.24937140948448
 30
0.0
 11
231.5009339094844
 21
12.00311971967126
 31
0.0
  0
LINE
  5
CAB
330
C73
100
AcDbEntity
  8
FRAME025
 62
     0
100
AcDbLine
 10
231.0771603700098
 20
12.42689325914592
 30
0.0
 11
229.9990536291558
 21
13.50499999999996
 31
0.0
  0
LINE
  5
CAC
330
C73
100
AcDbEntity
  8
FRAME025
 62
     0
100
AcDbLine
 10
234.0040536291557
 20
9.5
 30
0.0
 11
232.5049960360562
 21
10.9990575930995
 31
0.0
  0
LINE
  5
CAD
330
C73
100
AcDbEntity
  8
FRAME025
 62
     0
100
AcDbLine
 10
232.2428846048131
 20
11.11957089140999
 30
0.0
 11
231.3711333914099
 21
11.99132210481318
 31
0.0
  0
LINE
  5
CAE
330
C73
100
AcDbEntity
  8
FRAME025
 62
     0
100
AcDbLine
 10
230.9726330670117
 20
12.3898224292114
 30
0.0
 11
229.8574554962232
 21
13.50499999999999
 31
0.0
  0
LINE
  5
CAF
330
C73
100
AcDbEntity
  8
FRAME025
 62
     0
100
AcDbLine
 10
233.8624554962231
 20
9.5
 30
0.0
 11
232.4958239714855
 21
10.86663152473767
 31
0.0
  0
LINE
  5
CB0
330
C73
100
AcDbEntity
  8
FRAME025
 62
     0
100
AcDbLine
 10
232.2136153616861
 20
11.00724200160428
 30
0.0
 11
231.2588045016043
 21
11.96205286168622
 31
0.0
  0
LINE
  5
CB1
330
C73
100
AcDbEntity
  8
FRAME025
 62
     0
100
AcDbLine
 10
230.8795359722774
 20
12.34132139101315
 30
0.0
 11
229.7158573632906
 21
13.50499999999996
 31
0.0
  0
LINE
  5
CB2
330
C73
100
AcDbEntity
  8
FRAME025
 62
     0
100
AcDbLine
 10
233.7208573632906
 20
9.499999999999973
 30
0.0
 11
232.4723992804831
 21
10.74845808280736
 31
0.0
  0
LINE
  5
CB3
330
C73
100
AcDbEntity
  8
FRAME025
 62
     0
100
AcDbLine
 10
232.1711967182064
 20
10.90806251215151
 30
0.0
 11
231.1596250121514
 21
11.91963421820642
 31
0.0
  0
LINE
  5
CB4
330
C73
100
AcDbEntity
  8
FRAME025
 62
     0
100
AcDbLine
 10
230.7927339454095
 20
12.28652528494839
 30
0.0
 11
229.574259230358
 21
13.50499999999996
 31
0.0
  0
LINE
  5
CB5
330
C73
100
AcDbEntity
  8
FRAME025
 62
     0
100
AcDbLine
 10
233.5792592303579
 20
9.5
 30
0.0
 11
232.437858953294
 21
10.64140027706385
 31
0.0
  0
LINE
  5
CB6
330
C73
100
AcDbEntity
  8
FRAME025
 62
     0
100
AcDbLine
 10
232.1177730530002
 20
10.81988804442503
 30
0.0
 11
231.0714505444249
 21
11.8662105530003
 31
0.0
  0
LINE
  5
CB7
330
C73
100
AcDbEntity
  8
FRAME025
 62
     0
100
AcDbLine
 10
230.7118843242004
 20
12.22577677322491
 30
0.0
 11
229.4326610974254
 21
13.50499999999999
 31
0.0
  0
LINE
  5
CB8
330
C73
100
AcDbEntity
  8
FRAME025
 62
     0
100
AcDbLine
 10
233.4376610974253
 20
9.5
 30
0.0
 11
232.3939987094515
 21
10.54366238797378
 31
0.0
  0
LINE
  5
CB9
330
C73
100
AcDbEntity
  8
FRAME025
 62
     0
100
AcDbLine
 10
232.0544265760423
 20
10.74163638845038
 30
0.0
 11
230.9931988884503
 21
11.80286407604232
 31
0.0
  0
LINE
  5
CBA
330
C73
100
AcDbEntity
  8
FRAME025
 62
     0
100
AcDbLine
 10
230.6367846197904
 20
12.15927834470224
 30
0.0
 11
229.2910629644926
 21
13.50499999999996
 31
0.0
  0
LINE
  5
CBB
330
C73
100
AcDbEntity
  8
FRAME025
 62
     0
100
AcDbLine
 10
233.2960629644926
 20
9.499999999999973
 30
0.0
 11
232.3419063736789
 21
10.45415659081382
 31
0.0
  0
LINE
  5
CBC
330
C73
100
AcDbEntity
  8
FRAME025
 62
     0
100
AcDbLine
 10
231.9815771802633
 20
10.67288765129666
 30
0.0
 11
230.9244501512967
 21
11.73001468026346
 31
0.0
  0
LINE
  5
CBD
330
C73
100
AcDbEntity
  8
FRAME025
 62
     0
100
AcDbLine
 10
230.5673510110568
 20
12.0871138205033
 30
0.0
 11
229.14946483156
 21
13.50499999999999
 31
0.0
  0
LINE
  5
CBE
330
C73
100
AcDbEntity
  8
FRAME025
 62
     0
100
AcDbLine
 10
233.15446483156
 20
9.5
 30
0.0
 11
232.2822384191129
 21
10.37222641244726
 31
0.0
  0
LINE
  5
CBF
330
C73
100
AcDbEntity
  8
FRAME025
 62
     0
100
AcDbLine
 10
231.8991117949273
 20
10.61375490370021
 30
0.0
 11
230.8653174037001
 21
11.64754929492733
 31
0.0
  0
LINE
  5
CC0
330
C73
100
AcDbEntity
  8
FRAME025
 62
     0
100
AcDbLine
 10
230.5036099325064
 20
12.00925676612108
 30
0.0
 11
229.0078666986274
 21
13.50499999999999
 31
0.0
  0
LINE
  5
CC1
330
C73
100
AcDbEntity
  8
FRAME025
 62
     0
100
AcDbLine
 10
233.0128666986275
 20
9.5
 30
0.0
 11
232.2153522549313
 21
10.29751444369616
 31
0.0
  0
LINE
  5
CC2
330
C73
100
AcDbEntity
  8
FRAME025
 62
     0
100
AcDbLine
 10
231.806350899535
 20
10.56491766615976
 30
0.0
 11
230.8164801661598
 21
11.55478839953512
 31
0.0
  0
LINE
  5
CC3
330
C73
100
AcDbEntity
  8
FRAME025
 62
     0
100
AcDbLine
 10
230.4457006965498
 20
11.92556786914514
 30
0.0
 11
228.9856965072994
 21
13.38557205839549
 31
0.0
  0
LINE
  5
CC4
330
C73
100
AcDbEntity
  8
FRAME025
 62
     0
100
AcDbLine
 10
232.8712685656949
 20
9.499999999999973
 30
0.0
 11
232.1413681139886
 21
10.22990045170615
 31
0.0
  0
LINE
  5
CC5
330
C73
100
AcDbEntity
  8
FRAME025
 62
     0
100
AcDbLine
 10
231.7018260802643
 20
10.52784435249785
 30
0.0
 11
230.7794068524978
 21
11.45026358026443
 31
0.0
  0
LINE
  5
CC6
330
C73
100
AcDbEntity
  8
FRAME025
 62
     0
100
AcDbLine
 10
230.3938897811531
 20
11.83578065160907
 30
0.0
 11
228.9699633814179
 21
13.25970705134432
 31
0.0
  0
LINE
  5
CC7
330
C73
100
AcDbEntity
  8
FRAME025
 62
     0
100
AcDbLine
 10
232.7296704327622
 20
9.5
 30
0.0
 11
232.0601883343328
 21
10.1694820984295
 31
0.0
  0
LINE
  5
CC8
330
C73
100
AcDbEntity
  8
FRAME025
 62
     0
100
AcDbLine
 10
231.5826643243958
 20
10.50540797543374
 30
0.0
 11
230.7569704754337
 21
11.33110182439597
 31
0.0
  0
LINE
  5
CC9
330
C73
100
AcDbEntity
  8
FRAME025
 62
     0
100
AcDbLine
 10
230.3486003927277
 20
11.73947190710193
 30
0.0
 11
228.9542302555365
 21
13.1338420442931
 31
0.0
  0
LINE
  5
CCA
330
C73
100
AcDbEntity
  8
FRAME025
 62
     0
100
AcDbLine
 10
232.5880722998296
 20
9.5
 30
0.0
 11
231.9714817554797
 21
10.11659054434985
 31
0.0
  0
LINE
  5
CCB
330
C73
100
AcDbEntity
  8
FRAME025
 62
     0
100
AcDbLine
 10
231.4427418306721
 20
10.50373233622494
 30
0.0
 11
230.7552948362249
 21
11.19117933067214
 31
0.0
  0
LINE
  5
CCC
330
C73
100
AcDbEntity
  8
FRAME025
 62
     0
100
AcDbLine
 10
230.3104656586576
 20
11.63600850823938
 30
0.0
 11
228.9384971296552
 21
13.0079770372419
 31
0.0
  0
LINE
  5
CCD
330
C73
100
AcDbEntity
  8
FRAME025
 62
     0
100
AcDbLine
 10
232.446474166897
 20
9.5
 30
0.0
 11
231.8746270165366
 21
10.07184715036055
 31
0.0
  0
LINE
  5
CCE
330
C73
100
AcDbEntity
  8
FRAME025
 62
     0
100
AcDbLine
 10
231.2644904806514
 20
10.540385553313
 30
0.0
 11
230.7919480533129
 21
11.01292798065148
 31
0.0
  0
LINE
  5
CCF
330
C73
100
AcDbEntity
  8
FRAME025
 62
     0
100
AcDbLine
 10
230.2804232842178
 20
11.52445274974666
 30
0.0
 11
228.9227640037738
 21
12.88211203019069
 31
0.0
  0
LINE
  5
CD0
330
C73
100
AcDbEntity
  8
FRAME025
 62
     0
100
AcDbLine
 10
232.3048760339645
 20
9.5
 30
0.0
 11
231.7685897096827
 21
10.0362863242818
 31
0.0
  0
LINE
  5
CD1
330
C73
100
AcDbEntity
  8
FRAME025
 62
     0
100
AcDbLine
 10
230.2598915240766
 20
11.40338637695515
 30
0.0
 11
228.9070308778924
 21
12.75624702313946
 31
0.0
  0
LINE
  5
CD2
330
C73
100
AcDbEntity
  8
FRAME025
 62
     0
100
AcDbLine
 10
232.1632779010319
 20
9.5
 30
0.0
 11
231.6516666212841
 21
10.01161127974771
 31
0.0
  0
LINE
  5
CD3
330
C73
100
AcDbEntity
  8
FRAME025
 62
     0
100
AcDbLine
 10
230.2511252933888
 20
11.27055447471047
 30
0.0
 11
228.891297752011
 21
12.63038201608829
 31
0.0
  0
LINE
  5
CD4
330
C73
100
AcDbEntity
  8
FRAME025
 62
     0
100
AcDbLine
 10
232.0216797680993
 20
9.5
 30
0.0
 11
231.5209077469283
 21
10.00077202117093
 31
0.0
  0
LINE
  5
CD5
330
C73
100
AcDbEntity
  8
FRAME025
 62
     0
100
AcDbLine
 10
230.258040389845
 20
11.12204124532157
 30
0.0
 11
228.8755646261296
 21
12.50451700903708
 31
0.0
  0
LINE
  5
CD6
330
C73
100
AcDbEntity
  8
FRAME025
 62
     0
100
AcDbLine
 10
231.8800816351667
 20
9.5
 30
0.0
 11
231.3724395011354
 21
10.00764213403115
 31
0.0
  0
LINE
  5
CD7
330
C73
100
AcDbEntity
  8
FRAME025
 62
     0
100
AcDbLine
 10
230.2885875649285
 20
10.94989593730548
 30
0.0
 11
228.8598315002481
 21
12.37865200198585
 31
0.0
  0
LINE
  5
CD8
330
C73
100
AcDbEntity
  8
FRAME025
 62
     0
100
AcDbLine
 10
231.7384835022341
 20
9.5
 30
0.0
 11
231.2002941931194
 21
10.03818930911462
 31
0.0
  0
LINE
  5
CD9
330
C73
100
AcDbEntity
  8
FRAME025
 62
     0
100
AcDbLine
 10
230.3652457563129
 20
10.73163961298859
 30
0.0
 11
228.8440983743668
 21
12.25278699493466
 31
0.0
  0
LINE
  5
CDA
330
C73
100
AcDbEntity
  8
FRAME025
 62
     0
100
AcDbLine
 10
231.5968853693015
 20
9.499999999999973
 30
0.0
 11
230.9820378688024
 21
10.1148475004989
 31
0.0
  0
LINE
  5
CDB
330
C73
100
AcDbEntity
  8
FRAME025
 62
     0
100
AcDbLine
 10
231.4552872363688
 20
9.5
 30
0.0
 11
228.8283652484854
 21
12.12692198788343
 31
0.0
  0
LINE
  5
CDC
330
C73
100
AcDbEntity
  8
FRAME025
 62
     0
100
AcDbLine
 10
231.3136891034361
 20
9.499999999999973
 30
0.0
 11
228.812632122604
 21
12.00105698083223
 31
0.0
  0
LINE
  5
CDD
330
C73
100
AcDbEntity
  8
FRAME025
 62
     0
100
AcDbLine
 10
231.1720909705035
 20
9.499999999999973
 30
0.0
 11
228.7968989967226
 21
11.87519197378102
 31
0.0
  0
LINE
  5
CDE
330
C73
100
AcDbEntity
  8
FRAME025
 62
     0
100
AcDbLine
 10
231.0304928375709
 20
9.5
 30
0.0
 11
228.7811658708411
 21
11.74932696672984
 31
0.0
  0
LINE
  5
CDF
330
C73
100
AcDbEntity
  8
FRAME025
 62
     0
100
AcDbLine
 10
230.8888947046384
 20
9.499999999999973
 30
0.0
 11
228.7654327449596
 21
11.62346195967861
 31
0.0
  0
LINE
  5
CE0
330
C73
100
AcDbEntity
  8
FRAME025
 62
     0
100
AcDbLine
 10
230.7472965717058
 20
9.5
 30
0.0
 11
228.7496996190784
 21
11.49759695262742
 31
0.0
  0
LINE
  5
CE1
330
C73
100
AcDbEntity
  8
FRAME025
 62
     0
100
AcDbLine
 10
230.6056984387732
 20
9.5
 30
0.0
 11
228.7339664931969
 21
11.37173194557622
 31
0.0
  0
LINE
  5
CE2
330
C73
100
AcDbEntity
  8
FRAME025
 62
     0
100
AcDbLine
 10
230.4641003058406
 20
9.499999999999984
 30
0.0
 11
228.7182333673156
 21
11.24586693852501
 31
0.0
  0
LINE
  5
CE3
330
C73
100
AcDbEntity
  8
FRAME025
 62
     0
100
AcDbLine
 10
230.3225021729079
 20
9.5
 30
0.0
 11
228.7025002414341
 21
11.12000193147382
 31
0.0
  0
LINE
  5
CE4
330
C73
100
AcDbEntity
  8
FRAME025
 62
     0
100
AcDbLine
 10
230.1809040399753
 20
9.499999999999957
 30
0.0
 11
228.6867671155528
 21
10.99413692442259
 31
0.0
  0
LINE
  5
CE5
330
C73
100
AcDbEntity
  8
FRAME025
 62
     0
100
AcDbLine
 10
230.0393059070428
 20
9.499999999999984
 30
0.0
 11
228.6710339896714
 21
10.86827191737138
 31
0.0
  0
LINE
  5
CE6
330
C73
100
AcDbEntity
  8
FRAME025
 62
     0
100
AcDbLine
 10
229.8977077741101
 20
9.499999999999984
 30
0.0
 11
228.6553008637899
 21
10.74240691032019
 31
0.0
  0
LINE
  5
CE7
330
C73
100
AcDbEntity
  8
FRAME025
 62
     0
100
AcDbLine
 10
229.7561096411775
 20
9.499999999999957
 30
0.0
 11
228.6395677379085
 21
10.61654190326898
 31
0.0
  0
LINE
  5
CE8
330
C73
100
AcDbEntity
  8
FRAME025
 62
     0
100
AcDbLine
 10
229.614511508245
 20
9.499999999999984
 30
0.0
 11
228.6238346120271
 21
10.49067689621778
 31
0.0
  0
LINE
  5
CE9
330
C73
100
AcDbEntity
  8
FRAME025
 62
     0
100
AcDbLine
 10
229.4729133753124
 20
9.499999999999984
 30
0.0
 11
228.6081014861458
 21
10.36481188916658
 31
0.0
  0
LINE
  5
CEA
330
C73
100
AcDbEntity
  8
FRAME025
 62
     0
100
AcDbLine
 10
229.3313152423797
 20
9.499999999999973
 30
0.0
 11
228.5923683602644
 21
10.23894688211538
 31
0.0
  0
LINE
  5
CEB
330
C73
100
AcDbEntity
  8
FRAME025
 62
     0
100
AcDbLine
 10
229.1897171094471
 20
9.499999999999984
 30
0.0
 11
228.5766352343828
 21
10.11308187506418
 31
0.0
  0
LINE
  5
CEC
330
C73
100
AcDbEntity
  8
FRAME025
 62
     0
100
AcDbLine
 10
229.0481189765146
 20
9.5
 30
0.0
 11
228.5609021085015
 21
9.987216868012977
 31
0.0
  0
LINE
  5
CED
330
C73
100
AcDbEntity
  8
FRAME025
 62
     0
100
AcDbLine
 10
228.906520843582
 20
9.499999999999973
 30
0.0
 11
228.5451689826202
 21
9.861351860961748
 31
0.0
  0
LINE
  5
CEE
330
C73
100
AcDbEntity
  8
FRAME025
 62
     0
100
AcDbLine
 10
228.7649227106494
 20
9.499999999999973
 30
0.0
 11
228.5294358567388
 21
9.735486853910572
 31
0.0
  0
LINE
  5
CEF
330
C73
100
AcDbEntity
  8
FRAME025
 62
     0
100
AcDbLine
 10
228.6233245777166
 20
9.5
 30
0.0
 11
228.5137027308574
 21
9.609621846859367
 31
0.0
  0
LINE
  5
CF0
330
C73
100
AcDbEntity
  8
FRAME025
 62
     0
100
AcDbLine
 10
233.9296646291752
 20
9.500000000000026
 30
0.0
 11
234.0174036869306
 21
9.587739057755399
 31
0.0
  0
LINE
  5
CF1
330
C73
100
AcDbEntity
  8
FRAME025
 62
     0
100
AcDbLine
 10
233.7880664962426
 20
9.5
 30
0.0
 11
234.0367125232396
 21
9.748646026996981
 31
0.0
  0
LINE
  5
CF2
330
C73
100
AcDbEntity
  8
FRAME025
 62
     0
100
AcDbLine
 10
233.64646836331
 20
9.5
 30
0.0
 11
234.0560213595486
 21
9.909552996238572
 31
0.0
  0
LINE
  5
CF3
330
C73
100
AcDbEntity
  8
FRAME025
 62
     0
100
AcDbLine
 10
233.5048702303773
 20
9.5
 30
0.0
 11
234.0753301958574
 21
10.07045996548016
 31
0.0
  0
LINE
  5
CF4
330
C73
100
AcDbEntity
  8
FRAME025
 62
     0
100
AcDbLine
 10
233.3632720974447
 20
9.500000000000012
 30
0.0
 11
234.0946390321664
 21
10.23136693472175
 31
0.0
  0
LINE
  5
CF5
330
C73
100
AcDbEntity
  8
FRAME025
 62
     0
100
AcDbLine
 10
233.2216739645121
 20
9.499999999999984
 30
0.0
 11
234.1139478684755
 21
10.39227390396334
 31
0.0
  0
LINE
  5
CF6
330
C73
100
AcDbEntity
  8
FRAME025
 62
     0
100
AcDbLine
 10
233.0800758315795
 20
9.500000000000012
 30
0.0
 11
234.1332567047845
 21
10.55318087320496
 31
0.0
  0
LINE
  5
CF7
330
C73
100
AcDbEntity
  8
FRAME025
 62
     0
100
AcDbLine
 10
232.9384776986469
 20
9.500000000000012
 30
0.0
 11
234.1525655410934
 21
10.71408784244656
 31
0.0
  0
LINE
  5
CF8
330
C73
100
AcDbEntity
  8
FRAME025
 62
     0
100
AcDbLine
 10
232.7968795657143
 20
9.499999999999984
 30
0.0
 11
234.1718743774025
 21
10.87499481168811
 31
0.0
  0
LINE
  5
CF9
330
C73
100
AcDbEntity
  8
FRAME025
 62
     0
100
AcDbLine
 10
232.6552814327818
 20
9.500000000000012
 30
0.0
 11
234.1911832137113
 21
11.03590178092973
 31
0.0
  0
LINE
  5
CFA
330
C73
100
AcDbEntity
  8
FRAME025
 62
     0
100
AcDbLine
 10
232.5136832998492
 20
9.5
 30
0.0
 11
234.2104920500204
 21
11.19680875017132
 31
0.0
  0
LINE
  5
CFB
330
C73
100
AcDbEntity
  8
FRAME025
 62
     0
100
AcDbLine
 10
232.3720851669164
 20
9.500000000000012
 30
0.0
 11
234.2298008863294
 21
11.35771571941295
 31
0.0
  0
LINE
  5
CFC
330
C73
100
AcDbEntity
  8
FRAME025
 62
     0
100
AcDbLine
 10
232.2304870339839
 20
9.5
 30
0.0
 11
234.2491097226385
 21
11.51862268865454
 31
0.0
  0
LINE
  5
CFD
330
C73
100
AcDbEntity
  8
FRAME025
 62
     0
100
AcDbLine
 10
232.0888889010513
 20
9.499999999999984
 30
0.0
 11
234.2684185589474
 21
11.6795296578961
 31
0.0
  0
LINE
  5
CFE
330
C73
100
AcDbEntity
  8
FRAME025
 62
     0
100
AcDbLine
 10
231.9472907681187
 20
9.500000000000026
 30
0.0
 11
234.2877273952564
 21
11.84043662713772
 31
0.0
  0
LINE
  5
CFF
330
C73
100
AcDbEntity
  8
FRAME025
 62
     0
100
AcDbLine
 10
231.805692635186
 20
9.5
 30
0.0
 11
234.3070362315653
 21
12.00134359637931
 31
0.0
  0
LINE
  5
D00
330
C73
100
AcDbEntity
  8
FRAME025
 62
     0
100
AcDbLine
 10
231.6640945022534
 20
9.5
 30
0.0
 11
234.1672195022534
 21
12.00312500000001
 31
0.0
  0
LINE
  5
D01
330
C73
100
AcDbEntity
  8
FRAME025
 62
     0
100
AcDbLine
 10
231.5224963693209
 20
9.500000000000026
 30
0.0
 11
234.0256213693209
 21
12.00312500000001
 31
0.0
  0
LINE
  5
D02
330
C73
100
AcDbEntity
  8
FRAME025
 62
     0
100
AcDbLine
 10
232.3539616792559
 20
10.47306344286768
 30
0.0
 11
233.8840232363883
 21
12.00312500000001
 31
0.0
  0
LINE
  5
D03
330
C73
100
AcDbEntity
  8
FRAME025
 62
     0
100
AcDbLine
 10
231.3808982363882
 20
9.5
 30
0.0
 11
232.0325615571323
 21
10.15166332074401
 31
0.0
  0
LINE
  5
D04
330
C73
100
AcDbEntity
  8
FRAME025
 62
     0
100
AcDbLine
 10
232.4666217584685
 20
10.72732165501284
 30
0.0
 11
233.7424251034557
 21
12.00312499999999
 31
0.0
  0
LINE
  5
D05
330
C73
100
AcDbEntity
  8
FRAME025
 62
     0
100
AcDbLine
 10
231.2393001034557
 20
9.5
 30
0.0
 11
231.7783033449871
 21
10.03900324153141
 31
0.0
  0
LINE
  5
D06
330
C73
100
AcDbEntity
  8
FRAME025
 62
     0
100
AcDbLine
 10
232.5000401058814
 20
10.90233813535837
 30
0.0
 11
233.6008269705231
 21
12.00312500000001
 31
0.0
  0
LINE
  5
D07
330
C73
100
AcDbEntity
  8
FRAME025
 62
     0
100
AcDbLine
 10
231.0977019705231
 20
9.500000000000012
 30
0.0
 11
231.6032868646415
 21
10.00558489411855
 31
0.0
  0
LINE
  5
D08
330
C73
100
AcDbEntity
  8
FRAME025
 62
     0
100
AcDbLine
 10
232.503944348278
 20
11.04784051068748
 30
0.0
 11
233.4592288375904
 21
12.00312500000001
 31
0.0
  0
LINE
  5
D09
330
C73
100
AcDbEntity
  8
FRAME025
 62
     0
100
AcDbLine
 10
230.9561038375905
 20
9.500000000000012
 30
0.0
 11
231.4576205165026
 21
10.00151667891216
 31
0.0
  0
LINE
  5
D0A
330
C73
100
AcDbEntity
  8
FRAME025
 62
     0
100
AcDbLine
 10
232.489857225083
 20
11.17535152042523
 30
0.0
 11
233.3176307046578
 21
12.00312499999999
 31
0.0
  0
LINE
  5
D0B
330
C73
100
AcDbEntity
  8
FRAME025
 62
     0
100
AcDbLine
 10
230.8145057046579
 20
9.499999999999984
 30
0.0
 11
231.3277142640556
 21
10.01320855939767
 31
0.0
  0
LINE
  5
D0C
330
C73
100
AcDbEntity
  8
FRAME025
 62
     0
100
AcDbLine
 10
231.700349858073
 20
10.5274422863477
 30
0.0
 11
232.2284952136523
 21
11.05558764192704
 31
0.0
  0
LINE
  5
D0D
330
C73
100
AcDbEntity
  8
FRAME025
 62
     0
100
AcDbLine
 10
232.46270802586
 20
11.28980045413473
 30
0.0
 11
233.1760325717253
 21
12.00312500000001
 31
0.0
  0
LINE
  5
D0E
330
C73
100
AcDbEntity
  8
FRAME025
 62
     0
100
AcDbLine
 10
230.6729075717253
 20
9.500000000000012
 30
0.0
 11
231.2089594703417
 21
10.03605189861646
 31
0.0
  0
LINE
  5
D0F
330
C73
100
AcDbEntity
  8
FRAME025
 62
     0
100
AcDbLine
 10
231.533134575928
 20
10.50182513713538
 30
0.0
 11
232.2541123628646
 21
11.22280292407193
 31
0.0
  0
LINE
  5
D10
330
C73
100
AcDbEntity
  8
FRAME025
 62
     0
100
AcDbLine
 10
232.4251068275568
 20
11.39379738876408
 30
0.0
 11
233.0344344387926
 21
12.00312500000001
 31
0.0
  0
LINE
  5
D11
330
C73
100
AcDbEntity
  8
FRAME025
 62
     0
100
AcDbLine
 10
230.5313094387926
 20
9.500000000000012
 30
0.0
 11
231.0993381691146
 21
10.06802873032208
 31
0.0
  0
LINE
  5
D12
330
C73
100
AcDbEntity
  8
FRAME025
 62
     0
100
AcDbLine
 10
232.3785841031134
 20
11.48887279725339
 30
0.0
 11
232.89283630586
 21
12.00312499999999
 31
0.0
  0
LINE
  5
D13
330
C73
100
AcDbEntity
  8
FRAME025
 62
     0
100
AcDbLine
 10
231.3983893786354
 20
10.50867807277535
 30
0.0
 11
232.2472594272245
 21
11.35754812136456
 31
0.0
  0
LINE
  5
D14
330
C73
100
AcDbEntity
  8
FRAME025
 62
     0
100
AcDbLine
 10
234.3430164877125
 20
13.45330518185255
 30
0.0
 11
234.39471130586
 21
13.50499999999999
 31
0.0
  0
LINE
  5
D15
330
C73
100
AcDbEntity
  8
FRAME025
 62
     0
100
AcDbLine
 10
230.38971130586
 20
9.499999999999984
 30
0.0
 11
230.9975630974775
 21
10.10785179161747
 31
0.0
  0
LINE
  5
D16
330
C73
100
AcDbEntity
  8
FRAME025
 62
     0
100
AcDbLine
 10
232.3240724081701
 20
11.57595923524259
 30
0.0
 11
232.7512381729275
 21
12.00312500000001
 31
0.0
  0
LINE
  5
D17
330
C73
100
AcDbEntity
  8
FRAME025
 62
     0
100
AcDbLine
 10
231.2826503033005
 20
10.53453713037308
 30
0.0
 11
232.2214003696269
 21
11.47328719669947
 31
0.0
  0
LINE
  5
D18
330
C73
100
AcDbEntity
  8
FRAME025
 62
     0
100
AcDbLine
 10
234.1365192105191
 20
13.38840603759178
 30
0.0
 11
234.2531131729275
 21
13.50500000000001
 31
0.0
  0
LINE
  5
D19
330
C73
100
AcDbEntity
  8
FRAME025
 62
     0
100
AcDbLine
 10
230.2481131729275
 20
9.500000000000012
 30
0.0
 11
230.9027770209655
 21
10.15466384803799
 31
0.0
  0
LINE
  5
D1A
330
C73
100
AcDbEntity
  8
FRAME025
 62
     0
100
AcDbLine
 10
232.2621248314374
 20
11.6556097914425
 30
0.0
 11
232.6096400399948
 21
12.00312500000001
 31
0.0
  0
LINE
  5
D1B
330
C73
100
AcDbEntity
  8
FRAME025
 62
     0
100
AcDbLine
 10
231.1807707394645
 20
10.57425569946969
 30
0.0
 11
232.1816818005303
 21
11.57516676053542
 31
0.0
  0
LINE
  5
D1C
330
C73
100
AcDbEntity
  8
FRAME025
 62
     0
100
AcDbLine
 10
233.9300219333257
 20
13.32350689333098
 30
0.0
 11
234.1115150399947
 21
13.50499999999999
 31
0.0
  0
LINE
  5
D1D
330
C73
100
AcDbEntity
  8
FRAME025
 62
     0
100
AcDbLine
 10
230.1065150399947
 20
9.500000000000012
 30
0.0
 11
230.8144007094341
 21
10.20788566943918
 31
0.0
  0
LINE
  5
D1E
330
C73
100
AcDbEntity
  8
FRAME025
 62
     0
100
AcDbLine
 10
232.1930204191555
 20
11.72810351209325
 30
0.0
 11
232.4680419070622
 21
12.00312500000001
 31
0.0
  0
LINE
  5
D1F
330
C73
100
AcDbEntity
  8
FRAME025
 62
     0
100
AcDbLine
 10
231.0902603661606
 20
10.62534345909848
 30
0.0
 11
232.1305940409014
 21
11.66567713383922
 31
0.0
  0
LINE
  5
D20
330
C73
100
AcDbEntity
  8
FRAME025
 62
     0
100
AcDbLine
 10
233.7235246561323
 20
13.25860774907019
 30
0.0
 11
233.9699169070621
 21
13.50499999999999
 31
0.0
  0
LINE
  5
D21
330
C73
100
AcDbEntity
  8
FRAME025
 62
     0
100
AcDbLine
 10
229.9649169070622
 20
9.499999999999984
 30
0.0
 11
230.7320500442984
 21
10.26713313723614
 31
0.0
  0
LINE
  5
D22
330
C73
100
AcDbEntity
  8
FRAME025
 62
     0
100
AcDbLine
 10
232.1168109788152
 20
11.79349220468554
 30
0.0
 11
232.3264437741296
 21
12.00312500000001
 31
0.0
  0
LINE
  5
D23
330
C73
100
AcDbEntity
  8
FRAME025
 62
     0
100
AcDbLine
 10
231.0098486322385
 20
10.68652985810901
 30
0.0
 11
232.0694076418909
 21
11.74608886776136
 31
0.0
  0
LINE
  5
D24
330
C73
100
AcDbEntity
  8
FRAME025
 62
     0
100
AcDbLine
 10
233.517027378939
 20
13.19370860480943
 30
0.0
 11
233.8283187741295
 21
13.50500000000002
 31
0.0
  0
LINE
  5
D25
330
C73
100
AcDbEntity
  8
FRAME025
 62
     0
100
AcDbLine
 10
229.8233187741296
 20
9.500000000000012
 30
0.0
 11
230.6554892779366
 21
10.33217050380702
 31
0.0
  0
LINE
  5
D26
330
C73
100
AcDbEntity
  8
FRAME025
 62
     0
100
AcDbLine
 10
232.0333293132706
 20
11.85160867207363
 30
0.0
 11
232.184845641197
 21
12.00312500000001
 31
0.0
  0
LINE
  5
D27
330
C73
100
AcDbEntity
  8
FRAME025
 62
     0
100
AcDbLine
 10
230.9389856096189
 20
10.75726496842185
 30
0.0
 11
231.9986725315781
 21
11.81695189038109
 31
0.0
  0
LINE
  5
D28
330
C73
100
AcDbEntity
  8
FRAME025
 62
     0
100
AcDbLine
 10
233.3105301017456
 20
13.12880946054866
 30
0.0
 11
233.6867206411969
 21
13.50499999999999
 31
0.0
  0
LINE
  5
D29
330
C73
100
AcDbEntity
  8
FRAME025
 62
     0
100
AcDbLine
 10
229.681720641197
 20
9.5
 30
0.0
 11
230.5846054433646
 21
10.40288480216762
 31
0.0
  0
LINE
  5
D2A
330
C73
100
AcDbEntity
  8
FRAME025
 62
     0
100
AcDbLine
 10
231.942162137674
 20
11.90203962940958
 30
0.0
 11
232.0432475082643
 21
12.00312500000001
 31
0.0
  0
LINE
  5
D2B
330
C73
100
AcDbEntity
  8
FRAME025
 62
     0
100
AcDbLine
 10
230.8776677774795
 20
10.83754526921518
 30
0.0
 11
231.9183922307848
 21
11.87826972252036
 31
0.0
  0
LINE
  5
D2C
330
C73
100
AcDbEntity
  8
FRAME025
 62
     0
100
AcDbLine
 10
233.1040328245523
 20
13.06391031628785
 30
0.0
 11
233.5451225082644
 21
13.50499999999999
 31
0.0
  0
LINE
  5
D2D
330
C73
100
AcDbEntity
  8
FRAME025
 62
     0
100
AcDbLine
 10
229.5401225082644
 20
9.5
 30
0.0
 11
230.5193969007557
 21
10.47927439249142
 31
0.0
  0
LINE
  5
D2E
330
C73
100
AcDbEntity
  8
FRAME025
 62
     0
100
AcDbLine
 10
231.8425766682859
 20
11.94405229295407
 30
0.0
 11
231.9016493753318
 21
12.00312500000001
 31
0.0
  0
LINE
  5
D2F
330
C73
100
AcDbEntity
  8
FRAME025
 62
     0
100
AcDbLine
 10
230.8264369829442
 20
10.92791260761236
 30
0.0
 11
231.8280248923875
 21
11.92950051705582
 31
0.0
  0
LINE
  5
D30
330
C73
100
AcDbEntity
  8
FRAME025
 62
     0
100
AcDbLine
 10
232.8975355473589
 20
12.9990111720271
 30
0.0
 11
233.4035243753318
 21
13.50500000000001
 31
0.0
  0
LINE
  5
D31
330
C73
100
AcDbEntity
  8
FRAME025
 62
     0
100
AcDbLine
 10
229.3985243753318
 20
9.5
 30
0.0
 11
230.4599731749839
 21
10.56144879965215
 31
0.0
  0
LINE
  5
D32
330
C73
100
AcDbEntity
  8
FRAME025
 62
     0
100
AcDbLine
 10
231.7333666594879
 20
11.97644041708883
 30
0.0
 11
231.7600512423991
 21
12.00312500000001
 31
0.0
  0
LINE
  5
D33
330
C73
100
AcDbEntity
  8
FRAME025
 62
     0
100
AcDbLine
 10
230.7865517720043
 20
11.02962552960506
 30
0.0
 11
231.7263119703949
 21
11.96938572799571
 31
0.0
  0
LINE
  5
D34
330
C73
100
AcDbEntity
  8
FRAME025
 62
     0
100
AcDbLine
 10
232.6910382701654
 20
12.93411202776633
 30
0.0
 11
233.2619262423991
 21
13.50499999999999
 31
0.0
  0
LINE
  5
D35
330
C73
100
AcDbEntity
  8
FRAME025
 62
     0
100
AcDbLine
 10
229.2569262423991
 20
9.5
 30
0.0
 11
230.4065660451712
 21
10.64963980277197
 31
0.0
  0
LINE
  5
D36
330
C73
100
AcDbEntity
  8
FRAME025
 62
     0
100
AcDbLine
 10
231.6125267643804
 20
11.99719865491376
 30
0.0
 11
231.6184531094666
 21
12.00312499999999
 31
0.0
  0
LINE
  5
D37
330
C73
100
AcDbEntity
  8
FRAME025
 62
     0
100
AcDbLine
 10
230.7604798739792
 20
11.14515176451259
 30
0.0
 11
231.6107857354874
 21
11.99545762602076
 31
0.0
  0
LINE
  5
D38
330
C73
100
AcDbEntity
  8
FRAME025
 62
     0
100
AcDbLine
 10
232.4845409929721
 20
12.86921288350551
 30
0.0
 11
233.1203281094665
 21
13.50499999999999
 31
0.0
  0
LINE
  5
D39
330
C73
100
AcDbEntity
  8
FRAME025
 62
     0
100
AcDbLine
 10
229.1153281094665
 20
9.5
 30
0.0
 11
230.3595546362241
 21
10.74422652675758
 31
0.0
  0
LINE
  5
D3A
330
C73
100
AcDbEntity
  8
FRAME025
 62
     0
100
AcDbLine
 10
230.7533123615645
 20
11.27958238503065
 30
0.0
 11
231.4763551149694
 21
12.00262513843534
 31
0.0
  0
LINE
  5
D3B
330
C73
100
AcDbEntity
  8
FRAME025
 62
     0
100
AcDbLine
 10
232.2780437157788
 20
12.80431373924477
 30
0.0
 11
232.978729976534
 21
13.50500000000001
 31
0.0
  0
LINE
  5
D3C
330
C73
100
AcDbEntity
  8
FRAME025
 62
     0
100
AcDbLine
 10
228.973729976534
 20
9.5
 30
0.0
 11
230.3195113627911
 21
10.84578138625714
 31
0.0
  0
LINE
  5
D3D
330
C73
100
AcDbEntity
  8
FRAME025
 62
     0
100
AcDbLine
 10
230.778299123799
 20
11.44616728019764
 30
0.0
 11
231.3097702198023
 21
11.97763837620094
 31
0.0
  0
LINE
  5
D3E
330
C73
100
AcDbEntity
  8
FRAME025
 62
     0
100
AcDbLine
 10
232.0715464385854
 20
12.73941459498399
 30
0.0
 11
232.8371318436014
 21
13.50500000000001
 31
0.0
  0
LINE
  5
D3F
330
C73
100
AcDbEntity
  8
FRAME025
 62
     0
100
AcDbLine
 10
228.8321318436014
 20
9.5
 30
0.0
 11
230.2872833899995
 21
10.95515154639814
 31
0.0
  0
LINE
  5
D40
330
C73
100
AcDbEntity
  8
FRAME025
 62
     0
100
AcDbLine
 10
230.9506958292546
 20
11.76016211858596
 30
0.0
 11
230.9957753814141
 21
11.80524167074526
 31
0.0
  0
LINE
  5
D41
330
C73
100
AcDbEntity
  8
FRAME025
 62
     0
100
AcDbLine
 10
231.865049161392
 20
12.67451545072323
 30
0.0
 11
232.6955337106688
 21
13.50500000000001
 31
0.0
  0
LINE
  5
D42
330
C73
100
AcDbEntity
  8
FRAME025
 62
     0
100
AcDbLine
 10
228.6905337106688
 20
9.500000000000026
 30
0.0
 11
230.2641417859325
 21
11.07360807526386
 31
0.0
  0
LINE
  5
D43
330
C73
100
AcDbEntity
  8
FRAME025
 62
     0
100
AcDbLine
 10
231.6585518841986
 20
12.60961630646245
 30
0.0
 11
232.5539355777362
 21
13.50500000000001
 31
0.0
  0
LINE
  5
D44
330
C73
100
AcDbEntity
  8
FRAME025
 62
     0
100
AcDbLine
 10
228.5489355777361
 20
9.5
 30
0.0
 11
230.2520756736359
 21
11.20314009589977
 31
0.0
  0
LINE
  5
D45
330
C73
100
AcDbEntity
  8
FRAME025
 62
     0
100
AcDbLine
 10
231.4520546070052
 20
12.54471716220166
 30
0.0
 11
232.4123374448034
 21
13.50500000000001
 31
0.0
  0
LINE
  5
D46
330
C73
100
AcDbEntity
  8
FRAME025
 62
     0
100
AcDbLine
 10
228.5132375078851
 20
9.605900063081591
 30
0.0
 11
230.254446106645
 21
11.3471086618415
 31
0.0
  0
LINE
  5
D47
330
C73
100
AcDbEntity
  8
FRAME025
 62
     0
100
AcDbLine
 10
231.2455573298119
 20
12.4798180179409
 30
0.0
 11
232.2707393118709
 21
13.50500000000001
 31
0.0
  0
LINE
  5
D48
330
C73
100
AcDbEntity
  8
FRAME025
 62
     0
100
AcDbLine
 10
228.5334658125897
 20
9.767726500718863
 30
0.0
 11
230.2777456874295
 21
11.51200637555853
 31
0.0
  0
LINE
  5
D49
330
C73
100
AcDbEntity
  8
FRAME025
 62
     0
100
AcDbLine
 10
231.0390600526183
 20
12.41491887368009
 30
0.0
 11
232.1291411789383
 21
13.50500000000001
 31
0.0
  0
LINE
  5
D4A
330
C73
100
AcDbEntity
  8
FRAME025
 62
     0
100
AcDbLine
 10
228.5536941172944
 20
9.929552938356136
 30
0.0
 11
230.3383115722239
 21
11.71417039328568
 31
0.0
  0
LINE
  5
D4B
330
C73
100
AcDbEntity
  8
FRAME025
 62
     0
100
AcDbLine
 10
230.6902251573276
 20
12.20768211132194
 30
0.0
 11
231.9875430460056
 21
13.50499999999998
 31
0.0
  0
LINE
  5
D4C
330
C73
100
AcDbEntity
  8
FRAME025
 62
     0
100
AcDbLine
 10
228.573922421999
 20
10.09137937599338
 30
0.0
 11
230.551748121236
 21
12.06920507523037
 31
0.0
  0
LINE
  5
D4D
330
C73
100
AcDbEntity
  8
FRAME025
 62
     0
100
AcDbLine
 10
228.5941507267037
 20
10.25320581363065
 30
0.0
 11
231.8459449130731
 21
13.50500000000001
 31
0.0
  0
LINE
  5
D4E
330
C73
100
AcDbEntity
  8
FRAME025
 62
     0
100
AcDbLine
 10
228.6143790314084
 20
10.41503225126791
 30
0.0
 11
231.7043467801406
 21
13.50499999999999
 31
0.0
  0
LINE
  5
D4F
330
C73
100
AcDbEntity
  8
FRAME025
 62
     0
100
AcDbLine
 10
228.634607336113
 20
10.57685868890515
 30
0.0
 11
231.5627486472079
 21
13.50499999999998
 31
0.0
  0
LINE
  5
D50
330
C73
100
AcDbEntity
  8
FRAME025
 62
     0
100
AcDbLine
 10
228.6548356408176
 20
10.73868512654245
 30
0.0
 11
231.4211505142754
 21
13.50500000000002
 31
0.0
  0
LINE
  5
D51
330
C73
100
AcDbEntity
  8
FRAME025
 62
     0
100
AcDbLine
 10
228.6750639455224
 20
10.9005115641797
 30
0.0
 11
231.2795523813427
 21
13.50499999999999
 31
0.0
  0
LINE
  5
D52
330
C73
100
AcDbEntity
  8
FRAME025
 62
     0
100
AcDbLine
 10
228.695292250227
 20
11.06233800181695
 30
0.0
 11
231.13795424841
 21
13.50499999999999
 31
0.0
  0
LINE
  5
D53
330
C73
100
AcDbEntity
  8
FRAME025
 62
     0
100
AcDbLine
 10
228.7155205549316
 20
11.22416443945424
 30
0.0
 11
230.9963561154774
 21
13.50499999999999
 31
0.0
  0
LINE
  5
D54
330
C73
100
AcDbEntity
  8
FRAME025
 62
     0
100
AcDbLine
 10
228.7357488596364
 20
11.38599087709148
 30
0.0
 11
230.8547579825448
 21
13.50499999999999
 31
0.0
  0
LINE
  5
D55
330
C73
100
AcDbEntity
  8
FRAME025
 62
     0
100
AcDbLine
 10
228.7559771643409
 20
11.54781731472876
 30
0.0
 11
230.7131598496123
 21
13.50500000000002
 31
0.0
  0
LINE
  5
D56
330
C73
100
AcDbEntity
  8
FRAME025
 62
     0
100
AcDbLine
 10
228.7762054690456
 20
11.70964375236603
 30
0.0
 11
230.5715617166796
 21
13.50499999999999
 31
0.0
  0
LINE
  5
D57
330
C73
100
AcDbEntity
  8
FRAME025
 62
     0
100
AcDbLine
 10
228.7964337737502
 20
11.87147019000326
 30
0.0
 11
230.429963583747
 21
13.50499999999999
 31
0.0
  0
LINE
  5
D58
330
C73
100
AcDbEntity
  8
FRAME025
 62
     0
100
AcDbLine
 10
228.816662078455
 20
12.03329662764055
 30
0.0
 11
230.2883654508145
 21
13.50500000000001
 31
0.0
  0
LINE
  5
D59
330
C73
100
AcDbEntity
  8
FRAME025
 62
     0
100
AcDbLine
 10
228.8368903831596
 20
12.19512306527781
 30
0.0
 11
230.1467673178819
 21
13.50499999999999
 31
0.0
  0
LINE
  5
D5A
330
C73
100
AcDbEntity
  8
FRAME025
 62
     0
100
AcDbLine
 10
228.8571186878642
 20
12.35694950291507
 30
0.0
 11
230.0051691849493
 21
13.50499999999998
 31
0.0
  0
LINE
  5
D5B
330
C73
100
AcDbEntity
  8
FRAME025
 62
     0
100
AcDbLine
 10
228.877346992569
 20
12.51877594055236
 30
0.0
 11
229.8635710520166
 21
13.50500000000001
 31
0.0
  0
LINE
  5
D5C
330
C73
100
AcDbEntity
  8
FRAME025
 62
     0
100
AcDbLine
 10
228.8975752972736
 20
12.6806023781896
 30
0.0
 11
229.7219729190841
 21
13.50500000000001
 31
0.0
  0
LINE
  5
D5D
330
C73
100
AcDbEntity
  8
FRAME025
 62
     0
100
AcDbLine
 10
228.9178036019783
 20
12.84242881582684
 30
0.0
 11
229.5803747861513
 21
13.50499999999998
 31
0.0
  0
LINE
  5
D5E
330
C73
100
AcDbEntity
  8
FRAME025
 62
     0
100
AcDbLine
 10
228.9380319066829
 20
13.00425525346414
 30
0.0
 11
229.4387766532188
 21
13.50500000000001
 31
0.0
  0
LINE
  5
D5F
330
C73
100
AcDbEntity
  8
FRAME025
 62
     0
100
AcDbLine
 10
228.9582602113875
 20
13.16608169110139
 30
0.0
 11
229.2971785202861
 21
13.50500000000001
 31
0.0
  0
LINE
  5
D60
330
C73
100
AcDbEntity
  8
FRAME025
 62
     0
100
AcDbLine
 10
228.9784885160923
 20
13.32790812873865
 30
0.0
 11
229.1555803873535
 21
13.50499999999998
 31
0.0
  0
LINE
  5
D61
330
C73
100
AcDbEntity
  8
FRAME025
 62
     0
100
AcDbLine
 10
228.998716820797
 20
13.48973456637595
 30
0.0
 11
229.013982254421
 21
13.50500000000001
 31
0.0
  0
ENDBLK
  5
D63
330
C73
100
AcDbEntity
  8
0
100
AcDbBlockEnd
  0
BLOCK
  5
115D
330
115C
100
AcDbEntity
  8
0
100
AcDbBlockBegin
  2
機械A4横_LBP
 70
     0
 10
0.0
 20
0.0
 30
0.0
  3
機械A4横_LBP
  1

  0
ENDBLK
  5
115E
330
115C
100
AcDbEntity
  8
0
100
AcDbBlockEnd
  0
BLOCK
  5
12161
330
1215D
100
AcDbEntity
  8
0
100
AcDbBlockBegin
  2
_Open30
 70
     0
 10
0.0
 20
0.0
 30
0.0
  3
_Open30
  1

  0
LINE
  5
1215E
330
1215D
100
AcDbEntity
  8
0
  6
ByBlock
 62
     0
370
    -2
100
AcDbLine
 10
-1.0
 20
0.26794919
 30
0.0
 11
0.0
 21
0.0
 31
0.0
  0
LINE
  5
1215F
330
1215D
100
AcDbEntity
  8
0
  6
ByBlock
 62
     0
370
    -2
100
AcDbLine
 10
0.0
 20
0.0
 30
0.0
 11
-1.0
 21
-0.26794919
 31
0.0
  0
LINE
  5
12160
330
1215D
100
AcDbEntity
  8
0
  6
ByBlock
 62
     0
370
    -2
100
AcDbLine
 10
0.0
 20
0.0
 30
0.0
 11
-1.0
 21
0.0
 31
0.0
  0
ENDBLK
  5
12162
330
1215D
100
AcDbEntity
  8
0
100
AcDbBlockEnd
  0
BLOCK
  5
153E4
330
153E2
100
AcDbEntity
  8
0
100
AcDbBlockBegin
  2
_DotSmall
 70
     0
 10
0.0
 20
0.0
 30
0.0
  3
_DotSmall
  1

  0
LWPOLYLINE
  5
153E3
330
153E2
100
AcDbEntity
  8
0
  6
ByBlock
 62
     0
100
AcDbPolyline
 90
        2
 70
     1
 43
0.5
 10
-0.0625
 20
0.0
 42
1.0
 10
0.0625
 20
0.0
 42
1.0
  0
ENDBLK
  5
153E5
330
153E2
100
AcDbEntity
  8
0
100
AcDbBlockEnd
  0
BLOCK
  5
29055
330
2904B
100
AcDbEntity
  8
0
100
AcDbBlockBegin
  2
*D23
 70
     1
 10
0.0
 20
0.0
 30
0.0
  3
*D23
  1

  0
LINE
  5
29F55
330
2904B
100
AcDbEntity
  8
文字
 62
     4
370
    13
100
AcDbLine
 10
650.5550339877583
 20
-2904.605209704529
 30
0.0
 11
617.7098758770994
 21
-2904.605209704529
 31
0.0
  0
LINE
  5
29F56
330
2904B
100
AcDbEntity
  8
文字
 62
     4
370
    13
100
AcDbLine
 10
650.5550339877583
 20
-3019.605209704529
 30
0.0
 11
617.7098758770994
 21
-3019.605209704529
 31
0.0
  0
LINE
  5
29F57
330
2904B
100
AcDbEntity
  8
文字
 62
     4
370
    13
100
AcDbLine
 10
617.9798758770994
 20
-2908.355209704529
 30
0.0
 11
617.9798758770994
 21
-3015.855209704529
 31
0.0
  0
INSERT
  5
29F58
330
2904B
100
AcDbEntity
  8
文字
 62
     4
370
    13
100
AcDbBlockReference
  2
_Open30
 10
617.9798758770994
 20
-2904.605209704529
 30
0.0
 41
3.75
 42
3.75
 43
3.75
 50
90.0
  0
INSERT
  5
29F59
330
2904B
100
AcDbEntity
  8
文字
 62
     4
370
    13
100
AcDbBlockReference
  2
_Open30
 10
617.9798758770994
 20
-3019.605209704529
 30
0.0
 41
3.75
 42
3.75
 43
3.75
 50
270.0
  0
MTEXT
  5
29F5A
330
2904B
100
AcDbEntity
  8
文字
100
AcDbMText
 10
614.9798758770998
 20
-2962.105209704528
 30
0.0
 40
4.5
 41
0.0
 71
     5
 72
     1
  1
\A1;115
  7
まこ
 11
0.0000000000000001
 21
1.0
 31
0.0
 73
     1
 44
1.0
  0
POINT
  5
29F5B
330
2904B
100
AcDbEntity
  8
DEFPOINTS
 62
     0
100
AcDbPoint
 10
651.7550339877583
 20
-2904.605209704529
 30
0.0
  0
POINT
  5
29F5C
330
2904B
100
AcDbEntity
  8
DEFPOINTS
 62
     0
100
AcDbPoint
 10
651.7550339877583
 20
-3019.605209704529
 30
0.0
  0
POINT
  5
29F5D
330
2904B
100
AcDbEntity
  8
DEFPOINTS
 62
     0
100
AcDbPoint
 10
617.9798758770994
 20
-3019.605209704529
 30
0.0
  0
ENDBLK
  5
29056
330
2904B
100
AcDbEntity
  8
0
100
AcDbBlockEnd
  0
BLOCK
  5
29061
330
29057
100
AcDbEntity
  8
0
100
AcDbBlockBegin
  2
*D24
 70
     1
 10
0.0
 20
0.0
 30
0.0
  3
*D24
  1

  0
LINE
  5
29F5E
330
29057
100
AcDbEntity
  8
文字
 62
     4
370
    13
100
AcDbLine
 10
628.0550339877582
 20
-2897.105209704529
 30
0.0
 11
606.2896300901347
 21
-2897.105209704529
 31
0.0
  0
LINE
  5
29F5F
330
29057
100
AcDbEntity
  8
文字
 62
     4
370
    13
100
AcDbLine
 10
628.0550339877582
 20
-3027.105209704529
 30
0.0
 11
606.2896300901347
 21
-3027.105209704529
 31
0.0
  0
LINE
  5
29F60
330
29057
100
AcDbEntity
  8
文字
 62
     4
370
    13
100
AcDbLine
 10
606.5596300901347
 20
-2900.855209704528
 30
0.0
 11
606.5596300901347
 21
-3023.355209704529
 31
0.0
  0
INSERT
  5
29F61
330
29057
100
AcDbEntity
  8
文字
 62
     4
370
    13
100
AcDbBlockReference
  2
_Open30
 10
606.5596300901347
 20
-2897.105209704529
 30
0.0
 41
3.75
 42
3.75
 43
3.75
 50
90.0
  0
INSERT
  5
29F62
330
29057
100
AcDbEntity
  8
文字
 62
     4
370
    13
100
AcDbBlockReference
  2
_Open30
 10
606.5596300901347
 20
-3027.105209704529
 30
0.0
 41
3.75
 42
3.75
 43
3.75
 50
270.0
  0
MTEXT
  5
29F63
330
29057
100
AcDbEntity
  8
文字
100
AcDbMText
 10
603.5596300901352
 20
-2962.105209704528
 30
0.0
 40
4.5
 41
0.0
 71
     5
 72
     1
  1
\A1;130
  7
まこ
 11
0.0000000000000001
 21
1.0
 31
0.0
 73
     1
 44
1.0
  0
POINT
  5
29F64
330
29057
100
AcDbEntity
  8
DEFPOINTS
 62
     0
100
AcDbPoint
 10
629.2550339877583
 20
-2897.105209704529
 30
0.0
  0
POINT
  5
29F65
330
29057
100
AcDbEntity
  8
DEFPOINTS
 62
     0
100
AcDbPoint
 10
629.2550339877583
 20
-3027.105209704529
 30
0.0
  0
POINT
  5
29F66
330
29057
100
AcDbEntity
  8
DEFPOINTS
 62
     0
100
AcDbPoint
 10
606.5596300901347
 20
-3027.105209704529
 30
0.0
  0
ENDBLK
  5
29062
330
29057
100
AcDbEntity
  8
0
100
AcDbBlockEnd
  0
BLOCK
  5
2907B
330
2906F
100
AcDbEntity
  8
0
100
AcDbBlockBegin
  2
*D25
 70
     1
 10
0.0
 20
0.0
 30
0.0
  3
*D25
  1

  0
LINE
  5
2A005
330
2906F
100
AcDbEntity
  8
文字
 62
     4
370
    13
100
AcDbLine
 10
1009.549461721918
 20
-2895.905209704529
 30
0.0
 11
1009.549461721918
 21
-2882.383147693616
 31
0.0
  0
LINE
  5
2A006
330
2906F
100
AcDbEntity
  8
文字
 62
     4
370
    13
100
AcDbLine
 10
1017.349461721918
 20
-2895.905209704529
 30
0.0
 11
1017.349461721918
 21
-2882.383147693616
 31
0.0
  0
LINE
  5
2A007
330
2906F
100
AcDbEntity
  8
文字
 62
     4
370
    13
100
AcDbLine
 10
1005.799461721918
 20
-2882.653147693616
 30
0.0
 11
1002.049461721918
 21
-2882.653147693616
 31
0.0
  0
LINE
  5
2A008
330
2906F
100
AcDbEntity
  8
文字
 62
     4
370
    13
100
AcDbLine
 10
1021.099461721918
 20
-2882.653147693616
 30
0.0
 11
1037.03882942207
 21
-2882.653147693616
 31
0.0
  0
LINE
  5
2A009
330
2906F
100
AcDbEntity
  8
文字
 62
     4
370
    13
100
AcDbLine
 10
1009.549461721918
 20
-2882.653147693616
 30
0.0
 11
1017.349461721918
 21
-2882.653147693616
 31
0.0
  0
INSERT
  5
2A00A
330
2906F
100
AcDbEntity
  8
文字
 62
     4
370
    13
100
AcDbBlockReference
  2
_Open30
 10
1009.549461721918
 20
-2882.653147693616
 30
0.0
 41
3.75
 42
3.75
 43
3.75
  0
INSERT
  5
2A00B
330
2906F
100
AcDbEntity
  8
文字
 62
     4
370
    13
100
AcDbBlockReference
  2
_Open30
 10
1017.349461721918
 20
-2882.653147693616
 30
0.0
 41
3.75
 42
3.75
 43
3.75
 50
180.0
  0
MTEXT
  5
2A00C
330
2906F
100
AcDbEntity
  8
文字
100
AcDbMText
 10
1031.574543707784
 20
-2879.653147693616
 30
0.0
 40
4.5
 41
0.0
 71
     5
 72
     1
  1
\A1;7.8
  7
まこ
 73
     1
 44
1.0
  0
POINT
  5
2A00D
330
2906F
100
AcDbEntity
  8
DEFPOINTS
 62
     0
100
AcDbPoint
 10
1009.549461721918
 20
-2897.105209704529
 30
0.0
  0
POINT
  5
2A00E
330
2906F
100
AcDbEntity
  8
DEFPOINTS
 62
     0
100
AcDbPoint
 10
1017.349461721918
 20
-2897.105209704529
 30
0.0
  0
POINT
  5
2A00F
330
2906F
100
AcDbEntity
  8
DEFPOINTS
 62
     0
100
AcDbPoint
 10
1017.349461721918
 20
-2882.653147693616
 30
0.0
  0
ENDBLK
  5
2907C
330
2906F
100
AcDbEntity
  8
0
100
AcDbBlockEnd
  0
BLOCK
  5
29089
330
2907D
100
AcDbEntity
  8
0
100
AcDbBlockBegin
  2
*D26
 70
     1
 10
0.0
 20
0.0
 30
0.0
  3
*D26
  1

  0
LINE
  5
29FED
330
2907D
100
AcDbEntity
  8
文字
 62
     4
370
    13
100
AcDbLine
 10
1004.549461721918
 20
-2910.676142552135
 30
0.0
 11
1004.549461721918
 21
-2872.315550105849
 31
0.0
  0
LINE
  5
29FEE
330
2907D
100
AcDbEntity
  8
文字
 62
     4
370
    13
100
AcDbLine
 10
1017.349461721918
 20
-2895.905209704529
 30
0.0
 11
1017.349461721918
 21
-2872.315550105849
 31
0.0
  0
LINE
  5
29FEF
330
2907D
100
AcDbEntity
  8
文字
 62
     4
370
    13
100
AcDbLine
 10
1004.549461721918
 20
-2872.585550105849
 30
0.0
 11
1000.799461721918
 21
-2872.585550105849
 31
0.0
  0
LINE
  5
29FF0
330
2907D
100
AcDbEntity
  8
文字
 62
     4
370
    13
100
AcDbLine
 10
1021.099461721918
 20
-2872.585550105849
 30
0.0
 11
1042.905193373338
 21
-2872.585550105849
 31
0.0
  0
LINE
  5
29FF1
330
2907D
100
AcDbEntity
  8
文字
 62
     4
370
    13
100
AcDbLine
 10
1004.549461721918
 20
-2872.585550105849
 30
0.0
 11
1017.349461721918
 21
-2872.585550105849
 31
0.0
  0
INSERT
  5
29FF2
330
2907D
100
AcDbEntity
  8
文字
 62
     4
370
    13
100
AcDbBlockReference
  2
_DotSmall
 10
1004.549461721918
 20
-2872.585550105849
 30
0.0
 41
3.75
 42
3.75
 43
3.75
  0
INSERT
  5
29FF3
330
2907D
100
AcDbEntity
  8
文字
 62
     4
370
    13
100
AcDbBlockReference
  2
_Open30
 10
1017.349461721918
 20
-2872.585550105849
 30
0.0
 41
3.75
 42
3.75
 43
3.75
 50
180.0
  0
MTEXT
  5
29FF4
330
2907D
100
AcDbEntity
  8
文字
100
AcDbMText
 10
1035.726621944766
 20
-2869.585550105849
 30
0.0
 40
4.5
 41
0.0
 71
     5
 72
     1
  1
\A1;12.8
  7
まこ
 73
     1
 44
1.0
  0
POINT
  5
29FF5
330
2907D
100
AcDbEntity
  8
DEFPOINTS
 62
     0
100
AcDbPoint
 10
1004.549461721918
 20
-2911.876142552134
 30
0.0
  0
POINT
  5
29FF6
330
2907D
100
AcDbEntity
  8
DEFPOINTS
 62
     0
100
AcDbPoint
 10
1017.349461721918
 20
-2897.105209704529
 30
0.0
  0
POINT
  5
29FF7
330
2907D
100
AcDbEntity
  8
DEFPOINTS
 62
     0
100
AcDbPoint
 10
1017.349461721918
 20
-2872.585550105849
 30
0.0
  0
ENDBLK
  5
2908A
330
2907D
100
AcDbEntity
  8
0
100
AcDbBlockEnd
  0
BLOCK
  5
29099
330
2908B
100
AcDbEntity
  8
0
100
AcDbBlockBegin
  2
*D27
 70
     1
 10
0.0
 20
0.0
 30
0.0
  3
*D27
  1

  0
LINE
  5
29FF8
330
2908B
100
AcDbEntity
  8
文字
 62
     4
370
    13
100
AcDbLine
 10
1003.349461721918
 20
-2895.905209704529
 30
0.0
 11
1003.349461721918
 21
-2872.315550105849
 31
0.0
  0
LINE
  5
29FF9
330
2908B
100
AcDbEntity
  8
文字
 62
     4
370
    13
100
AcDbLine
 10
1004.549461721918
 20
-2910.676142552135
 30
0.0
 11
1004.549461721918
 21
-2872.315550105849
 31
0.0
  0
LINE
  5
29FFA
330
2908B
100
AcDbEntity
  8
文字
 62
     4
370
    13
100
AcDbLine
 10
999.5994617219182
 20
-2872.585550105849
 30
0.0
 11
995.8494617219182
 21
-2872.585550105849
 31
0.0
  0
LINE
  5
29FFB
330
2908B
100
AcDbEntity
  8
文字
 62
     4
370
    13
100
AcDbLine
 10
1004.549461721918
 20
-2872.585550105849
 30
0.0
 11
1008.299461721918
 21
-2872.585550105849
 31
0.0
  0
LINE
  5
29FFC
330
2908B
100
AcDbEntity
  8
文字
 62
     4
370
    13
100
AcDbLine
 10
1003.949461721918
 20
-2872.585550105849
 30
0.0
 11
1018.459807672738
 21
-2861.332480557649
 31
0.0
  0
LINE
  5
29FFD
330
2908B
100
AcDbEntity
  8
文字
 62
     4
370
    13
100
AcDbLine
 10
1018.459807672738
 20
-2861.332480557649
 30
0.0
 11
1061.359807672739
 21
-2861.332480557649
 31
0.0
  0
MTEXT
  5
29FFE
330
2908B
100
AcDbEntity
  8
文字
100
AcDbMText
 10
1039.909807672738
 20
-2858.332480557649
 30
0.0
 40
4.5
 41
0.0
 71
     5
 72
     1
  1
\A1;1.2（ギャップ）
  7
まこ
 73
     1
 44
1.0
  0
LINE
  5
29FFF
330
2908B
100
AcDbEntity
  8
文字
 62
     4
370
    13
100
AcDbLine
 10
1003.349461721918
 20
-2872.585550105849
 30
0.0
 11
1004.549461721918
 21
-2872.585550105849
 31
0.0
  0
INSERT
  5
2A000
330
2908B
100
AcDbEntity
  8
文字
 62
     4
370
    13
100
AcDbBlockReference
  2
_Open30
 10
1003.349461721918
 20
-2872.585550105849
 30
0.0
 41
3.75
 42
3.75
 43
3.75
  0
INSERT
  5
2A001
330
2908B
100
AcDbEntity
  8
文字
 62
     4
370
    13
100
AcDbBlockReference
  2
_DotSmall
 10
1004.549461721918
 20
-2872.585550105849
 30
0.0
 41
3.75
 42
3.75
 43
3.75
 50
180.0
  0
POINT
  5
2A002
330
2908B
100
AcDbEntity
  8
DEFPOINTS
 62
     0
100
AcDbPoint
 10
1003.349461721918
 20
-2897.105209704529
 30
0.0
  0
POINT
  5
2A003
330
2908B
100
AcDbEntity
  8
DEFPOINTS
 62
     0
100
AcDbPoint
 10
1004.549461721918
 20
-2911.876142552135
 30
0.0
  0
POINT
  5
2A004
330
2908B
100
AcDbEntity
  8
DEFPOINTS
 62
     0
100
AcDbPoint
 10
1004.549461721918
 20
-2872.585550105849
 30
0.0
  0
ENDBLK
  5
2909A
330
2908B
100
AcDbEntity
  8
0
100
AcDbBlockEnd
  0
BLOCK
  5
290A5
330
2909B
100
AcDbEntity
  8
0
100
AcDbBlockBegin
  2
*D28
 70
     1
 10
0.0
 20
0.0
 30
0.0
  3
*D28
  1

  0
LINE
  5
29EFC
330
2909B
100
AcDbEntity
  8
文字
 62
     4
370
    13
100
AcDbLine
 10
963.3494617219181
 20
-2895.905209704529
 30
0.0
 11
963.3494617219181
 21
-2872.315550105849
 31
0.0
  0
LINE
  5
29EFD
330
2909B
100
AcDbEntity
  8
文字
 62
     4
370
    13
100
AcDbLine
 10
1003.349461721918
 20
-2895.905209704529
 30
0.0
 11
1003.349461721918
 21
-2872.315550105849
 31
0.0
  0
LINE
  5
29EFE
330
2909B
100
AcDbEntity
  8
文字
 62
     4
370
    13
100
AcDbLine
 10
967.099461721918
 20
-2872.585550105849
 30
0.0
 11
999.5994617219182
 21
-2872.585550105849
 31
0.0
  0
INSERT
  5
29EFF
330
2909B
100
AcDbEntity
  8
文字
 62
     4
370
    13
100
AcDbBlockReference
  2
_Open30
 10
963.3494617219181
 20
-2872.585550105849
 30
0.0
 41
3.75
 42
3.75
 43
3.75
 50
180.0
  0
INSERT
  5
29F00
330
2909B
100
AcDbEntity
  8
文字
 62
     4
370
    13
100
AcDbBlockReference
  2
_Open30
 10
1003.349461721918
 20
-2872.585550105849
 30
0.0
 41
3.75
 42
3.75
 43
3.75
  0
MTEXT
  5
29F01
330
2909B
100
AcDbEntity
  8
文字
100
AcDbMText
 10
983.3494617219182
 20
-2869.585550105849
 30
0.0
 40
4.5
 41
0.0
 71
     5
 72
     1
  1
\A1;40
  7
まこ
 73
     1
 44
1.0
  0
POINT
  5
29F02
330
2909B
100
AcDbEntity
  8
DEFPOINTS
 62
     0
100
AcDbPoint
 10
963.3494617219181
 20
-2897.105209704529
 30
0.0
  0
POINT
  5
29F03
330
2909B
100
AcDbEntity
  8
DEFPOINTS
 62
     0
100
AcDbPoint
 10
1003.349461721918
 20
-2897.105209704529
 30
0.0
  0
POINT
  5
29F04
330
2909B
100
AcDbEntity
  8
DEFPOINTS
 62
     0
100
AcDbPoint
 10
1003.349461721918
 20
-2872.585550105849
 30
0.0
  0
ENDBLK
  5
290A6
330
2909B
100
AcDbEntity
  8
0
100
AcDbBlockEnd
  0
BLOCK
  5
290B1
330
290A7
100
AcDbEntity
  8
0
100
AcDbBlockBegin
  2
*D29
 70
     1
 10
0.0
 20
0.0
 30
0.0
  3
*D29
  1

  0
LINE
  5
29F05
330
290A7
100
AcDbEntity
  8
文字
 62
     4
370
    13
100
AcDbLine
 10
963.3494617219181
 20
-2895.905209704529
 30
0.0
 11
963.3494617219181
 21
-2852.930960337639
 31
0.0
  0
LINE
  5
29F06
330
290A7
100
AcDbEntity
  8
文字
 62
     4
370
    13
100
AcDbLine
 10
1017.349461721918
 20
-2895.905209704529
 30
0.0
 11
1017.349461721918
 21
-2852.930960337639
 31
0.0
  0
LINE
  5
29F07
330
290A7
100
AcDbEntity
  8
文字
 62
     4
370
    13
100
AcDbLine
 10
967.099461721918
 20
-2853.200960337639
 30
0.0
 11
1013.599461721918
 21
-2853.200960337639
 31
0.0
  0
INSERT
  5
29F08
330
290A7
100
AcDbEntity
  8
文字
 62
     4
370
    13
100
AcDbBlockReference
  2
_Open30
 10
963.3494617219181
 20
-2853.200960337639
 30
0.0
 41
3.75
 42
3.75
 43
3.75
 50
180.0
  0
INSERT
  5
29F09
330
290A7
100
AcDbEntity
  8
文字
 62
     4
370
    13
100
AcDbBlockReference
  2
_Open30
 10
1017.349461721918
 20
-2853.200960337639
 30
0.0
 41
3.75
 42
3.75
 43
3.75
  0
MTEXT
  5
29F0A
330
290A7
100
AcDbEntity
  8
文字
100
AcDbMText
 10
990.3494617219182
 20
-2850.200960337639
 30
0.0
 40
4.5
 41
0.0
 71
     5
 72
     1
  1
\A1;54（取付寸法）
  7
まこ
 73
     1
 44
1.0
  0
POINT
  5
29F0B
330
290A7
100
AcDbEntity
  8
DEFPOINTS
 62
     0
100
AcDbPoint
 10
963.3494617219181
 20
-2897.105209704529
 30
0.0
  0
POINT
  5
29F0C
330
290A7
100
AcDbEntity
  8
DEFPOINTS
 62
     0
100
AcDbPoint
 10
1017.349461721918
 20
-2897.105209704529
 30
0.0
  0
POINT
  5
29F0D
330
290A7
100
AcDbEntity
  8
DEFPOINTS
 62
     0
100
AcDbPoint
 10
1017.349461721918
 20
-2853.200960337639
 30
0.0
  0
ENDBLK
  5
290B2
330
290A7
100
AcDbEntity
  8
0
100
AcDbBlockEnd
  0
BLOCK
  5
290D5
330
290CB
100
AcDbEntity
  8
0
100
AcDbBlockBegin
  2
*D30
 70
     1
 10
0.0
 20
0.0
 30
0.0
  3
*D30
  1

  0
LINE
  5
2A8CB
330
290CB
100
AcDbEntity
  8
文字
 62
     4
370
    13
100
AcDbLine
 10
660.255033987758
 20
-2894.405209704529
 30
0.0
 11
660.255033987758
 21
-2859.435899159075
 31
0.0
  0
LINE
  5
2A8CC
330
290CB
100
AcDbEntity
  8
文字
 62
     4
370
    13
100
AcDbLine
 10
852.2550339877582
 20
-2894.405209704529
 30
0.0
 11
852.2550339877582
 21
-2859.435899159075
 31
0.0
  0
LINE
  5
2A8CD
330
290CB
100
AcDbEntity
  8
文字
 62
     4
370
    13
100
AcDbLine
 10
664.0050339877579
 20
-2859.705899159076
 30
0.0
 11
848.5050339877583
 21
-2859.705899159076
 31
0.0
  0
INSERT
  5
2A8CE
330
290CB
100
AcDbEntity
  8
文字
 62
     4
370
    13
100
AcDbBlockReference
  2
_Open30
 10
660.255033987758
 20
-2859.705899159076
 30
0.0
 41
3.75
 42
3.75
 43
3.75
 50
180.0
  0
INSERT
  5
2A8CF
330
290CB
100
AcDbEntity
  8
文字
 62
     4
370
    13
100
AcDbBlockReference
  2
_Open30
 10
852.2550339877582
 20
-2859.705899159076
 30
0.0
 41
3.75
 42
3.75
 43
3.75
  0
MTEXT
  5
2A8D0
330
290CB
100
AcDbEntity
  8
文字
100
AcDbMText
 10
756.3375080330215
 20
-2856.705899159075
 30
0.0
 40
4.5
 41
0.0
 71
     5
 72
     1
  1
\A1;192
  7
まこ
 73
     1
 44
1.0
  0
POINT
  5
2A8D1
330
290CB
100
AcDbEntity
  8
DEFPOINTS
 62
     0
100
AcDbPoint
 10
660.255033987758
 20
-2895.605209704529
 30
0.0
  0
POINT
  5
2A8D2
330
290CB
100
AcDbEntity
  8
DEFPOINTS
 62
     0
100
AcDbPoint
 10
852.2550339877582
 20
-2895.605209704529
 30
0.0
  0
POINT
  5
2A8D3
330
290CB
100
AcDbEntity
  8
DEFPOINTS
 62
     0
100
AcDbPoint
 10
852.2550339877582
 20
-2859.705899159076
 30
0.0
  0
ENDBLK
  5
290D6
330
290CB
100
AcDbEntity
  8
0
100
AcDbBlockEnd
  0
BLOCK
  5
290E1
330
290D7
100
AcDbEntity
  8
0
100
AcDbBlockBegin
  2
*D31
 70
     1
 10
0.0
 20
0.0
 30
0.0
  3
*D31
  1

  0
LINE
  5
2A8D4
330
290D7
100
AcDbEntity
  8
文字
 62
     4
370
    13
100
AcDbLine
 10
628.2550339877583
 20
-2896.905209704529
 30
0.0
 11
628.2550339877583
 21
-2841.100185341909
 31
0.0
  0
LINE
  5
2A8D5
330
290D7
100
AcDbEntity
  8
文字
 62
     4
370
    13
100
AcDbLine
 10
884.2550339877584
 20
-2896.905209704529
 30
0.0
 11
884.2550339877584
 21
-2841.100185341909
 31
0.0
  0
LINE
  5
2A8D6
330
290D7
100
AcDbEntity
  8
文字
 62
     4
370
    13
100
AcDbLine
 10
632.0050339877583
 20
-2841.370185341909
 30
0.0
 11
880.5050339877585
 21
-2841.370185341909
 31
0.0
  0
INSERT
  5
2A8D7
330
290D7
100
AcDbEntity
  8
文字
 62
     4
370
    13
100
AcDbBlockReference
  2
_Open30
 10
628.2550339877583
 20
-2841.370185341909
 30
0.0
 41
3.75
 42
3.75
 43
3.75
 50
180.0
  0
INSERT
  5
2A8D8
330
290D7
100
AcDbEntity
  8
文字
 62
     4
370
    13
100
AcDbBlockReference
  2
_Open30
 10
884.2550339877584
 20
-2841.370185341909
 30
0.0
 41
3.75
 42
3.75
 43
3.75
  0
MTEXT
  5
2A8D9
330
290D7
100
AcDbEntity
  8
文字
100
AcDbMText
 10
756.2550339877584
 20
-2838.370185341909
 30
0.0
 40
4.5
 41
0.0
 71
     5
 72
     1
  1
\A1;256
  7
まこ
 73
     1
 44
1.0
  0
POINT
  5
2A8DA
330
290D7
100
AcDbEntity
  8
DEFPOINTS
 62
     0
100
AcDbPoint
 10
628.2550339877583
 20
-2898.105209704528
 30
0.0
  0
POINT
  5
2A8DB
330
290D7
100
AcDbEntity
  8
DEFPOINTS
 62
     0
100
AcDbPoint
 10
884.2550339877584
 20
-2898.105209704528
 30
0.0
  0
POINT
  5
2A8DC
330
290D7
100
AcDbEntity
  8
DEFPOINTS
 62
     0
100
AcDbPoint
 10
884.2550339877584
 20
-2841.370185341909
 30
0.0
  0
ENDBLK
  5
290E2
330
290D7
100
AcDbEntity
  8
0
100
AcDbBlockEnd
  0
BLOCK
  5
290ED
330
290E3
100
AcDbEntity
  8
0
100
AcDbBlockBegin
  2
*D32
 70
     1
 10
0.0
 20
0.0
 30
0.0
  3
*D32
  1

  0
LINE
  5
29F4C
330
290E3
100
AcDbEntity
  8
文字
 62
     4
370
    13
100
AcDbLine
 10
660.255033987758
 20
-2894.405209704529
 30
0.0
 11
660.255033987758
 21
-2876.0581621847
 31
0.0
  0
LINE
  5
29F4D
330
290E3
100
AcDbEntity
  8
文字
 62
     4
370
    13
100
AcDbLine
 10
724.2550339877581
 20
-2894.405209704529
 30
0.0
 11
724.2550339877581
 21
-2876.0581621847
 31
0.0
  0
LINE
  5
29F4E
330
290E3
100
AcDbEntity
  8
文字
 62
     4
370
    13
100
AcDbLine
 10
664.0050339877579
 20
-2876.3281621847
 30
0.0
 11
720.5050339877581
 21
-2876.3281621847
 31
0.0
  0
INSERT
  5
29F4F
330
290E3
100
AcDbEntity
  8
文字
 62
     4
370
    13
100
AcDbBlockReference
  2
_Open30
 10
660.255033987758
 20
-2876.3281621847
 30
0.0
 41
3.75
 42
3.75
 43
3.75
 50
180.0
  0
INSERT
  5
29F50
330
290E3
100
AcDbEntity
  8
文字
 62
     4
370
    13
100
AcDbBlockReference
  2
_Open30
 10
724.2550339877581
 20
-2876.3281621847
 30
0.0
 41
3.75
 42
3.75
 43
3.75
  0
MTEXT
  5
29F51
330
290E3
100
AcDbEntity
  8
文字
100
AcDbMText
 10
692.255033987758
 20
-2873.3281621847
 30
0.0
 40
4.5
 41
0.0
 71
     5
 72
     1
  1
\A1;64（ピッチ）
  7
まこ
 73
     1
 44
1.0
  0
POINT
  5
29F52
330
290E3
100
AcDbEntity
  8
DEFPOINTS
 62
     0
100
AcDbPoint
 10
660.255033987758
 20
-2895.605209704529
 30
0.0
  0
POINT
  5
29F53
330
290E3
100
AcDbEntity
  8
DEFPOINTS
 62
     0
100
AcDbPoint
 10
724.2550339877581
 20
-2895.605209704529
 30
0.0
  0
POINT
  5
29F54
330
290E3
100
AcDbEntity
  8
DEFPOINTS
 62
     0
100
AcDbPoint
 10
724.2550339877581
 20
-2876.3281621847
 30
0.0
  0
ENDBLK
  5
290EE
330
290E3
100
AcDbEntity
  8
0
100
AcDbBlockEnd
  0
BLOCK
  5
290F9
330
290EF
100
AcDbEntity
  8
0
100
AcDbBlockBegin
  2
*D33
 70
     1
 10
0.0
 20
0.0
 30
0.0
  3
*D33
  1

  0
LINE
  5
29F43
330
290EF
100
AcDbEntity
  8
文字
 62
     4
370
    13
100
AcDbLine
 10
628.2550339877583
 20
-2896.905209704529
 30
0.0
 11
628.2550339877583
 21
-2876.0581621847
 31
0.0
  0
LINE
  5
29F44
330
290EF
100
AcDbEntity
  8
文字
 62
     4
370
    13
100
AcDbLine
 10
660.255033987758
 20
-2894.405209704529
 30
0.0
 11
660.255033987758
 21
-2876.0581621847
 31
0.0
  0
LINE
  5
29F45
330
290EF
100
AcDbEntity
  8
文字
 62
     4
370
    13
100
AcDbLine
 10
632.0050339877583
 20
-2876.3281621847
 30
0.0
 11
656.5050339877579
 21
-2876.3281621847
 31
0.0
  0
INSERT
  5
29F46
330
290EF
100
AcDbEntity
  8
文字
 62
     4
370
    13
100
AcDbBlockReference
  2
_Open30
 10
628.2550339877583
 20
-2876.3281621847
 30
0.0
 41
3.75
 42
3.75
 43
3.75
 50
180.0
  0
INSERT
  5
29F47
330
290EF
100
AcDbEntity
  8
文字
 62
     4
370
    13
100
AcDbBlockReference
  2
_Open30
 10
660.255033987758
 20
-2876.3281621847
 30
0.0
 41
3.75
 42
3.75
 43
3.75
  0
MTEXT
  5
29F48
330
290EF
100
AcDbEntity
  8
文字
100
AcDbMText
 10
644.2550339877582
 20
-2873.3281621847
 30
0.0
 40
4.5
 41
0.0
 71
     5
 72
     1
  1
\A1;32
  7
まこ
 73
     1
 44
1.0
  0
POINT
  5
29F49
330
290EF
100
AcDbEntity
  8
DEFPOINTS
 62
     0
100
AcDbPoint
 10
628.2550339877583
 20
-2898.105209704528
 30
0.0
  0
POINT
  5
29F4A
330
290EF
100
AcDbEntity
  8
DEFPOINTS
 62
     0
100
AcDbPoint
 10
660.255033987758
 20
-2895.605209704529
 30
0.0
  0
POINT
  5
29F4B
330
290EF
100
AcDbEntity
  8
DEFPOINTS
 62
     0
100
AcDbPoint
 10
660.255033987758
 20
-2876.3281621847
 30
0.0
  0
ENDBLK
  5
290FA
330
290EF
100
AcDbEntity
  8
0
100
AcDbBlockEnd
  0
BLOCK
  5
29107
330
290FB
100
AcDbEntity
  8
0
100
AcDbBlockBegin
  2
*D34
 70
     1
 10
0.0
 20
0.0
 30
0.0
  3
*D34
  1

  0
LINE
  5
29F67
330
290FB
100
AcDbEntity
  8
文字
 62
     4
370
    13
100
AcDbLine
 10
656.7550339877583
 20
-2903.405209704529
 30
0.0
 11
656.7550339877583
 21
-2887.408189768104
 31
0.0
  0
LINE
  5
29F68
330
290FB
100
AcDbEntity
  8
文字
 62
     4
370
    13
100
AcDbLine
 10
663.7550339877583
 20
-2903.405209704529
 30
0.0
 11
663.7550339877583
 21
-2887.408189768104
 31
0.0
  0
LINE
  5
29F69
330
290FB
100
AcDbEntity
  8
文字
 62
     4
370
    13
100
AcDbLine
 10
667.5050339877583
 20
-2887.678189768103
 30
0.0
 11
671.2550339877583
 21
-2887.678189768103
 31
0.0
  0
LINE
  5
29F6A
330
290FB
100
AcDbEntity
  8
文字
 62
     4
370
    13
100
AcDbLine
 10
653.0050339877583
 20
-2887.678189768103
 30
0.0
 11
643.7366525993281
 21
-2887.678189768103
 31
0.0
  0
LINE
  5
29F6B
330
290FB
100
AcDbEntity
  8
文字
 62
     4
370
    13
100
AcDbLine
 10
663.7550339877583
 20
-2887.678189768103
 30
0.0
 11
656.7550339877583
 21
-2887.678189768103
 31
0.0
  0
INSERT
  5
29F6C
330
290FB
100
AcDbEntity
  8
文字
 62
     4
370
    13
100
AcDbBlockReference
  2
_Open30
 10
663.7550339877583
 20
-2887.678189768103
 30
0.0
 41
3.75
 42
3.75
 43
3.75
 50
180.0
  0
INSERT
  5
29F6D
330
290FB
100
AcDbEntity
  8
文字
 62
     4
370
    13
100
AcDbBlockReference
  2
_Open30
 10
656.7550339877583
 20
-2887.678189768103
 30
0.0
 41
3.75
 42
3.75
 43
3.75
  0
MTEXT
  5
29F6E
330
290FB
100
AcDbEntity
  8
文字
100
AcDbMText
 10
645.9866525993281
 20
-2884.678189768104
 30
0.0
 40
4.5
 41
0.0
 71
     5
 72
     1
  1
\A1;7
  7
まこ
 73
     1
 44
1.0
  0
POINT
  5
29F6F
330
290FB
100
AcDbEntity
  8
DEFPOINTS
 62
     0
100
AcDbPoint
 10
656.7550339877583
 20
-2904.605209704529
 30
0.0
  0
POINT
  5
29F70
330
290FB
100
AcDbEntity
  8
DEFPOINTS
 62
     0
100
AcDbPoint
 10
663.7550339877583
 20
-2904.605209704529
 30
0.0
  0
POINT
  5
29F71
330
290FB
100
AcDbEntity
  8
DEFPOINTS
 62
     0
100
AcDbPoint
 10
663.7550339877583
 20
-2887.678189768103
 30
0.0
  0
ENDBLK
  5
29108
330
290FB
100
AcDbEntity
  8
0
100
AcDbBlockEnd
  0
BLOCK
  5
2914F
330
29145
100
AcDbEntity
  8
0
100
AcDbBlockBegin
  2
*D35
 70
     1
 10
0.0
 20
0.0
 30
0.0
  3
*D35
  1

  0
LINE
  5
29F7D
330
29145
100
AcDbEntity
  8
文字
 62
     4
370
    13
100
AcDbLine
 10
962.149461721918
 20
-2897.105209704529
 30
0.0
 11
943.8222763505914
 21
-2897.105209704529
 31
0.0
  0
LINE
  5
29F7E
330
29145
100
AcDbEntity
  8
文字
 62
     4
370
    13
100
AcDbLine
 10
962.149461721918
 20
-3027.105209704529
 30
0.0
 11
943.8222763505914
 21
-3027.105209704529
 31
0.0
  0
LINE
  5
29F7F
330
29145
100
AcDbEntity
  8
文字
 62
     4
370
    13
100
AcDbLine
 10
944.0922763505914
 20
-2900.855209704529
 30
0.0
 11
944.0922763505914
 21
-3023.355209704529
 31
0.0
  0
INSERT
  5
29F80
330
29145
100
AcDbEntity
  8
文字
 62
     4
370
    13
100
AcDbBlockReference
  2
_Open30
 10
944.0922763505914
 20
-2897.105209704529
 30
0.0
 41
3.75
 42
3.75
 43
3.75
 50
90.0
  0
INSERT
  5
29F81
330
29145
100
AcDbEntity
  8
文字
 62
     4
370
    13
100
AcDbBlockReference
  2
_Open30
 10
944.0922763505914
 20
-3027.105209704529
 30
0.0
 41
3.75
 42
3.75
 43
3.75
 50
270.0
  0
MTEXT
  5
29F82
330
29145
100
AcDbEntity
  8
文字
100
AcDbMText
 10
941.0922763505919
 20
-2962.105209704528
 30
0.0
 40
4.5
 41
0.0
 71
     5
 72
     1
  1
\A1;130
  7
まこ
 11
0.0000000000000001
 21
1.0
 31
0.0
 73
     1
 44
1.0
  0
POINT
  5
29F83
330
29145
100
AcDbEntity
  8
DEFPOINTS
 62
     0
100
AcDbPoint
 10
963.3494617219181
 20
-2897.105209704529
 30
0.0
  0
POINT
  5
29F84
330
29145
100
AcDbEntity
  8
DEFPOINTS
 62
     0
100
AcDbPoint
 10
963.3494617219181
 20
-3027.105209704529
 30
0.0
  0
POINT
  5
29F85
330
29145
100
AcDbEntity
  8
DEFPOINTS
 62
     0
100
AcDbPoint
 10
944.0922763505914
 20
-3027.105209704529
 30
0.0
  0
ENDBLK
  5
29150
330
29145
100
AcDbEntity
  8
0
100
AcDbBlockEnd
  0
BLOCK
  5
2915D
330
29151
100
AcDbEntity
  8
0
100
AcDbBlockBegin
  2
*D36
 70
     1
 10
0.0
 20
0.0
 30
0.0
  3
*D36
  1

  0
LINE
  5
29F72
330
29151
100
AcDbEntity
  8
文字
 62
     4
370
    13
100
AcDbLine
 10
661.9550339877584
 20
-2901.605209704529
 30
0.0
 11
672.9146029899448
 21
-2901.605209704529
 31
0.0
  0
LINE
  5
29F73
330
29151
100
AcDbEntity
  8
文字
 62
     4
370
    13
100
AcDbLine
 10
661.9550339877584
 20
-2907.605209704529
 30
0.0
 11
672.9146029899448
 21
-2907.605209704529
 31
0.0
  0
LINE
  5
29F74
330
29151
100
AcDbEntity
  8
文字
 62
     4
370
    13
100
AcDbLine
 10
672.6446029899448
 20
-2911.355209704529
 30
0.0
 11
672.6446029899448
 21
-2915.105209704529
 31
0.0
  0
LINE
  5
29F75
330
29151
100
AcDbEntity
  8
文字
 62
     4
370
    13
100
AcDbLine
 10
672.6446029899448
 20
-2897.855209704529
 30
0.0
 11
672.6446029899448
 21
-2889.461777727237
 31
0.0
  0
LINE
  5
29F76
330
29151
100
AcDbEntity
  8
文字
 62
     4
370
    13
100
AcDbLine
 10
672.6446029899448
 20
-2907.605209704529
 30
0.0
 11
672.6446029899448
 21
-2901.605209704529
 31
0.0
  0
INSERT
  5
29F77
330
29151
100
AcDbEntity
  8
文字
 62
     4
370
    13
100
AcDbBlockReference
  2
_Open30
 10
672.6446029899448
 20
-2907.605209704529
 30
0.0
 41
3.75
 42
3.75
 43
3.75
 50
90.0
  0
INSERT
  5
29F78
330
29151
100
AcDbEntity
  8
文字
 62
     4
370
    13
100
AcDbBlockReference
  2
_Open30
 10
672.6446029899448
 20
-2901.605209704529
 30
0.0
 41
3.75
 42
3.75
 43
3.75
 50
270.0
  0
MTEXT
  5
29F79
330
29151
100
AcDbEntity
  8
文字
100
AcDbMText
 10
669.6446029899452
 20
-2891.604634870093
 30
0.0
 40
4.5
 41
0.0
 71
     5
 72
     1
  1
\A1;6
  7
まこ
 11
0.0000000000000001
 21
1.0
 31
0.0
 73
     1
 44
1.0
  0
POINT
  5
29F7A
330
29151
100
AcDbEntity
  8
DEFPOINTS
 62
     0
100
AcDbPoint
 10
660.7550339877583
 20
-2901.605209704529
 30
0.0
  0
POINT
  5
29F7B
330
29151
100
AcDbEntity
  8
DEFPOINTS
 62
     0
100
AcDbPoint
 10
660.7550339877583
 20
-2907.605209704529
 30
0.0
  0
POINT
  5
29F7C
330
29151
100
AcDbEntity
  8
DEFPOINTS
 62
     0
100
AcDbPoint
 10
672.6446029899448
 20
-2907.605209704529
 30
0.0
  0
ENDBLK
  5
2915E
330
29151
100
AcDbEntity
  8
0
100
AcDbBlockEnd
  0
ENDSEC
  0
SECTION
  2
ENTITIES
  0
MTEXT
  5
176FC
330
18
100
AcDbEntity
  8
dimension
 62
     2
100
AcDbMText
 10
-100.7823601383244
 20
171.621314412839
 30
0.0
 40
8.0
 41
0.0
 71
     4
 72
     1
  1

 73
     1
 44
1.0
  0
MTEXT
  5
187CB
330
18
100
AcDbEntity
  8
0
  6
ByBlock
100
AcDbMText
 10
325.4874764241681
 20
2232.511722574347
 30
0.0
 40
2.0
 41
0.0
 71
     4
 72
     5
  1

 11
-0.0000000000000002
 21
-1.0
 31
0.0
 73
     1
 44
1.0
1001
ACAD
1000
MTEXTBEGIN
1070
    73
1070
     1
1070
    44
1040
1.0
1070
    74
1070
     0
1000
MTEXTEND
  0
MTEXT
  5
187CC
330
18
100
AcDbEntity
  8
0
  6
ByBlock
100
AcDbMText
 10
360.9528647873208
 20
2221.718414215929
 30
0.0
 40
2.0
 41
0.0
 71
     7
 72
     5
  1

 11
0.0000000000000001
 21
1.0
 31
0.0
 73
     1
 44
1.0
1001
ACAD
1000
MTEXTBEGIN
1070
    73
1070
     1
1070
    44
1040
1.0
1070
    74
1070
     0
1000
MTEXTEND
  0
MTEXT
  5
187CD
330
18
100
AcDbEntity
  8
0
100
AcDbMText
 10
325.1733668026532
 20
2146.93890367364
 30
0.0
 40
2.0
 41
10.1453
 71
     1
 72
     5
  1

 11
-0.0000000000000002
 21
-1.0
 31
0.0
 73
     1
 44
1.0
1001
ACAD
1000
MTEXTBEGIN
1070
    73
1070
     1
1070
    44
1040
1.0
1070
    74
1070
     0
1000
MTEXTEND
  0
MTEXT
  5
187CE
330
18
100
AcDbEntity
  8
0
100
AcDbMText
 10
280.7738750495033
 20
2115.30742008065
 30
0.0
 40
2.0
 41
0.0
 71
     1
 72
     5
  1

 73
     1
 44
1.0
1001
ACAD
1000
MTEXTBEGIN
1070
    73
1070
     1
1070
    44
1040
1.0
1070
    74
1070
     0
1000
MTEXTEND
  0
MTEXT
  5
187CF
330
18
100
AcDbEntity
  8
0
  6
CENTER
100
AcDbMText
 10
606.3621522332663
 20
2216.239946825076
 30
0.0
 40
2.0
 41
15.6417
 71
     1
 72
     5
  1

  7
BIGFONT
 73
     1
 44
1.0
1001
ACAD
1000
MTEXTBEGIN
1070
    73
1070
     1
1070
    44
1040
1.0
1070
    74
1070
     0
1000
MTEXTEND
  0
MTEXT
  5
187D0
330
18
100
AcDbEntity
  8
0
  6
DASHDOT
100
AcDbMText
 10
368.6842112890944
 20
2323.029441652852
 30
0.0
 40
1.0
 41
2.0
 71
     1
 72
     5
  1

  7
BIGFONT
 73
     1
 44
1.0
1001
ACAD
1000
MTEXTBEGIN
1070
    73
1070
     1
1070
    44
1040
1.0
1070
    74
1070
     0
1000
MTEXTEND
  0
MTEXT
  5
187D1
330
18
100
AcDbEntity
  8
0
  6
ByBlock
100
AcDbMText
 10
325.4873894192178
 20
2232.511722574347
 30
0.0
 40
2.0
 41
0.0
 71
     4
 72
     5
  1

 11
-0.0000000000000002
 21
-1.0
 31
0.0
 73
     1
 44
1.0
1001
ACAD
1000
MTEXTBEGIN
1070
    73
1070
     1
1070
    44
1040
1.0
1070
    74
1070
     0
1000
MTEXTEND
  0
MTEXT
  5
187D2
330
18
100
AcDbEntity
  8
0
  6
ByBlock
100
AcDbMText
 10
360.9527777823707
 20
2221.718414215929
 30
0.0
 40
2.0
 41
0.0
 71
     7
 72
     5
  1

 11
0.0000000000000001
 21
1.0
 31
0.0
 73
     1
 44
1.0
1001
ACAD
1000
MTEXTBEGIN
1070
    73
1070
     1
1070
    44
1040
1.0
1070
    74
1070
     0
1000
MTEXTEND
  0
MTEXT
  5
187D3
330
18
100
AcDbEntity
  8
0
100
AcDbMText
 10
325.1732797977028
 20
2146.93890367364
 30
0.0
 40
2.0
 41
10.1453
 71
     1
 72
     5
  1

 11
-0.0000000000000002
 21
-1.0
 31
0.0
 73
     1
 44
1.0
1001
ACAD
1000
MTEXTBEGIN
1070
    73
1070
     1
1070
    44
1040
1.0
1070
    74
1070
     0
1000
MTEXTEND
  0
MTEXT
  5
187D4
330
18
100
AcDbEntity
  8
0
100
AcDbMText
 10
280.773788044553
 20
2115.30742008065
 30
0.0
 40
2.0
 41
0.0
 71
     1
 72
     5
  1

 73
     1
 44
1.0
1001
ACAD
1000
MTEXTBEGIN
1070
    73
1070
     1
1070
    44
1040
1.0
1070
    74
1070
     0
1000
MTEXTEND
  0
MTEXT
  5
187D5
330
18
100
AcDbEntity
  8
0
  6
CENTER
100
AcDbMText
 10
606.3620652283159
 20
2216.239946825076
 30
0.0
 40
2.0
 41
15.6417
 71
     1
 72
     5
  1

  7
BIGFONT
 73
     1
 44
1.0
1001
ACAD
1000
MTEXTBEGIN
1070
    73
1070
     1
1070
    44
1040
1.0
1070
    74
1070
     0
1000
MTEXTEND
  0
MTEXT
  5
187D6
330
18
100
AcDbEntity
  8
0
  6
DASHDOT
100
AcDbMText
 10
368.6841242841443
 20
2323.029441652852
 30
0.0
 40
1.0
 41
2.0
 71
     1
 72
     5
  1

  7
BIGFONT
 73
     1
 44
1.0
1001
ACAD
1000
MTEXTBEGIN
1070
    73
1070
     1
1070
    44
1040
1.0
1070
    74
1070
     0
1000
MTEXTEND
  0
INSERT
  5
187D7
330
18
100
AcDbEntity
  8
FRAME025
100
AcDbBlockReference
  2
機械A4横_LBP
 10
271.0019941658661
 20
2006.88884056487
 30
0.0
  0
TEXT
  5
216E7
330
18
100
AcDbEntity
  8
FRAME020
  6
Continuous
100
AcDbText
 10
1272.84444499335
 20
-2736.187561819853
 30
0.0
 40
3.0
  1

 50
270.0
100
AcDbText
  0
MTEXT
  5
21ACC
330
18
100
AcDbEntity
  8
0
100
AcDbMText
 10
62.91095225984048
 20
-1280.130762802907
 30
0.0
 40
2.5
 41
0.625
 71
     9
 72
     1
  1

 73
     1
 44
1.0
1001
ACAD
1000
MTEXTBEGIN
1070
    73
1070
     1
1070
    44
1040
1.0
1070
    74
1070
     0
1000
MTEXTEND
1000
MTEXTBEGIN
1070
    73
1070
     1
1070
    44
1040
1.0
1070
    74
1070
     0
1000
MTEXTEND
1000
MTEXTBEGIN
1070
    73
1070
     1
1070
    44
1040
1.0
1070
    74
1070
     0
1000
MTEXTEND
1000
MTEXTBEGIN
1070
    73
1070
     1
1070
    44
1040
1.0
1070
    74
1070
     0
1000
MTEXTEND
1000
MTEXTBEGIN
1070
    73
1070
     1
1070
    44
1040
1.0
1070
    74
1070
     0
1000
MTEXTEND
1000
MTEXTBEGIN
1070
    73
1070
     1
1070
    44
1040
1.0
1070
    74
1070
     0
1000
MTEXTEND
  0
DIMENSION
  5
28F16
330
18
100
AcDbEntity
  8
文字
100
AcDbDimension
  2
*D36
 10
672.6446029899448
 20
-2907.605209704529
 30
0.0
 11
672.6446029899452
 21
-2891.604634870093
 31
0.0
 70
   160
 71
     5
 42
6.0
  3
まこ
100
AcDbAlignedDimension
 13
660.7550339877583
 23
-2901.605209704529
 33
0.0
 14
660.7550339877583
 24
-2907.605209704529
 34
0.0
 50
90.0
100
AcDbRotatedDimension
1001
ACAD
1000
DSTYLE
1002
{
1070
   172
1070
     1
1002
}
  0
LEADER
  5
28F17
330
18
100
AcDbEntity
  8
文字
100
AcDbLeader
  3
まこ
 73
     0
 74
     0
 75
     1
 40
5.390862944162436
 41
52.19543147208121
 76
     3
 10
660.6199262252887
 20
-3022.605209704529
 30
0.0
 10
668.650199003353
 20
-3051.569544829094
 30
0.0
 10
672.400199003353
 20
-3051.569544829094
 30
0.0
340
28F56
1001
ACAD
1000
DSTYLE
1002
{
1070
   147
1040
0.5
1070
    77
1070
     1
1002
}
  0
DIMENSION
  5
28F18
330
18
100
AcDbEntity
  8
文字
100
AcDbDimension
  2
*D34
 10
663.7550339877583
 20
-2887.678189768103
 30
0.0
 11
645.9866525993281
 21
-2887.678189768103
 31
0.0
 70
   160
 71
     5
 42
7.0
  3
まこ
100
AcDbAlignedDimension
 13
656.7550339877583
 23
-2904.605209704529
 33
0.0
 14
663.7550339877583
 24
-2904.605209704529
 34
0.0
100
AcDbRotatedDimension
1001
ACAD
1000
DSTYLE
1002
{
1070
   172
1070
     1
1002
}
  0
DIMENSION
  5
28F19
330
18
100
AcDbEntity
  8
文字
100
AcDbDimension
  2
*D32
 10
724.2550339877581
 20
-2876.3281621847
 30
0.0
 11
692.255033987758
 21
-2873.3281621847
 31
0.0
 70
    32
 71
     5
 42
64.00000000000011
  3
まこ
100
AcDbAlignedDimension
 13
660.255033987758
 23
-2895.605209704529
 33
0.0
 14
724.2550339877581
 24
-2895.605209704529
 34
0.0
100
AcDbRotatedDimension
1001
ACAD
1000
DSTYLE
1002
{
1070
     3
1000
（ピッチ）
1070
   279
1070
     1
1002
}
  0
DIMENSION
  5
28F1A
330
18
100
AcDbEntity
  8
文字
100
AcDbDimension
  2
*D31
 10
884.2550339877584
 20
-2841.370185341909
 30
0.0
 11
756.2550339877584
 21
-2841.370185341909
 31
0.0
 70
   160
 71
     5
 42
256.0000000000001
  3
まこ
100
AcDbAlignedDimension
 13
628.2550339877583
 23
-2898.105209704528
 33
0.0
 14
884.2550339877584
 24
-2898.105209704528
 34
0.0
100
AcDbRotatedDimension
  0
DIMENSION
  5
28F1B
330
18
100
AcDbEntity
  8
文字
100
AcDbDimension
  2
*D30
 10
852.2550339877582
 20
-2859.705899159076
 30
0.0
 11
756.3375080330215
 21
-2859.705899159076
 31
0.0
 70
   160
 71
     5
 42
192.0000000000003
  3
まこ
100
AcDbAlignedDimension
 13
660.255033987758
 23
-2895.605209704529
 33
0.0
 14
852.2550339877582
 24
-2895.605209704529
 34
0.0
100
AcDbRotatedDimension
  0
LINE
  5
28F1E
330
18
100
AcDbEntity
  8
中心線
 48
0.5
100
AcDbLine
 10
651.7550339877584
 20
-2904.605209704529
 30
0.0
 11
668.7550339877584
 21
-2904.605209704529
 31
0.0
  0
LINE
  5
28F1F
330
18
100
AcDbEntity
  8
中心線
 48
0.5
100
AcDbLine
 10
651.7550339877584
 20
-3019.605209704529
 30
0.0
 11
668.7550339877584
 21
-3019.605209704529
 31
0.0
  0
LINE
  5
28F20
330
18
100
AcDbEntity
  8
実線
100
AcDbLine
 10
629.2550339877585
 20
-2897.105209704529
 30
0.0
 11
883.2550339877585
 21
-2897.105209704529
 31
0.0
  0
LINE
  5
28F21
330
18
100
AcDbEntity
  8
実線
100
AcDbLine
 10
629.2550339877585
 20
-3027.105209704529
 30
0.0
 11
883.2550339877585
 21
-3027.105209704529
 31
0.0
  0
DIMENSION
  5
28F22
330
18
100
AcDbEntity
  8
文字
100
AcDbDimension
  2
*D33
 10
660.255033987758
 20
-2876.3281621847
 30
0.0
 11
644.2550339877582
 21
-2873.3281621847
 31
0.0
 70
    32
 71
     5
 42
31.99999999999965
  3
まこ
100
AcDbAlignedDimension
 13
628.2550339877583
 23
-2898.105209704528
 33
0.0
 14
660.255033987758
 24
-2895.605209704529
 34
0.0
100
AcDbRotatedDimension
  0
DIMENSION
  5
28F23
330
18
100
AcDbEntity
  8
文字
100
AcDbDimension
  2
*D24
 10
606.5596300901347
 20
-3027.105209704529
 30
0.0
 11
603.5596300901352
 21
-2962.105209704528
 31
0.0
 70
    32
 71
     5
 42
130.0000000000004
  3
まこ
100
AcDbAlignedDimension
 13
629.2550339877583
 23
-2897.105209704529
 33
0.0
 14
629.2550339877583
 24
-3027.105209704529
 34
0.0
 50
90.0
100
AcDbRotatedDimension
  0
DIMENSION
  5
28F24
330
18
100
AcDbEntity
  8
文字
100
AcDbDimension
  2
*D23
 10
617.9798758770994
 20
-3019.605209704529
 30
0.0
 11
614.9798758770998
 21
-2962.105209704528
 31
0.0
 70
    32
 71
     5
 42
115.0
  3
まこ
100
AcDbAlignedDimension
 13
651.7550339877583
 23
-2904.605209704529
 33
0.0
 14
651.7550339877583
 24
-3019.605209704529
 34
0.0
 50
90.0
100
AcDbRotatedDimension
  0
LINE
  5
28F27
330
18
100
AcDbEntity
  8
実線
100
AcDbLine
 10
628.2550339877584
 20
-2898.105209704528
 30
0.0
 11
628.2550339877584
 21
-3026.105209704529
 31
0.0
  0
LINE
  5
28F28
330
18
100
AcDbEntity
  8
実線
100
AcDbLine
 10
628.2550339877584
 20
-3026.105209704529
 30
0.0
 11
629.2550339877585
 21
-3027.105209704529
 31
0.0
  0
LINE
  5
28F29
330
18
100
AcDbEntity
  8
実線
100
AcDbLine
 10
659.7550339877584
 20
-3022.605209704529
 30
0.0
 11
660.7550339877584
 21
-3022.605209704529
 31
0.0
  0
LINE
  5
28F2A
330
18
100
AcDbEntity
  8
実線
100
AcDbLine
 10
659.7550339877584
 20
-3016.605209704529
 30
0.0
 11
660.7550339877584
 21
-3016.605209704529
 31
0.0
  0
ARC
  5
28F2B
330
18
100
AcDbEntity
  8
実線
100
AcDbCircle
 10
660.7550339877584
 20
-3019.605209704529
 30
0.0
 40
3.0
100
AcDbArc
 50
270.0
 51
90.0
  0
ARC
  5
28F2C
330
18
100
AcDbEntity
  8
実線
100
AcDbCircle
 10
659.7550339877584
 20
-3019.605209704529
 30
0.0
 40
3.0
100
AcDbArc
 50
90.0
 51
270.0
  0
LINE
  5
28F2D
330
18
100
AcDbEntity
  8
中心線
 48
0.5
100
AcDbLine
 10
660.255033987758
 20
-3011.605209704529
 30
0.0
 11
660.255033987758
 21
-3027.605209704529
 31
0.0
  0
LINE
  5
28F30
330
18
100
AcDbEntity
  8
実線
100
AcDbLine
 10
629.2550339877585
 20
-2897.105209704529
 30
0.0
 11
628.2550339877584
 21
-2898.105209704528
 31
0.0
  0
ARC
  5
28F31
330
18
100
AcDbEntity
  8
実線
100
AcDbCircle
 10
660.7550339877584
 20
-2904.605209704529
 30
0.0
 40
3.0
100
AcDbArc
 50
270.0
 51
90.0
  0
LINE
  5
28F32
330
18
100
AcDbEntity
  8
実線
100
AcDbLine
 10
659.7550339877584
 20
-2901.605209704529
 30
0.0
 11
660.7550339877584
 21
-2901.605209704529
 31
0.0
  0
LINE
  5
28F33
330
18
100
AcDbEntity
  8
実線
100
AcDbLine
 10
659.7550339877584
 20
-2907.605209704529
 30
0.0
 11
660.7550339877584
 21
-2907.605209704529
 31
0.0
  0
LINE
  5
28F34
330
18
100
AcDbEntity
  8
中心線
 48
0.5
100
AcDbLine
 10
660.255033987758
 20
-2896.605209704529
 30
0.0
 11
660.255033987758
 21
-2912.605209704528
 31
0.0
  0
ARC
  5
28F35
330
18
100
AcDbEntity
  8
実線
100
AcDbCircle
 10
659.7550339877584
 20
-2904.605209704529
 30
0.0
 40
3.0
100
AcDbArc
 50
90.0
 51
270.0
  0
LINE
  5
28F4A
330
18
100
AcDbEntity
  8
中心線
 48
0.5
100
AcDbLine
 10
779.7550339877584
 20
-2904.605209704529
 30
0.0
 11
796.7550339877585
 21
-2904.605209704529
 31
0.0
  0
ARC
  5
28F4B
330
18
100
AcDbEntity
  8
実線
100
AcDbCircle
 10
788.7550339877585
 20
-2904.605209704529
 30
0.0
 40
3.0
100
AcDbArc
 50
270.0
 51
90.0
  0
LINE
  5
28F4C
330
18
100
AcDbEntity
  8
中心線
 48
0.5
100
AcDbLine
 10
779.7550339877584
 20
-3019.605209704529
 30
0.0
 11
796.7550339877585
 21
-3019.605209704529
 31
0.0
  0
ARC
  5
28F4D
330
18
100
AcDbEntity
  8
実線
100
AcDbCircle
 10
788.7550339877585
 20
-3019.605209704529
 30
0.0
 40
3.0
100
AcDbArc
 50
270.0
 51
90.0
  0
ARC
  5
28F54
330
18
100
AcDbEntity
  8
実線
100
AcDbCircle
 10
724.7550339877584
 20
-3019.605209704529
 30
0.0
 40
3.0
100
AcDbArc
 50
270.0
 51
90.0
  0
LINE
  5
28F55
330
18
100
AcDbEntity
  8
中心線
 48
0.5
100
AcDbLine
 10
715.7550339877584
 20
-3019.605209704529
 30
0.0
 11
732.7550339877584
 21
-3019.605209704529
 31
0.0
  0
MTEXT
  5
28F56
102
{ACAD_REACTORS
330
28F17
102
}
330
18
100
AcDbEntity
  8
文字
100
AcDbMText
 10
673.150199003353
 20
-3048.124113357013
 30
0.0
 40
4.5
 41
0.0
 71
     4
 72
     1
  1
取付穴　8-長穴貫通
  7
まこ
 73
     1
 44
1.0
  0
LINE
  5
28F58
102
{ACAD_REACTORS
330
29245
102
}
330
18
100
AcDbEntity
  8
0
 62
     2
100
AcDbLine
 10
675.2628350081304
 20
-3025.580565840274
 30
0.0
 11
709.2628350081304
 21
-3025.580565840274
 31
0.0
  0
LINE
  5
28F59
102
{ACAD_REACTORS
330
29245
102
}
330
18
100
AcDbEntity
  8
0
 62
     2
100
AcDbLine
 10
675.2628350081304
 20
-3025.580565840274
 30
0.0
 11
709.2628350081304
 21
-3025.580565840274
 31
0.0
  0
TEXT
  5
28F5A
102
{ACAD_REACTORS
330
29245
102
}
330
18
100
AcDbEntity
  8
0
 62
     2
100
AcDbText
 10
676.5596784661847
 20
-3020.021687041027
 30
0.0
 40
2.0
  1
SER No.******
 41
1.199999999999999
  7
MSゴシックN
 11
676.5596784661847
 21
-3020.387169274529
 31
0.0
100
AcDbText
 73
     1
  0
TEXT
  5
28F5B
102
{ACAD_REACTORS
330
29245
102
}
330
18
100
AcDbEntity
  8
0
 62
     2
100
AcDbText
 10
676.5596784661847
 20
-3020.021687041027
 30
0.0
 40
2.0
  1
SER No.******
 41
1.199999999999999
  7
MSｺﾞｼｯｸN
 11
676.5596784661847
 21
-3020.387169274529
 31
0.0
100
AcDbText
 73
     1
  0
TEXT
  5
28F5C
102
{ACAD_REACTORS
330
29245
102
}
330
18
100
AcDbEntity
  8
0
 62
     2
100
AcDbText
 10
676.5868050389963
 20
-3017.197653692596
 30
0.0
 40
2.6
  1
MODEL:MBNA256A
 41
1.199999999999999
  7
MSｺﾞｼｯｸN
 11
676.5868050389963
 21
-3017.672780596149
 31
0.0
100
AcDbText
 73
     1
  0
LINE
  5
28F5D
102
{ACAD_REACTORS
330
29245
102
}
330
18
100
AcDbEntity
  8
0
 62
     2
100
AcDbLine
 10
709.2628350081304
 20
-3013.580565840274
 30
0.0
 11
675.2628350081304
 21
-3013.580565840274
 31
0.0
  0
LINE
  5
28F5E
102
{ACAD_REACTORS
330
29245
102
}
330
18
100
AcDbEntity
  8
0
 62
     2
100
AcDbLine
 10
674.7628350081304
 20
-3020.580565840274
 30
0.0
 11
709.7628350081304
 21
-3020.580565840274
 31
0.0
  0
LINE
  5
28F5F
102
{ACAD_REACTORS
330
29245
102
}
330
18
100
AcDbEntity
  8
0
 62
     2
100
AcDbLine
 10
709.2628350081304
 20
-3013.580565840274
 30
0.0
 11
675.2628350081304
 21
-3013.580565840274
 31
0.0
  0
LINE
  5
28F60
102
{ACAD_REACTORS
330
29245
102
}
330
18
100
AcDbEntity
  8
0
 62
     2
100
AcDbLine
 10
674.7628350081304
 20
-3020.580565840274
 30
0.0
 11
709.7628350081304
 21
-3020.580565840274
 31
0.0
  0
TEXT
  5
28F61
102
{ACAD_REACTORS
330
29245
102
}
330
18
100
AcDbEntity
  8
0
 62
     2
100
AcDbText
 10
682.9309807335962
 20
-3024.679308283689
 30
0.0
 40
1.44
  1
DENSO
 41
1.3
  7
TIMESNR
100
AcDbText
  0
TEXT
  5
28F62
102
{ACAD_REACTORS
330
29245
102
}
330
18
100
AcDbEntity
  8
0
 62
     2
100
AcDbText
 10
682.9309807335958
 20
-3024.679308283688
 30
0.0
 40
1.44
  1
DENSO
 41
1.3
  7
TIMESNR
100
AcDbText
  0
TEXT
  5
28F63
102
{ACAD_REACTORS
330
29245
102
}
330
18
100
AcDbEntity
  8
0
 62
     2
100
AcDbText
 10
683.052393843735
 20
-3022.982545874703
 30
0.0
 40
1.44
  1
NIKKI
 41
1.25
  7
TIMESNR
100
AcDbText
  0
TEXT
  5
28F64
102
{ACAD_REACTORS
330
29245
102
}
330
18
100
AcDbEntity
  8
0
 62
     2
100
AcDbText
 10
683.0523938437363
 20
-3022.982545874703
 30
0.0
 40
1.44
  1
NIKKI
 41
1.25
  7
TIMESNR
100
AcDbText
  0
LINE
  5
28F65
102
{ACAD_REACTORS
330
28F76
330
29245
102
}
330
18
100
AcDbEntity
  8
0
 62
     2
100
AcDbLine
 10
681.7143815092086
 20
-3024.727042422273
 30
0.0
 11
681.9546815092085
 21
-3022.724542422272
 31
0.0
  0
LINE
  5
28F66
102
{ACAD_REACTORS
330
28F75
330
29245
102
}
330
18
100
AcDbEntity
  8
0
 62
     2
100
AcDbLine
 10
681.7143815092094
 20
-3024.727042422272
 30
0.0
 11
681.9546815092089
 21
-3022.724542422272
 31
0.0
  0
ARC
  5
28F67
102
{ACAD_REACTORS
330
28F76
330
29245
102
}
330
18
100
AcDbEntity
  8
0
 62
     2
100
AcDbCircle
 10
679.7118815092085
 20
-3023.525542422273
 30
0.0
 40
0.8009999999999999
100
AcDbArc
 50
270.0
 51
90.0
  0
ARC
  5
28F68
102
{ACAD_REACTORS
330
28F75
330
29245
102
}
330
18
100
AcDbEntity
  8
0
 62
     2
100
AcDbCircle
 10
679.711881509209
 20
-3023.525542422272
 30
0.0
 40
0.8009999999999999
100
AcDbArc
 50
270.0
 51
90.0
  0
LINE
  5
28F69
102
{ACAD_REACTORS
330
29245
102
}
330
18
100
AcDbEntity
  8
0
 62
     2
100
AcDbLine
 10
674.7628350081304
 20
-3014.080565840274
 30
0.0
 11
674.7628350081304
 21
-3025.080565840274
 31
0.0
  0
LINE
  5
28F6A
102
{ACAD_REACTORS
330
29245
102
}
330
18
100
AcDbEntity
  8
0
 62
     2
100
AcDbLine
 10
674.7628350081304
 20
-3014.080565840274
 30
0.0
 11
674.7628350081304
 21
-3025.080565840274
 31
0.0
  0
LINE
  5
28F6B
102
{ACAD_REACTORS
330
28F76
330
29245
102
}
330
18
100
AcDbEntity
  8
0
 62
     2
100
AcDbLine
 10
677.3088815092083
 20
-3024.727042422273
 30
0.0
 11
677.7093815092085
 21
-3021.523042422272
 31
0.0
  0
LINE
  5
28F6C
102
{ACAD_REACTORS
330
28F75
330
29245
102
}
330
18
100
AcDbEntity
  8
0
 62
     2
100
AcDbLine
 10
677.3088815092087
 20
-3024.727042422272
 30
0.0
 11
677.7093815092085
 21
-3021.523042422272
 31
0.0
  0
ARC
  5
28F6D
102
{ACAD_REACTORS
330
28F76
330
29245
102
}
330
18
100
AcDbEntity
  8
0
 62
     2
100
AcDbCircle
 10
679.7128129045573
 20
-3023.323429631575
 30
0.0
 40
1.00311322310025
100
AcDbArc
 50
113.5897772726141
 51
269.946800591402
  0
ARC
  5
28F6E
102
{ACAD_REACTORS
330
28F75
330
29245
102
}
330
18
100
AcDbEntity
  8
0
 62
     2
100
AcDbCircle
 10
679.7128129045577
 20
-3023.323429631575
 30
0.0
 40
1.00311322310025
100
AcDbArc
 50
113.5897772726223
 51
269.9468005913759
  0
CIRCLE
  5
28F6F
102
{ACAD_REACTORS
330
28F76
330
29245
102
}
330
18
100
AcDbEntity
  8
0
 62
     2
100
AcDbCircle
 10
679.7118815092085
 20
-3023.325292422272
 30
0.0
 40
0.6007500000000002
  0
CIRCLE
  5
28F70
102
{ACAD_REACTORS
330
28F75
330
29245
102
}
330
18
100
AcDbEntity
  8
0
 62
     2
100
AcDbCircle
 10
679.711881509209
 20
-3023.325292422272
 30
0.0
 40
0.6007500000000002
  0
ARC
  5
28F71
102
{ACAD_REACTORS
330
29245
102
}
330
18
100
AcDbEntity
  8
0
 62
     2
100
AcDbCircle
 10
675.2628350081304
 20
-3025.080565840274
 30
0.0
 40
0.5
100
AcDbArc
 50
180.0
 51
270.0
  0
ARC
  5
28F72
102
{ACAD_REACTORS
330
29245
102
}
330
18
100
AcDbEntity
  8
0
 62
     2
100
AcDbCircle
 10
675.2628350081304
 20
-3025.080565840274
 30
0.0
 40
0.5
100
AcDbArc
 50
180.0
 51
270.0
  0
ARC
  5
28F73
102
{ACAD_REACTORS
330
29245
102
}
330
18
100
AcDbEntity
  8
0
 62
     2
100
AcDbCircle
 10
675.2628350081304
 20
-3014.080565840274
 30
0.0
 40
0.5
100
AcDbArc
 50
90.0
 51
180.0
  0
ARC
  5
28F74
102
{ACAD_REACTORS
330
29245
102
}
330
18
100
AcDbEntity
  8
0
 62
     2
100
AcDbCircle
 10
675.2628350081304
 20
-3014.080565840274
 30
0.0
 40
0.5
100
AcDbArc
 50
90.0
 51
180.0
  0
HATCH
  5
28F75
102
{ACAD_REACTORS
330
29245
102
}
330
18
100
AcDbEntity
  8
0
 62
     2
100
AcDbHatch
 10
0.0
 20
0.0
 30
0.0
210
0.0
220
0.0
230
1.0
  2
SOLID
 70
     1
 71
     1
 91
        2
 92
       17
 93
        1
 72
     2
 10
679.711881509209
 20
-3023.325292422272
 40
0.6007500000000002
 50
0.0
 51
360.0
 73
     1
 97
        1
330
28F70
 92
        1
 93
        8
 72
     2
 10
679.7128129045577
 20
-3023.323429631575
 40
1.00311322310025
 50
113.5897772726223
 51
269.9468005913759
 73
     1
 72
     2
 10
679.711881509209
 20
-3023.525542422272
 40
0.8009999999999999
 50
270.0
 51
450.0
 73
     1
 72
     1
 10
679.711881509209
 20
-3022.724542422272
 11
681.9546815092089
 21
-3022.724542422272
 72
     1
 10
681.9546815092089
 20
-3022.724542422272
 11
681.7143815092094
 21
-3024.727042422272
 72
     1
 10
681.7143815092094
 20
-3024.727042422272
 11
677.3088815092087
 21
-3024.727042422272
 72
     1
 10
677.3088815092087
 20
-3024.727042422272
 11
677.7093815092085
 21
-3021.523042422272
 72
     1
 10
677.7093815092085
 20
-3021.523042422272
 11
682.1148815092092
 21
-3021.523042422272
 72
     1
 10
682.1148815092092
 20
-3021.523042422272
 11
679.3113815092092
 21
-3022.404142422272
 97
        8
330
28F6E
330
28F68
330
28F7A
330
28F66
330
28F78
330
28F6C
330
28F7E
330
28F7C
 75
     0
 76
     1
 98
        1
 10
478.2341714149733
 20
-3020.845817606513
  0
HATCH
  5
28F76
102
{ACAD_REACTORS
330
29245
102
}
330
18
100
AcDbEntity
  8
0
 62
     2
100
AcDbHatch
 10
0.0
 20
0.0
 30
0.0
210
0.0
220
0.0
230
1.0
  2
SOLID
 70
     1
 71
     1
 91
        2
 92
       17
 93
        1
 72
     2
 10
679.7118815092085
 20
-3023.325292422272
 40
0.6007500000000002
 50
0.0
 51
360.0
 73
     1
 97
        1
330
28F6F
 92
        1
 93
        8
 72
     2
 10
679.7128129045573
 20
-3023.323429631575
 40
1.00311322310025
 50
113.5897772726141
 51
269.946800591402
 73
     1
 72
     2
 10
679.7118815092085
 20
-3023.525542422273
 40
0.8009999999999999
 50
270.0
 51
450.0
 73
     1
 72
     1
 10
679.7118815092085
 20
-3022.724542422272
 11
681.9546815092085
 21
-3022.724542422272
 72
     1
 10
681.9546815092085
 20
-3022.724542422272
 11
681.7143815092086
 21
-3024.727042422273
 72
     1
 10
681.7143815092086
 20
-3024.727042422273
 11
677.3088815092083
 21
-3024.727042422273
 72
     1
 10
677.3088815092083
 20
-3024.727042422273
 11
677.7093815092085
 21
-3021.523042422272
 72
     1
 10
677.7093815092085
 20
-3021.523042422272
 11
682.1148815092083
 21
-3021.523042422272
 72
     1
 10
682.1148815092083
 20
-3021.523042422272
 11
679.3113815092083
 21
-3022.404142422272
 97
        8
330
28F6D
330
28F67
330
28F79
330
28F65
330
28F77
330
28F6B
330
28F7D
330
28F7B
 75
     0
 76
     1
 98
        1
 10
478.234171414972
 20
-3020.845817606513
  0
LINE
  5
28F77
102
{ACAD_REACTORS
330
28F76
330
29245
102
}
330
18
100
AcDbEntity
  8
0
 62
     2
100
AcDbLine
 10
677.3088815092083
 20
-3024.727042422273
 30
0.0
 11
681.7143815092086
 21
-3024.727042422273
 31
0.0
  0
LINE
  5
28F78
102
{ACAD_REACTORS
330
28F75
330
29245
102
}
330
18
100
AcDbEntity
  8
0
 62
     2
100
AcDbLine
 10
677.3088815092087
 20
-3024.727042422272
 30
0.0
 11
681.7143815092094
 21
-3024.727042422272
 31
0.0
  0
LINE
  5
28F79
102
{ACAD_REACTORS
330
28F76
330
29245
102
}
330
18
100
AcDbEntity
  8
0
 62
     2
100
AcDbLine
 10
679.7118815092085
 20
-3022.724542422272
 30
0.0
 11
681.9546815092085
 21
-3022.724542422272
 31
0.0
  0
LINE
  5
28F7A
102
{ACAD_REACTORS
330
28F75
330
29245
102
}
330
18
100
AcDbEntity
  8
0
 62
     2
100
AcDbLine
 10
679.711881509209
 20
-3022.724542422272
 30
0.0
 11
681.9546815092089
 21
-3022.724542422272
 31
0.0
  0
LINE
  5
28F7B
102
{ACAD_REACTORS
330
28F76
330
29245
102
}
330
18
100
AcDbEntity
  8
0
 62
     2
100
AcDbLine
 10
682.1148815092083
 20
-3021.523042422272
 30
0.0
 11
679.3113815092083
 21
-3022.404142422272
 31
0.0
  0
LINE
  5
28F7C
102
{ACAD_REACTORS
330
28F75
330
29245
102
}
330
18
100
AcDbEntity
  8
0
 62
     2
100
AcDbLine
 10
682.1148815092092
 20
-3021.523042422272
 30
0.0
 11
679.3113815092092
 21
-3022.404142422272
 31
0.0
  0
LINE
  5
28F7D
102
{ACAD_REACTORS
330
28F76
330
29245
102
}
330
18
100
AcDbEntity
  8
0
 62
     2
100
AcDbLine
 10
677.7093815092085
 20
-3021.523042422272
 30
0.0
 11
682.1148815092083
 21
-3021.523042422272
 31
0.0
  0
LINE
  5
28F7E
102
{ACAD_REACTORS
330
28F75
330
29245
102
}
330
18
100
AcDbEntity
  8
0
 62
     2
100
AcDbLine
 10
677.7093815092085
 20
-3021.523042422272
 30
0.0
 11
682.1148815092092
 21
-3021.523042422272
 31
0.0
  0
LINE
  5
28F80
102
{ACAD_REACTORS
330
29245
102
}
330
18
100
AcDbEntity
  8
0
 62
     2
100
AcDbLine
 10
709.7628350081304
 20
-3025.080565840274
 30
0.0
 11
709.7628350081304
 21
-3014.080565840274
 31
0.0
  0
LINE
  5
28F81
102
{ACAD_REACTORS
330
29245
102
}
330
18
100
AcDbEntity
  8
0
 62
     2
100
AcDbLine
 10
709.7628350081304
 20
-3025.080565840274
 30
0.0
 11
709.7628350081304
 21
-3014.080565840274
 31
0.0
  0
ARC
  5
28F82
102
{ACAD_REACTORS
330
29245
102
}
330
18
100
AcDbEntity
  8
0
 62
     2
100
AcDbCircle
 10
709.2628350081304
 20
-3025.080565840274
 30
0.0
 40
0.5
100
AcDbArc
 50
270.0
 51
0.0
  0
ARC
  5
28F83
102
{ACAD_REACTORS
330
29245
102
}
330
18
100
AcDbEntity
  8
0
 62
     2
100
AcDbCircle
 10
709.2628350081304
 20
-3025.080565840274
 30
0.0
 40
0.5
100
AcDbArc
 50
270.0
 51
0.0
  0
ARC
  5
28F84
102
{ACAD_REACTORS
330
29245
102
}
330
18
100
AcDbEntity
  8
0
 62
     2
100
AcDbCircle
 10
709.2628350081304
 20
-3014.080565840274
 30
0.0
 40
0.5
100
AcDbArc
 50
0.0
 51
90.0
  0
ARC
  5
28F85
102
{ACAD_REACTORS
330
29245
102
}
330
18
100
AcDbEntity
  8
0
 62
     2
100
AcDbCircle
 10
709.2628350081304
 20
-3014.080565840274
 30
0.0
 40
0.5
100
AcDbArc
 50
0.0
 51
90.0
  0
ARC
  5
28F86
330
18
100
AcDbEntity
  8
実線
100
AcDbCircle
 10
723.7550339877584
 20
-3019.605209704529
 30
0.0
 40
3.0
100
AcDbArc
 50
90.0
 51
270.0
  0
LINE
  5
28F87
330
18
100
AcDbEntity
  8
実線
100
AcDbLine
 10
723.7550339877584
 20
-3022.605209704529
 30
0.0
 11
724.7550339877584
 21
-3022.605209704529
 31
0.0
  0
LINE
  5
28F88
330
18
100
AcDbEntity
  8
実線
100
AcDbLine
 10
723.7550339877584
 20
-3016.605209704529
 30
0.0
 11
724.7550339877584
 21
-3016.605209704529
 31
0.0
  0
LINE
  5
28F89
330
18
100
AcDbEntity
  8
中心線
 48
0.5
100
AcDbLine
 10
724.2550339877579
 20
-3011.605209704529
 30
0.0
 11
724.2550339877579
 21
-3027.605209704529
 31
0.0
  0
ARC
  5
28F8F
330
18
100
AcDbEntity
  8
実線
100
AcDbCircle
 10
787.7550339877585
 20
-3019.605209704529
 30
0.0
 40
3.0
100
AcDbArc
 50
90.0
 51
270.0
  0
LINE
  5
28F90
330
18
100
AcDbEntity
  8
実線
100
AcDbLine
 10
787.7550339877585
 20
-3022.605209704529
 30
0.0
 11
788.7550339877585
 21
-3022.605209704529
 31
0.0
  0
LINE
  5
28F91
330
18
100
AcDbEntity
  8
実線
100
AcDbLine
 10
787.7550339877585
 20
-3016.605209704529
 30
0.0
 11
788.7550339877585
 21
-3016.605209704529
 31
0.0
  0
LINE
  5
28F92
330
18
100
AcDbEntity
  8
中心線
 48
0.5
100
AcDbLine
 10
788.2550339877582
 20
-3011.605209704529
 30
0.0
 11
788.2550339877582
 21
-3027.605209704529
 31
0.0
  0
ARC
  5
28F94
330
18
100
AcDbEntity
  8
実線
100
AcDbCircle
 10
724.7550339877584
 20
-2904.605209704529
 30
0.0
 40
3.0
100
AcDbArc
 50
270.0
 51
90.0
  0
LINE
  5
28F95
330
18
100
AcDbEntity
  8
中心線
 48
0.5
100
AcDbLine
 10
715.7550339877584
 20
-2904.605209704529
 30
0.0
 11
732.7550339877584
 21
-2904.605209704529
 31
0.0
  0
ARC
  5
28F99
330
18
100
AcDbEntity
  8
実線
100
AcDbCircle
 10
723.7550339877584
 20
-2904.605209704529
 30
0.0
 40
3.0
100
AcDbArc
 50
90.0
 51
270.0
  0
LINE
  5
28F9A
330
18
100
AcDbEntity
  8
中心線
 48
0.5
100
AcDbLine
 10
724.2550339877579
 20
-2896.605209704529
 30
0.0
 11
724.2550339877579
 21
-2912.605209704528
 31
0.0
  0
LINE
  5
28F9B
330
18
100
AcDbEntity
  8
実線
100
AcDbLine
 10
723.7550339877584
 20
-2907.605209704529
 30
0.0
 11
724.7550339877584
 21
-2907.605209704529
 31
0.0
  0
LINE
  5
28F9C
330
18
100
AcDbEntity
  8
実線
100
AcDbLine
 10
723.7550339877584
 20
-2901.605209704529
 30
0.0
 11
724.7550339877584
 21
-2901.605209704529
 31
0.0
  0
ARC
  5
28FA4
330
18
100
AcDbEntity
  8
実線
100
AcDbCircle
 10
787.7550339877585
 20
-2904.605209704529
 30
0.0
 40
3.0
100
AcDbArc
 50
90.0
 51
270.0
  0
LINE
  5
28FA5
330
18
100
AcDbEntity
  8
中心線
 48
0.5
100
AcDbLine
 10
788.2550339877582
 20
-2896.605209704529
 30
0.0
 11
788.2550339877582
 21
-2912.605209704528
 31
0.0
  0
LINE
  5
28FA6
330
18
100
AcDbEntity
  8
実線
100
AcDbLine
 10
787.7550339877585
 20
-2907.605209704529
 30
0.0
 11
788.7550339877585
 21
-2907.605209704529
 31
0.0
  0
LINE
  5
28FA7
330
18
100
AcDbEntity
  8
実線
100
AcDbLine
 10
787.7550339877585
 20
-2901.605209704529
 30
0.0
 11
788.7550339877585
 21
-2901.605209704529
 31
0.0
  0
LINE
  5
28FAB
330
18
100
AcDbEntity
  8
実線
100
AcDbLine
 10
884.2550339877584
 20
-2898.105209704528
 30
0.0
 11
884.2550339877584
 21
-3026.105209704529
 31
0.0
  0
ARC
  5
28FAC
330
18
100
AcDbEntity
  8
実線
100
AcDbCircle
 10
852.7550339877587
 20
-3019.605209704529
 30
0.0
 40
3.0
100
AcDbArc
 50
270.0
 51
90.0
  0
LINE
  5
28FAD
330
18
100
AcDbEntity
  8
中心線
 48
0.5
100
AcDbLine
 10
843.7550339877587
 20
-3019.605209704529
 30
0.0
 11
860.7550339877587
 21
-3019.605209704529
 31
0.0
  0
LINE
  5
28FB2
330
18
100
AcDbEntity
  8
実線
100
AcDbLine
 10
851.7550339877587
 20
-3022.605209704529
 30
0.0
 11
852.7550339877587
 21
-3022.605209704529
 31
0.0
  0
LINE
  5
28FB3
330
18
100
AcDbEntity
  8
実線
100
AcDbLine
 10
851.7550339877587
 20
-3016.605209704529
 30
0.0
 11
852.7550339877587
 21
-3016.605209704529
 31
0.0
  0
ARC
  5
28FB4
330
18
100
AcDbEntity
  8
実線
100
AcDbCircle
 10
851.7550339877587
 20
-3019.605209704529
 30
0.0
 40
3.0
100
AcDbArc
 50
90.0
 51
270.0
  0
LINE
  5
28FB5
330
18
100
AcDbEntity
  8
中心線
 48
0.5
100
AcDbLine
 10
852.2550339877582
 20
-3011.605209704529
 30
0.0
 11
852.2550339877582
 21
-3027.605209704529
 31
0.0
  0
LINE
  5
28FB7
330
18
100
AcDbEntity
  8
実線
100
AcDbLine
 10
884.2550339877584
 20
-3026.105209704529
 30
0.0
 11
883.2550339877585
 21
-3027.105209704529
 31
0.0
  0
ARC
  5
28FC1
330
18
100
AcDbEntity
  8
実線
100
AcDbCircle
 10
852.7550339877587
 20
-2904.605209704529
 30
0.0
 40
3.0
100
AcDbArc
 50
270.0
 51
90.0
  0
LINE
  5
28FC2
330
18
100
AcDbEntity
  8
中心線
 48
0.5
100
AcDbLine
 10
843.7550339877587
 20
-2904.605209704529
 30
0.0
 11
860.7550339877587
 21
-2904.605209704529
 31
0.0
  0
LINE
  5
28FC7
330
18
100
AcDbEntity
  8
中心線
 48
0.5
100
AcDbLine
 10
852.2550339877582
 20
-2896.605209704529
 30
0.0
 11
852.2550339877582
 21
-2912.605209704528
 31
0.0
  0
LINE
  5
28FC8
330
18
100
AcDbEntity
  8
実線
100
AcDbLine
 10
851.7550339877587
 20
-2907.605209704529
 30
0.0
 11
852.7550339877587
 21
-2907.605209704529
 31
0.0
  0
LINE
  5
28FC9
330
18
100
AcDbEntity
  8
実線
100
AcDbLine
 10
851.7550339877587
 20
-2901.605209704529
 30
0.0
 11
852.7550339877587
 21
-2901.605209704529
 31
0.0
  0
ARC
  5
28FCA
330
18
100
AcDbEntity
  8
実線
100
AcDbCircle
 10
851.7550339877587
 20
-2904.605209704529
 30
0.0
 40
3.0
100
AcDbArc
 50
90.0
 51
270.0
  0
LINE
  5
28FCC
330
18
100
AcDbEntity
  8
実線
100
AcDbLine
 10
883.2550339877585
 20
-2897.105209704529
 30
0.0
 11
884.2550339877584
 21
-2898.105209704528
 31
0.0
  0
DIMENSION
  5
28FD7
330
18
100
AcDbEntity
  8
文字
100
AcDbDimension
  2
*D29
 10
1017.349461721918
 20
-2853.200960337639
 30
0.0
 11
990.3494617219182
 21
-2850.200960337639
 31
0.0
 70
    32
  1
<>（取付寸法）
 71
     5
 42
54.00000000000011
  3
まこ
100
AcDbAlignedDimension
 13
963.3494617219181
 23
-2897.105209704529
 33
0.0
 14
1017.349461721918
 24
-2897.105209704529
 34
0.0
100
AcDbRotatedDimension
  0
DIMENSION
  5
28FD8
330
18
100
AcDbEntity
  8
文字
100
AcDbDimension
  2
*D28
 10
1003.349461721918
 20
-2872.585550105849
 30
0.0
 11
983.3494617219182
 21
-2869.585550105849
 31
0.0
 70
    32
 71
     5
 42
40.0
  3
まこ
100
AcDbAlignedDimension
 13
963.3494617219181
 23
-2897.105209704529
 33
0.0
 14
1003.349461721918
 24
-2897.105209704529
 34
0.0
100
AcDbRotatedDimension
1001
ACAD
1000
DSTYLE
1002
{
1070
   271
1070
     6
1002
}
  0
DIMENSION
  5
28FD9
330
18
100
AcDbEntity
  8
文字
100
AcDbDimension
  2
*D27
 10
1004.549461721918
 20
-2872.585550105849
 30
0.0
 11
1019.209807672738
 21
-2861.332480557649
 31
0.0
 70
   160
 71
     5
 42
1.200000000000045
  3
まこ
100
AcDbAlignedDimension
 13
1003.349461721918
 23
-2897.105209704529
 33
0.0
 14
1004.549461721918
 24
-2911.876142552135
 34
0.0
100
AcDbRotatedDimension
1001
ACAD
1000
DSTYLE
1002
{
1070
     3
1000
（ギャップ）
1070
   344
1005
153E2
1070
   342
1005
0
1070
   173
1070
     1
1070
   343
1005
1215D
1070
   279
1070
     1
1002
}
  0
DIMENSION
  5
28FDA
330
18
100
AcDbEntity
  8
文字
100
AcDbDimension
  2
*D26
 10
1017.349461721918
 20
-2872.585550105849
 30
0.0
 11
1035.726621944766
 21
-2872.585550105849
 31
0.0
 70
   160
 71
     5
 42
12.80000000000006
  3
まこ
100
AcDbAlignedDimension
 13
1004.549461721918
 23
-2911.876142552134
 33
0.0
 14
1017.349461721918
 24
-2897.105209704529
 34
0.0
100
AcDbRotatedDimension
1001
ACAD
1000
DSTYLE
1002
{
1070
   172
1070
     1
1070
   344
1005
1215D
1070
   342
1005
0
1070
   173
1070
     1
1070
   343
1005
153E2
1002
}
  0
DIMENSION
  5
28FDB
330
18
100
AcDbEntity
  8
文字
100
AcDbDimension
  2
*D35
 10
944.0922763505914
 20
-3027.105209704529
 30
0.0
 11
941.0922763505919
 21
-2962.105209704528
 31
0.0
 70
    32
 71
     5
 42
130.0
  3
まこ
100
AcDbAlignedDimension
 13
963.3494617219181
 23
-2897.105209704529
 33
0.0
 14
963.3494617219181
 24
-3027.105209704529
 34
0.0
 50
90.0
100
AcDbRotatedDimension
  0
LWPOLYLINE
  5
2900F
330
18
100
AcDbEntity
  8
実線
 48
0.3
100
AcDbPolyline
 90
        4
 70
     1
 43
0.0
 10
1004.549461721918
 20
-2911.990658101649
 10
1009.549461721918
 20
-2911.990658101649
 10
1009.549461721918
 20
-3012.219761307409
 10
1004.549461721918
 20
-3012.219761307409
  0
LINE
  5
29010
330
18
100
AcDbEntity
  8
仮想線
 48
0.8
100
AcDbLine
 10
1003.349461721918
 20
-2897.105253568783
 30
0.0
 11
1003.349461721918
 21
-3027.105253568783
 31
0.0
  0
CIRCLE
  5
29011
330
18
100
AcDbEntity
  8
仮想線
 48
0.8
100
AcDbCircle
 10
971.3493017784845
 20
-3010.105209684609
 30
0.0
 40
1.6
  0
CIRCLE
  5
29012
330
18
100
AcDbEntity
  8
仮想線
 48
0.8
100
AcDbCircle
 10
971.3493017784845
 20
-3010.105209684609
 30
0.0
 40
2.0
  0
LINE
  5
29013
330
18
100
AcDbEntity
  8
仮想線
 48
0.8
100
AcDbLine
 10
963.3494617219181
 20
-3027.105209704529
 30
0.0
 11
963.3487562591176
 21
-3009.105253568783
 31
0.0
  0
LINE
  5
29014
330
18
100
AcDbEntity
  8
中心線
 48
0.3
100
AcDbLine
 10
971.3494617157735
 20
-3027.104896164742
 30
0.0
 11
971.3487562529731
 21
-2972.44659170769
 31
0.0
  0
LINE
  5
29015
330
18
100
AcDbEntity
  8
仮想線
 48
0.8
100
AcDbLine
 10
977.348752937392
 20
-3023.031709704528
 30
0.0
 11
977.348752937392
 21
-2901.031709704529
 31
0.0
  0
LINE
  5
29016
330
18
100
AcDbEntity
  8
仮想線
 48
0.8
100
AcDbLine
 10
965.3487529373919
 20
-2901.031709704529
 30
0.0
 11
965.3487529373919
 21
-3023.031709704528
 31
0.0
  0
LINE
  5
29017
102
{ACAD_REACTORS
330
29241
102
}
330
18
100
AcDbEntity
  8
実線
100
AcDbLine
 10
1009.549461721918
 20
-2898.105209704528
 30
0.0
 11
1009.549461721918
 21
-3027.105209704529
 31
0.0
  0
LINE
  5
29018
102
{ACAD_REACTORS
330
29241
102
}
330
18
100
AcDbEntity
  8
実線
100
AcDbLine
 10
1017.349461721918
 20
-2898.105209704528
 30
0.0
 11
1017.349461721918
 21
-3027.105209704529
 31
0.0
  0
LINE
  5
29019
102
{ACAD_REACTORS
330
29241
102
}
330
18
100
AcDbEntity
  8
中心線
 48
0.3
100
AcDbLine
 10
1004.549461721918
 20
-3019.605209704529
 30
0.0
 11
1022.349461721918
 21
-3019.605209704529
 31
0.0
  0
LINE
  5
2901B
330
18
100
AcDbEntity
  8
ﾊｯﾁﾝｸﾞ
100
AcDbLine
 10
980.0147636646391
 20
-3018.17214080884
 30
0.0
 11
981.5816947689521
 21
-3016.605209704528
 31
0.0
  0
LINE
  5
2901C
330
18
100
AcDbEntity
  8
ﾊｯﾁﾝｸﾞ
100
AcDbLine
 10
980.3534041112445
 20
-3018.71738383872
 30
0.0
 11
982.465578245435
 21
-3016.605209704529
 31
0.0
  0
LINE
  5
2901D
330
18
100
AcDbEntity
  8
中心線
 48
0.3
100
AcDbLine
 10
977.610853733152
 20
-3016.605209704529
 30
0.0
 11
989.0880697106835
 21
-3016.605209704529
 31
0.0
  0
CIRCLE
  5
2901E
330
18
100
AcDbEntity
  8
仮想線
 48
0.8
100
AcDbCircle
 10
983.3494617219178
 20
-3016.478804201197
 30
0.0
 40
3.74
  0
LINE
  5
2901F
330
18
100
AcDbEntity
  8
仮想線
 48
0.8
100
AcDbLine
 10
1003.349461721918
 20
-3027.105209704529
 30
0.0
 11
963.3494617219181
 21
-3027.105209704529
 31
0.0
  0
LINE
  5
29022
330
18
100
AcDbEntity
  8
仮想線
 48
0.8
100
AcDbLine
 10
965.3487529373919
 20
-3023.031709704528
 30
0.0
 11
977.348752937392
 21
-3023.031709704528
 31
0.0
  0
CIRCLE
  5
29023
330
18
100
AcDbEntity
  8
仮想線
 48
0.8
100
AcDbCircle
 10
971.3483815312498
 20
-3017.015836743357
 30
0.0
 40
4.0
  0
LINE
  5
29024
330
18
100
AcDbEntity
  8
ﾊｯﾁﾝｸﾞ
100
AcDbLine
 10
986.884995627852
 20
-3016.605209704529
 30
0.0
 11
987.0886635771851
 21
-3016.401541755195
 31
0.0
  0
LINE
  5
29026
330
18
100
AcDbEntity
  8
ﾊｯﾁﾝｸﾞ
100
AcDbLine
 10
980.7688404604952
 20
-3019.185830965951
 30
0.0
 11
983.3494617219178
 21
-3016.605209704529
 31
0.0
  0
LINE
  5
29027
330
18
100
AcDbEntity
  8
ﾊｯﾁﾝｸﾞ
100
AcDbLine
 10
981.2587192643034
 20
-3019.579835638627
 30
0.0
 11
983.3494617219178
 21
-3017.489093181012
 31
0.0
  0
LINE
  5
29028
330
18
100
AcDbEntity
  8
ﾊｯﾁﾝｸﾞ
100
AcDbLine
 10
981.8273724446701
 20
-3019.895065934742
 30
0.0
 11
983.3494617219178
 21
-3018.372976657496
 31
0.0
  0
LINE
  5
29029
330
18
100
AcDbEntity
  8
ﾊｯﾁﾝｸﾞ
100
AcDbLine
 10
983.3494617219178
 20
-3013.069675798595
 30
0.0
 11
983.6668423476687
 21
-3012.752295172844
 31
0.0
  0
LINE
  5
2902A
330
18
100
AcDbEntity
  8
ﾊｯﾁﾝｸﾞ
100
AcDbLine
 10
983.3494617219178
 20
-3013.953559275079
 30
0.0
 11
984.4105398668927
 21
-3012.892481130104
 31
0.0
  0
LINE
  5
2902B
330
18
100
AcDbEntity
  8
ﾊｯﾁﾝｸﾞ
100
AcDbLine
 10
983.3494617219178
 20
-3014.837442751562
 30
0.0
 11
985.0427983295606
 21
-3013.144106143919
 31
0.0
  0
LINE
  5
2902C
330
18
100
AcDbEntity
  8
ﾊｯﾁﾝｸﾞ
100
AcDbLine
 10
983.3494617219178
 20
-3015.721326228046
 30
0.0
 11
985.5880413594398
 21
-3013.482746590524
 31
0.0
  0
LINE
  5
2902D
330
18
100
AcDbEntity
  8
ﾊｯﾁﾝｸﾞ
100
AcDbLine
 10
986.0011121513682
 20
-3016.605209704529
 30
0.0
 11
986.9889121616646
 21
-3015.617409694232
 31
0.0
  0
LINE
  5
2902E
330
18
100
AcDbEntity
  8
ﾊｯﾁﾝｸﾞ
100
AcDbLine
 10
985.1172286748845
 20
-3016.605209704529
 30
0.0
 11
986.7657234554629
 21
-3014.956714923949
 31
0.0
  0
LINE
  5
2902F
330
18
100
AcDbEntity
  8
ﾊｯﾁﾝｸﾞ
100
AcDbLine
 10
984.2333451984007
 20
-3016.605209704529
 30
0.0
 11
986.4504931593476
 21
-3014.388061743582
 31
0.0
  0
LINE
  5
29030
330
18
100
AcDbEntity
  8
ﾊｯﾁﾝｸﾞ
100
AcDbLine
 10
983.3494617219178
 20
-3016.605209704529
 30
0.0
 11
986.0564884866718
 21
-3013.898182939775
 31
0.0
  0
LINE
  5
29031
330
18
100
AcDbEntity
  8
中心線
 48
0.3
100
AcDbLine
 10
983.3494617219178
 20
-3010.738804201197
 30
0.0
 11
983.3494617219178
 21
-3022.218804201196
 31
0.0
  0
LINE
  5
29032
102
{ACAD_REACTORS
330
29241
102
}
330
18
100
AcDbEntity
  8
破線
 48
0.7
100
AcDbLine
 10
1009.549461721918
 20
-3022.605209704529
 30
0.0
 11
1017.349461721918
 21
-3022.605209704529
 31
0.0
  0
LINE
  5
29033
102
{ACAD_REACTORS
330
29241
102
}
330
18
100
AcDbEntity
  8
破線
 48
0.7
100
AcDbLine
 10
1009.549461721918
 20
-3016.605209704529
 30
0.0
 11
1017.349461721918
 21
-3016.605209704529
 31
0.0
  0
LINE
  5
29034
102
{ACAD_REACTORS
330
29241
102
}
330
18
100
AcDbEntity
  8
実線
100
AcDbLine
 10
1009.549461721918
 20
-3027.105209704529
 30
0.0
 11
1017.349461721918
 21
-3027.105209704529
 31
0.0
  0
DIMENSION
  5
29036
330
18
100
AcDbEntity
  8
文字
100
AcDbDimension
  2
*D25
 10
1017.349461721918
 20
-2882.653147693616
 30
0.0
 11
1031.574543707784
 21
-2882.653147693616
 31
0.0
 70
   160
 71
     5
 42
7.799999999999954
  3
まこ
100
AcDbAlignedDimension
 13
1009.549461721918
 23
-2897.105209704529
 33
0.0
 14
1017.349461721918
 24
-2897.105209704529
 34
0.0
100
AcDbRotatedDimension
1001
ACAD
1000
DSTYLE
1002
{
1070
   172
1070
     1
1070
   271
1070
     1
1002
}
  0
LINE
  5
29037
102
{ACAD_REACTORS
330
29241
102
}
330
18
100
AcDbEntity
  8
中心線
 48
0.3
100
AcDbLine
 10
1004.549461721918
 20
-2904.605209704529
 30
0.0
 11
1022.349461721918
 21
-2904.605209704529
 31
0.0
  0
LINE
  5
29038
330
18
100
AcDbEntity
  8
仮想線
 48
0.8
100
AcDbLine
 10
963.849461721918
 20
-2915.105253568783
 30
0.0
 11
963.849461721918
 21
-3009.105209704529
 31
0.0
  0
CIRCLE
  5
29039
330
18
100
AcDbEntity
  8
仮想線
 48
0.8
100
AcDbCircle
 10
971.349300829836
 20
-2986.105209684609
 30
0.0
 40
1.6
  0
LINE
  5
2903A
330
18
100
AcDbEntity
  8
仮想線
 48
0.8
100
AcDbLine
 10
963.849461721918
 20
-3009.105209704529
 30
0.0
 11
963.3494617219181
 21
-3009.105209704529
 31
0.0
  0
LINE
  5
2903B
330
18
100
AcDbEntity
  8
中心線
 48
0.45
100
AcDbLine
 10
965.3487538860403
 20
-3010.105209704529
 30
0.0
 11
977.3487538860404
 21
-3010.105209704529
 31
0.0
  0
LINE
  5
2903C
330
18
100
AcDbEntity
  8
中心線
 48
0.45
100
AcDbLine
 10
965.3487529373919
 20
-2986.105209704529
 30
0.0
 11
977.348752937392
 21
-2986.105209704529
 31
0.0
  0
CIRCLE
  5
2903D
330
18
100
AcDbEntity
  8
仮想線
 48
0.8
100
AcDbCircle
 10
971.349300829836
 20
-2986.105209684609
 30
0.0
 40
2.0
  0
LINE
  5
2903E
330
18
100
AcDbEntity
  8
仮想線
 48
0.8
100
AcDbLine
 10
963.3494617219181
 20
-2897.105209704529
 30
0.0
 11
1003.349461721918
 21
-2897.105209704529
 31
0.0
  0
LINE
  5
2903F
330
18
100
AcDbEntity
  8
仮想線
 48
0.8
100
AcDbLine
 10
963.3494617219181
 20
-2915.105253568783
 30
0.0
 11
963.849461721918
 21
-2915.105253568783
 31
0.0
  0
LINE
  5
29040
330
18
100
AcDbEntity
  8
仮想線
 48
0.8
100
AcDbLine
 10
963.3494617219181
 20
-2915.105253568783
 30
0.0
 11
963.3494617219181
 21
-2897.105253568783
 31
0.0
  0
CIRCLE
  5
29041
330
18
100
AcDbEntity
  8
仮想線
 48
0.8
100
AcDbCircle
 10
971.3483815312487
 20
-2907.015836743357
 30
0.0
 40
4.0
  0
LINE
  5
29042
330
18
100
AcDbEntity
  8
仮想線
 48
0.8
100
AcDbLine
 10
977.348752937392
 20
-2901.031709704529
 30
0.0
 11
965.3487529373919
 21
-2901.031709704529
 31
0.0
  0
LINE
  5
29043
330
18
100
AcDbEntity
  8
0
 62
     4
370
    13
100
AcDbLine
 10
1003.349461721918
 20
-2872.585550105849
 30
0.0
 11
1004.149461721918
 21
-2872.585550105849
 31
0.0
  0
LINE
  5
29044
102
{ACAD_REACTORS
330
29241
102
}
330
18
100
AcDbEntity
  8
破線
 48
0.7
100
AcDbLine
 10
1009.549461721918
 20
-2907.605209704529
 30
0.0
 11
1017.349461721918
 21
-2907.605209704529
 31
0.0
  0
LINE
  5
29045
102
{ACAD_REACTORS
330
29241
102
}
330
18
100
AcDbEntity
  8
破線
 48
0.7
100
AcDbLine
 10
1009.549461721918
 20
-2901.605209704529
 30
0.0
 11
1017.349461721918
 21
-2901.605209704529
 31
0.0
  0
LINE
  5
29046
102
{ACAD_REACTORS
330
29241
102
}
330
18
100
AcDbEntity
  8
実線
100
AcDbLine
 10
1010.549461721918
 20
-2897.105209704529
 30
0.0
 11
1016.349461721918
 21
-2897.105209704529
 31
0.0
  0
MTEXT
  5
29047
330
18
100
AcDbEntity
  8
文字
100
AcDbMText
 10
1048.861650346846
 20
-2853.331807443835
 30
0.0
 40
4.5
 41
0.0
 71
     7
 72
     1
  1
注：1
  7
まこ
 73
     1
 44
1.0
  0
MTEXT
  5
29048
330
18
100
AcDbEntity
  8
文字
100
AcDbMText
 10
1044.584528742326
 20
-2868.176462617217
 30
0.0
 40
4.5
 41
0.0
 71
     7
 72
     1
  1
注：1
  7
まこ
 73
     1
 44
1.0
  0
TEXT
  5
29049
102
{ACAD_REACTORS
330
29245
102
}
330
18
100
AcDbEntity
  8
0
 62
     7
100
AcDbText
 10
694.3844954026813
 20
-3023.075970563837
 30
137.5
 40
1.5
  1
SN-16140
  7
MSゴシックN
 11
694.3844954026813
 21
-3023.350082238963
 31
137.5
100
AcDbText
 73
     1
  0
TEXT
  5
2904A
102
{ACAD_REACTORS
330
29245
102
}
330
18
100
AcDbEntity
  8
0
 62
     7
100
AcDbText
 10
694.3844954026813
 20
-3024.945756614223
 30
137.5
 40
1.5
  1
MADE IN JAPAN
  7
MSゴシックN
 11
694.3844954026813
 21
-3025.219868289349
 31
137.5
100
AcDbText
 73
     1
  0
TEXT
  5
295BC
102
{ACAD_REACTORS
330
295C8
102
}
330
18
100
AcDbEntity
  8
実線
 48
10.0
370
    50
100
AcDbText
 10
674.4264775533775
 20
-2907.10077234891
 30
0.0
 40
3.0
  1
・精密機器につき衝撃厳禁
 41
0.75
  7
MSｺﾞｼｯｸ-0
100
AcDbText
  0
LINE
  5
295BD
102
{ACAD_REACTORS
330
295C8
102
}
330
18
100
AcDbEntity
  8
0
 62
     2
 48
10.0
100
AcDbLine
 10
709.7628350081304
 20
-2903.782346421982
 30
0.0
 11
674.7628350081286
 21
-2903.782346421982
 31
0.0
  0
TEXT
  5
295BE
102
{ACAD_REACTORS
330
295C8
102
}
330
18
100
AcDbEntity
  8
0
 62
     2
 48
10.0
100
AcDbText
 10
677.5052442630949
 20
-2902.735535132636
 30
0.0
 40
3.0
  1
取　扱　注　意　！
 41
0.9
  7
MSｺﾞｼｯｸN
100
AcDbText
  0
LINE
  5
295BF
102
{ACAD_REACTORS
330
295C8
102
}
330
18
100
AcDbEntity
  8
0
 62
     2
 48
10.0
100
AcDbLine
 10
675.2628350081304
 20
-2910.782346421981
 30
0.0
 11
709.2628350081304
 21
-2910.782346421981
 31
0.0
  0
LINE
  5
295C0
102
{ACAD_REACTORS
330
295C8
102
}
330
18
100
AcDbEntity
  8
0
 62
     2
 48
10.0
100
AcDbLine
 10
709.2628350081304
 20
-2898.782346421981
 30
0.0
 11
675.2628350081304
 21
-2898.782346421981
 31
0.0
  0
TEXT
  5
295C1
102
{ACAD_REACTORS
330
295C8
102
}
330
18
100
AcDbEntity
  8
実線
 48
10.0
370
    50
100
AcDbText
 10
674.5197945284963
 20
-2910.438783081369
 30
0.0
 40
3.0
  1
・磁石強力につき取扱注意
 41
0.75
  7
MSｺﾞｼｯｸ-0
100
AcDbText
  0
ARC
  5
295C2
102
{ACAD_REACTORS
330
295C8
102
}
330
18
100
AcDbEntity
  8
0
 62
     2
 48
10.0
100
AcDbCircle
 10
675.2628350081304
 20
-2899.282346421981
 30
0.0
 40
0.5
100
AcDbArc
 50
90.0
 51
180.0
  0
ARC
  5
295C3
102
{ACAD_REACTORS
330
295C8
102
}
330
18
100
AcDbEntity
  8
0
 62
     2
 48
10.0
100
AcDbCircle
 10
675.2628350081304
 20
-2910.282346421981
 30
0.0
 40
0.5
100
AcDbArc
 50
180.0
 51
270.0
  0
LINE
  5
295C4
102
{ACAD_REACTORS
330
295C8
102
}
330
18
100
AcDbEntity
  8
0
 62
     2
 48
10.0
100
AcDbLine
 10
674.7628350081304
 20
-2899.282346421982
 30
0.0
 11
674.7628350081304
 21
-2910.282346421982
 31
0.0
  0
ARC
  5
295C5
102
{ACAD_REACTORS
330
295C8
102
}
330
18
100
AcDbEntity
  8
0
 62
     2
 48
10.0
100
AcDbCircle
 10
709.2628350081304
 20
-2899.282346421981
 30
0.0
 40
0.5
100
AcDbArc
 50
0.0
 51
90.0
  0
ARC
  5
295C6
102
{ACAD_REACTORS
330
295C8
102
}
330
18
100
AcDbEntity
  8
0
 62
     2
 48
10.0
100
AcDbCircle
 10
709.2628350081304
 20
-2910.282346421981
 30
0.0
 40
0.5
100
AcDbArc
 50
270.0
 51
0.0
  0
LINE
  5
295C7
102
{ACAD_REACTORS
330
295C8
102
}
330
18
100
AcDbEntity
  8
0
 62
     2
 48
10.0
100
AcDbLine
 10
709.7628350081304
 20
-2910.282346421982
 30
0.0
 11
709.7628350081304
 21
-2899.282346421982
 31
0.0
  0
LINE
  5
295F4
102
{ACAD_REACTORS
330
29603
102
}
330
18
100
AcDbEntity
  8
0
 62
     4
 48
10.0
100
AcDbLine
 10
739.7628350081304
 20
-3018.952081598976
 30
0.0
 11
754.7628350081303
 21
-3018.952081598976
 31
0.0
  0
LINE
  5
295F5
102
{ACAD_REACTORS
330
29600
330
29603
102
}
330
18
100
AcDbEntity
  8
0
 62
     4
 48
10.0
100
AcDbLine
 10
745.4254084097483
 20
-3023.653587518362
 30
0.0
 11
745.6657084097478
 21
-3021.651087518364
 31
0.0
  0
TEXT
  5
295F6
102
{ACAD_REACTORS
330
29603
102
}
330
18
100
AcDbEntity
  8
0
 62
     4
 48
10.0
100
AcDbText
 10
746.6420076341364
 20
-3023.605853379779
 30
0.0
 40
1.44
  1
DENSO
  7
TIMESNR
100
AcDbText
  0
TEXT
  5
295F7
102
{ACAD_REACTORS
330
29603
102
}
330
18
100
AcDbEntity
  8
0
 62
     4
 48
10.0
100
AcDbText
 10
746.7634207442752
 20
-3021.909090970794
 30
0.0
 40
1.44
  1
NIKKI
  7
TIMESNR
100
AcDbText
  0
LINE
  5
295F8
102
{ACAD_REACTORS
330
29600
330
29603
102
}
330
18
100
AcDbEntity
  8
0
 62
     4
 48
10.0
100
AcDbLine
 10
741.0199084097476
 20
-3023.653587518362
 30
0.0
 11
741.4204084097491
 21
-3020.449587518363
 31
0.0
  0
ARC
  5
295F9
102
{ACAD_REACTORS
330
29600
330
29603
102
}
330
18
100
AcDbEntity
  8
0
 62
     4
 48
10.0
100
AcDbCircle
 10
743.4229084097478
 20
-3022.452087518363
 30
0.0
 40
0.8009999999999999
100
AcDbArc
 50
270.0
 51
90.0
  0
CIRCLE
  5
295FA
102
{ACAD_REACTORS
330
29600
330
29603
102
}
330
18
100
AcDbEntity
  8
0
 62
     4
 48
10.0
100
AcDbCircle
 10
743.4229084097478
 20
-3022.251837518363
 30
0.0
 40
0.6007500000000002
  0
ARC
  5
295FB
102
{ACAD_REACTORS
330
29600
330
29603
102
}
330
18
100
AcDbEntity
  8
0
 62
     4
 48
10.0
100
AcDbCircle
 10
743.4238398050966
 20
-3022.249974727666
 30
0.0
 40
1.00311322310025
100
AcDbArc
 50
113.5897772726194
 51
269.9468005913759
  0
LINE
  5
295FC
102
{ACAD_REACTORS
330
29600
330
29603
102
}
330
18
100
AcDbEntity
  8
0
 62
     4
 48
10.0
100
AcDbLine
 10
741.0199084097476
 20
-3023.653587518362
 30
0.0
 11
745.4254084097483
 21
-3023.653587518362
 31
0.0
  0
LINE
  5
295FD
102
{ACAD_REACTORS
330
29600
330
29603
102
}
330
18
100
AcDbEntity
  8
0
 62
     4
 48
10.0
100
AcDbLine
 10
743.4229084097478
 20
-3021.651087518364
 30
0.0
 11
745.6657084097478
 21
-3021.651087518364
 31
0.0
  0
LINE
  5
295FE
102
{ACAD_REACTORS
330
29600
330
29603
102
}
330
18
100
AcDbEntity
  8
0
 62
     4
 48
10.0
100
AcDbLine
 10
741.4204084097491
 20
-3020.449587518363
 30
0.0
 11
745.825908409748
 21
-3020.449587518363
 31
0.0
  0
LINE
  5
295FF
102
{ACAD_REACTORS
330
29600
330
29603
102
}
330
18
100
AcDbEntity
  8
0
 62
     4
 48
10.0
100
AcDbLine
 10
745.825908409748
 20
-3020.449587518363
 30
0.0
 11
743.022408409748
 21
-3021.330687518363
 31
0.0
  0
HATCH
  5
29600
102
{ACAD_REACTORS
330
29603
102
}
330
18
100
AcDbEntity
  8
0
 62
     4
 48
10.0
100
AcDbHatch
 10
0.0
 20
0.0
 30
0.0
210
0.0
220
0.0
230
1.0
  2
SOLID
 70
     1
 71
     1
 91
        2
 92
       17
 93
        1
 72
     2
 10
743.4229084097478
 20
-3022.251837518363
 40
0.6007500000000002
 50
0.0
 51
360.0
 73
     1
 97
        1
330
295FA
 92
        1
 93
        8
 72
     2
 10
743.4238398050966
 20
-3022.249974727666
 40
1.00311322310025
 50
113.5897772726194
 51
269.9468005913759
 73
     1
 72
     2
 10
743.4229084097478
 20
-3022.452087518363
 40
0.8009999999999999
 50
270.0
 51
450.0
 73
     1
 72
     1
 10
743.4229084097478
 20
-3021.651087518364
 11
745.6657084097478
 21
-3021.651087518364
 72
     1
 10
745.6657084097478
 20
-3021.651087518364
 11
745.4254084097483
 21
-3023.653587518362
 72
     1
 10
745.4254084097483
 20
-3023.653587518362
 11
741.0199084097476
 21
-3023.653587518362
 72
     1
 10
741.0199084097476
 20
-3023.653587518362
 11
741.4204084097491
 21
-3020.449587518363
 72
     1
 10
741.4204084097491
 20
-3020.449587518363
 11
745.825908409748
 21
-3020.449587518363
 72
     1
 10
745.825908409748
 20
-3020.449587518363
 11
743.022408409748
 21
-3021.330687518363
 97
        8
330
295FB
330
295F9
330
295FD
330
295F5
330
295FC
330
295F8
330
295FE
330
295FF
 75
     0
 76
     1
 98
        1
 10
541.9451983155122
 20
-3019.772362702603
  0
LWPOLYLINE
  5
29601
102
{ACAD_REACTORS
330
29603
102
}
330
18
100
AcDbEntity
  8
0
 62
     4
 48
10.0
100
AcDbPolyline
 90
        8
 70
     1
 43
0.0
 10
740.2628350081304
 20
-3024.952081598976
 10
754.2628350081304
 20
-3024.952081598977
 42
0.4142135623730951
 10
754.7628350081303
 20
-3024.452081598977
 10
754.7628350081303
 20
-3015.452081598977
 42
0.4142135623730951
 10
754.2628350081304
 20
-3014.952081598977
 10
740.2628350081304
 20
-3014.952081598977
 42
0.4142135623730996
 10
739.7628350081304
 20
-3015.452081598977
 10
739.7628350081304
 20
-3024.452081598976
 42
0.4142135623730904
  0
TEXT
  5
29602
102
{ACAD_REACTORS
330
29603
102
}
330
18
100
AcDbEntity
  8
0
 62
     4
 48
10.0
100
AcDbText
 10
740.977553487337
 20
-3017.993522148049
 30
0.0
 40
2.0
  1
Certificate
  7
TIMESNR
 11
740.977553487337
 21
-3018.632310900752
 31
0.0
100
AcDbText
 73
     1
  0
LWPOLYLINE
  5
2A0A1
330
18
100
AcDbEntity
  8
文字
100
AcDbPolyline
 90
        4
 70
     1
 43
0.0
 10
230.1925189533631
 20
-2595.014381831564
 10
1225.200351471628
 20
-2595.014381831564
 10
1225.200351471628
 20
-3259.856400786858
 10
230.1925189533631
 20
-3259.856400786858
  0
LINE
  5
2A12E
330
18
100
AcDbEntity
  8
実線
 48
10.0
100
AcDbLine
 10
868.1265881757163
 20
-2912.234991791771
 30
0.0
 11
867.2539678538523
 21
-2962.227376549591
 31
0.0
  0
LINE
  5
2A130
330
18
100
AcDbEntity
  8
実線
 48
10.0
100
AcDbLine
 10
853.2561001216627
 20
-2961.983042859469
 30
0.0
 11
854.1287204435276
 21
-2911.990658101649
 31
0.0
  0
LINE
  5
2A131
330
18
100
AcDbEntity
  8
実線
 48
10.0
100
AcDbLine
 10
854.1287204435276
 20
-2911.990658101649
 30
0.0
 11
868.1265881757163
 21
-2912.234991791771
 31
0.0
  0
LINE
  5
2A132
330
18
100
AcDbEntity
  8
実線
 48
10.0
100
AcDbLine
 10
867.2539678538523
 20
-2962.227376549591
 30
0.0
 11
866.3813475319875
 21
-3012.219761307409
 31
0.0
  0
LINE
  5
2A133
330
18
100
AcDbEntity
  8
実線
 48
10.0
100
AcDbLine
 10
866.3813475319875
 20
-3012.219761307409
 30
0.0
 11
852.3834797997979
 21
-3011.975427617288
 31
0.0
  0
LINE
  5
2A134
330
18
100
AcDbEntity
  8
実線
 48
10.0
100
AcDbLine
 10
852.3834797997979
 20
-3011.975427617288
 30
0.0
 11
853.2561001216627
 21
-2961.983042859469
 31
0.0
  0
LINE
  5
2A137
330
18
100
AcDbEntity
  8
実線
 48
10.0
100
AcDbLine
 10
869.2561001216628
 20
-2961.983042859469
 30
0.0
 11
870.1287204435274
 21
-2911.990658101649
 31
0.0
  0
LINE
  5
2A138
330
18
100
AcDbEntity
  8
実線
 48
10.0
100
AcDbLine
 10
870.1287204435274
 20
-2911.990658101649
 30
0.0
 11
884.1265881757163
 21
-2912.234991791771
 31
0.0
  0
LINE
  5
2A139
330
18
100
AcDbEntity
  8
実線
 48
10.0
100
AcDbLine
 10
884.1265881757163
 20
-2912.234991791771
 30
0.0
 11
883.2539678538523
 21
-2962.227376549591
 31
0.0
  0
LINE
  5
2A13B
330
18
100
AcDbEntity
  8
実線
 48
10.0
100
AcDbLine
 10
883.2539678538523
 20
-2962.227376549591
 30
0.0
 11
882.3813475319875
 21
-3012.219761307409
 31
0.0
  0
LINE
  5
2A13C
330
18
100
AcDbEntity
  8
実線
 48
10.0
100
AcDbLine
 10
882.3813475319875
 20
-3012.219761307409
 30
0.0
 11
868.3834797997979
 21
-3011.975427617288
 31
0.0
  0
LINE
  5
2A13D
330
18
100
AcDbEntity
  8
実線
 48
10.0
100
AcDbLine
 10
868.3834797997979
 20
-3011.975427617288
 30
0.0
 11
869.2561001216628
 21
-2961.983042859469
 31
0.0
  0
LINE
  5
2A13F
330
18
100
AcDbEntity
  8
実線
 48
10.0
100
AcDbLine
 10
852.1265881757162
 20
-2912.234991791771
 30
0.0
 11
851.2539678538523
 21
-2962.227376549591
 31
0.0
  0
LINE
  5
2A141
330
18
100
AcDbEntity
  8
実線
 48
10.0
100
AcDbLine
 10
837.2561001216627
 20
-2961.983042859469
 30
0.0
 11
838.1287204435276
 21
-2911.990658101649
 31
0.0
  0
LINE
  5
2A142
330
18
100
AcDbEntity
  8
実線
 48
10.0
100
AcDbLine
 10
838.1287204435276
 20
-2911.990658101649
 30
0.0
 11
852.1265881757162
 21
-2912.234991791771
 31
0.0
  0
LINE
  5
2A143
330
18
100
AcDbEntity
  8
実線
 48
10.0
100
AcDbLine
 10
851.2539678538523
 20
-2962.227376549591
 30
0.0
 11
850.3813475319875
 21
-3012.219761307409
 31
0.0
  0
LINE
  5
2A144
330
18
100
AcDbEntity
  8
実線
 48
10.0
100
AcDbLine
 10
850.3813475319875
 20
-3012.219761307409
 30
0.0
 11
836.3834797997979
 21
-3011.975427617288
 31
0.0
  0
LINE
  5
2A145
330
18
100
AcDbEntity
  8
実線
 48
10.0
100
AcDbLine
 10
836.3834797997979
 20
-3011.975427617288
 30
0.0
 11
837.2561001216627
 21
-2961.983042859469
 31
0.0
  0
LINE
  5
2A147
330
18
100
AcDbEntity
  8
実線
 48
10.0
100
AcDbLine
 10
836.1265881757162
 20
-2912.234991791771
 30
0.0
 11
835.2539678538523
 21
-2962.227376549591
 31
0.0
  0
LINE
  5
2A149
330
18
100
AcDbEntity
  8
実線
 48
10.0
100
AcDbLine
 10
821.2561001216627
 20
-2961.983042859469
 30
0.0
 11
822.1287204435276
 21
-2911.990658101649
 31
0.0
  0
LINE
  5
2A14A
330
18
100
AcDbEntity
  8
実線
 48
10.0
100
AcDbLine
 10
822.1287204435276
 20
-2911.990658101649
 30
0.0
 11
836.1265881757162
 21
-2912.234991791771
 31
0.0
  0
LINE
  5
2A14B
330
18
100
AcDbEntity
  8
実線
 48
10.0
100
AcDbLine
 10
835.2539678538523
 20
-2962.227376549591
 30
0.0
 11
834.3813475319874
 21
-3012.219761307409
 31
0.0
  0
LINE
  5
2A14C
330
18
100
AcDbEntity
  8
実線
 48
10.0
100
AcDbLine
 10
834.3813475319874
 20
-3012.219761307409
 30
0.0
 11
820.3834797997979
 21
-3011.975427617288
 31
0.0
  0
LINE
  5
2A14D
330
18
100
AcDbEntity
  8
実線
 48
10.0
100
AcDbLine
 10
820.3834797997979
 20
-3011.975427617288
 30
0.0
 11
821.2561001216627
 21
-2961.983042859469
 31
0.0
  0
LINE
  5
2A14F
330
18
100
AcDbEntity
  8
実線
 48
10.0
100
AcDbLine
 10
820.1265881757162
 20
-2912.234991791771
 30
0.0
 11
819.2539678538523
 21
-2962.227376549591
 31
0.0
  0
LINE
  5
2A151
330
18
100
AcDbEntity
  8
実線
 48
10.0
100
AcDbLine
 10
805.2561001216627
 20
-2961.983042859469
 30
0.0
 11
806.1287204435275
 21
-2911.990658101649
 31
0.0
  0
LINE
  5
2A152
330
18
100
AcDbEntity
  8
実線
 48
10.0
100
AcDbLine
 10
806.1287204435275
 20
-2911.990658101649
 30
0.0
 11
820.1265881757162
 21
-2912.234991791771
 31
0.0
  0
LINE
  5
2A153
330
18
100
AcDbEntity
  8
実線
 48
10.0
100
AcDbLine
 10
819.2539678538523
 20
-2962.227376549591
 30
0.0
 11
818.3813475319876
 21
-3012.219761307409
 31
0.0
  0
LINE
  5
2A154
330
18
100
AcDbEntity
  8
実線
 48
10.0
100
AcDbLine
 10
818.3813475319876
 20
-3012.219761307409
 30
0.0
 11
804.3834797997979
 21
-3011.975427617288
 31
0.0
  0
LINE
  5
2A155
330
18
100
AcDbEntity
  8
実線
 48
10.0
100
AcDbLine
 10
804.3834797997979
 20
-3011.975427617288
 30
0.0
 11
805.2561001216627
 21
-2961.983042859469
 31
0.0
  0
LINE
  5
2A157
330
18
100
AcDbEntity
  8
実線
 48
10.0
100
AcDbLine
 10
804.1265881757162
 20
-2912.234991791771
 30
0.0
 11
803.2539678538523
 21
-2962.227376549591
 31
0.0
  0
LINE
  5
2A159
330
18
100
AcDbEntity
  8
実線
 48
10.0
100
AcDbLine
 10
789.2561001216627
 20
-2961.983042859469
 30
0.0
 11
790.1287204435275
 21
-2911.990658101649
 31
0.0
  0
LINE
  5
2A15A
330
18
100
AcDbEntity
  8
実線
 48
10.0
100
AcDbLine
 10
790.1287204435275
 20
-2911.990658101649
 30
0.0
 11
804.1265881757162
 21
-2912.234991791771
 31
0.0
  0
LINE
  5
2A15B
330
18
100
AcDbEntity
  8
実線
 48
10.0
100
AcDbLine
 10
803.2539678538523
 20
-2962.227376549591
 30
0.0
 11
802.3813475319876
 21
-3012.219761307409
 31
0.0
  0
LINE
  5
2A15C
330
18
100
AcDbEntity
  8
実線
 48
10.0
100
AcDbLine
 10
802.3813475319876
 20
-3012.219761307409
 30
0.0
 11
788.3834797997979
 21
-3011.975427617288
 31
0.0
  0
LINE
  5
2A15D
330
18
100
AcDbEntity
  8
実線
 48
10.0
100
AcDbLine
 10
788.3834797997979
 20
-3011.975427617288
 30
0.0
 11
789.2561001216627
 21
-2961.983042859469
 31
0.0
  0
LINE
  5
2A15F
330
18
100
AcDbEntity
  8
実線
 48
10.0
100
AcDbLine
 10
787.2539678538523
 20
-2962.227376549591
 30
0.0
 11
786.3813475319875
 21
-3012.219761307409
 31
0.0
  0
LINE
  5
2A160
330
18
100
AcDbEntity
  8
実線
 48
10.0
100
AcDbLine
 10
786.3813475319875
 20
-3012.219761307409
 30
0.0
 11
772.3834797997978
 21
-3011.975427617288
 31
0.0
  0
LINE
  5
2A161
330
18
100
AcDbEntity
  8
実線
 48
10.0
100
AcDbLine
 10
772.3834797997978
 20
-3011.975427617288
 30
0.0
 11
773.2561001216627
 21
-2961.983042859469
 31
0.0
  0
LINE
  5
2A163
330
18
100
AcDbEntity
  8
実線
 48
10.0
100
AcDbLine
 10
788.1265881757163
 20
-2912.234991791771
 30
0.0
 11
787.2539678538523
 21
-2962.227376549591
 31
0.0
  0
LINE
  5
2A165
330
18
100
AcDbEntity
  8
実線
 48
10.0
100
AcDbLine
 10
773.2561001216627
 20
-2961.983042859469
 30
0.0
 11
774.1287204435275
 21
-2911.990658101649
 31
0.0
  0
LINE
  5
2A166
330
18
100
AcDbEntity
  8
実線
 48
10.0
100
AcDbLine
 10
774.1287204435275
 20
-2911.990658101649
 30
0.0
 11
788.1265881757163
 21
-2912.234991791771
 31
0.0
  0
LINE
  5
2A167
330
18
100
AcDbEntity
  8
実線
 48
10.0
100
AcDbLine
 10
772.1265881757163
 20
-2912.234991791771
 30
0.0
 11
771.2539678538523
 21
-2962.227376549591
 31
0.0
  0
LINE
  5
2A169
330
18
100
AcDbEntity
  8
実線
 48
10.0
100
AcDbLine
 10
757.2561001216627
 20
-2961.983042859469
 30
0.0
 11
758.1287204435275
 21
-2911.990658101649
 31
0.0
  0
LINE
  5
2A16A
330
18
100
AcDbEntity
  8
実線
 48
10.0
100
AcDbLine
 10
758.1287204435275
 20
-2911.990658101649
 30
0.0
 11
772.1265881757163
 21
-2912.234991791771
 31
0.0
  0
LINE
  5
2A16B
330
18
100
AcDbEntity
  8
実線
 48
10.0
100
AcDbLine
 10
771.2539678538523
 20
-2962.227376549591
 30
0.0
 11
770.3813475319876
 21
-3012.219761307409
 31
0.0
  0
LINE
  5
2A16C
330
18
100
AcDbEntity
  8
実線
 48
10.0
100
AcDbLine
 10
770.3813475319876
 20
-3012.219761307409
 30
0.0
 11
756.3834797997978
 21
-3011.975427617288
 31
0.0
  0
LINE
  5
2A16D
330
18
100
AcDbEntity
  8
実線
 48
10.0
100
AcDbLine
 10
756.3834797997978
 20
-3011.975427617288
 30
0.0
 11
757.2561001216627
 21
-2961.983042859469
 31
0.0
  0
LINE
  5
2A16F
330
18
100
AcDbEntity
  8
実線
 48
10.0
100
AcDbLine
 10
756.1265881757162
 20
-2912.234991791771
 30
0.0
 11
755.2539678538523
 21
-2962.227376549591
 31
0.0
  0
LINE
  5
2A171
330
18
100
AcDbEntity
  8
実線
 48
10.0
100
AcDbLine
 10
741.2561001216626
 20
-2961.983042859469
 30
0.0
 11
742.1287204435275
 21
-2911.990658101649
 31
0.0
  0
LINE
  5
2A172
330
18
100
AcDbEntity
  8
実線
 48
10.0
100
AcDbLine
 10
742.1287204435275
 20
-2911.990658101649
 30
0.0
 11
756.1265881757162
 21
-2912.234991791771
 31
0.0
  0
LINE
  5
2A173
330
18
100
AcDbEntity
  8
実線
 48
10.0
100
AcDbLine
 10
755.2539678538523
 20
-2962.227376549591
 30
0.0
 11
754.3813475319876
 21
-3012.219761307409
 31
0.0
  0
LINE
  5
2A174
330
18
100
AcDbEntity
  8
実線
 48
10.0
100
AcDbLine
 10
754.3813475319876
 20
-3012.219761307409
 30
0.0
 11
740.3834797997979
 21
-3011.975427617288
 31
0.0
  0
LINE
  5
2A175
330
18
100
AcDbEntity
  8
実線
 48
10.0
100
AcDbLine
 10
740.3834797997979
 20
-3011.975427617288
 30
0.0
 11
741.2561001216626
 21
-2961.983042859469
 31
0.0
  0
LINE
  5
2A177
330
18
100
AcDbEntity
  8
実線
 48
10.0
100
AcDbLine
 10
740.1265881757162
 20
-2912.234991791771
 30
0.0
 11
739.2539678538524
 21
-2962.227376549591
 31
0.0
  0
LINE
  5
2A179
330
18
100
AcDbEntity
  8
実線
 48
10.0
100
AcDbLine
 10
725.2561001216626
 20
-2961.983042859469
 30
0.0
 11
726.1287204435275
 21
-2911.990658101649
 31
0.0
  0
LINE
  5
2A17A
330
18
100
AcDbEntity
  8
実線
 48
10.0
100
AcDbLine
 10
726.1287204435275
 20
-2911.990658101649
 30
0.0
 11
740.1265881757162
 21
-2912.234991791771
 31
0.0
  0
LINE
  5
2A17B
330
18
100
AcDbEntity
  8
実線
 48
10.0
100
AcDbLine
 10
739.2539678538524
 20
-2962.227376549591
 30
0.0
 11
738.3813475319875
 21
-3012.219761307409
 31
0.0
  0
LINE
  5
2A17C
330
18
100
AcDbEntity
  8
実線
 48
10.0
100
AcDbLine
 10
738.3813475319875
 20
-3012.219761307409
 30
0.0
 11
724.3834797997979
 21
-3011.975427617288
 31
0.0
  0
LINE
  5
2A17D
330
18
100
AcDbEntity
  8
実線
 48
10.0
100
AcDbLine
 10
724.3834797997979
 20
-3011.975427617288
 30
0.0
 11
725.2561001216626
 21
-2961.983042859469
 31
0.0
  0
LINE
  5
2A17F
330
18
100
AcDbEntity
  8
実線
 48
10.0
100
AcDbLine
 10
724.1265881757162
 20
-2912.234991791771
 30
0.0
 11
723.2539678538524
 21
-2962.227376549591
 31
0.0
  0
LINE
  5
2A181
330
18
100
AcDbEntity
  8
実線
 48
10.0
100
AcDbLine
 10
709.2561001216627
 20
-2961.983042859469
 30
0.0
 11
710.1287204435275
 21
-2911.990658101649
 31
0.0
  0
LINE
  5
2A182
330
18
100
AcDbEntity
  8
実線
 48
10.0
100
AcDbLine
 10
710.1287204435275
 20
-2911.990658101649
 30
0.0
 11
724.1265881757162
 21
-2912.234991791771
 31
0.0
  0
LINE
  5
2A183
330
18
100
AcDbEntity
  8
実線
 48
10.0
100
AcDbLine
 10
723.2539678538524
 20
-2962.227376549591
 30
0.0
 11
722.3813475319875
 21
-3012.219761307409
 31
0.0
  0
LINE
  5
2A184
330
18
100
AcDbEntity
  8
実線
 48
10.0
100
AcDbLine
 10
722.3813475319875
 20
-3012.219761307409
 30
0.0
 11
708.3834797997979
 21
-3011.975427617288
 31
0.0
  0
LINE
  5
2A185
330
18
100
AcDbEntity
  8
実線
 48
10.0
100
AcDbLine
 10
708.3834797997979
 20
-3011.975427617288
 30
0.0
 11
709.2561001216627
 21
-2961.983042859469
 31
0.0
  0
LINE
  5
2A187
330
18
100
AcDbEntity
  8
実線
 48
10.0
100
AcDbLine
 10
708.1265881757162
 20
-2912.234991791771
 30
0.0
 11
707.2539678538523
 21
-2962.227376549591
 31
0.0
  0
LINE
  5
2A189
330
18
100
AcDbEntity
  8
実線
 48
10.0
100
AcDbLine
 10
693.2561001216627
 20
-2961.983042859469
 30
0.0
 11
694.1287204435275
 21
-2911.990658101649
 31
0.0
  0
LINE
  5
2A18A
330
18
100
AcDbEntity
  8
実線
 48
10.0
100
AcDbLine
 10
694.1287204435275
 20
-2911.990658101649
 30
0.0
 11
708.1265881757162
 21
-2912.234991791771
 31
0.0
  0
LINE
  5
2A18B
330
18
100
AcDbEntity
  8
実線
 48
10.0
100
AcDbLine
 10
707.2539678538523
 20
-2962.227376549591
 30
0.0
 11
706.3813475319875
 21
-3012.219761307409
 31
0.0
  0
LINE
  5
2A18C
330
18
100
AcDbEntity
  8
実線
 48
10.0
100
AcDbLine
 10
706.3813475319875
 20
-3012.219761307409
 30
0.0
 11
692.3834797997979
 21
-3011.975427617288
 31
0.0
  0
LINE
  5
2A18D
330
18
100
AcDbEntity
  8
実線
 48
10.0
100
AcDbLine
 10
692.3834797997979
 20
-3011.975427617288
 30
0.0
 11
693.2561001216627
 21
-2961.983042859469
 31
0.0
  0
LINE
  5
2A18F
330
18
100
AcDbEntity
  8
実線
 48
10.0
100
AcDbLine
 10
692.1265881757163
 20
-2912.234991791771
 30
0.0
 11
691.2539678538523
 21
-2962.227376549591
 31
0.0
  0
LINE
  5
2A191
330
18
100
AcDbEntity
  8
実線
 48
10.0
100
AcDbLine
 10
677.2561001216627
 20
-2961.983042859469
 30
0.0
 11
678.1287204435275
 21
-2911.990658101649
 31
0.0
  0
LINE
  5
2A192
330
18
100
AcDbEntity
  8
実線
 48
10.0
100
AcDbLine
 10
678.1287204435275
 20
-2911.990658101649
 30
0.0
 11
692.1265881757163
 21
-2912.234991791771
 31
0.0
  0
LINE
  5
2A193
330
18
100
AcDbEntity
  8
実線
 48
10.0
100
AcDbLine
 10
691.2539678538523
 20
-2962.227376549591
 30
0.0
 11
690.3813475319875
 21
-3012.219761307409
 31
0.0
  0
LINE
  5
2A194
330
18
100
AcDbEntity
  8
実線
 48
10.0
100
AcDbLine
 10
690.3813475319875
 20
-3012.219761307409
 30
0.0
 11
676.3834797997978
 21
-3011.975427617288
 31
0.0
  0
LINE
  5
2A195
330
18
100
AcDbEntity
  8
実線
 48
10.0
100
AcDbLine
 10
676.3834797997978
 20
-3011.975427617288
 30
0.0
 11
677.2561001216627
 21
-2961.983042859469
 31
0.0
  0
LINE
  5
2A197
330
18
100
AcDbEntity
  8
実線
 48
10.0
100
AcDbLine
 10
675.2539678538523
 20
-2962.227376549591
 30
0.0
 11
674.3813475319875
 21
-3012.219761307409
 31
0.0
  0
LINE
  5
2A198
330
18
100
AcDbEntity
  8
実線
 48
10.0
100
AcDbLine
 10
674.3813475319875
 20
-3012.219761307409
 30
0.0
 11
660.3834797997978
 21
-3011.975427617288
 31
0.0
  0
LINE
  5
2A199
330
18
100
AcDbEntity
  8
実線
 48
10.0
100
AcDbLine
 10
660.3834797997978
 20
-3011.975427617288
 30
0.0
 11
661.2561001216627
 21
-2961.983042859469
 31
0.0
  0
LINE
  5
2A19B
330
18
100
AcDbEntity
  8
実線
 48
10.0
100
AcDbLine
 10
676.1265881757163
 20
-2912.234991791771
 30
0.0
 11
675.2539678538523
 21
-2962.227376549591
 31
0.0
  0
LINE
  5
2A19D
330
18
100
AcDbEntity
  8
実線
 48
10.0
100
AcDbLine
 10
661.2561001216627
 20
-2961.983042859469
 30
0.0
 11
662.1287204435275
 21
-2911.990658101649
 31
0.0
  0
LINE
  5
2A19E
330
18
100
AcDbEntity
  8
実線
 48
10.0
100
AcDbLine
 10
662.1287204435275
 20
-2911.990658101649
 30
0.0
 11
676.1265881757163
 21
-2912.234991791771
 31
0.0
  0
LINE
  5
2A19F
330
18
100
AcDbEntity
  8
実線
 48
10.0
100
AcDbLine
 10
660.1265881757163
 20
-2912.234991791771
 30
0.0
 11
659.2539678538523
 21
-2962.227376549591
 31
0.0
  0
LINE
  5
2A1A1
330
18
100
AcDbEntity
  8
実線
 48
10.0
100
AcDbLine
 10
645.2561001216627
 20
-2961.983042859469
 30
0.0
 11
646.1287204435275
 21
-2911.990658101649
 31
0.0
  0
LINE
  5
2A1A2
330
18
100
AcDbEntity
  8
実線
 48
10.0
100
AcDbLine
 10
646.1287204435275
 20
-2911.990658101649
 30
0.0
 11
660.1265881757163
 21
-2912.234991791771
 31
0.0
  0
LINE
  5
2A1A3
330
18
100
AcDbEntity
  8
実線
 48
10.0
100
AcDbLine
 10
659.2539678538523
 20
-2962.227376549591
 30
0.0
 11
658.3813475319876
 21
-3012.219761307409
 31
0.0
  0
LINE
  5
2A1A4
330
18
100
AcDbEntity
  8
実線
 48
10.0
100
AcDbLine
 10
658.3813475319876
 20
-3012.219761307409
 30
0.0
 11
644.3834797997979
 21
-3011.975427617288
 31
0.0
  0
LINE
  5
2A1A5
330
18
100
AcDbEntity
  8
実線
 48
10.0
100
AcDbLine
 10
644.3834797997979
 20
-3011.975427617288
 30
0.0
 11
645.2561001216627
 21
-2961.983042859469
 31
0.0
  0
LINE
  5
2A1A7
330
18
100
AcDbEntity
  8
実線
 48
10.0
100
AcDbLine
 10
643.2539678538524
 20
-2962.227376549591
 30
0.0
 11
642.3813475319875
 21
-3012.219761307409
 31
0.0
  0
LINE
  5
2A1A8
330
18
100
AcDbEntity
  8
実線
 48
10.0
100
AcDbLine
 10
642.3813475319875
 20
-3012.219761307409
 30
0.0
 11
628.3834797997979
 21
-3011.975427617288
 31
0.0
  0
LINE
  5
2A1A9
330
18
100
AcDbEntity
  8
実線
 48
10.0
100
AcDbLine
 10
628.3834797997979
 20
-3011.975427617288
 30
0.0
 11
629.2561001216626
 21
-2961.983042859469
 31
0.0
  0
LINE
  5
2A1AB
330
18
100
AcDbEntity
  8
実線
 48
10.0
100
AcDbLine
 10
644.1265881757162
 20
-2912.234991791771
 30
0.0
 11
643.2539678538524
 21
-2962.227376549591
 31
0.0
  0
LINE
  5
2A1AD
330
18
100
AcDbEntity
  8
実線
 48
10.0
100
AcDbLine
 10
629.2561001216626
 20
-2961.983042859469
 30
0.0
 11
630.1287204435275
 21
-2911.990658101649
 31
0.0
  0
LINE
  5
2A1AE
330
18
100
AcDbEntity
  8
実線
 48
10.0
100
AcDbLine
 10
630.1287204435275
 20
-2911.990658101649
 30
0.0
 11
644.1265881757162
 21
-2912.234991791771
 31
0.0
  0
LINE
  5
2A25A
330
18
100
AcDbEntity
  8
実線
100
AcDbLine
 10
1009.549461721918
 20
-2898.105209704528
 30
0.0
 11
1010.549461721918
 21
-2897.105209704529
 31
0.0
  0
LINE
  5
2A25B
330
18
100
AcDbEntity
  8
実線
100
AcDbLine
 10
1016.349461721918
 20
-2897.105209704529
 30
0.0
 11
1017.349461721918
 21
-2898.105209704528
 31
0.0
  0
LEADER
  5
2A266
330
18
100
AcDbEntity
  8
文字
100
AcDbLeader
  3
まこ
 76
     2
 10
1009.946804798456
 20
-2897.58421183696
 30
0.0
 10
993.673873836566
 20
-2885.714523859396
 30
0.0
211
-1.0
221
0.0
231
0.0
210
0.0
220
0.0
230
-1.0
1001
ACAD
1000
DSTYLE
1002
{
1070
   147
1040
0.5
1070
    77
1070
     1
1002
}
  0
MTEXT
  5
2A267
330
18
100
AcDbEntity
  8
文字
100
AcDbMText
 10
999.2652341341743
 20
-2888.998507202331
 30
0.0
 40
4.5
 41
0.0
 71
     9
 72
     1
  1
C1
  7
まこ
 11
0.8167523470281077
 21
-0.5769883912385737
 31
0.0
 73
     1
 44
1.0
  0
MTEXT
  5
2A268
330
18
100
AcDbEntity
  8
文字
100
AcDbMText
 10
1022.755936176525
 20
-2892.550378019874
 30
0.0
 40
4.5
 41
0.0
 71
     7
 72
     1
  1
C1
  7
まこ
 11
0.8167523470281077
 21
0.5769883912385737
 31
0.0
 73
     1
 44
1.0
  0
LEADER
  5
2A269
330
18
100
AcDbEntity
  8
文字
100
AcDbLeader
  3
まこ
 76
     2
 10
1016.95211864538
 20
-2897.58421183696
 30
0.0
 10
1028.347296474134
 20
-2889.266394676939
 30
0.0
1001
ACAD
1000
DSTYLE
1002
{
1070
   147
1040
0.5
1070
    77
1070
     1
1002
}
  0
VIEWPORT
  5
2AACF
330
2AACE
100
AcDbEntity
 67
     1
  8
0
100
AcDbViewport
 10
203.7992758485523
 20
145.0586565046209
 30
0.0
 40
446.8369737109394
 41
347.4903683893646
 68
     1
 69
     1
 12
203.7992758485523
 22
145.0586565046209
 13
0.0
 23
0.0
 14
10.0
 24
10.0
 15
10.0
 25
10.0
 16
0.0
 26
0.0
 36
1.0
 17
0.0
 27
0.0
 37
0.0
 42
50.0
 43
0.0
 44
0.0
 45
347.4903683893646
 50
0.0
 51
0.0
 72
   100
 90
    32768
  1

281
     0
 71
     1
 74
     0
110
0.0
120
0.0
130
0.0
111
1.0
121
0.0
131
0.0
112
0.0
122
1.0
132
0.0
 79
     0
146
0.0
  0
VIEWPORT
  5
2AAD0
330
2AACE
100
AcDbEntity
 67
     1
  8
M_VIEW
100
AcDbViewport
 10
200.0
 20
144.0
 30
0.0
 40
400.0
 41
288.0
 68
     2
 69
     2
 12
822.0596644839925
 22
-2995.563720227778
 13
0.0
 23
0.0
 14
10.0
 24
10.0
 15
10.0
 25
10.0
 16
0.0
 26
0.0
 36
1.0
 17
0.0
 27
0.0
 37
0.0
 42
50.0
 43
0.0
 44
0.0
 45
432.0000002396376
 50
0.0
 51
0.0
 72
   100
 90
    32768
  1

281
     0
 71
     1
 74
     0
110
0.0
120
0.0
130
0.0
111
1.0
121
0.0
131
0.0
112
0.0
122
1.0
132
0.0
 79
     0
146
0.0
  0
TEXT
  5
2AAD1
330
2AACE
100
AcDbEntity
 67
     1
  8
FRAME050
100
AcDbText
 10
23.72500062726931
 20
3.958700730328358
 30
0.0
 40
4.0
  1
1
  7
ISOCP
 72
     4
 11
24.72500062726931
 21
5.958700730328358
 31
0.0
100
AcDbText
  0
LINE
  5
2AAD2
330
2AACE
100
AcDbEntity
 67
     1
  8
FRAME050
100
AcDbLine
 10
49.75
 20
3.5
 30
0.0
 11
49.75
 21
8.5
 31
0.0
  0
LINE
  5
2AAD3
330
2AACE
100
AcDbEntity
 67
     1
  8
FRAME070
  6
DOT
 62
     0
 48
0.3
100
AcDbLine
 10
322.5
 20
9.5
 30
0.0
 11
394.5
 21
9.5
 31
0.0
  0
LINE
  5
2AAD4
330
2AACE
100
AcDbEntity
 67
     1
  8
FRAME070
  6
DOT
 62
     0
 48
0.3
100
AcDbLine
 10
322.5
 20
20.5
 30
0.0
 11
394.5
 21
20.5
 31
0.0
  0
LINE
  5
2AAD5
330
2AACE
100
AcDbEntity
 67
     1
  8
FRAME070
  6
DOT
 62
     0
 48
0.3
100
AcDbLine
 10
322.5
 20
31.5
 30
0.0
 11
394.5
 21
31.5
 31
0.0
  0
TEXT
  5
2AAD6
330
2AACE
100
AcDbEntity
 67
     1
  8
FRAME050
 62
     0
100
AcDbText
 10
322.9540341676983
 20
17.04006356150944
 30
0.0
 40
2.0
  1
図面番号 DRAWING No.
100
AcDbText
  0
INSERT
  5
2AAD7
330
2AACE
100
AcDbEntity
 67
     1
  8
FRAME050
  6
Continuous
 62
     0
100
AcDbBlockReference
  2
*X0
 10
0.0
 20
0.0
 30
0.0
1001
ACAD
1000
HATCH
1002
{
1070
    19
1000
ANSI37
1040
0.8009999999999999
1040
0.0
1000
ASC_BOUNDS
1070
     2
1070
     2
1070
     8
1005
2AAE4
1005
2AAE5
1005
2AADB
1005
2AAE0
1005
2AAD9
1005
2AAE3
1005
2AADA
1005
2AADC
1070
     2
1070
     1
1005
2AADD
1000
ASC_SEEDPOINT
1011
-20.34338761779514
1021
14.3515310196989
1031
0.0
1000
R14_HATCH_DATA
1000
79
1011
1.0
1021
0.0
1031
0.0
1011
0.0
1021
1.0
1031
0.0
1011
0.0
1021
0.0
1031
1.0
1040
0.0
1010
0.0
1020
0.0
1030
1.0
1000
ANSI37
1070
     0
1070
     1
1071
        2
1071
       17
1071
        1
1070
     2
1040
231.5037499999999
1040
11.25218749999999
1040
0.7509375000000002
1040
0.0
1040
6.283185307179585
1070
     1
1071
        1
1005
2AADD
1071
        1
1071
        8
1070
     2
1040
231.5049142441859
1040
11.25451598837208
1040
1.253891528875312
1040
1.98251561001438
1040
4.71146047554474
1070
     1
1070
     2
1040
231.5037499999999
1040
11.00187499999999
1040
1.001249999999998
1040
4.712388980384688
1040
7.853981633974482
1070
     1
1070
     1
1040
231.5037499999999
1040
12.00312499999999
1040
234.3072499999999
1040
12.00312499999999
1070
     1
1040
234.3072499999999
1040
12.00312499999999
1040
234.0068749999999
1040
9.5
1070
     1
1040
234.0068749999999
1040
9.5
1040
228.5
1040
9.5
1070
     1
1040
228.5
1040
9.5
1040
229.000625
1040
13.50499999999999
1070
     1
1040
229.000625
1040
13.50499999999999
1040
234.5075
1040
13.50499999999999
1070
     1
1040
234.5075
1040
13.50499999999999
1040
231.003125
1040
12.40362499999999
1071
        8
1005
2AADC
1005
2AADA
1005
2AAE3
1005
2AAD9
1005
2AAE0
1005
2AADB
1005
2AAE5
1005
2AAE4
1070
     0
1070
     1
1040
0.0
1040
0.8009999999999999
1070
     0
1070
     2
1040
0.7853981633974483
1040
-20.34338761779514
1040
14.3515310196989
1040
-0.0707990664663031
1040
0.0707990664663031
1070
     0
1040
2.356194490192344
1040
-20.34338761779514
1040
14.3515310196989
1040
-0.0707990664663031
1040
-0.0707990664663031
1070
     0
1071
        1
1040
-20.34338761779514
1040
14.3515310196989
1040
0.0
1002
}
  0
TEXT
  5
2AAD8
330
2AACE
100
AcDbEntity
 67
     1
  8
FRAME050
 62
     0
100
AcDbText
 10
235.6793904181579
 20
11.68062068446169
 30
0.0
 40
1.8
  1
NIKKI
 41
1.25
  7
TIMESNR
100
AcDbText
  0
LINE
  5
2AAD9
330
2AACE
100
AcDbEntity
 67
     1
  8
FRAME050
 62
     0
100
AcDbLine
 10
234.0068749999999
 20
9.5
 30
0.0
 11
234.3072499999999
 21
12.00312499999999
 31
0.0
1001
ACAD
1000
ASC_BOUNDS
1002
{
1070
    19
1005
2AAD7
1002
}
  0
ARC
  5
2AADA
330
2AACE
100
AcDbEntity
 67
     1
  8
FRAME050
 62
     0
100
AcDbCircle
 10
231.5037499999999
 20
11.00187499999999
 30
0.0
 40
1.001249999999998
100
AcDbArc
 50
270.0
 51
90.0
1001
ACAD
1000
ASC_BOUNDS
1002
{
1070
    19
1005
2AAD7
1002
}
  0
LINE
  5
2AADB
330
2AACE
100
AcDbEntity
 67
     1
  8
FRAME050
 62
     0
100
AcDbLine
 10
228.5
 20
9.5
 30
0.0
 11
229.000625
 21
13.50499999999999
 31
0.0
1001
ACAD
1000
ASC_BOUNDS
1002
{
1070
    19
1005
2AAD7
1002
}
  0
ARC
  5
2AADC
330
2AACE
100
AcDbEntity
 67
     1
  8
FRAME050
 62
     0
100
AcDbCircle
 10
231.5049142441859
 20
11.25451598837208
 30
0.0
 40
1.253891528875312
100
AcDbArc
 50
113.5897772726278
 51
269.9468005914134
1001
ACAD
1000
ASC_BOUNDS
1002
{
1070
    19
1005
2AAD7
1002
}
  0
CIRCLE
  5
2AADD
330
2AACE
100
AcDbEntity
 67
     1
  8
FRAME050
 62
     0
100
AcDbCircle
 10
231.5037499999999
 20
11.25218749999999
 30
0.0
 40
0.7509375000000002
1001
ACAD
1000
ASC_BOUNDS
1002
{
1070
    19
1005
2AAD7
1002
}
  0
TEXT
  5
2AADE
330
2AACE
100
AcDbEntity
 67
     1
  8
FRAME050
 62
     0
100
AcDbText
 10
235.5276240304849
 20
9.559667673229766
 30
0.0
 40
1.8
  1
DENSO
 41
1.3
  7
TIMESNR
100
AcDbText
  0
TEXT
  5
2AADF
330
2AACE
100
AcDbEntity
 67
     1
  8
FRAME050
 62
     0
100
AcDbText
 10
247.4344446890543
 20
9.783405966049144
 30
0.0
 40
3.399999999999999
  1
日機電装株式会社
  7
MSｺﾞｼｯｸ
100
AcDbText
  0
LINE
  5
2AAE0
330
2AACE
100
AcDbEntity
 67
     1
  8
FRAME050
 62
     0
100
AcDbLine
 10
228.5
 20
9.5
 30
0.0
 11
234.0068749999999
 21
9.5
 31
0.0
1001
ACAD
1000
ASC_BOUNDS
1002
{
1070
    19
1005
2AAD7
1002
}
  0
LINE
  5
2AAE1
330
2AACE
100
AcDbEntity
 67
     1
  8
FRAME070
  6
DOT
 62
     0
 48
0.3
100
AcDbLine
 10
227.4999999999999
 20
18.5
 30
0.0
 11
287.5
 21
18.5
 31
0.0
  0
LINE
  5
2AAE2
330
2AACE
100
AcDbEntity
 67
     1
  8
FRAME070
 62
     0
100
AcDbLine
 10
247.5
 20
14.5
 30
0.0
 11
247.5
 21
38.5
 31
0.0
  0
LINE
  5
2AAE3
330
2AACE
100
AcDbEntity
 67
     1
  8
FRAME050
 62
     0
100
AcDbLine
 10
231.5037499999999
 20
12.00312499999999
 30
0.0
 11
234.3072499999999
 21
12.00312499999999
 31
0.0
1001
ACAD
1000
ASC_BOUNDS
1002
{
1070
    19
1005
2AAD7
1002
}
  0
LINE
  5
2AAE4
330
2AACE
100
AcDbEntity
 67
     1
  8
FRAME050
 62
     0
100
AcDbLine
 10
234.5075
 20
13.50499999999999
 30
0.0
 11
231.003125
 21
12.40362499999999
 31
0.0
1001
ACAD
1000
ASC_BOUNDS
1002
{
1070
    19
1005
2AAD7
1002
}
  0
LINE
  5
2AAE5
330
2AACE
100
AcDbEntity
 67
     1
  8
FRAME050
 62
     0
100
AcDbLine
 10
229.000625
 20
13.50499999999999
 30
0.0
 11
234.5075
 21
13.50499999999999
 31
0.0
1001
ACAD
1000
ASC_BOUNDS
1002
{
1070
    19
1005
2AAD7
1002
}
  0
LINE
  5
2AAE6
330
2AACE
100
AcDbEntity
 67
     1
  8
FRAME070
 62
     0
100
AcDbLine
 10
267.5
 20
14.5
 30
0.0
 11
267.5
 21
38.5
 31
0.0
  0
LINE
  5
2AAE7
330
2AACE
100
AcDbEntity
 67
     1
  8
FRAME070
  6
Continuous
 62
     0
100
AcDbLine
 10
330.5
 20
9.5
 30
0.0
 11
330.5
 21
10.5
 31
0.0
  0
LINE
  5
2AAE8
330
2AACE
100
AcDbEntity
 67
     1
  8
FRAME070
 62
     0
100
AcDbLine
 10
359.5
 20
38.5
 30
0.0
 11
359.5
 21
48.5
 31
0.0
  0
LINE
  5
2AAE9
330
2AACE
100
AcDbEntity
 67
     1
  8
FRAME070
  6
Continuous
 62
     0
100
AcDbLine
 10
335.4999999999999
 20
38.5
 30
0.0
 11
335.4999999999999
 21
39.5
 31
0.0
  0
LINE
  5
2AAEA
330
2AACE
100
AcDbEntity
 67
     1
  8
FRAME070
  6
Continuous
 62
     0
100
AcDbLine
 10
338.5
 20
38.5
 30
0.0
 11
338.5
 21
39.5
 31
0.0
  0
LINE
  5
2AAEB
330
2AACE
100
AcDbEntity
 67
     1
  8
FRAME070
  6
Continuous
 62
     0
100
AcDbLine
 10
347.5
 20
38.5
 30
0.0
 11
347.5
 21
39.5
 31
0.0
  0
LINE
  5
2AAEC
330
2AACE
100
AcDbEntity
 67
     1
  8
FRAME070
  6
Continuous
 62
     0
100
AcDbLine
 10
350.4999999999998
 20
38.5
 30
0.0
 11
350.4999999999998
 21
39.5
 31
0.0
  0
LINE
  5
2AAED
330
2AACE
100
AcDbEntity
 67
     1
  8
FRAME070
  6
Continuous
 62
     0
100
AcDbLine
 10
341.5
 20
38.5
 30
0.0
 11
341.5
 21
39.5
 31
0.0
  0
LINE
  5
2AAEE
330
2AACE
100
AcDbEntity
 67
     1
  8
FRAME070
  6
Continuous
 62
     0
100
AcDbLine
 10
344.5
 20
38.5
 30
0.0
 11
344.5
 21
39.5
 31
0.0
  0
LINE
  5
2AAEF
330
2AACE
100
AcDbEntity
 67
     1
  8
FRAME070
  6
Continuous
 62
     0
100
AcDbLine
 10
353.5
 20
38.5
 30
0.0
 11
353.5
 21
39.5
 31
0.0
  0
LINE
  5
2AAF0
330
2AACE
100
AcDbEntity
 67
     1
  8
FRAME070
  6
Continuous
 62
     0
100
AcDbLine
 10
356.4999999999998
 20
38.5
 30
0.0
 11
356.4999999999998
 21
39.5
 31
0.0
  0
LINE
  5
2AAF1
330
2AACE
100
AcDbEntity
 67
     1
  8
FRAME070
  6
Continuous
 62
     0
100
AcDbLine
 10
370.5
 20
38.5
 30
0.0
 11
370.5
 21
39.5
 31
0.0
  0
LINE
  5
2AAF2
330
2AACE
100
AcDbEntity
 67
     1
  8
FRAME070
  6
Continuous
 62
     0
100
AcDbLine
 10
382.5
 20
38.5
 30
0.0
 11
382.5
 21
39.5
 31
0.0
  0
LINE
  5
2AAF3
330
2AACE
100
AcDbEntity
 67
     1
  8
FRAME070
  6
Continuous
 62
     0
100
AcDbLine
 10
379.4999999999998
 20
38.5
 30
0.0
 11
379.4999999999998
 21
39.5
 31
0.0
  0
LINE
  5
2AAF4
330
2AACE
100
AcDbEntity
 67
     1
  8
FRAME070
  6
Continuous
 62
     0
100
AcDbLine
 10
376.5
 20
38.5
 30
0.0
 11
376.5
 21
39.5
 31
0.0
  0
LINE
  5
2AAF5
330
2AACE
100
AcDbEntity
 67
     1
  8
FRAME070
  6
Continuous
 62
     0
100
AcDbLine
 10
373.4999999999998
 20
38.5
 30
0.0
 11
373.4999999999998
 21
39.5
 31
0.0
  0
LINE
  5
2AAF6
330
2AACE
100
AcDbEntity
 67
     1
  8
FRAME070
  6
Continuous
 62
     0
100
AcDbLine
 10
391.5
 20
38.5
 30
0.0
 11
391.5
 21
39.5
 31
0.0
  0
LINE
  5
2AAF7
330
2AACE
100
AcDbEntity
 67
     1
  8
FRAME070
  6
Continuous
 62
     0
100
AcDbLine
 10
388.5
 20
38.5
 30
0.0
 11
388.5
 21
39.5
 31
0.0
  0
LINE
  5
2AAF8
330
2AACE
100
AcDbEntity
 67
     1
  8
FRAME070
  6
Continuous
 62
     0
100
AcDbLine
 10
385.5
 20
38.5
 30
0.0
 11
385.5
 21
39.5
 31
0.0
  0
TEXT
  5
2AAF9
330
2AACE
100
AcDbEntity
 67
     1
  8
FRAME050
100
AcDbText
 10
395.1999999999999
 20
259.8459095043092
 30
0.0
 40
4.0
  1
A
  7
ISOCP
 72
     4
 11
397.0
 21
261.8459095043092
 31
0.0
100
AcDbText
  0
LINE
  5
2AAFA
330
2AACE
100
AcDbEntity
 67
     1
  8
FRAME050
100
AcDbLine
 10
399.5
 20
238.5
 30
0.0
 11
394.5
 21
238.5
 31
0.0
  0
LWPOLYLINE
  5
2AAFB
330
2AACE
100
AcDbEntity
 67
     1
  8
FRAME070
100
AcDbPolyline
 90
        2
 70
     0
 43
0.5
 10
394.5
 20
284.5
 10
0.5
 20
284.5
  0
LWPOLYLINE
  5
2AAFC
330
2AACE
100
AcDbEntity
 67
     1
  8
FRAME070
100
AcDbPolyline
 90
        2
 70
     0
 43
0.5
 10
0.5
 20
284.5
 10
0.5
 20
8.5
  0
LWPOLYLINE
  5
2AAFD
330
2AACE
100
AcDbEntity
 67
     1
  8
FRAME070
100
AcDbPolyline
 90
        2
 70
     0
 43
0.5
 10
0.5
 20
8.5
 10
394.5
 20
8.5
  0
LWPOLYLINE
  5
2AAFE
330
2AACE
100
AcDbEntity
 67
     1
  8
FRAME070
100
AcDbPolyline
 90
        2
 70
     0
 43
0.5
 10
394.5
 20
8.5
 10
394.5
 20
284.5
  0
LWPOLYLINE
  5
2AAFF
330
2AACE
100
AcDbEntity
 67
     1
  8
FRAME070
 62
     0
100
AcDbPolyline
 90
        2
 70
     0
 43
0.3
 10
227.4999999999999
 20
43.5
 10
394.5
 20
43.5
  0
LWPOLYLINE
  5
2AB00
330
2AACE
100
AcDbEntity
 67
     1
  8
FRAME070
 62
     0
100
AcDbPolyline
 90
        2
 70
     0
 43
0.3
 10
227.4999999999999
 20
8.5
 10
227.4999999999999
 20
43.5
  0
LWPOLYLINE
  5
2AB01
330
2AACE
100
AcDbEntity
 67
     1
  8
FRAME070
 62
     0
100
AcDbPolyline
 90
        2
 70
     0
 43
0.2
 10
287.5
 20
8.5
 10
287.5
 20
48.5
  0
LWPOLYLINE
  5
2AB02
330
2AACE
100
AcDbEntity
 67
     1
  8
FRAME070
 62
     0
100
AcDbPolyline
 90
        2
 70
     0
 43
0.2
 10
227.4999999999999
 20
14.5
 10
322.5
 20
14.5
  0
LWPOLYLINE
  5
2AB03
330
2AACE
100
AcDbEntity
 67
     1
  8
FRAME070
 62
     0
100
AcDbPolyline
 90
        2
 70
     0
 43
0.2
 10
287.5
 20
19.5
 10
394.5
 20
19.5
  0
LWPOLYLINE
  5
2AB04
330
2AACE
100
AcDbEntity
 67
     1
  8
FRAME070
 62
     0
100
AcDbPolyline
 90
        2
 70
     0
 43
0.2
 10
322.5
 20
30.5
 10
394.5
 20
30.5
  0
LWPOLYLINE
  5
2AB05
330
2AACE
100
AcDbEntity
 67
     1
  8
FRAME070
 62
     0
100
AcDbPolyline
 90
        2
 70
     0
 43
0.2
 10
227.4999999999999
 20
38.5
 10
394.5
 20
38.5
  0
LINE
  5
2AB06
330
2AACE
100
AcDbEntity
 67
     1
  8
FRAME050
100
AcDbLine
 10
99.0
 20
3.5
 30
0.0
 11
99.0
 21
8.5
 31
0.0
  0
TEXT
  5
2AB07
330
2AACE
100
AcDbEntity
 67
     1
  8
FRAME050
100
AcDbText
 10
72.5056699186079
 20
3.949610708859871
 30
0.0
 40
4.0
  1
2
  7
ISOCP
 72
     4
 11
73.97500062726931
 21
6.050004409647272
 31
0.0
100
AcDbText
  0
LINE
  5
2AB08
330
2AACE
100
AcDbEntity
 67
     1
  8
FRAME050
 62
     0
100
AcDbLine
 10
148.2499999999999
 20
3.5
 30
0.0
 11
148.2499999999999
 21
8.5
 31
0.0
  0
TEXT
  5
2AB09
330
2AACE
100
AcDbEntity
 67
     1
  8
FRAME050
 62
     0
100
AcDbText
 10
121.7421579147947
 20
3.947459653579214
 30
0.0
 40
4.0
  1
3
  7
ISOCP
 72
     4
 11
123.2250006272693
 21
5.864616941104599
 31
0.0
100
AcDbText
  0
TEXT
  5
2AB0A
330
2AACE
100
AcDbEntity
 67
     1
  8
FRAME050
 62
     0
100
AcDbText
 10
170.8750006272691
 20
3.941860972724271
 30
0.0
 40
4.0
  1
4
  7
ISOCP
 72
     4
 11
172.4750006272691
 21
5.941860972724271
 31
0.0
100
AcDbText
  0
LINE
  5
2AB0B
330
2AACE
100
AcDbEntity
 67
     1
  8
FRAME050
 62
     0
100
AcDbLine
 10
246.75
 20
3.5
 30
0.0
 11
246.75
 21
8.5
 31
0.0
  0
TEXT
  5
2AB0C
330
2AACE
100
AcDbEntity
 67
     1
  8
FRAME050
 62
     0
100
AcDbText
 10
220.2421579147945
 20
3.947459653579216
 30
0.0
 40
4.0
  1
5
  7
ISOCP
 72
     4
 11
221.7250006272691
 21
5.864616941104599
 31
0.0
100
AcDbText
  0
LINE
  5
2AB0D
330
2AACE
100
AcDbEntity
 67
     1
  8
FRAME050
 62
     0
100
AcDbLine
 10
296.0
 20
3.5
 30
0.0
 11
296.0
 21
8.5
 31
0.0
  0
TEXT
  5
2AB0E
330
2AACE
100
AcDbEntity
 67
     1
  8
FRAME050
 62
     0
100
AcDbText
 10
269.5954730682141
 20
3.960240630119713
 30
0.0
 40
4.0
  1
6
  7
ISOCP
 72
     4
 11
270.9750006272693
 21
6.050004409647272
 31
0.0
100
AcDbText
  0
LINE
  5
2AB0F
330
2AACE
100
AcDbEntity
 67
     1
  8
FRAME050
 62
     0
100
AcDbLine
 10
345.25
 20
3.5
 30
0.0
 11
345.25
 21
8.5
 31
0.0
  0
TEXT
  5
2AB10
330
2AACE
100
AcDbEntity
 67
     1
  8
FRAME050
 62
     0
100
AcDbText
 10
318.8250006272693
 20
3.941861458058156
 30
0.0
 40
4.0
  1
7
  7
ISOCP
 72
     4
 11
320.2250006272693
 21
5.941861458058156
 31
0.0
100
AcDbText
  0
TEXT
  5
2AB11
330
2AACE
100
AcDbEntity
 67
     1
  8
FRAME050
 62
     0
100
AcDbText
 10
368.0750006272693
 20
3.957310651699002
 30
0.0
 40
4.0
  1
8
  7
ISOCP
 72
     4
 11
369.4750006272693
 21
5.957310651699002
 31
0.0
100
AcDbText
  0
LWPOLYLINE
  5
2AB12
330
2AACE
100
AcDbEntity
 67
     1
  8
FRAME050
100
AcDbPolyline
 90
        2
 70
     0
 43
0.5
 10
197.5
 20
-1.5
 10
197.5
 20
8.5
  0
LINE
  5
2AB13
330
2AACE
100
AcDbEntity
 67
     1
  8
FRAME050
100
AcDbLine
 10
399.5
 20
192.5
 30
0.0
 11
394.5
 21
192.5
 31
0.0
  0
TEXT
  5
2AB14
330
2AACE
100
AcDbEntity
 67
     1
  8
FRAME050
100
AcDbText
 10
395.3999999999999
 20
213.8459095043092
 30
0.0
 40
4.0
  1
B
  7
ISOCP
 72
     4
 11
397.0
 21
215.8459095043091
 31
0.0
100
AcDbText
  0
TEXT
  5
2AB15
330
2AACE
100
AcDbEntity
 67
     1
  8
FRAME050
100
AcDbText
 10
395.6931980515339
 20
167.8459095043091
 30
0.0
 40
4.0
  1
C
  7
ISOCP
 72
     4
 11
397.0
 21
169.8459095043092
 31
0.0
100
AcDbText
  0
LINE
  5
2AB16
330
2AACE
100
AcDbEntity
 67
     1
  8
FRAME050
100
AcDbLine
 10
399.5
 20
100.5
 30
0.0
 11
394.5
 21
100.5
 31
0.0
  0
TEXT
  5
2AB17
330
2AACE
100
AcDbEntity
 67
     1
  8
FRAME050
100
AcDbText
 10
395.2860912703474
 20
121.8459095043092
 30
0.0
 40
4.0
  1
D
  7
ISOCP
 72
     4
 11
397.0
 21
123.8459095043092
 31
0.0
100
AcDbText
  0
LINE
  5
2AB18
330
2AACE
100
AcDbEntity
 67
     1
  8
FRAME050
100
AcDbLine
 10
399.5
 20
54.5
 30
0.0
 11
394.5
 21
54.5
 31
0.0
  0
TEXT
  5
2AB19
330
2AACE
100
AcDbEntity
 67
     1
  8
FRAME050
100
AcDbText
 10
395.6
 20
75.84590950430923
 30
0.0
 40
4.0
  1
E
  7
ISOCP
 72
     4
 11
397.0
 21
77.84590950430923
 31
0.0
100
AcDbText
  0
TEXT
  5
2AB1A
330
2AACE
100
AcDbEntity
 67
     1
  8
FRAME050
 62
     0
100
AcDbText
 10
395.6
 20
29.84590950430924
 30
0.0
 40
4.0
  1
F
  7
ISOCP
 72
     4
 11
397.0
 21
31.84590950430925
 31
0.0
100
AcDbText
  0
LWPOLYLINE
  5
2AB1B
330
2AACE
100
AcDbEntity
 67
     1
  8
FRAME050
100
AcDbPolyline
 90
        2
 70
     0
 43
0.5
 10
404.4999999999998
 20
146.5
 10
394.5
 20
146.5
  0
LINE
  5
2AB1C
330
2AACE
100
AcDbEntity
 67
     1
  8
FRAME070
 62
     0
100
AcDbLine
 10
217.5
 20
8.5
 30
0.0
 11
217.5
 21
43.5
 31
0.0
  0
LINE
  5
2AB1D
330
2AACE
100
AcDbEntity
 67
     1
  8
FRAME070
 62
     0
100
AcDbLine
 10
207.5
 20
8.5
 30
0.0
 11
207.5
 21
43.5
 31
0.0
  0
LINE
  5
2AB1E
330
2AACE
100
AcDbEntity
 67
     1
  8
FRAME070
 62
     0
100
AcDbLine
 10
197.5
 20
8.5
 30
0.0
 11
197.5
 21
43.5
 31
0.0
  0
LINE
  5
2AB1F
330
2AACE
100
AcDbEntity
 67
     1
  8
FRAME070
 62
     0
100
AcDbLine
 10
144.5
 20
8.5
 30
0.0
 11
144.5
 21
43.5
 31
0.0
  0
LINE
  5
2AB20
330
2AACE
100
AcDbEntity
 67
     1
  8
FRAME070
 62
     0
100
AcDbLine
 10
120.5
 20
18.5
 30
0.0
 11
144.5
 21
18.5
 31
0.0
  0
LINE
  5
2AB21
330
2AACE
100
AcDbEntity
 67
     1
  8
FRAME070
  6
DOT
 62
     0
 48
0.3
100
AcDbLine
 10
144.5
 20
18.5
 30
0.0
 11
227.4999999999999
 21
18.5
 31
0.0
  0
LINE
  5
2AB22
330
2AACE
100
AcDbEntity
 67
     1
  8
FRAME070
 62
     0
100
AcDbLine
 10
120.5
 20
11.0
 30
0.0
 11
144.5
 21
11.0
 31
0.0
  0
LINE
  5
2AB23
330
2AACE
100
AcDbEntity
 67
     1
  8
FRAME070
 62
     0
100
AcDbLine
 10
197.5
 20
11.0
 30
0.0
 11
227.4999999999999
 21
11.0
 31
0.0
  0
TEXT
  5
2AB24
330
2AACE
100
AcDbEntity
 67
     1
  8
FRAME050
 62
     0
100
AcDbText
 10
120.9001716778115
 20
11.23422397146742
 30
0.0
 40
2.0
  1
変更 REV. MARK
100
AcDbText
  0
TEXT
  5
2AB25
330
2AACE
100
AcDbEntity
 67
     1
  8
FRAME050
 62
     0
100
AcDbText
 10
120.9001716778115
 20
8.915861200890672
 30
0.0
 40
2.0
  1
出図 ENTRY No.
100
AcDbText
  0
TEXT
  5
2AB26
330
2AACE
100
AcDbEntity
 67
     1
  8
FRAME050
 62
     0
100
AcDbText
 10
197.6557066234773
 20
11.1622760663145
 30
0.0
 40
2.0
  1
APPROVED
 41
0.75
100
AcDbText
  0
LWPOLYLINE
  5
2AB27
330
2AACE
100
AcDbEntity
 67
     1
  8
FRAME070
 62
     0
100
AcDbPolyline
 90
        3
 70
     1
 43
0.0
 10
123.5000254037844
 20
23.25
 10
120.901949192431
 20
18.75
 10
126.0981016151377
 20
18.75
  0
LINE
  5
2AB28
330
2AACE
100
AcDbEntity
 67
     1
  8
FRAME070
  6
Continuous
 62
     0
100
AcDbLine
 10
141.5
 20
13.5
 30
0.0
 11
141.5
 21
14.5
 31
0.0
  0
LINE
  5
2AB29
330
2AACE
100
AcDbEntity
 67
     1
  8
FRAME070
  6
Continuous
 62
     0
100
AcDbLine
 10
138.5
 20
13.5
 30
0.0
 11
138.5
 21
14.5
 31
0.0
  0
LINE
  5
2AB2A
330
2AACE
100
AcDbEntity
 67
     1
  8
FRAME070
  6
Continuous
 62
     0
100
AcDbLine
 10
135.4999999999999
 20
13.5
 30
0.0
 11
135.4999999999999
 21
14.5
 31
0.0
  0
LINE
  5
2AB2B
330
2AACE
100
AcDbEntity
 67
     1
  8
FRAME070
  6
Continuous
 62
     0
100
AcDbLine
 10
132.4999999999999
 20
13.5
 30
0.0
 11
132.4999999999999
 21
14.5
 31
0.0
  0
LINE
  5
2AB2C
330
2AACE
100
AcDbEntity
 67
     1
  8
FRAME070
  6
Continuous
 62
     0
100
AcDbLine
 10
129.4999999999999
 20
13.5
 30
0.0
 11
129.4999999999999
 21
14.5
 31
0.0
  0
LINE
  5
2AB2D
330
2AACE
100
AcDbEntity
 67
     1
  8
FRAME070
  6
Continuous
 62
     0
100
AcDbLine
 10
126.5
 20
13.5
 30
0.0
 11
126.5
 21
14.5
 31
0.0
  0
LINE
  5
2AB2E
330
2AACE
100
AcDbEntity
 67
     1
  8
FRAME070
  6
Continuous
 62
     0
100
AcDbLine
 10
123.5
 20
13.5
 30
0.0
 11
123.5
 21
14.5
 31
0.0
  0
TEXT
  5
2AB2F
330
2AACE
100
AcDbEntity
 67
     1
  8
FRAME050
 62
     0
100
AcDbText
 10
144.9001716778115
 20
11.23422397146742
 30
0.0
 40
2.0
  1
記事 REV. NOTE
100
AcDbText
  0
TEXT
  5
2AB30
330
2AACE
100
AcDbEntity
 67
     1
  8
FRAME050
 62
     0
100
AcDbText
 10
200.0940491357956
 20
8.890682225609396
 30
0.0
 40
2.0
  1
DATE
 41
0.75
100
AcDbText
  0
LWPOLYLINE
  5
2AB31
330
2AACE
100
AcDbEntity
 67
     1
  8
FRAME070
 62
     0
100
AcDbPolyline
 90
        2
 70
     0
 43
0.2
 10
322.5
 20
8.5
 10
322.5
 20
48.5
  0
LINE
  5
2AB32
330
2AACE
100
AcDbEntity
 67
     1
  8
FRAME070
  6
Continuous
 62
     0
100
AcDbLine
 10
338.5
 20
9.5
 30
0.0
 11
338.5
 21
10.5
 31
0.0
  0
LINE
  5
2AB33
330
2AACE
100
AcDbEntity
 67
     1
  8
FRAME070
  6
Continuous
 62
     0
100
AcDbLine
 10
346.4999999999998
 20
9.5
 30
0.0
 11
346.4999999999998
 21
10.5
 31
0.0
  0
LINE
  5
2AB34
330
2AACE
100
AcDbEntity
 67
     1
  8
FRAME070
  6
Continuous
 62
     0
100
AcDbLine
 10
354.4999999999998
 20
9.5
 30
0.0
 11
354.4999999999998
 21
10.5
 31
0.0
  0
LINE
  5
2AB35
330
2AACE
100
AcDbEntity
 67
     1
  8
FRAME070
  6
Continuous
 62
     0
100
AcDbLine
 10
362.5
 20
9.5
 30
0.0
 11
362.5
 21
10.5
 31
0.0
  0
LINE
  5
2AB36
330
2AACE
100
AcDbEntity
 67
     1
  8
FRAME070
  6
Continuous
 62
     0
100
AcDbLine
 10
370.5
 20
9.5
 30
0.0
 11
370.5
 21
10.5
 31
0.0
  0
LINE
  5
2AB37
330
2AACE
100
AcDbEntity
 67
     1
  8
FRAME070
  6
Continuous
 62
     0
100
AcDbLine
 10
378.5
 20
9.5
 30
0.0
 11
378.5
 21
10.5
 31
0.0
  0
LINE
  5
2AB38
330
2AACE
100
AcDbEntity
 67
     1
  8
FRAME070
  6
Continuous
 62
     0
100
AcDbLine
 10
386.5
 20
8.5
 30
0.0
 11
386.5
 21
19.5
 31
0.0
  0
TEXT
  5
2AB39
330
2AACE
100
AcDbEntity
 67
     1
  8
FRAME050
 62
     0
100
AcDbText
 10
386.9540341676982
 20
17.04006356150944
 30
0.0
 40
2.0
  1
REV.
100
AcDbText
  0
TEXT
  5
2AB3A
330
2AACE
100
AcDbEntity
 67
     1
  8
FRAME050
 62
     0
100
AcDbText
 10
322.9540341676983
 20
28.04006356150944
 30
0.0
 40
2.0
  1
図面名称 TITLE
100
AcDbText
  0
TEXT
  5
2AB3B
330
2AACE
100
AcDbEntity
 67
     1
  8
FRAME050
 62
     0
100
AcDbText
 10
322.9540341676983
 20
36.04006356150943
 30
0.0
 40
2.0
  1
機種名称 MODEL
100
AcDbText
  0
TEXT
  5
2AB3C
330
2AACE
100
AcDbEntity
 67
     1
  8
FRAME050
 62
     0
100
AcDbText
 10
208.5901909056218
 20
11.1622760663145
 30
0.0
 40
2.0
  1
CHECKED
 41
0.75
100
AcDbText
  0
TEXT
  5
2AB3D
330
2AACE
100
AcDbEntity
 67
     1
  8
FRAME050
 62
     0
100
AcDbText
 10
210.0940491357955
 20
8.890682225609396
 30
0.0
 40
2.0
  1
DATE
 41
0.75
100
AcDbText
  0
TEXT
  5
2AB3E
330
2AACE
100
AcDbEntity
 67
     1
  8
FRAME050
 62
     0
100
AcDbText
 10
218.1362984154028
 20
11.1622760663145
 30
0.0
 40
2.0
  1
DESIGNED
 41
0.75
100
AcDbText
  0
TEXT
  5
2AB3F
330
2AACE
100
AcDbEntity
 67
     1
  8
FRAME050
 62
     0
100
AcDbText
 10
220.0940491357955
 20
8.890682225609396
 30
0.0
 40
2.0
  1
DATE
 41
0.75
100
AcDbText
  0
TEXT
  5
2AB40
330
2AACE
100
AcDbEntity
 67
     1
  8
FRAME050
 62
     0
100
AcDbText
 10
322.9540341676983
 20
41.04006356150943
 30
0.0
 40
2.0
  1
製品番号
100
AcDbText
  0
TEXT
  5
2AB41
330
2AACE
100
AcDbEntity
 67
     1
  8
FRAME050
 62
     0
100
AcDbText
 10
322.946794030848
 20
38.77682559924983
 30
0.0
 40
2.0
  1
PRODUCT No.
 41
0.75
100
AcDbText
  0
TEXT
  5
2AB42
330
2AACE
100
AcDbEntity
 67
     1
  8
FRAME050
 62
     0
100
AcDbText
 10
359.946794030848
 20
38.77682559924983
 30
0.0
 40
2.0
  1
PARTS No.
 41
0.75
100
AcDbText
  0
TEXT
  5
2AB43
330
2AACE
100
AcDbEntity
 67
     1
  8
FRAME050
 62
     0
100
AcDbText
 10
359.9540341676982
 20
41.04006356150943
 30
0.0
 40
2.0
  1
部品番号
100
AcDbText
  0
TEXT
  5
2AB44
330
2AACE
100
AcDbEntity
 67
     1
  8
FRAME050
 62
     0
100
AcDbText
 10
227.9540341676983
 20
41.04006356150943
 30
0.0
 40
2.0
  1
備考
100
AcDbText
  0
TEXT
  5
2AB45
330
2AACE
100
AcDbEntity
 67
     1
  8
FRAME050
 62
     0
100
AcDbText
 10
227.9467940308479
 20
38.77682559924983
 30
0.0
 40
2.0
  1
NOTE
 41
0.8
100
AcDbText
  0
TEXT
  5
2AB46
330
2AACE
100
AcDbEntity
 67
     1
  8
FRAME020
  6
Continuous
 62
     0
100
AcDbText
 10
235.0371299708803
 20
39.45424892526988
 30
0.0
 40
3.0
  1
File name／SE-37961.dwg
 41
0.8
100
AcDbText
  0
TEXT
  5
2AB47
330
2AACE
100
AcDbEntity
 67
     1
  8
FRAME050
 62
     0
100
AcDbText
 10
228.1119479770204
 20
35.30996634578797
 30
0.0
 40
2.0
  1
承認 APPROVED
100
AcDbText
  0
LINE
  5
2AB48
330
2AACE
100
AcDbEntity
 67
     1
  8
FRAME070
 62
     0
100
AcDbLine
 10
227.4999999999999
 20
34.5
 30
0.0
 11
287.5
 21
34.5
 31
0.0
  0
TEXT
  5
2AB49
330
2AACE
100
AcDbEntity
 67
     1
  8
FRAME050
 62
     0
100
AcDbText
 10
248.1119479770204
 20
35.30996634578797
 30
0.0
 40
2.0
  1
照査 CHECKED
100
AcDbText
  0
TEXT
  5
2AB4A
330
2AACE
100
AcDbEntity
 67
     1
  8
FRAME050
 62
     0
100
AcDbText
 10
268.1119479770206
 20
35.30996634578797
 30
0.0
 40
2.0
  1
設計 DESIGNED
100
AcDbText
  0
LWPOLYLINE
  5
2AB4B
330
2AACE
100
AcDbEntity
 67
     1
  8
FRAME070
 62
     0
100
AcDbPolyline
 90
        2
 70
     0
 43
0.2
 10
120.5
 20
13.5
 10
227.4999999999999
 20
13.5
  0
LWPOLYLINE
  5
2AB4C
330
2AACE
100
AcDbEntity
 67
     1
  8
FRAME070
 62
     0
100
AcDbPolyline
 90
        2
 70
     0
 43
0.2
 10
120.5
 20
8.5
 10
120.5
 20
43.5
  0
LWPOLYLINE
  5
2AB4D
330
2AACE
100
AcDbEntity
 67
     1
  8
FRAME070
 62
     0
100
AcDbPolyline
 90
        2
 70
     0
 43
0.2
 10
120.5
 20
23.5
 10
227.4999999999999
 20
23.5
  0
TEXT
  5
2AB4E
330
2AACE
100
AcDbEntity
 67
     1
  8
FRAME050
 62
     0
100
AcDbText
 10
287.946794030848
 20
38.77682559924983
 30
0.0
 40
2.0
  1
ENTRY No.
 41
0.75
100
AcDbText
  0
TEXT
  5
2AB4F
330
2AACE
100
AcDbEntity
 67
     1
  8
FRAME050
 62
     0
100
AcDbText
 10
287.9540341676983
 20
41.04006356150943
 30
0.0
 40
2.0
  1
出図番号
100
AcDbText
  0
LINE
  5
2AB50
330
2AACE
100
AcDbEntity
 67
     1
  8
FRAME070
  6
Continuous
 62
     0
100
AcDbLine
 10
298.4999999999999
 20
38.5
 30
0.0
 11
298.4999999999999
 21
39.5
 31
0.0
  0
LINE
  5
2AB51
330
2AACE
100
AcDbEntity
 67
     1
  8
FRAME070
  6
Continuous
 62
     0
100
AcDbLine
 10
301.5
 20
38.5
 30
0.0
 11
301.5
 21
39.5
 31
0.0
  0
LINE
  5
2AB52
330
2AACE
100
AcDbEntity
 67
     1
  8
FRAME070
  6
Continuous
 62
     0
100
AcDbLine
 10
307.5
 20
38.5
 30
0.0
 11
307.5
 21
39.5
 31
0.0
  0
LINE
  5
2AB53
330
2AACE
100
AcDbEntity
 67
     1
  8
FRAME070
  6
Continuous
 62
     0
100
AcDbLine
 10
304.4999999999999
 20
38.5
 30
0.0
 11
304.4999999999999
 21
39.5
 31
0.0
  0
LINE
  5
2AB54
330
2AACE
100
AcDbEntity
 67
     1
  8
FRAME070
  6
Continuous
 62
     0
100
AcDbLine
 10
316.5
 20
38.5
 30
0.0
 11
316.5
 21
39.5
 31
0.0
  0
LINE
  5
2AB55
330
2AACE
100
AcDbEntity
 67
     1
  8
FRAME070
  6
Continuous
 62
     0
100
AcDbLine
 10
310.4999999999999
 20
38.5
 30
0.0
 11
310.4999999999999
 21
39.5
 31
0.0
  0
LINE
  5
2AB56
330
2AACE
100
AcDbEntity
 67
     1
  8
FRAME070
  6
Continuous
 62
     0
100
AcDbLine
 10
313.5
 20
38.5
 30
0.0
 11
313.5
 21
39.5
 31
0.0
  0
LINE
  5
2AB57
330
2AACE
100
AcDbEntity
 67
     1
  8
FRAME070
  6
Continuous
 62
     0
100
AcDbLine
 10
319.5
 20
38.5
 30
0.0
 11
319.5
 21
39.5
 31
0.0
  0
LWPOLYLINE
  5
2AB58
330
2AACE
100
AcDbEntity
 67
     1
  8
FRAME070
 62
     0
100
AcDbPolyline
 90
        2
 70
     0
 43
0.2
 10
120.5
 20
33.5
 10
227.4999999999999
 20
33.5
  0
LINE
  5
2AB59
330
2AACE
100
AcDbEntity
 67
     1
  8
FRAME070
  6
DOT
 62
     0
 48
0.3
100
AcDbLine
 10
144.5
 20
28.5
 30
0.0
 11
227.4999999999999
 21
28.5
 31
0.0
  0
LINE
  5
2AB5A
330
2AACE
100
AcDbEntity
 67
     1
  8
FRAME070
 62
     0
100
AcDbLine
 10
120.5
 20
28.5
 30
0.0
 11
144.5
 21
28.5
 31
0.0
  0
LWPOLYLINE
  5
2AB5B
330
2AACE
100
AcDbEntity
 67
     1
  8
FRAME070
 62
     0
100
AcDbPolyline
 90
        3
 70
     1
 43
0.0
 10
123.5000254037844
 20
33.25
 10
120.901949192431
 20
28.75
 10
126.0981016151377
 20
28.75
  0
LINE
  5
2AB5C
330
2AACE
100
AcDbEntity
 67
     1
  8
FRAME070
  6
Continuous
 62
     0
100
AcDbLine
 10
141.5
 20
23.5
 30
0.0
 11
141.5
 21
24.5
 31
0.0
  0
LINE
  5
2AB5D
330
2AACE
100
AcDbEntity
 67
     1
  8
FRAME070
  6
Continuous
 62
     0
100
AcDbLine
 10
138.5
 20
23.5
 30
0.0
 11
138.5
 21
24.5
 31
0.0
  0
LINE
  5
2AB5E
330
2AACE
100
AcDbEntity
 67
     1
  8
FRAME070
  6
Continuous
 62
     0
100
AcDbLine
 10
135.4999999999999
 20
23.5
 30
0.0
 11
135.4999999999999
 21
24.5
 31
0.0
  0
LINE
  5
2AB5F
330
2AACE
100
AcDbEntity
 67
     1
  8
FRAME070
  6
Continuous
 62
     0
100
AcDbLine
 10
132.4999999999999
 20
23.5
 30
0.0
 11
132.4999999999999
 21
24.5
 31
0.0
  0
LINE
  5
2AB60
330
2AACE
100
AcDbEntity
 67
     1
  8
FRAME070
  6
Continuous
 62
     0
100
AcDbLine
 10
129.4999999999999
 20
23.5
 30
0.0
 11
129.4999999999999
 21
24.5
 31
0.0
  0
LINE
  5
2AB61
330
2AACE
100
AcDbEntity
 67
     1
  8
FRAME070
  6
Continuous
 62
     0
100
AcDbLine
 10
126.5
 20
23.5
 30
0.0
 11
126.5
 21
24.5
 31
0.0
  0
LINE
  5
2AB62
330
2AACE
100
AcDbEntity
 67
     1
  8
FRAME070
  6
Continuous
 62
     0
100
AcDbLine
 10
123.5
 20
23.5
 30
0.0
 11
123.5
 21
24.5
 31
0.0
  0
LWPOLYLINE
  5
2AB63
330
2AACE
100
AcDbEntity
 67
     1
  8
FRAME070
 62
     0
100
AcDbPolyline
 90
        2
 70
     0
 43
0.2
 10
120.5
 20
43.5
 10
227.4999999999999
 20
43.5
  0
LINE
  5
2AB64
330
2AACE
100
AcDbEntity
 67
     1
  8
FRAME070
  6
DOT
 62
     0
 48
0.3
100
AcDbLine
 10
144.5
 20
38.5
 30
0.0
 11
227.4999999999999
 21
38.5
 31
0.0
  0
LINE
  5
2AB65
330
2AACE
100
AcDbEntity
 67
     1
  8
FRAME070
 62
     0
100
AcDbLine
 10
120.5
 20
38.5
 30
0.0
 11
144.5
 21
38.5
 31
0.0
  0
LWPOLYLINE
  5
2AB66
330
2AACE
100
AcDbEntity
 67
     1
  8
FRAME070
 62
     0
100
AcDbPolyline
 90
        3
 70
     1
 43
0.0
 10
123.5000254037844
 20
43.25
 10
120.901949192431
 20
38.75
 10
126.0981016151377
 20
38.75
  0
LINE
  5
2AB67
330
2AACE
100
AcDbEntity
 67
     1
  8
FRAME070
  6
Continuous
 62
     0
100
AcDbLine
 10
141.5
 20
33.5
 30
0.0
 11
141.5
 21
34.5
 31
0.0
  0
LINE
  5
2AB68
330
2AACE
100
AcDbEntity
 67
     1
  8
FRAME070
  6
Continuous
 62
     0
100
AcDbLine
 10
138.5
 20
33.5
 30
0.0
 11
138.5
 21
34.5
 31
0.0
  0
LINE
  5
2AB69
330
2AACE
100
AcDbEntity
 67
     1
  8
FRAME070
  6
Continuous
 62
     0
100
AcDbLine
 10
135.4999999999999
 20
33.5
 30
0.0
 11
135.4999999999999
 21
34.5
 31
0.0
  0
LINE
  5
2AB6A
330
2AACE
100
AcDbEntity
 67
     1
  8
FRAME070
  6
Continuous
 62
     0
100
AcDbLine
 10
132.4999999999999
 20
33.5
 30
0.0
 11
132.4999999999999
 21
34.5
 31
0.0
  0
LINE
  5
2AB6B
330
2AACE
100
AcDbEntity
 67
     1
  8
FRAME070
  6
Continuous
 62
     0
100
AcDbLine
 10
129.4999999999999
 20
33.5
 30
0.0
 11
129.4999999999999
 21
34.5
 31
0.0
  0
LINE
  5
2AB6C
330
2AACE
100
AcDbEntity
 67
     1
  8
FRAME070
  6
Continuous
 62
     0
100
AcDbLine
 10
126.5
 20
33.5
 30
0.0
 11
126.5
 21
34.5
 31
0.0
  0
LINE
  5
2AB6D
330
2AACE
100
AcDbEntity
 67
     1
  8
FRAME070
  6
Continuous
 62
     0
100
AcDbLine
 10
123.5
 20
33.5
 30
0.0
 11
123.5
 21
34.5
 31
0.0
  0
TEXT
  5
2AB6E
330
2AACE
100
AcDbEntity
 67
     1
  8
FRAME050
 62
     0
100
AcDbText
 10
287.9540341676983
 20
12.04006356150943
 30
0.0
 40
2.0
  1
第三角法
100
AcDbText
  0
TEXT
  5
2AB6F
330
2AACE
100
AcDbEntity
 67
     1
  8
FRAME050
 62
     0
100
AcDbText
 10
287.8707664243476
 20
9.355195776903997
 30
0.0
 40
2.0
  1
third angle projection
100
AcDbText
  0
TEXT
  5
2AB70
330
2AACE
100
AcDbEntity
 67
     1
  8
FRAME050
 62
     0
100
AcDbText
 10
287.9540341676983
 20
17.04006356150944
 30
0.0
 40
2.0
  1
尺度 SCALE
100
AcDbText
  0
LWPOLYLINE
  5
2AB71
330
2AACE
100
AcDbEntity
 67
     1
  8
FRAME070
 62
     0
100
AcDbPolyline
 90
        2
 70
     0
 43
0.2
 10
315.5
 20
19.0
 10
311.5
 20
15.0
  0
TEXT
  5
2AB72
330
2AACE
100
AcDbEntity
 67
     1
  8
FRAME050
 62
     0
100
AcDbText
 10
287.9540341676983
 20
36.04006356150943
 30
0.0
 40
2.0
  1
美装 FINISH
100
AcDbText
  0
LWPOLYLINE
  5
2AB73
330
2AACE
100
AcDbEntity
 67
     1
  8
FRAME070
 62
     0
100
AcDbPolyline
 90
        2
 70
     0
 43
0.2
 10
287.5
 20
30.5
 10
394.5
 20
30.5
  0
TEXT
  5
2AB74
330
2AACE
100
AcDbEntity
 67
     1
  8
FRAME050
 62
     0
100
AcDbText
 10
287.9540341676983
 20
28.04006356150944
 30
0.0
 40
2.0
  1
材質 MATERIAL
100
AcDbText
  0
INSERT
  5
2AB75
330
2AACE
100
AcDbEntity
 67
     1
  8
FRAME025
100
AcDbBlockReference
  2
機械A4横_LBP
 10
82.74908858651452
 20
152.030959079227
 30
0.0
  0
TEXT
  5
2AB76
330
2AACE
100
AcDbEntity
 67
     1
  8
文字
  6
ByBlock
 62
     0
100
AcDbText
 10
32.81885892396519
 20
73.01882819621747
 30
0.0
 40
3.2
  1

 50
90.0
 41
0.625
  7
MSｺﾞｼｯｸ
100
AcDbText
  0
TEXT
  5
2AB77
330
2AACE
100
AcDbEntity
 67
     1
  8
文字
  6
ByBlock
 62
     0
100
AcDbText
 10
37.25020936743055
 20
73.01882819621747
 30
0.0
 40
3.2
  1

 50
90.0
 41
0.625
  7
MSｺﾞｼｯｸ
100
AcDbText
  0
TEXT
  5
2AB78
330
2AACE
100
AcDbEntity
 67
     1
  8
FRAME020
  6
Continuous
100
AcDbText
 10
126.6213117262079
 20
29.63926951973459
 30
0.0
 40
2.5
  1

 41
0.625
  7
MSｺﾞｼｯｸ
100
AcDbText
  0
TEXT
  5
2AB79
330
2AACE
100
AcDbEntity
 67
     1
  8
0
100
AcDbText
 10
324.3267890083367
 20
21.73580835247946
 30
0.0
 40
4.9
  1
マグネットベース外形図
100
AcDbText
  0
TEXT
  5
2AB7A
330
2AACE
100
AcDbEntity
 67
     1
  8
0
100
AcDbText
 10
324.703280378293
 20
10.6316829925787
 30
0.0
 40
5.4
  1
ＳＥ－５５４００Ｂ
 41
1.1
100
AcDbText
  0
MTEXT
  5
2AB7B
330
2AACE
100
AcDbEntity
 67
     1
  8
FRAME025
  6
Continuous
 62
     0
100
AcDbMText
 10
315.6494510553474
 20
18.65448824614691
 30
0.0
 40
3.0
 41
0.0
 71
     1
 72
     5
  1
1.5
  7
MSｺﾞｼｯｸ
 73
     1
 44
1.0
  0
MTEXT
  5
2AB7C
330
2AACE
100
AcDbEntity
 67
     1
  8
FRAME025
  6
Continuous
 62
     0
100
AcDbMText
 10
310.4372889330264
 20
18.65448824614691
 30
0.0
 40
3.0
 41
0.0
 71
     1
 72
     5
  1
{1}
  7
MSｺﾞｼｯｸ
 73
     1
 44
1.0
  0
TEXT
  5
2AB7D
330
2AACE
100
AcDbEntity
 67
     1
  8
FRAME025
  6
Continuous
 62
     0
100
AcDbText
 10
323.577811862269
 20
32.21805677588486
 30
0.0
 40
3.2
  1
ＮＬＡシリーズ ＭＢＮＡ２５６Ａ
 41
0.8
100
AcDbText
  0
TEXT
  5
2AB7E
330
2AACE
100
AcDbEntity
 67
     1
  8
0
  6
Continuous
100
AcDbText
 10
335.9595079223976
 20
38.88731480428301
 30
0.0
 40
3.5
  1
２４７－７４１０
 41
0.625
100
AcDbText
  0
TEXT
  5
2AB7F
330
2AACE
100
AcDbEntity
 67
     1
  8
0
100
AcDbText
 10
298.8652350702616
 20
38.96666666666598
 30
0.0
 40
3.5
  1
Ｒ１－６９７８７
 41
0.625
100
AcDbText
  0
TEXT
  5
2AB80
330
2AACE
100
AcDbEntity
 67
     1
  8
0
  6
Continuous
100
AcDbText
 10
370.9595079223977
 20
38.88731480428301
 30
0.0
 40
3.5
  1
＊＊＊－＊＊＊＊
 41
0.625
100
AcDbText
  0
LINE
  5
2AB81
330
2AACE
100
AcDbEntity
 67
     1
  8
0
370
    30
100
AcDbLine
 10
294.4959917651223
 20
23.85652742549348
 30
0.0
 11
315.9349464938346
 21
23.85652742549348
 31
0.0
  0
LWPOLYLINE
  5
2AB82
330
2AACE
100
AcDbEntity
 67
     1
  8
waku
100
AcDbPolyline
 90
        2
 70
     0
 43
0.3
 10
287.5
 20
48.5
 10
394.4999999999998
 20
48.5
  0
TEXT
  5
2AB83
330
2AACE
100
AcDbEntity
 67
     1
  8
waku
370
    15
100
AcDbText
 10
322.9540341676981
 20
46.04006356150946
 30
0.0
 40
2.0
  1
慣性モーメント
 41
0.8
100
AcDbText
  0
TEXT
  5
2AB84
330
2AACE
100
AcDbEntity
 67
     1
  8
waku
370
    15
100
AcDbText
 10
322.9467940308479
 20
43.77682559924984
 30
0.0
 40
2.0
  1
MOMENT OF INERTIA
 41
0.45
100
AcDbText
  0
TEXT
  5
2AB85
330
2AACE
100
AcDbEntity
 67
     1
  8
waku
370
    15
100
AcDbText
 10
287.9540341676981
 20
46.04006356150946
 30
0.0
 40
2.0
  1
質量
100
AcDbText
  0
TEXT
  5
2AB86
330
2AACE
100
AcDbEntity
 67
     1
  8
waku
370
    15
100
AcDbText
 10
287.9467940308479
 20
43.77682559924986
 30
0.0
 40
2.0
  1
MASS
 41
0.6800000000000001
100
AcDbText
  0
TEXT
  5
2AB87
330
2AACE
100
AcDbEntity
 67
     1
  8
wakumoji
  6
Continuous
100
AcDbText
 10
306.4695189303813
 20
44.03690111508652
 30
0.0
 40
4.0
  1
２．９
 41
0.5
100
AcDbText
  0
TEXT
  5
2AB88
330
2AACE
100
AcDbEntity
 67
     1
  8
wakumoji
  6
Continuous
100
AcDbText
 10
316.68217078115
 20
43.96666666666603
 30
0.0
 40
4.0
  1
 kg
 41
0.625
100
AcDbText
  0
TEXT
  5
2AB89
330
2AACE
100
AcDbEntity
 67
     1
  8
waku
370
    15
100
AcDbText
 10
359.9467940308478
 20
43.77682559924984
 30
0.0
 40
2.0
  1
MATERIALS No.
 41
0.45
100
AcDbText
  0
TEXT
  5
2AB8A
330
2AACE
100
AcDbEntity
 67
     1
  8
waku
370
    15
100
AcDbText
 10
359.9540341676982
 20
46.04006356150946
 30
0.0
 40
2.0
  1
材料番号
100
AcDbText
  0
TEXT
  5
2AB8B
330
2AACE
100
AcDbEntity
 67
     1
  8
wakumoji
  6
Continuous
100
AcDbText
 10
342.9493090031908
 20
44.0369017906129
 30
0.0
 40
4.0
  1
＊＊＊
 41
0.35
100
AcDbText
  0
TEXT
  5
2AB8C
330
2AACE
100
AcDbEntity
 67
     1
  8
wakumoji
  6
Continuous
100
AcDbText
 10
350.4009108244236
 20
43.96666666666597
 30
0.0
 40
4.0
  1
kg・m
 41
0.45
100
AcDbText
  0
TEXT
  5
2AB8D
330
2AACE
100
AcDbEntity
 67
     1
  8
wakumoji
  6
Continuous
100
AcDbText
 10
358.0837637376479
 20
46.25848806094696
 30
0.0
 40
2.0
  1
2
 41
0.75
100
AcDbText
  0
TEXT
  5
2AB8E
330
2AACE
100
AcDbEntity
 67
     1
  8
wakumoji
  6
Continuous
100
AcDbText
 10
370.8979155025854
 20
43.93544567886006
 30
0.0
 40
3.5
  1
＊＊＊－＊＊＊＊
 41
0.625
100
AcDbText
  0
LINE
  5
2AB8F
330
2AACE
100
AcDbEntity
 67
     1
  8
waku
  6
Continuous
100
AcDbLine
 10
370.4999999999998
 20
43.5
 30
0.0
 11
370.4999999999998
 21
44.5
 31
0.0
  0
LINE
  5
2AB90
330
2AACE
100
AcDbEntity
 67
     1
  8
waku
  6
Continuous
100
AcDbLine
 10
373.4999999999998
 20
43.5
 30
0.0
 11
373.4999999999998
 21
44.5
 31
0.0
  0
LINE
  5
2AB91
330
2AACE
100
AcDbEntity
 67
     1
  8
waku
  6
Continuous
100
AcDbLine
 10
376.4999999999998
 20
43.5
 30
0.0
 11
376.4999999999998
 21
44.5
 31
0.0
  0
LINE
  5
2AB92
330
2AACE
100
AcDbEntity
 67
     1
  8
waku
  6
Continuous
100
AcDbLine
 10
379.4999999999999
 20
43.5
 30
0.0
 11
379.4999999999999
 21
44.5
 31
0.0
  0
LINE
  5
2AB93
330
2AACE
100
AcDbEntity
 67
     1
  8
waku
  6
Continuous
100
AcDbLine
 10
382.4999999999998
 20
43.5
 30
0.0
 11
382.4999999999998
 21
44.5
 31
0.0
  0
LINE
  5
2AB94
330
2AACE
100
AcDbEntity
 67
     1
  8
waku
  6
Continuous
100
AcDbLine
 10
385.4999999999999
 20
43.5
 30
0.0
 11
385.4999999999999
 21
44.5
 31
0.0
  0
LINE
  5
2AB95
330
2AACE
100
AcDbEntity
 67
     1
  8
waku
  6
Continuous
100
AcDbLine
 10
388.4999999999998
 20
43.5
 30
0.0
 11
388.4999999999998
 21
44.5
 31
0.0
  0
LINE
  5
2AB96
330
2AACE
100
AcDbEntity
 67
     1
  8
waku
  6
Continuous
100
AcDbLine
 10
391.4999999999999
 20
43.5
 30
0.0
 11
391.4999999999999
 21
44.5
 31
0.0
  0
TEXT
  5
2AB97
330
2AACE
100
AcDbEntity
 67
     1
  8
wakumoji
  6
Continuous
100
AcDbText
 10
18.04811418863062
 20
26.09621264186365
 30
0.0
 40
2.88
  1
1.本図は、オプション（マグネットカバー）未装着です。
 41
0.9
  7
まこ
100
AcDbText
  0
LINE
  5
2AB98
330
2AACE
100
AcDbEntity
 67
     1
  8
細線
  6
Continuous
100
AcDbLine
 10
15.94763056971081
 20
25.02375113579137
 30
0.0
 11
106.2298116288242
 21
25.02375113579137
 31
0.0
  0
LINE
  5
2AB99
330
2AACE
100
AcDbEntity
 67
     1
  8
細線
  6
Continuous
100
AcDbLine
 10
15.94763056971081
 20
20.02375113579137
 30
0.0
 11
106.2298116288242
 21
20.02375113579137
 31
0.0
  0
LINE
  5
2AB9A
330
2AACE
100
AcDbEntity
 67
     1
  8
細線
  6
Continuous
100
AcDbLine
 10
15.94763056971081
 20
30.42375113579135
 30
0.0
 11
31.64447930962495
 21
30.42375113579135
 31
0.0
  0
TEXT
  5
2AB9B
330
2AACE
100
AcDbEntity
 67
     1
  8
wakumoji
  6
Continuous
100
AcDbText
 10
16.90651023126605
 20
31.84034892884091
 30
0.0
 40
2.88
  1
注　　記
  7
まこ
100
AcDbText
  0
TEXT
  5
2ABB8
330
2AACE
100
AcDbEntity
 67
     1
  8
wakumoji
  6
Continuous
100
AcDbText
 10
18.04811418863062
 20
21.09621264186365
 30
0.0
 40
2.88
  1
  マグネットカバーを付けた場合は、マグネットベースの
 41
0.9
  7
まこ
100
AcDbText
  0
TEXT
  5
2ABB9
330
2AACE
100
AcDbEntity
 67
     1
  8
wakumoji
  6
Continuous
100
AcDbText
 10
18.04811418863062
 20
16.09621264186365
 30
0.0
 40
2.88
  1
  全高は13mm、ギャップは1mmになります。
 41
0.9
  7
まこ
100
AcDbText
  0
LINE
  5
2ABBA
330
2AACE
100
AcDbEntity
 67
     1
  8
細線
  6
Continuous
100
AcDbLine
 10
15.94763056971081
 20
15.02375113579137
 30
0.0
 11
106.2298116288242
 21
15.02375113579137
 31
0.0
  0
TEXT
  5
2ABBB
330
2AACE
100
AcDbEntity
 67
     1
  8
wakumoji
100
AcDbText
 10
235.0371299708803
 20
39.45424892526989
 30
0.0
 40
3.0
  1
File name／SE-55400B.dwg
100
AcDbText
  0
LINE
  5
2BAA5
330
2AACE
100
AcDbEntity
 67
     1
  8
0
370
    30
100
AcDbLine
 10
294.4959917651223
 20
33.16999223307118
 30
0.0
 11
315.9349464938346
 21
33.16999223307118
 31
0.0
  0
ENDSEC
  0
SECTION
  2
OBJECTS
  0
DICTIONARY
  5
C
330
0
100
AcDbDictionary
281
     1
  3
ACAD_GROUP
350
D
  3
ACAD_LAYOUT
350
DB2
  3
ACAD_MLINESTYLE
350
1B
  3
ACAD_PLOTSETTINGS
350
DB3
  3
ACAD_PLOTSTYLENAME
350
FB5B
  3
AcadDim
350
2A25C
  3
AcDbVariableDictionary
350
106A6
  3
ASE_INDEX_DICTIONARY
350
1A99F
  3
DWGPROPS
350
15EC9
1001
ACAD
1000
TREAT_AS_HARD
1070
     0
  0
DICTIONARY
  5
25084
330
2
100
AcDbDictionary
280
     1
281
     1
  3
ACAD_LAYERFILTERS
360
25085
  3
ACAD_LAYERSTATES
360
25092
  0
DICTIONARY
  5
EFC6
330
18
100
AcDbDictionary
280
     1
281
     1
  0
DICTIONARY
  5
2ABBC
330
2AACE
100
AcDbDictionary
280
     1
281
     1
  0
DICTIONARY
  5
D
102
{ACAD_REACTORS
330
C
102
}
330
C
100
AcDbDictionary
281
     1
  3
*A1
350
AC8A
  3
*A10
350
24A43
  3
*A100
350
18F23
  3
*A101
350
1D6FC
  3
*A102
350
24A11
  3
*A103
350
1F91D
  3
*A104
350
240EE
  3
*A105
350
29571
  3
*A106
350
23BB3
  3
*A107
350
2694C
  3
*A108
350
24A4F
  3
*A109
350
24719
  3
*A11
350
24AD4
  3
*A110
350
24730
  3
*A111
350
25E83
  3
*A112
350
24723
  3
*A113
350
173BE
  3
*A114
350
173BF
  3
*A115
350
242D1
  3
*A116
350
19729
  3
*A117
350
24AC2
  3
*A118
350
19AA4
  3
*A119
350
24A74
  3
*A12
350
20209
  3
*A120
350
23BB4
  3
*A121
350
28E1A
  3
*A122
350
26901
  3
*A123
350
249F3
  3
*A124
350
22498
  3
*A125
350
2020E
  3
*A126
350
274AB
  3
*A127
350
28E14
  3
*A128
350
19F87
  3
*A129
350
2472C
  3
*A13
350
240EF
  3
*A130
350
25300
  3
*A131
350
27F1B
  3
*A132
350
20022
  3
*A133
350
27F13
  3
*A134
350
196C2
  3
*A135
350
16068
  3
*A136
350
19F55
  3
*A137
350
1EB7E
  3
*A138
350
24A92
  3
*A139
350
106C6
  3
*A14
350
28E17
  3
*A140
350
16069
  3
*A141
350
24ABC
  3
*A142
350
27BB7
  3
*A143
350
24A8C
  3
*A144
350
2001F
  3
*A145
350
1A692
  3
*A146
350
25E7E
  3
*A147
350
19259
  3
*A148
350
19A52
  3
*A149
350
2A739
  3
*A15
350
242AF
  3
*A150
350
1F8F0
  3
*A151
350
18F22
  3
*A152
350
242B6
  3
*A153
350
24A4B
  3
*A154
350
24A68
  3
*A155
350
20028
  3
*A156
350
242D8
  3
*A157
350
19A51
  3
*A158
350
29244
  3
*A159
350
249FB
  3
*A16
350
24A98
  3
*A160
350
242B5
  3
*A161
350
24B04
  3
*A162
350
25E84
  3
*A163
350
24AB6
  3
*A164
350
1A09A
  3
*A165
350
26964
  3
*A166
350
27F10
  3
*A167
350
240F0
  3
*A168
350
28E19
  3
*A169
350
2471C
  3
*A17
350
106C7
  3
*A170
350
19794
  3
*A171
350
2A73A
  3
*A172
350
274AC
  3
*A173
350
25F19
  3
*A174
350
27F14
  3
*A175
350
274FC
  3
*A176
350
215A2
  3
*A177
350
29603
  3
*A178
350
1B744
  3
*A179
350
24B0A
  3
*A18
350
242D2
  3
*A180
350
19FAB
  3
*A181
350
ACA1
  3
*A182
350
24914
  3
*A183
350
1D6AC
  3
*A184
350
22AAC
  3
*A185
350
24A47
  3
*A186
350
24A03
  3
*A187
350
FC9A
  3
*A188
350
24A18
  3
*A189
350
20013
  3
*A19
350
23BB2
  3
*A190
350
24A17
  3
*A191
350
240F1
  3
*A192
350
20CA2
  3
*A193
350
18FA8
  3
*A194
350
242DF
  3
*A195
350
24AF2
  3
*A196
350
20213
  3
*A197
350
24A0A
  3
*A198
350
1D670
  3
*A199
350
AC9A
  3
*A2
350
18FA6
  3
*A20
350
20218
  3
*A200
350
2471A
  3
*A201
350
25282
  3
*A202
350
FC91
  3
*A203
350
106B3
  3
*A204
350
249FA
  3
*A205
350
242BC
  3
*A206
350
242E7
  3
*A207
350
2472B
  3
*A208
350
27F0F
  3
*A209
350
173BD
  3
*A21
350
28AEE
  3
*A210
350
1D6D4
  3
*A211
350
24AC8
  3
*A212
350
23A77
  3
*A213
350
20236
  3
*A214
350
27F19
  3
*A215
350
242CB
  3
*A216
350
2A73B
  3
*A217
350
2001C
  3
*A218
350
1D67A
  3
*A219
350
28E7F
  3
*A22
350
19989
  3
*A220
350
22E4B
  3
*A221
350
24A1E
  3
*A222
350
242BD
  3
*A223
350
1738B
  3
*A224
350
274AD
  3
*A225
350
29574
  3
*A226
350
24717
  3
*A227
350
19A5A
  3
*A228
350
FB6B
  3
*A229
350
19A86
  3
*A23
350
25B65
  3
*A230
350
242C4
  3
*A231
350
26FD9
  3
*A232
350
23CC3
  3
*A233
350
FC9B
  3
*A234
350
20025
  3
*A235
350
1D6DE
  3
*A236
350
1998A
  3
*A237
350
1D6C0
  3
*A238
350
19255
  3
*A239
350
28AF0
  3
*A24
350
1A695
  3
*A240
350
1D6E8
  3
*A241
350
2A73F
  3
*A242
350
25E80
  3
*A243
350
19786
  3
*A244
350
2472F
  3
*A245
350
2A73D
  3
*A246
350
18F1F
  3
*A247
350
24718
  3
*A248
350
24A4D
  3
*A249
350
2812F
  3
*A25
350
242C3
  3
*A250
350
20CA6
  3
*A251
350
270B1
  3
*A252
350
28E16
  3
*A253
350
29576
  3
*A254
350
26962
  3
*A255
350
24ACE
  3
*A256
350
19F67
  3
*A257
350
24722
  3
*A258
350
24726
  3
*A259
350
24A4E
  3
*A26
350
26FD7
  3
*A260
350
1D706
  3
*A261
350
2867F
  3
*A262
350
254C6
  3
*A263
350
24A45
  3
*A264
350
26FD8
  3
*A265
350
2A740
  3
*A266
350
28680
  3
*A267
350
1D6B6
  3
*A268
350
24A9E
  3
*A269
350
2244A
  3
*A27
350
24728
  3
*A270
350
25E7F
  3
*A271
350
1F918
  3
*A272
350
2472E
  3
*A273
350
1606A
  3
*A274
350
1D684
  3
*A275
350
ACA2
  3
*A276
350
18F21
  3
*A277
350
242E6
  3
*A278
350
2A815
  3
*A279
350
1EB7F
  3
*A28
350
252FE
  3
*A280
350
17389
  3
*A281
350
FC95
  3
*A282
350
2021D
  3
*A283
350
274A9
  3
*A284
350
24AE6
  3
*A285
350
23CC4
  3
*A286
350
ACAB
  3
*A287
350
24A1F
  3
*A288
350
27F11
  3
*A289
350
19787
  3
*A29
350
25346
  3
*A290
350
1B73B
  3
*A291
350
24A09
  3
*A292
350
24720
  3
*A293
350
169DA
  3
*A294
350
24AAA
  3
*A295
350
25510
  3
*A296
350
2A803
  3
*A297
350
24A80
  3
*A298
350
24A4A
  3
*A299
350
2471D
  3
*A3
350
24A50
  3
*A30
350
295C8
  3
*A300
350
2022C
  3
*A301
350
2A89F
  3
*A302
350
24A86
  3
*A303
350
2A8A6
  3
*A304
350
224D1
  3
*A305
350
2698A
  3
*A306
350
252FF
  3
*A307
350
24724
  3
*A308
350
FCB8
  3
*A309
350
29241
  3
*A31
350
28E13
  3
*A310
350
24913
  3
*A311
350
25E81
  3
*A312
350
FB6C
  3
*A313
350
2471E
  3
*A314
350
26989
  3
*A315
350
17B11
  3
*A316
350
1F8F5
  3
*A317
350
28101
  3
*A318
350
24721
  3
*A319
350
24A44
  3
*A32
350
24AB0
  3
*A320
350
24A62
  3
*A321
350
24A49
  3
*A322
350
274FD
  3
*A323
350
29240
  3
*A324
350
29245
  3
*A325
350
17901
  3
*A326
350
24AF8
  3
*A327
350
2471F
  3
*A328
350
1B756
  3
*A329
350
ACBD
  3
*A33
350
25E82
  3
*A330
350
2002B
  3
*A331
350
242AE
  3
*A332
350
24B44
  3
*A333
350
1F8FA
  3
*A334
350
267CB
  3
*A335
350
2A738
  3
*A336
350
28E67
  3
*A337
350
24AE0
  3
*A338
350
1D6F2
  3
*A339
350
20222
  3
*A34
350
2472D
  3
*A340
350
ACB4
  3
*A341
350
19F99
  3
*A342
350
1B729
  3
*A343
350
1D6A2
  3
*A344
350
1D698
  3
*A345
350
198F1
  3
*A346
350
26FD6
  3
*A347
350
24AEC
  3
*A348
350
28AF1
  3
*A349
350
24A02
  3
*A35
350
1D710
  3
*A350
350
19881
  3
*A351
350
1F8FF
  3
*A352
350
18F20
  3
*A353
350
2956F
  3
*A354
350
24A10
  3
*A355
350
20227
  3
*A356
350
1F909
  3
*A357
350
16059
  3
*A358
350
24A6E
  3
*A359
350
2698B
  3
*A36
350
24ADA
  3
*A360
350
1A691
  3
*A361
350
242E0
  3
*A362
350
2472A
  3
*A363
350
224AC
  3
*A37
350
16058
  3
*A38
350
1B720
  3
*A39
350
24A7A
  3
*A4
350
24AA4
  3
*A40
350
1D6CA
  3
*A41
350
2A73C
  3
*A42
350
20010
  3
*A43
350
2A73E
  3
*A44
350
20231
  3
*A45
350
24A5C
  3
*A46
350
24AFE
  3
*A47
350
24A46
  3
*A48
350
2923F
  3
*A49
350
1606B
  3
*A5
350
232CA
  3
*A50
350
19256
  3
*A51
350
240F2
  3
*A52
350
18FA7
  3
*A53
350
242A7
  3
*A54
350
227B2
  3
*A55
350
1D68E
  3
*A56
350
1EB80
  3
*A57
350
274AA
  3
*A58
350
20019
  3
*A59
350
1EB7C
  3
*A6
350
1F913
  3
*A60
350
227B1
  3
*A61
350
242A8
  3
*A62
350
240ED
  3
*A63
350
242D9
  3
*A64
350
24B32
  3
*A65
350
25388
  3
*A66
350
28AF3
  3
*A67
350
19861
  3
*A68
350
1AA94
  3
*A69
350
27F12
  3
*A7
350
1F904
  3
*A70
350
24B56
  3
*A71
350
1F90E
  3
*A72
350
1EB7D
  3
*A73
350
249F2
  3
*A74
350
24A48
  3
*A75
350
24727
  3
*A76
350
25BC1
  3
*A77
350
26FD5
  3
*A78
350
1738A
  3
*A79
350
29572
  3
*A8
350
1B732
  3
*A80
350
17BFF
  3
*A81
350
27F1A
  3
*A82
350
29573
  3
*A83
350
1B74D
  3
*A84
350
24729
  3
*A85
350
2471B
  3
*A86
350
24725
  3
*A87
350
274FB
  3
*A88
350
28AEF
  3
*A89
350
FBFF
  3
*A9
350
23CC2
  3
*A90
350
2693F
  3
*A91
350
28AF4
  3
*A92
350
24B10
  3
*A93
350
251F4
  3
*A94
350
19988
  3
*A95
350
20016
  3
*A96
350
242CA
  3
*A97
350
24A4C
  3
*A98
350
274A8
  3
*A99
350
106A5
1001
ACAD
1000
TREAT_AS_HARD
1070
     0
  0
DICTIONARY
  5
DB2
102
{ACAD_REACTORS
330
C
102
}
330
C
100
AcDbDictionary
281
     1
  3
Model
350
FB5D
  3
ｺｱ付きN256ﾏｸﾞﾈｯﾄ図
350
2ABBF
1001
ACAD
1000
TREAT_AS_HARD
1070
     0
  0
DICTIONARY
  5
1B
102
{ACAD_REACTORS
330
C
102
}
330
C
100
AcDbDictionary
281
     1
  3
STANDARD
350
1C
1001
ACAD
1000
TREAT_AS_HARD
1070
     0
  0
DICTIONARY
  5
DB3
102
{ACAD_REACTORS
330
C
102
}
330
C
100
AcDbDictionary
281
     1
1001
ACAD
1000
TREAT_AS_HARD
1070
     0
  0
ACDBDICTIONARYWDFLT
  5
FB5B
102
{ACAD_REACTORS
330
C
102
}
330
C
100
AcDbDictionary
281
     1
  3
Normal
350
FB5C
100
AcDbDictionaryWithDefault
340
FB5C
  0
XRECORD
  5
2A25C
102
{ACAD_REACTORS
330
C
102
}
330
C
100
AcDbXrecord
280
     1
 90
   990106
  3

 60
     0
 61
     0
 62
     4
 63
     4
 64
     1
 65
     0
 66
     0
 67
     3
 68
     1
 69
     0
 70
     0
 71
     0
 72
     0
 40
0.0
170
     2
340
0
  0
DICTIONARY
  5
106A6
102
{ACAD_REACTORS
330
C
102
}
330
C
100
AcDbDictionary
281
     1
  3
SORTENTS
350
106A7
  0
DICTIONARY
  5
1A99F
102
{ACAD_REACTORS
330
C
102
}
330
C
100
AcDbDictionary
281
     1
  3
ASEBlockHierarchyIndexRecord
350
1A9A1
1001
DCO15
1040
1464612067.17
  0
XRECORD
  5
15EC9
102
{ACAD_REACTORS
330
C
102
}
330
C
100
AcDbXrecord
280
     1
  1
DWGPROPS COOKIE
  2

  3

  4

  6

  7

  8

  9

300
=
301
=
302
=
303
=
304
=
305
=
306
=
307
=
308
=
309
=
 40
12.65185717592592
 41
2451224.660162384
 42
2452395.660827315
  1

 90
        0
  0
DICTIONARY
  5
25085
102
{ACAD_REACTORS
330
25084
102
}
330
25084
100
AcDbDictionary
280
     1
281
     1
  3
0
360
2BB1C
  3
11
360
2BB1D
  3
150_
360
2BB1E
  3
160_
360
2BB1F
  3
170_
360
2BB20
  3
171_
360
2BB21
  3
350_
360
2BB22
  3
4
360
2BB23
  3
5
360
2BB24
  3
7
360
2BB25
  3
kiseki
360
2BB26
  0
DICTIONARY
  5
25092
102
{ACAD_REACTORS
330
25084
102
}
330
25084
100
AcDbDictionary
281
     1
  0
GROUP
  5
AC8A
102
{ACAD_REACTORS
330
D
102
}
330
D
100
AcDbGroup
300

 70
     1
 71
     1
  0
GROUP
  5
24A43
102
{ACAD_REACTORS
330
D
102
}
330
D
100
AcDbGroup
300

 70
     1
 71
     1
  0
GROUP
  5
18F23
102
{ACAD_REACTORS
330
D
102
}
330
D
100
AcDbGroup
300

 70
     1
 71
     1
  0
GROUP
  5
1D6FC
102
{ACAD_REACTORS
330
D
102
}
330
D
100
AcDbGroup
300

 70
     1
 71
     1
  0
GROUP
  5
24A11
102
{ACAD_REACTORS
330
D
102
}
330
D
100
AcDbGroup
300

 70
     1
 71
     1
  0
GROUP
  5
1F91D
102
{ACAD_REACTORS
330
D
102
}
330
D
100
AcDbGroup
300

 70
     1
 71
     1
  0
GROUP
  5
240EE
102
{ACAD_REACTORS
330
D
102
}
330
D
100
AcDbGroup
300

 70
     1
 71
     1
  0
GROUP
  5
29571
102
{ACAD_REACTORS
330
D
102
}
330
D
100
AcDbGroup
300

 70
     1
 71
     1
  0
GROUP
  5
23BB3
102
{ACAD_REACTORS
330
D
102
}
330
D
100
AcDbGroup
300

 70
     1
 71
     1
  0
GROUP
  5
2694C
102
{ACAD_REACTORS
330
D
102
}
330
D
100
AcDbGroup
300

 70
     1
 71
     1
  0
GROUP
  5
24A4F
102
{ACAD_REACTORS
330
D
102
}
330
D
100
AcDbGroup
300

 70
     1
 71
     1
  0
GROUP
  5
24719
102
{ACAD_REACTORS
330
D
102
}
330
D
100
AcDbGroup
300

 70
     1
 71
     1
  0
GROUP
  5
24AD4
102
{ACAD_REACTORS
330
D
102
}
330
D
100
AcDbGroup
300

 70
     1
 71
     1
  0
GROUP
  5
24730
102
{ACAD_REACTORS
330
D
102
}
330
D
100
AcDbGroup
300

 70
     1
 71
     1
  0
GROUP
  5
25E83
102
{ACAD_REACTORS
330
D
102
}
330
D
100
AcDbGroup
300

 70
     1
 71
     1
  0
GROUP
  5
24723
102
{ACAD_REACTORS
330
D
102
}
330
D
100
AcDbGroup
300

 70
     1
 71
     1
  0
GROUP
  5
173BE
102
{ACAD_REACTORS
330
D
102
}
330
D
100
AcDbGroup
300

 70
     1
 71
     1
  0
GROUP
  5
173BF
102
{ACAD_REACTORS
330
D
102
}
330
D
100
AcDbGroup
300

 70
     1
 71
     1
  0
GROUP
  5
242D1
102
{ACAD_REACTORS
330
D
102
}
330
D
100
AcDbGroup
300

 70
     1
 71
     1
  0
GROUP
  5
19729
102
{ACAD_REACTORS
330
D
102
}
330
D
100
AcDbGroup
300

 70
     1
 71
     1
  0
GROUP
  5
24AC2
102
{ACAD_REACTORS
330
D
102
}
330
D
100
AcDbGroup
300

 70
     1
 71
     1
  0
GROUP
  5
19AA4
102
{ACAD_REACTORS
330
D
102
}
330
D
100
AcDbGroup
300

 70
     1
 71
     1
  0
GROUP
  5
24A74
102
{ACAD_REACTORS
330
D
102
}
330
D
100
AcDbGroup
300

 70
     1
 71
     1
  0
GROUP
  5
20209
102
{ACAD_REACTORS
330
D
102
}
330
D
100
AcDbGroup
300

 70
     1
 71
     1
  0
GROUP
  5
23BB4
102
{ACAD_REACTORS
330
D
102
}
330
D
100
AcDbGroup
300

 70
     1
 71
     1
  0
GROUP
  5
28E1A
102
{ACAD_REACTORS
330
D
102
}
330
D
100
AcDbGroup
300

 70
     1
 71
     1
  0
GROUP
  5
26901
102
{ACAD_REACTORS
330
D
102
}
330
D
100
AcDbGroup
300

 70
     1
 71
     1
  0
GROUP
  5
249F3
102
{ACAD_REACTORS
330
D
102
}
330
D
100
AcDbGroup
300

 70
     1
 71
     1
  0
GROUP
  5
22498
102
{ACAD_REACTORS
330
D
102
}
330
D
100
AcDbGroup
300

 70
     1
 71
     1
  0
GROUP
  5
2020E
102
{ACAD_REACTORS
330
D
102
}
330
D
100
AcDbGroup
300

 70
     1
 71
     1
  0
GROUP
  5
274AB
102
{ACAD_REACTORS
330
D
102
}
330
D
100
AcDbGroup
300

 70
     1
 71
     1
  0
GROUP
  5
28E14
102
{ACAD_REACTORS
330
D
102
}
330
D
100
AcDbGroup
300

 70
     1
 71
     1
  0
GROUP
  5
19F87
102
{ACAD_REACTORS
330
D
102
}
330
D
100
AcDbGroup
300

 70
     1
 71
     1
  0
GROUP
  5
2472C
102
{ACAD_REACTORS
330
D
102
}
330
D
100
AcDbGroup
300

 70
     1
 71
     1
  0
GROUP
  5
240EF
102
{ACAD_REACTORS
330
D
102
}
330
D
100
AcDbGroup
300

 70
     1
 71
     1
  0
GROUP
  5
25300
102
{ACAD_REACTORS
330
D
102
}
330
D
100
AcDbGroup
300

 70
     1
 71
     1
  0
GROUP
  5
27F1B
102
{ACAD_REACTORS
330
D
102
}
330
D
100
AcDbGroup
300

 70
     1
 71
     1
  0
GROUP
  5
20022
102
{ACAD_REACTORS
330
D
102
}
330
D
100
AcDbGroup
300

 70
     1
 71
     1
  0
GROUP
  5
27F13
102
{ACAD_REACTORS
330
D
102
}
330
D
100
AcDbGroup
300

 70
     1
 71
     1
  0
GROUP
  5
196C2
102
{ACAD_REACTORS
330
D
102
}
330
D
100
AcDbGroup
300

 70
     1
 71
     1
  0
GROUP
  5
16068
102
{ACAD_REACTORS
330
D
102
}
330
D
100
AcDbGroup
300

 70
     1
 71
     1
  0
GROUP
  5
19F55
102
{ACAD_REACTORS
330
D
102
}
330
D
100
AcDbGroup
300

 70
     1
 71
     1
  0
GROUP
  5
1EB7E
102
{ACAD_REACTORS
330
D
102
}
330
D
100
AcDbGroup
300

 70
     1
 71
     1
  0
GROUP
  5
24A92
102
{ACAD_REACTORS
330
D
102
}
330
D
100
AcDbGroup
300

 70
     1
 71
     1
  0
GROUP
  5
106C6
102
{ACAD_REACTORS
330
D
102
}
330
D
100
AcDbGroup
300

 70
     1
 71
     1
  0
GROUP
  5
28E17
102
{ACAD_REACTORS
330
D
102
}
330
D
100
AcDbGroup
300

 70
     1
 71
     1
  0
GROUP
  5
16069
102
{ACAD_REACTORS
330
D
102
}
330
D
100
AcDbGroup
300

 70
     1
 71
     1
  0
GROUP
  5
24ABC
102
{ACAD_REACTORS
330
D
102
}
330
D
100
AcDbGroup
300

 70
     1
 71
     1
  0
GROUP
  5
27BB7
102
{ACAD_REACTORS
330
D
102
}
330
D
100
AcDbGroup
300

 70
     1
 71
     1
  0
GROUP
  5
24A8C
102
{ACAD_REACTORS
330
D
102
}
330
D
100
AcDbGroup
300

 70
     1
 71
     1
  0
GROUP
  5
2001F
102
{ACAD_REACTORS
330
D
102
}
330
D
100
AcDbGroup
300

 70
     1
 71
     1
  0
GROUP
  5
1A692
102
{ACAD_REACTORS
330
D
102
}
330
D
100
AcDbGroup
300

 70
     1
 71
     1
  0
GROUP
  5
25E7E
102
{ACAD_REACTORS
330
D
102
}
330
D
100
AcDbGroup
300

 70
     1
 71
     1
  0
GROUP
  5
19259
102
{ACAD_REACTORS
330
D
102
}
330
D
100
AcDbGroup
300

 70
     1
 71
     1
  0
GROUP
  5
19A52
102
{ACAD_REACTORS
330
D
102
}
330
D
100
AcDbGroup
300

 70
     1
 71
     1
  0
GROUP
  5
2A739
102
{ACAD_REACTORS
330
D
102
}
330
D
100
AcDbGroup
300

 70
     1
 71
     1
  0
GROUP
  5
242AF
102
{ACAD_REACTORS
330
D
102
}
330
D
100
AcDbGroup
300

 70
     1
 71
     1
  0
GROUP
  5
1F8F0
102
{ACAD_REACTORS
330
D
102
}
330
D
100
AcDbGroup
300

 70
     1
 71
     1
  0
GROUP
  5
18F22
102
{ACAD_REACTORS
330
D
102
}
330
D
100
AcDbGroup
300

 70
     1
 71
     1
  0
GROUP
  5
242B6
102
{ACAD_REACTORS
330
D
102
}
330
D
100
AcDbGroup
300

 70
     1
 71
     1
  0
GROUP
  5
24A4B
102
{ACAD_REACTORS
330
D
102
}
330
D
100
AcDbGroup
300

 70
     1
 71
     1
  0
GROUP
  5
24A68
102
{ACAD_REACTORS
330
D
102
}
330
D
100
AcDbGroup
300

 70
     1
 71
     1
  0
GROUP
  5
20028
102
{ACAD_REACTORS
330
D
102
}
330
D
100
AcDbGroup
300

 70
     1
 71
     1
  0
GROUP
  5
242D8
102
{ACAD_REACTORS
330
D
102
}
330
D
100
AcDbGroup
300

 70
     1
 71
     1
  0
GROUP
  5
19A51
102
{ACAD_REACTORS
330
D
102
}
330
D
100
AcDbGroup
300

 70
     1
 71
     1
  0
GROUP
  5
29244
102
{ACAD_REACTORS
330
D
102
}
330
D
100
AcDbGroup
300

 70
     1
 71
     1
  0
GROUP
  5
249FB
102
{ACAD_REACTORS
330
D
102
}
330
D
100
AcDbGroup
300

 70
     1
 71
     1
  0
GROUP
  5
24A98
102
{ACAD_REACTORS
330
D
102
}
330
D
100
AcDbGroup
300

 70
     1
 71
     1
  0
GROUP
  5
242B5
102
{ACAD_REACTORS
330
D
102
}
330
D
100
AcDbGroup
300

 70
     1
 71
     1
  0
GROUP
  5
24B04
102
{ACAD_REACTORS
330
D
102
}
330
D
100
AcDbGroup
300

 70
     1
 71
     1
  0
GROUP
  5
25E84
102
{ACAD_REACTORS
330
D
102
}
330
D
100
AcDbGroup
300

 70
     1
 71
     1
  0
GROUP
  5
24AB6
102
{ACAD_REACTORS
330
D
102
}
330
D
100
AcDbGroup
300

 70
     1
 71
     1
  0
GROUP
  5
1A09A
102
{ACAD_REACTORS
330
D
102
}
330
D
100
AcDbGroup
300

 70
     1
 71
     1
  0
GROUP
  5
26964
102
{ACAD_REACTORS
330
D
102
}
330
D
100
AcDbGroup
300

 70
     1
 71
     1
  0
GROUP
  5
27F10
102
{ACAD_REACTORS
330
D
102
}
330
D
100
AcDbGroup
300

 70
     1
 71
     1
  0
GROUP
  5
240F0
102
{ACAD_REACTORS
330
D
102
}
330
D
100
AcDbGroup
300

 70
     1
 71
     1
  0
GROUP
  5
28E19
102
{ACAD_REACTORS
330
D
102
}
330
D
100
AcDbGroup
300

 70
     1
 71
     1
  0
GROUP
  5
2471C
102
{ACAD_REACTORS
330
D
102
}
330
D
100
AcDbGroup
300

 70
     1
 71
     1
  0
GROUP
  5
106C7
102
{ACAD_REACTORS
330
D
102
}
330
D
100
AcDbGroup
300

 70
     1
 71
     1
  0
GROUP
  5
19794
102
{ACAD_REACTORS
330
D
102
}
330
D
100
AcDbGroup
300

 70
     1
 71
     1
  0
GROUP
  5
2A73A
102
{ACAD_REACTORS
330
D
102
}
330
D
100
AcDbGroup
300

 70
     1
 71
     1
  0
GROUP
  5
274AC
102
{ACAD_REACTORS
330
D
102
}
330
D
100
AcDbGroup
300

 70
     1
 71
     1
  0
GROUP
  5
25F19
102
{ACAD_REACTORS
330
D
102
}
330
D
100
AcDbGroup
300

 70
     1
 71
     1
  0
GROUP
  5
27F14
102
{ACAD_REACTORS
330
D
102
}
330
D
100
AcDbGroup
300

 70
     1
 71
     1
  0
GROUP
  5
274FC
102
{ACAD_REACTORS
330
D
102
}
330
D
100
AcDbGroup
300

 70
     1
 71
     1
  0
GROUP
  5
215A2
102
{ACAD_REACTORS
330
D
102
}
330
D
100
AcDbGroup
300

 70
     1
 71
     1
  0
GROUP
  5
29603
102
{ACAD_REACTORS
330
D
102
}
330
D
100
AcDbGroup
300

 70
     1
 71
     1
340
29602
340
29601
340
29600
340
295FF
340
295FE
340
295FD
340
295FC
340
295FB
340
295FA
340
295F9
340
295F8
340
295F7
340
295F6
340
295F5
340
295F4
  0
GROUP
  5
1B744
102
{ACAD_REACTORS
330
D
102
}
330
D
100
AcDbGroup
300

 70
     1
 71
     1
  0
GROUP
  5
24B0A
102
{ACAD_REACTORS
330
D
102
}
330
D
100
AcDbGroup
300

 70
     1
 71
     1
  0
GROUP
  5
242D2
102
{ACAD_REACTORS
330
D
102
}
330
D
100
AcDbGroup
300

 70
     1
 71
     1
  0
GROUP
  5
19FAB
102
{ACAD_REACTORS
330
D
102
}
330
D
100
AcDbGroup
300

 70
     1
 71
     1
  0
GROUP
  5
ACA1
102
{ACAD_REACTORS
330
D
102
}
330
D
100
AcDbGroup
300

 70
     1
 71
     1
  0
GROUP
  5
24914
102
{ACAD_REACTORS
330
D
102
}
330
D
100
AcDbGroup
300

 70
     1
 71
     1
  0
GROUP
  5
1D6AC
102
{ACAD_REACTORS
330
D
102
}
330
D
100
AcDbGroup
300

 70
     1
 71
     1
  0
GROUP
  5
22AAC
102
{ACAD_REACTORS
330
D
102
}
330
D
100
AcDbGroup
300

 70
     1
 71
     1
  0
GROUP
  5
24A47
102
{ACAD_REACTORS
330
D
102
}
330
D
100
AcDbGroup
300

 70
     1
 71
     1
  0
GROUP
  5
24A03
102
{ACAD_REACTORS
330
D
102
}
330
D
100
AcDbGroup
300

 70
     1
 71
     1
  0
GROUP
  5
FC9A
102
{ACAD_REACTORS
330
D
102
}
330
D
100
AcDbGroup
300

 70
     1
 71
     1
  0
GROUP
  5
24A18
102
{ACAD_REACTORS
330
D
102
}
330
D
100
AcDbGroup
300

 70
     1
 71
     1
  0
GROUP
  5
20013
102
{ACAD_REACTORS
330
D
102
}
330
D
100
AcDbGroup
300

 70
     1
 71
     1
  0
GROUP
  5
23BB2
102
{ACAD_REACTORS
330
D
102
}
330
D
100
AcDbGroup
300

 70
     1
 71
     1
  0
GROUP
  5
24A17
102
{ACAD_REACTORS
330
D
102
}
330
D
100
AcDbGroup
300

 70
     1
 71
     1
  0
GROUP
  5
240F1
102
{ACAD_REACTORS
330
D
102
}
330
D
100
AcDbGroup
300

 70
     1
 71
     1
  0
GROUP
  5
20CA2
102
{ACAD_REACTORS
330
D
102
}
330
D
100
AcDbGroup
300

 70
     1
 71
     1
  0
GROUP
  5
18FA8
102
{ACAD_REACTORS
330
D
102
}
330
D
100
AcDbGroup
300

 70
     1
 71
     1
  0
GROUP
  5
242DF
102
{ACAD_REACTORS
330
D
102
}
330
D
100
AcDbGroup
300

 70
     1
 71
     1
  0
GROUP
  5
24AF2
102
{ACAD_REACTORS
330
D
102
}
330
D
100
AcDbGroup
300

 70
     1
 71
     1
  0
GROUP
  5
20213
102
{ACAD_REACTORS
330
D
102
}
330
D
100
AcDbGroup
300

 70
     1
 71
     1
  0
GROUP
  5
24A0A
102
{ACAD_REACTORS
330
D
102
}
330
D
100
AcDbGroup
300

 70
     1
 71
     1
  0
GROUP
  5
1D670
102
{ACAD_REACTORS
330
D
102
}
330
D
100
AcDbGroup
300

 70
     1
 71
     1
  0
GROUP
  5
AC9A
102
{ACAD_REACTORS
330
D
102
}
330
D
100
AcDbGroup
300

 70
     1
 71
     1
  0
GROUP
  5
18FA6
102
{ACAD_REACTORS
330
D
102
}
330
D
100
AcDbGroup
300

 70
     1
 71
     1
  0
GROUP
  5
20218
102
{ACAD_REACTORS
330
D
102
}
330
D
100
AcDbGroup
300

 70
     1
 71
     1
  0
GROUP
  5
2471A
102
{ACAD_REACTORS
330
D
102
}
330
D
100
AcDbGroup
300

 70
     1
 71
     1
  0
GROUP
  5
25282
102
{ACAD_REACTORS
330
D
102
}
330
D
100
AcDbGroup
300

 70
     1
 71
     1
  0
GROUP
  5
FC91
102
{ACAD_REACTORS
330
D
102
}
330
D
100
AcDbGroup
300

 70
     1
 71
     1
  0
GROUP
  5
106B3
102
{ACAD_REACTORS
330
D
102
}
330
D
100
AcDbGroup
300

 70
     1
 71
     1
  0
GROUP
  5
249FA
102
{ACAD_REACTORS
330
D
102
}
330
D
100
AcDbGroup
300

 70
     1
 71
     1
  0
GROUP
  5
242BC
102
{ACAD_REACTORS
330
D
102
}
330
D
100
AcDbGroup
300

 70
     1
 71
     1
  0
GROUP
  5
242E7
102
{ACAD_REACTORS
330
D
102
}
330
D
100
AcDbGroup
300

 70
     1
 71
     1
  0
GROUP
  5
2472B
102
{ACAD_REACTORS
330
D
102
}
330
D
100
AcDbGroup
300

 70
     1
 71
     1
  0
GROUP
  5
27F0F
102
{ACAD_REACTORS
330
D
102
}
330
D
100
AcDbGroup
300

 70
     1
 71
     1
  0
GROUP
  5
173BD
102
{ACAD_REACTORS
330
D
102
}
330
D
100
AcDbGroup
300

 70
     1
 71
     1
  0
GROUP
  5
28AEE
102
{ACAD_REACTORS
330
D
102
}
330
D
100
AcDbGroup
300

 70
     1
 71
     1
  0
GROUP
  5
1D6D4
102
{ACAD_REACTORS
330
D
102
}
330
D
100
AcDbGroup
300

 70
     1
 71
     1
  0
GROUP
  5
24AC8
102
{ACAD_REACTORS
330
D
102
}
330
D
100
AcDbGroup
300

 70
     1
 71
     1
  0
GROUP
  5
23A77
102
{ACAD_REACTORS
330
D
102
}
330
D
100
AcDbGroup
300

 70
     1
 71
     1
  0
GROUP
  5
20236
102
{ACAD_REACTORS
330
D
102
}
330
D
100
AcDbGroup
300

 70
     1
 71
     1
  0
GROUP
  5
27F19
102
{ACAD_REACTORS
330
D
102
}
330
D
100
AcDbGroup
300

 70
     1
 71
     1
  0
GROUP
  5
242CB
102
{ACAD_REACTORS
330
D
102
}
330
D
100
AcDbGroup
300

 70
     1
 71
     1
  0
GROUP
  5
2A73B
102
{ACAD_REACTORS
330
D
102
}
330
D
100
AcDbGroup
300

 70
     1
 71
     1
  0
GROUP
  5
2001C
102
{ACAD_REACTORS
330
D
102
}
330
D
100
AcDbGroup
300

 70
     1
 71
     1
  0
GROUP
  5
1D67A
102
{ACAD_REACTORS
330
D
102
}
330
D
100
AcDbGroup
300

 70
     1
 71
     1
  0
GROUP
  5
28E7F
102
{ACAD_REACTORS
330
D
102
}
330
D
100
AcDbGroup
300

 70
     1
 71
     1
  0
GROUP
  5
19989
102
{ACAD_REACTORS
330
D
102
}
330
D
100
AcDbGroup
300

 70
     1
 71
     1
  0
GROUP
  5
22E4B
102
{ACAD_REACTORS
330
D
102
}
330
D
100
AcDbGroup
300

 70
     1
 71
     1
  0
GROUP
  5
24A1E
102
{ACAD_REACTORS
330
D
102
}
330
D
100
AcDbGroup
300

 70
     1
 71
     1
  0
GROUP
  5
242BD
102
{ACAD_REACTORS
330
D
102
}
330
D
100
AcDbGroup
300

 70
     1
 71
     1
  0
GROUP
  5
1738B
102
{ACAD_REACTORS
330
D
102
}
330
D
100
AcDbGroup
300

 70
     1
 71
     1
  0
GROUP
  5
274AD
102
{ACAD_REACTORS
330
D
102
}
330
D
100
AcDbGroup
300

 70
     1
 71
     1
  0
GROUP
  5
29574
102
{ACAD_REACTORS
330
D
102
}
330
D
100
AcDbGroup
300

 70
     1
 71
     1
  0
GROUP
  5
24717
102
{ACAD_REACTORS
330
D
102
}
330
D
100
AcDbGroup
300

 70
     1
 71
     1
  0
GROUP
  5
19A5A
102
{ACAD_REACTORS
330
D
102
}
330
D
100
AcDbGroup
300

 70
     1
 71
     1
  0
GROUP
  5
FB6B
102
{ACAD_REACTORS
330
D
102
}
330
D
100
AcDbGroup
300

 70
     1
 71
     1
  0
GROUP
  5
19A86
102
{ACAD_REACTORS
330
D
102
}
330
D
100
AcDbGroup
300

 70
     1
 71
     1
  0
GROUP
  5
25B65
102
{ACAD_REACTORS
330
D
102
}
330
D
100
AcDbGroup
300

 70
     1
 71
     1
  0
GROUP
  5
242C4
102
{ACAD_REACTORS
330
D
102
}
330
D
100
AcDbGroup
300

 70
     1
 71
     1
  0
GROUP
  5
26FD9
102
{ACAD_REACTORS
330
D
102
}
330
D
100
AcDbGroup
300

 70
     1
 71
     1
  0
GROUP
  5
23CC3
102
{ACAD_REACTORS
330
D
102
}
330
D
100
AcDbGroup
300

 70
     1
 71
     1
  0
GROUP
  5
FC9B
102
{ACAD_REACTORS
330
D
102
}
330
D
100
AcDbGroup
300

 70
     1
 71
     1
  0
GROUP
  5
20025
102
{ACAD_REACTORS
330
D
102
}
330
D
100
AcDbGroup
300

 70
     1
 71
     1
  0
GROUP
  5
1D6DE
102
{ACAD_REACTORS
330
D
102
}
330
D
100
AcDbGroup
300

 70
     1
 71
     1
  0
GROUP
  5
1998A
102
{ACAD_REACTORS
330
D
102
}
330
D
100
AcDbGroup
300

 70
     1
 71
     1
  0
GROUP
  5
1D6C0
102
{ACAD_REACTORS
330
D
102
}
330
D
100
AcDbGroup
300

 70
     1
 71
     1
  0
GROUP
  5
19255
102
{ACAD_REACTORS
330
D
102
}
330
D
100
AcDbGroup
300

 70
     1
 71
     1
  0
GROUP
  5
28AF0
102
{ACAD_REACTORS
330
D
102
}
330
D
100
AcDbGroup
300

 70
     1
 71
     1
  0
GROUP
  5
1A695
102
{ACAD_REACTORS
330
D
102
}
330
D
100
AcDbGroup
300

 70
     1
 71
     1
  0
GROUP
  5
1D6E8
102
{ACAD_REACTORS
330
D
102
}
330
D
100
AcDbGroup
300

 70
     1
 71
     1
  0
GROUP
  5
2A73F
102
{ACAD_REACTORS
330
D
102
}
330
D
100
AcDbGroup
300

 70
     1
 71
     1
  0
GROUP
  5
25E80
102
{ACAD_REACTORS
330
D
102
}
330
D
100
AcDbGroup
300

 70
     1
 71
     1
  0
GROUP
  5
19786
102
{ACAD_REACTORS
330
D
102
}
330
D
100
AcDbGroup
300

 70
     1
 71
     1
  0
GROUP
  5
2472F
102
{ACAD_REACTORS
330
D
102
}
330
D
100
AcDbGroup
300

 70
     1
 71
     1
  0
GROUP
  5
2A73D
102
{ACAD_REACTORS
330
D
102
}
330
D
100
AcDbGroup
300

 70
     1
 71
     1
  0
GROUP
  5
18F1F
102
{ACAD_REACTORS
330
D
102
}
330
D
100
AcDbGroup
300

 70
     1
 71
     1
  0
GROUP
  5
24718
102
{ACAD_REACTORS
330
D
102
}
330
D
100
AcDbGroup
300

 70
     1
 71
     1
  0
GROUP
  5
24A4D
102
{ACAD_REACTORS
330
D
102
}
330
D
100
AcDbGroup
300

 70
     1
 71
     1
  0
GROUP
  5
2812F
102
{ACAD_REACTORS
330
D
102
}
330
D
100
AcDbGroup
300

 70
     1
 71
     1
  0
GROUP
  5
242C3
102
{ACAD_REACTORS
330
D
102
}
330
D
100
AcDbGroup
300

 70
     1
 71
     1
  0
GROUP
  5
20CA6
102
{ACAD_REACTORS
330
D
102
}
330
D
100
AcDbGroup
300

 70
     1
 71
     1
  0
GROUP
  5
270B1
102
{ACAD_REACTORS
330
D
102
}
330
D
100
AcDbGroup
300

 70
     1
 71
     1
  0
GROUP
  5
28E16
102
{ACAD_REACTORS
330
D
102
}
330
D
100
AcDbGroup
300

 70
     1
 71
     1
  0
GROUP
  5
29576
102
{ACAD_REACTORS
330
D
102
}
330
D
100
AcDbGroup
300

 70
     1
 71
     1
  0
GROUP
  5
26962
102
{ACAD_REACTORS
330
D
102
}
330
D
100
AcDbGroup
300

 70
     1
 71
     1
  0
GROUP
  5
24ACE
102
{ACAD_REACTORS
330
D
102
}
330
D
100
AcDbGroup
300

 70
     1
 71
     1
  0
GROUP
  5
19F67
102
{ACAD_REACTORS
330
D
102
}
330
D
100
AcDbGroup
300

 70
     1
 71
     1
  0
GROUP
  5
24722
102
{ACAD_REACTORS
330
D
102
}
330
D
100
AcDbGroup
300

 70
     1
 71
     1
  0
GROUP
  5
24726
102
{ACAD_REACTORS
330
D
102
}
330
D
100
AcDbGroup
300

 70
     1
 71
     1
  0
GROUP
  5
24A4E
102
{ACAD_REACTORS
330
D
102
}
330
D
100
AcDbGroup
300

 70
     1
 71
     1
  0
GROUP
  5
26FD7
102
{ACAD_REACTORS
330
D
102
}
330
D
100
AcDbGroup
300

 70
     1
 71
     1
  0
GROUP
  5
1D706
102
{ACAD_REACTORS
330
D
102
}
330
D
100
AcDbGroup
300

 70
     1
 71
     1
  0
GROUP
  5
2867F
102
{ACAD_REACTORS
330
D
102
}
330
D
100
AcDbGroup
300

 70
     1
 71
     1
  0
GROUP
  5
254C6
102
{ACAD_REACTORS
330
D
102
}
330
D
100
AcDbGroup
300

 70
     1
 71
     1
  0
GROUP
  5
24A45
102
{ACAD_REACTORS
330
D
102
}
330
D
100
AcDbGroup
300

 70
     1
 71
     1
  0
GROUP
  5
26FD8
102
{ACAD_REACTORS
330
D
102
}
330
D
100
AcDbGroup
300

 70
     1
 71
     1
  0
GROUP
  5
2A740
102
{ACAD_REACTORS
330
D
102
}
330
D
100
AcDbGroup
300

 70
     1
 71
     1
  0
GROUP
  5
28680
102
{ACAD_REACTORS
330
D
102
}
330
D
100
AcDbGroup
300

 70
     1
 71
     1
  0
GROUP
  5
1D6B6
102
{ACAD_REACTORS
330
D
102
}
330
D
100
AcDbGroup
300

 70
     1
 71
     1
  0
GROUP
  5
24A9E
102
{ACAD_REACTORS
330
D
102
}
330
D
100
AcDbGroup
300

 70
     1
 71
     1
  0
GROUP
  5
2244A
102
{ACAD_REACTORS
330
D
102
}
330
D
100
AcDbGroup
300

 70
     1
 71
     1
  0
GROUP
  5
24728
102
{ACAD_REACTORS
330
D
102
}
330
D
100
AcDbGroup
300

 70
     1
 71
     1
  0
GROUP
  5
25E7F
102
{ACAD_REACTORS
330
D
102
}
330
D
100
AcDbGroup
300

 70
     1
 71
     1
  0
GROUP
  5
1F918
102
{ACAD_REACTORS
330
D
102
}
330
D
100
AcDbGroup
300

 70
     1
 71
     1
  0
GROUP
  5
2472E
102
{ACAD_REACTORS
330
D
102
}
330
D
100
AcDbGroup
300

 70
     1
 71
     1
  0
GROUP
  5
1606A
102
{ACAD_REACTORS
330
D
102
}
330
D
100
AcDbGroup
300

 70
     1
 71
     1
  0
GROUP
  5
1D684
102
{ACAD_REACTORS
330
D
102
}
330
D
100
AcDbGroup
300

 70
     1
 71
     1
  0
GROUP
  5
ACA2
102
{ACAD_REACTORS
330
D
102
}
330
D
100
AcDbGroup
300

 70
     1
 71
     1
  0
GROUP
  5
18F21
102
{ACAD_REACTORS
330
D
102
}
330
D
100
AcDbGroup
300

 70
     1
 71
     1
  0
GROUP
  5
242E6
102
{ACAD_REACTORS
330
D
102
}
330
D
100
AcDbGroup
300

 70
     1
 71
     1
  0
GROUP
  5
2A815
102
{ACAD_REACTORS
330
D
102
}
330
D
100
AcDbGroup
300

 70
     1
 71
     1
  0
GROUP
  5
1EB7F
102
{ACAD_REACTORS
330
D
102
}
330
D
100
AcDbGroup
300

 70
     1
 71
     1
  0
GROUP
  5
252FE
102
{ACAD_REACTORS
330
D
102
}
330
D
100
AcDbGroup
300

 70
     1
 71
     1
  0
GROUP
  5
17389
102
{ACAD_REACTORS
330
D
102
}
330
D
100
AcDbGroup
300

 70
     1
 71
     1
  0
GROUP
  5
FC95
102
{ACAD_REACTORS
330
D
102
}
330
D
100
AcDbGroup
300

 70
     1
 71
     1
  0
GROUP
  5
2021D
102
{ACAD_REACTORS
330
D
102
}
330
D
100
AcDbGroup
300

 70
     1
 71
     1
  0
GROUP
  5
274A9
102
{ACAD_REACTORS
330
D
102
}
330
D
100
AcDbGroup
300

 70
     1
 71
     1
  0
GROUP
  5
24AE6
102
{ACAD_REACTORS
330
D
102
}
330
D
100
AcDbGroup
300

 70
     1
 71
     1
  0
GROUP
  5
23CC4
102
{ACAD_REACTORS
330
D
102
}
330
D
100
AcDbGroup
300

 70
     1
 71
     1
  0
GROUP
  5
ACAB
102
{ACAD_REACTORS
330
D
102
}
330
D
100
AcDbGroup
300

 70
     1
 71
     1
  0
GROUP
  5
24A1F
102
{ACAD_REACTORS
330
D
102
}
330
D
100
AcDbGroup
300

 70
     1
 71
     1
  0
GROUP
  5
27F11
102
{ACAD_REACTORS
330
D
102
}
330
D
100
AcDbGroup
300

 70
     1
 71
     1
  0
GROUP
  5
19787
102
{ACAD_REACTORS
330
D
102
}
330
D
100
AcDbGroup
300

 70
     1
 71
     1
  0
GROUP
  5
25346
102
{ACAD_REACTORS
330
D
102
}
330
D
100
AcDbGroup
300

 70
     1
 71
     1
  0
GROUP
  5
1B73B
102
{ACAD_REACTORS
330
D
102
}
330
D
100
AcDbGroup
300

 70
     1
 71
     1
  0
GROUP
  5
24A09
102
{ACAD_REACTORS
330
D
102
}
330
D
100
AcDbGroup
300

 70
     1
 71
     1
  0
GROUP
  5
24720
102
{ACAD_REACTORS
330
D
102
}
330
D
100
AcDbGroup
300

 70
     1
 71
     1
  0
GROUP
  5
169DA
102
{ACAD_REACTORS
330
D
102
}
330
D
100
AcDbGroup
300

 70
     1
 71
     1
  0
GROUP
  5
24AAA
102
{ACAD_REACTORS
330
D
102
}
330
D
100
AcDbGroup
300

 70
     1
 71
     1
  0
GROUP
  5
25510
102
{ACAD_REACTORS
330
D
102
}
330
D
100
AcDbGroup
300

 70
     1
 71
     1
  0
GROUP
  5
2A803
102
{ACAD_REACTORS
330
D
102
}
330
D
100
AcDbGroup
300

 70
     1
 71
     1
  0
GROUP
  5
24A80
102
{ACAD_REACTORS
330
D
102
}
330
D
100
AcDbGroup
300

 70
     1
 71
     1
  0
GROUP
  5
24A4A
102
{ACAD_REACTORS
330
D
102
}
330
D
100
AcDbGroup
300

 70
     1
 71
     1
  0
GROUP
  5
2471D
102
{ACAD_REACTORS
330
D
102
}
330
D
100
AcDbGroup
300

 70
     1
 71
     1
  0
GROUP
  5
24A50
102
{ACAD_REACTORS
330
D
102
}
330
D
100
AcDbGroup
300

 70
     1
 71
     1
  0
GROUP
  5
295C8
102
{ACAD_REACTORS
330
D
102
}
330
D
100
AcDbGroup
300

 70
     1
 71
     1
340
295C0
340
295BF
340
295BE
340
295BD
340
295C1
340
295BC
340
295C4
340
295C3
340
295C2
340
295C7
340
295C6
340
295C5
  0
GROUP
  5
2022C
102
{ACAD_REACTORS
330
D
102
}
330
D
100
AcDbGroup
300

 70
     1
 71
     1
  0
GROUP
  5
2A89F
102
{ACAD_REACTORS
330
D
102
}
330
D
100
AcDbGroup
300

 70
     1
 71
     1
  0
GROUP
  5
24A86
102
{ACAD_REACTORS
330
D
102
}
330
D
100
AcDbGroup
300

 70
     1
 71
     1
  0
GROUP
  5
2A8A6
102
{ACAD_REACTORS
330
D
102
}
330
D
100
AcDbGroup
300

 70
     1
 71
     1
  0
GROUP
  5
224D1
102
{ACAD_REACTORS
330
D
102
}
330
D
100
AcDbGroup
300

 70
     1
 71
     1
  0
GROUP
  5
2698A
102
{ACAD_REACTORS
330
D
102
}
330
D
100
AcDbGroup
300

 70
     1
 71
     1
  0
GROUP
  5
252FF
102
{ACAD_REACTORS
330
D
102
}
330
D
100
AcDbGroup
300

 70
     1
 71
     1
  0
GROUP
  5
24724
102
{ACAD_REACTORS
330
D
102
}
330
D
100
AcDbGroup
300

 70
     1
 71
     1
  0
GROUP
  5
FCB8
102
{ACAD_REACTORS
330
D
102
}
330
D
100
AcDbGroup
300

 70
     1
 71
     1
  0
GROUP
  5
29241
102
{ACAD_REACTORS
330
D
102
}
330
D
100
AcDbGroup
300

 70
     1
 71
     1
340
29046
340
29034
340
29045
340
29037
340
29044
340
29033
340
29032
340
29019
340
29017
340
29018
  0
GROUP
  5
28E13
102
{ACAD_REACTORS
330
D
102
}
330
D
100
AcDbGroup
300

 70
     1
 71
     1
  0
GROUP
  5
24913
102
{ACAD_REACTORS
330
D
102
}
330
D
100
AcDbGroup
300

 70
     1
 71
     1
  0
GROUP
  5
25E81
102
{ACAD_REACTORS
330
D
102
}
330
D
100
AcDbGroup
300

 70
     1
 71
     1
  0
GROUP
  5
FB6C
102
{ACAD_REACTORS
330
D
102
}
330
D
100
AcDbGroup
300

 70
     1
 71
     1
  0
GROUP
  5
2471E
102
{ACAD_REACTORS
330
D
102
}
330
D
100
AcDbGroup
300

 70
     1
 71
     1
  0
GROUP
  5
26989
102
{ACAD_REACTORS
330
D
102
}
330
D
100
AcDbGroup
300

 70
     1
 71
     1
  0
GROUP
  5
17B11
102
{ACAD_REACTORS
330
D
102
}
330
D
100
AcDbGroup
300

 70
     1
 71
     1
  0
GROUP
  5
1F8F5
102
{ACAD_REACTORS
330
D
102
}
330
D
100
AcDbGroup
300

 70
     1
 71
     1
  0
GROUP
  5
28101
102
{ACAD_REACTORS
330
D
102
}
330
D
100
AcDbGroup
300

 70
     1
 71
     1
  0
GROUP
  5
24721
102
{ACAD_REACTORS
330
D
102
}
330
D
100
AcDbGroup
300

 70
     1
 71
     1
  0
GROUP
  5
24A44
102
{ACAD_REACTORS
330
D
102
}
330
D
100
AcDbGroup
300

 70
     1
 71
     1
  0
GROUP
  5
24AB0
102
{ACAD_REACTORS
330
D
102
}
330
D
100
AcDbGroup
300

 70
     1
 71
     1
  0
GROUP
  5
24A62
102
{ACAD_REACTORS
330
D
102
}
330
D
100
AcDbGroup
300

 70
     1
 71
     1
  0
GROUP
  5
24A49
102
{ACAD_REACTORS
330
D
102
}
330
D
100
AcDbGroup
300

 70
     1
 71
     1
  0
GROUP
  5
274FD
102
{ACAD_REACTORS
330
D
102
}
330
D
100
AcDbGroup
300

 70
     1
 71
     1
  0
GROUP
  5
29240
102
{ACAD_REACTORS
330
D
102
}
330
D
100
AcDbGroup
300

 70
     1
 71
     1
  0
GROUP
  5
29245
102
{ACAD_REACTORS
330
D
102
}
330
D
100
AcDbGroup
300

 70
     1
 71
     1
340
28F61
340
28F62
340
28F63
340
28F64
340
28F58
340
28F59
340
28F5A
340
28F5B
340
28F5C
340
28F5D
340
28F5E
340
28F5F
340
28F60
340
28F65
340
28F66
340
28F67
340
28F68
340
28F69
340
28F6A
340
28F6B
340
28F6C
340
28F6D
340
28F6E
340
28F6F
340
28F70
340
28F71
340
28F72
340
28F73
340
28F74
340
28F75
340
28F76
340
28F77
340
28F78
340
28F79
340
28F7A
340
28F7B
340
28F7C
340
28F7D
340
28F7E
340
28F80
340
28F81
340
28F82
340
28F83
340
28F84
340
28F85
340
2904A
340
29049
  0
GROUP
  5
17901
102
{ACAD_REACTORS
330
D
102
}
330
D
100
AcDbGroup
300

 70
     1
 71
     1
  0
GROUP
  5
24AF8
102
{ACAD_REACTORS
330
D
102
}
330
D
100
AcDbGroup
300

 70
     1
 71
     1
  0
GROUP
  5
2471F
102
{ACAD_REACTORS
330
D
102
}
330
D
100
AcDbGroup
300

 70
     1
 71
     1
  0
GROUP
  5
1B756
102
{ACAD_REACTORS
330
D
102
}
330
D
100
AcDbGroup
300

 70
     1
 71
     1
  0
GROUP
  5
ACBD
102
{ACAD_REACTORS
330
D
102
}
330
D
100
AcDbGroup
300

 70
     1
 71
     1
  0
GROUP
  5
25E82
102
{ACAD_REACTORS
330
D
102
}
330
D
100
AcDbGroup
300

 70
     1
 71
     1
  0
GROUP
  5
2002B
102
{ACAD_REACTORS
330
D
102
}
330
D
100
AcDbGroup
300

 70
     1
 71
     1
  0
GROUP
  5
242AE
102
{ACAD_REACTORS
330
D
102
}
330
D
100
AcDbGroup
300

 70
     1
 71
     1
  0
GROUP
  5
24B44
102
{ACAD_REACTORS
330
D
102
}
330
D
100
AcDbGroup
300

 70
     1
 71
     1
  0
GROUP
  5
1F8FA
102
{ACAD_REACTORS
330
D
102
}
330
D
100
AcDbGroup
300

 70
     1
 71
     1
  0
GROUP
  5
267CB
102
{ACAD_REACTORS
330
D
102
}
330
D
100
AcDbGroup
300

 70
     1
 71
     1
  0
GROUP
  5
2A738
102
{ACAD_REACTORS
330
D
102
}
330
D
100
AcDbGroup
300

 70
     1
 71
     1
  0
GROUP
  5
28E67
102
{ACAD_REACTORS
330
D
102
}
330
D
100
AcDbGroup
300

 70
     1
 71
     1
  0
GROUP
  5
24AE0
102
{ACAD_REACTORS
330
D
102
}
330
D
100
AcDbGroup
300

 70
     1
 71
     1
  0
GROUP
  5
1D6F2
102
{ACAD_REACTORS
330
D
102
}
330
D
100
AcDbGroup
300

 70
     1
 71
     1
  0
GROUP
  5
20222
102
{ACAD_REACTORS
330
D
102
}
330
D
100
AcDbGroup
300

 70
     1
 71
     1
  0
GROUP
  5
2472D
102
{ACAD_REACTORS
330
D
102
}
330
D
100
AcDbGroup
300

 70
     1
 71
     1
  0
GROUP
  5
ACB4
102
{ACAD_REACTORS
330
D
102
}
330
D
100
AcDbGroup
300

 70
     1
 71
     1
  0
GROUP
  5
19F99
102
{ACAD_REACTORS
330
D
102
}
330
D
100
AcDbGroup
300

 70
     1
 71
     1
  0
GROUP
  5
1B729
102
{ACAD_REACTORS
330
D
102
}
330
D
100
AcDbGroup
300

 70
     1
 71
     1
  0
GROUP
  5
1D6A2
102
{ACAD_REACTORS
330
D
102
}
330
D
100
AcDbGroup
300

 70
     1
 71
     1
  0
GROUP
  5
1D698
102
{ACAD_REACTORS
330
D
102
}
330
D
100
AcDbGroup
300

 70
     1
 71
     1
  0
GROUP
  5
198F1
102
{ACAD_REACTORS
330
D
102
}
330
D
100
AcDbGroup
300

 70
     1
 71
     1
  0
GROUP
  5
26FD6
102
{ACAD_REACTORS
330
D
102
}
330
D
100
AcDbGroup
300

 70
     1
 71
     1
  0
GROUP
  5
24AEC
102
{ACAD_REACTORS
330
D
102
}
330
D
100
AcDbGroup
300

 70
     1
 71
     1
  0
GROUP
  5
28AF1
102
{ACAD_REACTORS
330
D
102
}
330
D
100
AcDbGroup
300

 70
     1
 71
     1
  0
GROUP
  5
24A02
102
{ACAD_REACTORS
330
D
102
}
330
D
100
AcDbGroup
300

 70
     1
 71
     1
  0
GROUP
  5
1D710
102
{ACAD_REACTORS
330
D
102
}
330
D
100
AcDbGroup
300

 70
     1
 71
     1
  0
GROUP
  5
19881
102
{ACAD_REACTORS
330
D
102
}
330
D
100
AcDbGroup
300

 70
     1
 71
     1
  0
GROUP
  5
1F8FF
102
{ACAD_REACTORS
330
D
102
}
330
D
100
AcDbGroup
300

 70
     1
 71
     1
  0
GROUP
  5
18F20
102
{ACAD_REACTORS
330
D
102
}
330
D
100
AcDbGroup
300

 70
     1
 71
     1
  0
GROUP
  5
2956F
102
{ACAD_REACTORS
330
D
102
}
330
D
100
AcDbGroup
300

 70
     1
 71
     1
  0
GROUP
  5
24A10
102
{ACAD_REACTORS
330
D
102
}
330
D
100
AcDbGroup
300

 70
     1
 71
     1
  0
GROUP
  5
20227
102
{ACAD_REACTORS
330
D
102
}
330
D
100
AcDbGroup
300

 70
     1
 71
     1
  0
GROUP
  5
1F909
102
{ACAD_REACTORS
330
D
102
}
330
D
100
AcDbGroup
300

 70
     1
 71
     1
  0
GROUP
  5
16059
102
{ACAD_REACTORS
330
D
102
}
330
D
100
AcDbGroup
300

 70
     1
 71
     1
  0
GROUP
  5
24A6E
102
{ACAD_REACTORS
330
D
102
}
330
D
100
AcDbGroup
300

 70
     1
 71
     1
  0
GROUP
  5
2698B
102
{ACAD_REACTORS
330
D
102
}
330
D
100
AcDbGroup
300

 70
     1
 71
     1
  0
GROUP
  5
24ADA
102
{ACAD_REACTORS
330
D
102
}
330
D
100
AcDbGroup
300

 70
     1
 71
     1
  0
GROUP
  5
1A691
102
{ACAD_REACTORS
330
D
102
}
330
D
100
AcDbGroup
300

 70
     1
 71
     1
  0
GROUP
  5
242E0
102
{ACAD_REACTORS
330
D
102
}
330
D
100
AcDbGroup
300

 70
     1
 71
     1
  0
GROUP
  5
2472A
102
{ACAD_REACTORS
330
D
102
}
330
D
100
AcDbGroup
300

 70
     1
 71
     1
  0
GROUP
  5
224AC
102
{ACAD_REACTORS
330
D
102
}
330
D
100
AcDbGroup
300

 70
     1
 71
     1
  0
GROUP
  5
16058
102
{ACAD_REACTORS
330
D
102
}
330
D
100
AcDbGroup
300

 70
     1
 71
     1
  0
GROUP
  5
1B720
102
{ACAD_REACTORS
330
D
102
}
330
D
100
AcDbGroup
300

 70
     1
 71
     1
  0
GROUP
  5
24A7A
102
{ACAD_REACTORS
330
D
102
}
330
D
100
AcDbGroup
300

 70
     1
 71
     1
  0
GROUP
  5
24AA4
102
{ACAD_REACTORS
330
D
102
}
330
D
100
AcDbGroup
300

 70
     1
 71
     1
  0
GROUP
  5
1D6CA
102
{ACAD_REACTORS
330
D
102
}
330
D
100
AcDbGroup
300

 70
     1
 71
     1
  0
GROUP
  5
2A73C
102
{ACAD_REACTORS
330
D
102
}
330
D
100
AcDbGroup
300

 70
     1
 71
     1
  0
GROUP
  5
20010
102
{ACAD_REACTORS
330
D
102
}
330
D
100
AcDbGroup
300

 70
     1
 71
     1
  0
GROUP
  5
2A73E
102
{ACAD_REACTORS
330
D
102
}
330
D
100
AcDbGroup
300

 70
     1
 71
     1
  0
GROUP
  5
20231
102
{ACAD_REACTORS
330
D
102
}
330
D
100
AcDbGroup
300

 70
     1
 71
     1
  0
GROUP
  5
24A5C
102
{ACAD_REACTORS
330
D
102
}
330
D
100
AcDbGroup
300

 70
     1
 71
     1
  0
GROUP
  5
24AFE
102
{ACAD_REACTORS
330
D
102
}
330
D
100
AcDbGroup
300

 70
     1
 71
     1
  0
GROUP
  5
24A46
102
{ACAD_REACTORS
330
D
102
}
330
D
100
AcDbGroup
300

 70
     1
 71
     1
  0
GROUP
  5
2923F
102
{ACAD_REACTORS
330
D
102
}
330
D
100
AcDbGroup
300

 70
     1
 71
     1
  0
GROUP
  5
1606B
102
{ACAD_REACTORS
330
D
102
}
330
D
100
AcDbGroup
300

 70
     1
 71
     1
  0
GROUP
  5
232CA
102
{ACAD_REACTORS
330
D
102
}
330
D
100
AcDbGroup
300

 70
     1
 71
     1
  0
GROUP
  5
19256
102
{ACAD_REACTORS
330
D
102
}
330
D
100
AcDbGroup
300

 70
     1
 71
     1
  0
GROUP
  5
240F2
102
{ACAD_REACTORS
330
D
102
}
330
D
100
AcDbGroup
300

 70
     1
 71
     1
  0
GROUP
  5
18FA7
102
{ACAD_REACTORS
330
D
102
}
330
D
100
AcDbGroup
300

 70
     1
 71
     1
  0
GROUP
  5
242A7
102
{ACAD_REACTORS
330
D
102
}
330
D
100
AcDbGroup
300

 70
     1
 71
     1
  0
GROUP
  5
227B2
102
{ACAD_REACTORS
330
D
102
}
330
D
100
AcDbGroup
300

 70
     1
 71
     1
  0
GROUP
  5
1D68E
102
{ACAD_REACTORS
330
D
102
}
330
D
100
AcDbGroup
300

 70
     1
 71
     1
  0
GROUP
  5
1EB80
102
{ACAD_REACTORS
330
D
102
}
330
D
100
AcDbGroup
300

 70
     1
 71
     1
  0
GROUP
  5
274AA
102
{ACAD_REACTORS
330
D
102
}
330
D
100
AcDbGroup
300

 70
     1
 71
     1
  0
GROUP
  5
20019
102
{ACAD_REACTORS
330
D
102
}
330
D
100
AcDbGroup
300

 70
     1
 71
     1
  0
GROUP
  5
1EB7C
102
{ACAD_REACTORS
330
D
102
}
330
D
100
AcDbGroup
300

 70
     1
 71
     1
  0
GROUP
  5
1F913
102
{ACAD_REACTORS
330
D
102
}
330
D
100
AcDbGroup
300

 70
     1
 71
     1
  0
GROUP
  5
227B1
102
{ACAD_REACTORS
330
D
102
}
330
D
100
AcDbGroup
300

 70
     1
 71
     1
  0
GROUP
  5
242A8
102
{ACAD_REACTORS
330
D
102
}
330
D
100
AcDbGroup
300

 70
     1
 71
     1
  0
GROUP
  5
240ED
102
{ACAD_REACTORS
330
D
102
}
330
D
100
AcDbGroup
300

 70
     1
 71
     1
  0
GROUP
  5
242D9
102
{ACAD_REACTORS
330
D
102
}
330
D
100
AcDbGroup
300

 70
     1
 71
     1
  0
GROUP
  5
24B32
102
{ACAD_REACTORS
330
D
102
}
330
D
100
AcDbGroup
300

 70
     1
 71
     1
  0
GROUP
  5
25388
102
{ACAD_REACTORS
330
D
102
}
330
D
100
AcDbGroup
300

 70
     1
 71
     1
  0
GROUP
  5
28AF3
102
{ACAD_REACTORS
330
D
102
}
330
D
100
AcDbGroup
300

 70
     1
 71
     1
  0
GROUP
  5
19861
102
{ACAD_REACTORS
330
D
102
}
330
D
100
AcDbGroup
300

 70
     1
 71
     1
  0
GROUP
  5
1AA94
102
{ACAD_REACTORS
330
D
102
}
330
D
100
AcDbGroup
300

 70
     1
 71
     1
  0
GROUP
  5
27F12
102
{ACAD_REACTORS
330
D
102
}
330
D
100
AcDbGroup
300

 70
     1
 71
     1
  0
GROUP
  5
1F904
102
{ACAD_REACTORS
330
D
102
}
330
D
100
AcDbGroup
300

 70
     1
 71
     1
  0
GROUP
  5
24B56
102
{ACAD_REACTORS
330
D
102
}
330
D
100
AcDbGroup
300

 70
     1
 71
     1
  0
GROUP
  5
1F90E
102
{ACAD_REACTORS
330
D
102
}
330
D
100
AcDbGroup
300

 70
     1
 71
     1
  0
GROUP
  5
1EB7D
102
{ACAD_REACTORS
330
D
102
}
330
D
100
AcDbGroup
300

 70
     1
 71
     1
  0
GROUP
  5
249F2
102
{ACAD_REACTORS
330
D
102
}
330
D
100
AcDbGroup
300

 70
     1
 71
     1
  0
GROUP
  5
24A48
102
{ACAD_REACTORS
330
D
102
}
330
D
100
AcDbGroup
300

 70
     1
 71
     1
  0
GROUP
  5
24727
102
{ACAD_REACTORS
330
D
102
}
330
D
100
AcDbGroup
300

 70
     1
 71
     1
  0
GROUP
  5
25BC1
102
{ACAD_REACTORS
330
D
102
}
330
D
100
AcDbGroup
300

 70
     1
 71
     1
  0
GROUP
  5
26FD5
102
{ACAD_REACTORS
330
D
102
}
330
D
100
AcDbGroup
300

 70
     1
 71
     1
  0
GROUP
  5
1738A
102
{ACAD_REACTORS
330
D
102
}
330
D
100
AcDbGroup
300

 70
     1
 71
     1
  0
GROUP
  5
29572
102
{ACAD_REACTORS
330
D
102
}
330
D
100
AcDbGroup
300

 70
     1
 71
     1
  0
GROUP
  5
1B732
102
{ACAD_REACTORS
330
D
102
}
330
D
100
AcDbGroup
300

 70
     1
 71
     1
  0
GROUP
  5
17BFF
102
{ACAD_REACTORS
330
D
102
}
330
D
100
AcDbGroup
300

 70
     1
 71
     1
  0
GROUP
  5
27F1A
102
{ACAD_REACTORS
330
D
102
}
330
D
100
AcDbGroup
300

 70
     1
 71
     1
  0
GROUP
  5
29573
102
{ACAD_REACTORS
330
D
102
}
330
D
100
AcDbGroup
300

 70
     1
 71
     1
  0
GROUP
  5
1B74D
102
{ACAD_REACTORS
330
D
102
}
330
D
100
AcDbGroup
300

 70
     1
 71
     1
  0
GROUP
  5
24729
102
{ACAD_REACTORS
330
D
102
}
330
D
100
AcDbGroup
300

 70
     1
 71
     1
  0
GROUP
  5
2471B
102
{ACAD_REACTORS
330
D
102
}
330
D
100
AcDbGroup
300

 70
     1
 71
     1
  0
GROUP
  5
24725
102
{ACAD_REACTORS
330
D
102
}
330
D
100
AcDbGroup
300

 70
     1
 71
     1
  0
GROUP
  5
274FB
102
{ACAD_REACTORS
330
D
102
}
330
D
100
AcDbGroup
300

 70
     1
 71
     1
  0
GROUP
  5
28AEF
102
{ACAD_REACTORS
330
D
102
}
330
D
100
AcDbGroup
300

 70
     1
 71
     1
  0
GROUP
  5
FBFF
102
{ACAD_REACTORS
330
D
102
}
330
D
100
AcDbGroup
300

 70
     1
 71
     1
  0
GROUP
  5
23CC2
102
{ACAD_REACTORS
330
D
102
}
330
D
100
AcDbGroup
300

 70
     1
 71
     1
  0
GROUP
  5
2693F
102
{ACAD_REACTORS
330
D
102
}
330
D
100
AcDbGroup
300

 70
     1
 71
     1
  0
GROUP
  5
28AF4
102
{ACAD_REACTORS
330
D
102
}
330
D
100
AcDbGroup
300

 70
     1
 71
     1
  0
GROUP
  5
24B10
102
{ACAD_REACTORS
330
D
102
}
330
D
100
AcDbGroup
300

 70
     1
 71
     1
  0
GROUP
  5
251F4
102
{ACAD_REACTORS
330
D
102
}
330
D
100
AcDbGroup
300

 70
     1
 71
     1
  0
GROUP
  5
19988
102
{ACAD_REACTORS
330
D
102
}
330
D
100
AcDbGroup
300

 70
     1
 71
     1
  0
GROUP
  5
20016
102
{ACAD_REACTORS
330
D
102
}
330
D
100
AcDbGroup
300

 70
     1
 71
     1
  0
GROUP
  5
242CA
102
{ACAD_REACTORS
330
D
102
}
330
D
100
AcDbGroup
300

 70
     1
 71
     1
  0
GROUP
  5
24A4C
102
{ACAD_REACTORS
330
D
102
}
330
D
100
AcDbGroup
300

 70
     1
 71
     1
  0
GROUP
  5
274A8
102
{ACAD_REACTORS
330
D
102
}
330
D
100
AcDbGroup
300

 70
     1
 71
     1
  0
GROUP
  5
106A5
102
{ACAD_REACTORS
330
D
102
}
330
D
100
AcDbGroup
300

 70
     1
 71
     1
  0
LAYOUT
  5
FB5D
102
{ACAD_REACTORS
330
DB2
102
}
330
DB2
100
AcDbPlotSettings
  1

  2
\\HONAMI\LBP-910
  4
A3
  6

 40
5.873749732971191
 41
5.873747825622558
 42
5.873748779296875
 43
5.873748779296875
 44
296.9259948730469
 45
419.9466552734374
 46
0.0
 47
0.0
 48
-134.0496161171158
 49
-116.2294073187233
140
1105.745250909008
141
633.2284101676227
142
1.0
143
2.866823569012708
 70
 11952
 72
     1
 73
     1
 74
     1
  7
monochrome.ctb
 75
     0
147
0.3488181173089717
148
98.7130430422485
149
74.96499340265336
100
AcDbLayout
  1
Model
 70
     1
 71
     0
 10
0.0
 20
0.0
 11
12.0
 21
9.0
 12
0.0
 22
0.0
 32
0.0
 14
0.0
 24
0.0
 34
0.0
 15
0.0
 25
0.0
 35
0.0
146
0.0
 13
0.0
 23
0.0
 33
0.0
 16
1.0
 26
0.0
 36
0.0
 17
0.0
 27
1.0
 37
0.0
 76
     0
330
18
  0
LAYOUT
  5
2ABBF
102
{ACAD_REACTORS
330
DB2
102
}
330
DB2
100
AcDbPlotSettings
  1

  2
Adobe PDF
  4
A4
  6

 40
3.174999952316284
 41
3.174999952316284
 42
3.175003051757812
 43
3.17498779296875
 44
209.9733276367187
 45
297.0318298339843
 46
-1.27
 47
2.0
 48
0.0
 49
0.0
140
0.0
141
0.0
142
1.0
143
1.42187180821004
 70
   688
 72
     1
 73
     1
 74
     1
  7
monochrome.ctb
 75
     0
147
0.703298282043355
148
0.0131473917864469
149
1.510255289889414
100
AcDbLayout
  1
ｺｱ付きN256ﾏｸﾞﾈｯﾄ図
 70
     0
 71
     1
 10
-7.371316642439809
 20
-4.21892101672941
 11
414.9698683395445
 21
294.3362340259712
 12
0.0
 22
0.0
 32
0.0
 14
-0.0131473917864469
 24
-1.510255289889414
 34
-0.0015258207003583
 15
404.527720507272
 25
288.0160094992691
 35
0.0000000349246037
146
0.0
 13
0.0
 23
0.0
 33
0.0
 16
1.0
 26
0.0
 36
0.0
 17
0.0
 27
1.0
 37
0.0
 76
     0
330
2AACE
331
2AACF
  0
MLINESTYLE
  5
1C
102
{ACAD_REACTORS
330
1B
102
}
330
1B
100
AcDbMlineStyle
  2
STANDARD
 70
     0
  3

 62
   256
 51
90.0
 52
90.0
 71
     2
 49
0.5
 62
   256
  6
BYLAYER
 49
-0.5
 62
   256
  6
BYLAYER
  0
ACDBPLACEHOLDER
  5
FB5C
102
{ACAD_REACTORS
330
FB5B
102
}
330
FB5B
  0
DICTIONARYVAR
  5
106A7
102
{ACAD_REACTORS
330
106A6
102
}
330
106A6
100
DictionaryVariables
280
     0
  1
96
  0
XRECORD
  5
1A9A1
102
{ACAD_REACTORS
330
1A99F
102
}
330
1A99F
100
AcDbXrecord
280
     1
330
187D7
330
0
330
0
330
0
330
0
330
0
330
0
330
0
330
0
330
0
330
0
330
0
330
0
330
0
330
0
330
0
330
0
330
0
330
0
330
0
330
0
330
0
330
0
330
0
330
0
330
0
330
0
330
0
330
0
330
0
330
0
330
0
330
0
330
0
330
0
330
0
330
0
330
0
330
0
330
0
330
0
330
0
330
0
330
0
  0
XRECORD
  5
2BB1C
102
{ACAD_REACTORS
330
25085
102
}
330
25085
100
AcDbXrecord
280
     1
  1
0
  1
*0
  1
*
  1
*
 70
     0
  1
*
  1
*
  0
XRECORD
  5
2BB1D
102
{ACAD_REACTORS
330
25085
102
}
330
25085
100
AcDbXrecord
280
     1
  1
11
  1
*11
  1
*
  1
*
 70
     0
  1
*
  1
*
  0
XRECORD
  5
2BB1E
102
{ACAD_REACTORS
330
25085
102
}
330
25085
100
AcDbXrecord
280
     1
  1
150_
  1
150_*
  1
*
  1
*
 70
     0
  1
*
  1
*
  0
XRECORD
  5
2BB1F
102
{ACAD_REACTORS
330
25085
102
}
330
25085
100
AcDbXrecord
280
     1
  1
160_
  1
160_*
  1
*
  1
*
 70
     0
  1
*
  1
*
  0
XRECORD
  5
2BB20
102
{ACAD_REACTORS
330
25085
102
}
330
25085
100
AcDbXrecord
280
     1
  1
170_
  1
170_*
  1
*
  1
*
 70
     0
  1
*
  1
*
  0
XRECORD
  5
2BB21
102
{ACAD_REACTORS
330
25085
102
}
330
25085
100
AcDbXrecord
280
     1
  1
171_
  1
171_*
  1
*
  1
*
 70
     0
  1
*
  1
*
  0
XRECORD
  5
2BB22
102
{ACAD_REACTORS
330
25085
102
}
330
25085
100
AcDbXrecord
280
     1
  1
350_
  1
350_*
  1
*
  1
*
 70
     0
  1
*
  1
*
  0
XRECORD
  5
2BB23
102
{ACAD_REACTORS
330
25085
102
}
330
25085
100
AcDbXrecord
280
     1
  1
4
  1
*4
  1
*
  1
*
 70
     0
  1
*
  1
*
  0
XRECORD
  5
2BB24
102
{ACAD_REACTORS
330
25085
102
}
330
25085
100
AcDbXrecord
280
     1
  1
5
  1
*5
  1
*
  1
*
 70
     0
  1
*
  1
*
  0
XRECORD
  5
2BB25
102
{ACAD_REACTORS
330
25085
102
}
330
25085
100
AcDbXrecord
280
     1
  1
7
  1
*7
  1
*
  1
*
 70
     0
  1
*
  1
*
  0
XRECORD
  5
2BB26
102
{ACAD_REACTORS
330
25085
102
}
330
25085
100
AcDbXrecord
280
     1
  1
kiseki
  1
kiseki*
  1
*
  1
*
 70
     0
  1
*
  1
*
  0
ENDSEC
  0
EOF
