  0
SECTION
  2
HEADER
  9
$ACADVER
  1
AC1015
  9
$ACADMAINTVER
 70
    10
  9
$DWGCODEPAGE
  3
ANSI_932
  9
$INSBASE
 10
0.0
 20
0.0
 30
0.0
  9
$EXTMIN
 10
167.1825875009164
 20
-1305.429326277385
 30
0.0
  9
$EXTMAX
 10
4846.348174901441
 20
2218.451241203808
 30
137.5
  9
$LIMMIN
 10
0.0
 20
0.0
  9
$LIMMAX
 10
420.0
 20
297.0
  9
$ORTHOMODE
 70
     1
  9
$REGENMODE
 70
     1
  9
$FILLMODE
 70
     1
  9
$QTEXTMODE
 70
     0
  9
$MIRRTEXT
 70
     0
  9
$LTSCALE
 40
20.0
  9
$ATTMODE
 70
     2
  9
$TEXTSIZE
 40
2.5
  9
$TRACEWID
 40
1.0
  9
$TEXTSTYLE
  7
まこ
  9
$CLAYER
  8
0
  9
$CELTYPE
  6
BYLAYER
  9
$CECOLOR
 62
   256
  9
$CELTSCALE
 40
1.0
  9
$DISPSILH
 70
     0
  9
$DIMSCALE
 40
1.5
  9
$DIMASZ
 40
2.5
  9
$DIMEXO
 40
0.8
  9
$DIMDLI
 40
0.38
  9
$DIMRND
 40
0.0
  9
$DIMDLE
 40
0.0
  9
$DIMEXE
 40
0.18
  9
$DIMTP
 40
0.0
  9
$DIMTM
 40
0.0
  9
$DIMTXT
 40
3.0
  9
$DIMCEN
 40
0.0
  9
$DIMTSZ
 40
0.0
  9
$DIMTOL
 70
     0
  9
$DIMLIM
 70
     0
  9
$DIMTIH
 70
     0
  9
$DIMTOH
 70
     0
  9
$DIMSE1
 70
     0
  9
$DIMSE2
 70
     0
  9
$DIMTAD
 70
     3
  9
$DIMZIN
 70
     8
  9
$DIMBLK
  1
Open30
  9
$DIMASO
 70
     1
  9
$DIMSHO
 70
     1
  9
$DIMPOST
  1

  9
$DIMAPOST
  1

  9
$DIMALT
 70
     0
  9
$DIMALTD
 70
     2
  9
$DIMALTF
 40
25.4
  9
$DIMLFAC
 40
1.0
  9
$DIMTOFL
 70
     0
  9
$DIMTVP
 40
0.0
  9
$DIMTIX
 70
     0
  9
$DIMSOXD
 70
     0
  9
$DIMSAH
 70
     0
  9
$DIMBLK1
  1

  9
$DIMBLK2
  1

  9
$DIMSTYLE
  2
まこ
  9
$DIMCLRD
 70
     4
  9
$DIMCLRE
 70
     4
  9
$DIMCLRT
 70
   256
  9
$DIMTFAC
 40
1.0
  9
$DIMGAP
 40
0.5
  9
$DIMJUST
 70
     0
  9
$DIMSD1
 70
     0
  9
$DIMSD2
 70
     0
  9
$DIMTOLJ
 70
     1
  9
$DIMTZIN
 70
     0
  9
$DIMALTZ
 70
     0
  9
$DIMALTTZ
 70
     0
  9
$DIMUPT
 70
     0
  9
$DIMDEC
 70
     8
  9
$DIMTDEC
 70
     8
  9
$DIMALTU
 70
     2
  9
$DIMALTTD
 70
     2
  9
$DIMTXSTY
  7
まこ
  9
$DIMAUNIT
 70
     0
  9
$DIMADEC
 70
     0
  9
$DIMALTRND
 40
0.0
  9
$DIMAZIN
 70
     0
  9
$DIMDSEP
 70
    46
  9
$DIMATFIT
 70
     1
  9
$DIMFRAC
 70
     0
  9
$DIMLDRBLK
  1
Open30
  9
$DIMLUNIT
 70
     2
  9
$DIMLWD
 70
    13
  9
$DIMLWE
 70
    13
  9
$DIMTMOVE
 70
     0
  9
$LUNITS
 70
     2
  9
$LUPREC
 70
     4
  9
$SKETCHINC
 40
1.0
  9
$FILLETRAD
 40
2.0
  9
$AUNITS
 70
     0
  9
$AUPREC
 70
     0
  9
$MENU
  1
.
  9
$ELEVATION
 40
0.0
  9
$PELEVATION
 40
0.0
  9
$THICKNESS
 40
0.0
  9
$LIMCHECK
 70
     0
  9
$CHAMFERA
 40
0.5
  9
$CHAMFERB
 40
0.5
  9
$CHAMFERC
 40
20.0
  9
$CHAMFERD
 40
0.0
  9
$SKPOLY
 70
     0
  9
$TDCREATE
 40
2451224.660162384
  9
$TDUCREATE
 40
2451224.285162384
  9
$TDUPDATE
 40
2456589.404616423
  9
$TDUUPDATE
 40
2456589.029616423
  9
$TDINDWG
 40
16.3260597917
  9
$TDUSRTIMER
 40
16.3260597917
  9
$USRTIMER
 70
     1
  9
$ANGBASE
 50
0.0
  9
$ANGDIR
 70
     0
  9
$PDMODE
 70
     0
  9
$PDSIZE
 40
0.0
  9
$PLINEWID
 40
0.0
  9
$SPLFRAME
 70
     0
  9
$SPLINETYPE
 70
     6
  9
$SPLINESEGS
 70
     8
  9
$HANDSEED
  5
28945
  9
$SURFTAB1
 70
     6
  9
$SURFTAB2
 70
     6
  9
$SURFTYPE
 70
     6
  9
$SURFU
 70
     6
  9
$SURFV
 70
     6
  9
$UCSBASE
  2

  9
$UCSNAME
  2

  9
$UCSORG
 10
0.0
 20
0.0
 30
0.0
  9
$UCSXDIR
 10
1.0
 20
0.0
 30
0.0
  9
$UCSYDIR
 10
0.0
 20
1.0
 30
0.0
  9
$UCSORTHOREF
  2

  9
$UCSORTHOVIEW
 70
     0
  9
$UCSORGTOP
 10
0.0
 20
0.0
 30
0.0
  9
$UCSORGBOTTOM
 10
0.0
 20
0.0
 30
0.0
  9
$UCSORGLEFT
 10
0.0
 20
0.0
 30
0.0
  9
$UCSORGRIGHT
 10
0.0
 20
0.0
 30
0.0
  9
$UCSORGFRONT
 10
0.0
 20
0.0
 30
0.0
  9
$UCSORGBACK
 10
0.0
 20
0.0
 30
0.0
  9
$PUCSBASE
  2

  9
$PUCSNAME
  2

  9
$PUCSORG
 10
0.0
 20
0.0
 30
0.0
  9
$PUCSXDIR
 10
1.0
 20
0.0
 30
0.0
  9
$PUCSYDIR
 10
0.0
 20
1.0
 30
0.0
  9
$PUCSORTHOREF
  2

  9
$PUCSORTHOVIEW
 70
     0
  9
$PUCSORGTOP
 10
0.0
 20
0.0
 30
0.0
  9
$PUCSORGBOTTOM
 10
0.0
 20
0.0
 30
0.0
  9
$PUCSORGLEFT
 10
0.0
 20
0.0
 30
0.0
  9
$PUCSORGRIGHT
 10
0.0
 20
0.0
 30
0.0
  9
$PUCSORGFRONT
 10
0.0
 20
0.0
 30
0.0
  9
$PUCSORGBACK
 10
0.0
 20
0.0
 30
0.0
  9
$USERI1
 70
     0
  9
$USERI2
 70
     0
  9
$USERI3
 70
     0
  9
$USERI4
 70
     0
  9
$USERI5
 70
     0
  9
$USERR1
 40
245.9999999999999
  9
$USERR2
 40
0.0
  9
$USERR3
 40
0.0
  9
$USERR4
 40
0.0
  9
$USERR5
 40
0.0
  9
$WORLDVIEW
 70
     1
  9
$SHADEDGE
 70
     3
  9
$SHADEDIF
 70
    70
  9
$TILEMODE
 70
     0
  9
$MAXACTVP
 70
    48
  9
$PINSBASE
 10
0.0
 20
0.0
 30
0.0
  9
$PLIMCHECK
 70
     0
  9
$PEXTMIN
 10
-0.0118438918668744
 20
-0.0117952579000758
 30
-0.0000000000112498
  9
$PEXTMAX
 10
400.0319440598273
 20
288.0025265431731
 30
0.0000000000002956
  9
$PLIMMIN
 10
-12.0137993105925
 20
-5.236473630819291
  9
$PLIMMAX
 10
407.9328559628449
 20
291.7318491230869
  9
$UNITMODE
 70
     0
  9
$VISRETAIN
 70
     1
  9
$PLINEGEN
 70
     0
  9
$PSLTSCALE
 70
     0
  9
$TREEDEPTH
 70
  3020
  9
$CMLSTYLE
  2
STANDARD
  9
$CMLJUST
 70
     0
  9
$CMLSCALE
 40
20.0
  9
$PROXYGRAPHICS
 70
     1
  9
$MEASUREMENT
 70
     0
  9
$CELWEIGHT
370
    13
  9
$ENDCAPS
280
     0
  9
$JOINSTYLE
280
     0
  9
$LWDISPLAY
290
     0
  9
$INSUNITS
 70
     0
  9
$HYPERLINKBASE
  1

  9
$STYLESHEET
  1
monochrome.ctb
  9
$XEDIT
290
     1
  9
$CEPSNTYPE
380
     0
  9
$PSTYLEMODE
290
     1
  9
$FINGERPRINTGUID
  2
{D14EE3FF-941A-415A-9907-344E0A80D794}
  9
$VERSIONGUID
  2
{2C26D3A0-7A6A-4455-930B-EB5695F651E3}
  9
$EXTNAMES
290
     1
  9
$PSVPSCALE
 40
0.0
  9
$OLESTARTUP
290
     0
  0
ENDSEC
  0
SECTION
  2
CLASSES
  0
CLASS
  1
HATCH
  2
AcDbHatch
  3
AutoCAD 2000
 90
    32768
280
     0
281
     1
  0
CLASS
  1
LWPOLYLINE
  2
AcDbPolyline
  3
AutoCAD 2000
 90
    32768
280
     0
281
     1
  0
CLASS
  1
ACDBDICTIONARYWDFLT
  2
AcDbDictionaryWithDefault
  3
AutoCAD 2000
 90
        0
280
     0
281
     0
  0
CLASS
  1
ACDBPLACEHOLDER
  2
AcDbPlaceHolder
  3
AutoCAD 2000
 90
        0
280
     0
281
     0
  0
CLASS
  1
LAYOUT
  2
AcDbLayout
  3
AutoCAD 2000
 90
        0
280
     0
281
     0
  0
CLASS
  1
LONG_TRANSACTION
  2
AcDbLongTransaction
  3
AutoCAD 2000
 90
    32768
280
     0
281
     0
  0
CLASS
  1
LWPOLYLINE
  2
AcDbPolyline
  3
AutoCAD 2000
 90
    32768
280
     0
281
     1
  0
CLASS
  1
HATCH
  2
AcDbHatch
  3
AutoCAD 2000
 90
    32768
280
     0
281
     1
  0
CLASS
  1
XRECORD
  2
AcDbXrecord
  3
AutoCAD 2000
 90
    32768
280
     0
281
     0
  0
CLASS
  1
DICTIONARYVAR
  2
AcDbDictionaryVar
  3
AutoCAD 2000
 90
        0
280
     0
281
     0
  0
ENDSEC
  0
SECTION
  2
TABLES
  0
TABLE
  2
VPORT
  5
8
330
0
100
AcDbSymbolTable
 70
     2
  0
VPORT
  5
28944
330
8
100
AcDbSymbolTableRecord
100
AcDbViewportTableRecord
  2
*Active
 70
     0
 10
0.0
 20
0.0
 11
1.0
 21
1.0
 12
4556.313661348325
 22
-1144.335215623296
 13
0.0
 23
0.0
 14
10.0
 24
10.0
 15
10.0
 25
10.0
 16
0.0
 26
0.0
 36
1.0
 17
0.0
 27
0.0
 37
0.0
 40
326.1856617628618
 41
1.992047713717693
 42
50.0
 43
0.0
 44
0.0
 50
0.0
 51
0.0
 71
     0
 72
   100
 73
     1
 74
     0
 75
     0
 76
     0
 77
     0
 78
     0
281
     0
 65
     1
110
0.0
120
0.0
130
0.0
111
1.0
121
0.0
131
0.0
112
0.0
122
1.0
132
0.0
 79
     0
146
0.0
  0
ENDTAB
  0
TABLE
  2
LTYPE
  5
5
330
0
100
AcDbSymbolTable
 70
    10
  0
LTYPE
  5
12
330
5
100
AcDbSymbolTableRecord
100
AcDbLinetypeTableRecord
  2
BYBLOCK
 70
     0
  3

 72
    65
 73
     0
 40
0.0
  0
LTYPE
  5
13
330
5
100
AcDbSymbolTableRecord
100
AcDbLinetypeTableRecord
  2
BYLAYER
 70
     0
  3

 72
    65
 73
     0
 40
0.0
  0
LTYPE
  5
14
330
5
100
AcDbSymbolTableRecord
100
AcDbLinetypeTableRecord
  2
CONTINUOUS
 70
     0
  3
Solid line
 72
    65
 73
     0
 40
0.0
  0
LTYPE
  5
126C
330
5
100
AcDbSymbolTableRecord
100
AcDbLinetypeTableRecord
  2
CENTER
 70
     0
  3
____ _ ____ _ ____ _ ____ _ ____ _ ____ _ ____
 72
    65
 73
     4
 40
2.0
 49
1.25
 74
     0
 49
-0.25
 74
     0
 49
0.25
 74
     0
 49
-0.25
 74
     0
  0
LTYPE
  5
126E
330
5
100
AcDbSymbolTableRecord
100
AcDbLinetypeTableRecord
  2
DASHDOT
 70
     0
  3
__ . __ . __ . __ . __ . __ . __ . __ . __ . __
 72
    65
 73
     4
 40
1.0
 49
0.5
 74
     0
 49
-0.25
 74
     0
 49
0.0
 74
     0
 49
-0.25
 74
     0
  0
LTYPE
  5
1541F
330
5
100
AcDbSymbolTableRecord
100
AcDbLinetypeTableRecord
  2
HIDDEN
 70
     0
  3
_ _ _ _ _ _ _ _ _ _ _ _ _ _ _ _ _ _ _ _ _ _ _
 72
    65
 73
     2
 40
0.375
 49
0.25
 74
     0
 49
-0.125
 74
     0
  0
LTYPE
  5
1615D
330
5
100
AcDbSymbolTableRecord
100
AcDbLinetypeTableRecord
  2
PHANTOM
 70
     0
  3
Phantom ______  __  __  ______  __  __  ______
 72
    65
 73
     6
 40
2.5
 49
1.25
 74
     0
 49
-0.25
 74
     0
 49
0.25
 74
     0
 49
-0.25
 74
     0
 49
0.25
 74
     0
 49
-0.25
 74
     0
  0
ENDTAB
  0
TABLE
  2
LAYER
  5
2
102
{ACAD_XDICTIONARY
360
28669
102
}
330
0
100
AcDbSymbolTable
 70
    45
  0
LAYER
  5
E
330
2
100
AcDbSymbolTableRecord
100
AcDbLayerTableRecord
  2
0
 70
     2
 62
     7
  6
CONTINUOUS
370
    35
390
FB5C
  0
LAYER
  5
2C
330
2
100
AcDbSymbolTableRecord
100
AcDbLayerTableRecord
  2
M_VIEW
 70
     4
 62
    -1
  6
CONTINUOUS
370
    -3
390
FB5C
  0
LAYER
  5
30
330
2
100
AcDbSymbolTableRecord
100
AcDbLayerTableRecord
  2
FRAME025
 70
     0
 62
     7
  6
CONTINUOUS
370
    -3
390
FB5C
  0
LAYER
  5
12B
330
2
100
AcDbSymbolTableRecord
100
AcDbLayerTableRecord
  2
DEFPOINTS
 70
     4
 62
    -7
  6
CONTINUOUS
290
     0
370
    -3
390
FB5C
  0
LAYER
  5
651
330
2
100
AcDbSymbolTableRecord
100
AcDbLayerTableRecord
  2
FRAME020
 70
     0
 62
     7
  6
CONTINUOUS
370
    -3
390
FB5C
  0
LAYER
  5
1271
330
2
100
AcDbSymbolTableRecord
100
AcDbLayerTableRecord
  2
A
 70
     0
 62
     7
  6
CONTINUOUS
370
    -3
390
FB5C
  0
LAYER
  5
A9BB
330
2
100
AcDbSymbolTableRecord
100
AcDbLayerTableRecord
  2
文字
 70
     0
 62
     2
  6
CONTINUOUS
370
    13
390
FB5C
  0
LAYER
  5
122DE
330
2
100
AcDbSymbolTableRecord
100
AcDbLayerTableRecord
  2
dimension
 70
     0
 62
     4
  6
CONTINUOUS
370
    13
390
FB5C
  0
LAYER
  5
15422
330
2
100
AcDbSymbolTableRecord
100
AcDbLayerTableRecord
  2
細線
 70
     0
 62
     4
  6
CONTINUOUS
370
    13
390
FB5C
  0
LAYER
  5
1A846
330
2
100
AcDbSymbolTableRecord
100
AcDbLayerTableRecord
  2
実線
 70
     0
 62
     3
  6
CONTINUOUS
370
    40
390
FB5C
  0
LAYER
  5
1BB4F
330
2
100
AcDbSymbolTableRecord
100
AcDbLayerTableRecord
  2
隠れ線
 70
     0
 62
   252
  6
HIDDEN
370
     9
390
FB5C
  0
LAYER
  5
1F118
330
2
100
AcDbSymbolTableRecord
100
AcDbLayerTableRecord
  2
wakumoji
 70
     0
 62
     7
  6
CONTINUOUS
370
    -3
390
FB5C
  0
ENDTAB
  0
TABLE
  2
STYLE
  5
3
330
0
100
AcDbSymbolTable
 70
    15
  0
STYLE
  5
F
330
3
100
AcDbSymbolTableRecord
100
AcDbTextStyleTableRecord
  2
STANDARD
 70
     0
 40
0.0
 41
1.0
 50
0.0
 71
     0
 42
2.5
  3
MS Gothic.ttf
  4

1001
ACAD
1000
MS Gothic
1071
    32817
  0
STYLE
  5
34
330
3
100
AcDbSymbolTableRecord
100
AcDbTextStyleTableRecord
  2
TIMESNR
 70
     0
 40
0.0
 41
1.0
 50
0.0
 71
     0
 42
2.0
  3
MS Gothic.ttf
  4

1001
ACAD
1000
MS Gothic
1071
    32817
  0
STYLE
  5
35
330
3
100
AcDbSymbolTableRecord
100
AcDbTextStyleTableRecord
  2
MSｺﾞｼｯｸ
 70
     0
 40
0.0
 41
1.0
 50
0.0
 71
     0
 42
5.0
  3
MS Gothic.ttf
  4

1001
ACAD
1000
MS Gothic
1071
    32817
  0
STYLE
  5
1275
330
3
100
AcDbSymbolTableRecord
100
AcDbTextStyleTableRecord
  2
BIGFONT
 70
     0
 40
2.0
 41
1.0
 50
0.0
 71
     0
 42
2.0
  3
MS Gothic.ttf
  4

1001
ACAD
1000
MS Gothic
1071
    32817
  0
STYLE
  5
1A849
330
3
100
AcDbSymbolTableRecord
100
AcDbTextStyleTableRecord
  2
まこ
 70
     0
 40
0.0
 41
1.0
 50
0.0
 71
     0
 42
2.5
  3
MS Gothic.ttf
  4

1001
ACAD
1000
MS Gothic
1071
    32817
  0
STYLE
  5
1A84A
330
3
100
AcDbSymbolTableRecord
100
AcDbTextStyleTableRecord
  2
ｽﾀｲﾙ3
 70
     0
 40
10.0
 41
1.0
 50
0.0
 71
     0
 42
10.0
  3
MS Gothic.ttf
  4

1001
ACAD
1000
MS Gothic
1071
    32817
  0
STYLE
  5
1F8B3
330
3
100
AcDbSymbolTableRecord
100
AcDbTextStyleTableRecord
  2
MSｺﾞｼｯｸN
 70
     0
 40
0.0
 41
1.0
 50
0.0
 71
     0
 42
5.0
  3
MS Gothic.ttf
  4

1001
ACAD
1000
MS Gothic
1071
    32817
  0
STYLE
  5
1FA56
330
3
100
AcDbSymbolTableRecord
100
AcDbTextStyleTableRecord
  2
MSゴシックN
 70
     0
 40
0.0
 41
1.0
 50
0.0
 71
     0
 42
5.0
  3
MS Gothic.ttf
  4

1001
ACAD
1000
MS Gothic
1071
    32817
  0
ENDTAB
  0
TABLE
  2
VIEW
  5
6
330
0
100
AcDbSymbolTable
 70
     0
  0
ENDTAB
  0
TABLE
  2
UCS
  5
7
330
0
100
AcDbSymbolTable
 70
     0
  0
ENDTAB
  0
TABLE
  2
APPID
  5
9
330
0
100
AcDbSymbolTable
 70
     4
  0
APPID
  5
10
330
9
100
AcDbSymbolTableRecord
100
AcDbRegAppTableRecord
  2
ACAD
 70
     0
  0
APPID
  5
F013
330
9
100
AcDbSymbolTableRecord
100
AcDbRegAppTableRecord
  2
CONTENTBLOCKDESCRIPTION
 70
     0
  0
APPID
  5
F014
330
9
100
AcDbSymbolTableRecord
100
AcDbRegAppTableRecord
  2
CONTENTBLOCKICON
 70
     0
  0
APPID
  5
1A9A0
330
9
100
AcDbSymbolTableRecord
100
AcDbRegAppTableRecord
  2
DCO15
 70
     0
  0
ENDTAB
  0
TABLE
  2
DIMSTYLE
  5
A
330
0
100
AcDbSymbolTable
 70
    14
100
AcDbDimStyleTable
 71
     2
340
1A84D
340
1D
  0
DIMSTYLE
105
1D
330
A
100
AcDbSymbolTableRecord
100
AcDbDimStyleTableRecord
  2
STANDARD
 70
     0
340
F
  0
DIMSTYLE
105
1A84D
102
{ACAD_REACTORS
330
26794
330
26818
330
2689C
330
2678A
330
268A1
330
26B83
330
26B82
330
26B81
330
26B80
330
26B7F
330
26C9B
330
26CA8
330
26CB5
330
26CE6
330
26EB9
330
26EC8
330
26ED5
330
26EE2
330
28104
330
2812E
330
2814A
330
26B72
330
26CFE
330
26EA8
330
26EAA
330
26F0F
102
}
330
A
100
AcDbSymbolTableRecord
100
AcDbDimStyleTableRecord
  2
まこ
 70
     0
 40
1.5
 41
2.5
 42
0.8
 73
     0
 74
     0
 77
     3
 78
     8
140
3.0
141
0.0
147
0.5
176
     4
177
     4
178
   256
271
     8
272
     8
289
     1
340
1A849
341
1215D
342
1215D
371
    13
372
    13
  0
ENDTAB
  0
TABLE
  2
BLOCK_RECORD
  5
1
330
0
100
AcDbSymbolTable
 70
    62
  0
BLOCK_RECORD
  5
18
102
{ACAD_XDICTIONARY
360
EFC6
102
}
330
1
100
AcDbSymbolTableRecord
100
AcDbBlockTableRecord
  2
*MODEL_SPACE
340
FB5D
  0
BLOCK_RECORD
  5
15
102
{ACAD_XDICTIONARY
360
EFC4
102
}
330
1
100
AcDbSymbolTableRecord
100
AcDbBlockTableRecord
  2
*PAPER_SPACE
340
FB5E
  0
BLOCK_RECORD
  5
115C
330
1
100
AcDbSymbolTableRecord
100
AcDbBlockTableRecord
  2
機械A4横_LBP
340
0
102
{BLKREFS
331
115F
331
187D7
102
}
  0
BLOCK_RECORD
  5
1215D
330
1
100
AcDbSymbolTableRecord
100
AcDbBlockTableRecord
  2
_Open30
340
0
102
{BLKREFS
331
28305
331
28306
331
28318
331
28319
331
28322
331
28323
331
283BB
331
283BC
331
283C5
331
283C6
331
283CF
331
283D0
331
2845B
331
2845C
331
2846E
331
2846F
331
284B1
331
284B2
331
284E0
331
284E1
331
284F3
331
284F4
331
284FE
331
284FF
331
2856C
331
2856D
331
28575
331
28576
331
2857E
331
2857F
331
28587
331
28588
331
286C6
331
286C7
331
286D9
331
286DA
331
2871A
331
28742
331
2886C
331
2886D
102
}
  0
BLOCK_RECORD
  5
153E2
330
1
100
AcDbSymbolTableRecord
100
AcDbBlockTableRecord
  2
_DotSmall
340
0
102
{BLKREFS
331
28719
331
28743
102
}
  0
BLOCK_RECORD
  5
2692D
330
1
100
AcDbSymbolTableRecord
100
AcDbBlockTableRecord
  2
*D39
340
0
  0
BLOCK_RECORD
  5
26939
330
1
100
AcDbSymbolTableRecord
100
AcDbBlockTableRecord
  2
*D40
340
0
  0
BLOCK_RECORD
  5
26983
330
1
100
AcDbSymbolTableRecord
100
AcDbBlockTableRecord
  2
*D41
340
0
  0
BLOCK_RECORD
  5
2698F
330
1
100
AcDbSymbolTableRecord
100
AcDbBlockTableRecord
  2
*D42
340
0
  0
BLOCK_RECORD
  5
269A7
330
1
100
AcDbSymbolTableRecord
100
AcDbBlockTableRecord
  2
*D43
340
0
  0
BLOCK_RECORD
  5
26B94
330
1
100
AcDbSymbolTableRecord
100
AcDbBlockTableRecord
  2
*D44
340
0
  0
BLOCK_RECORD
  5
26BA0
330
1
100
AcDbSymbolTableRecord
100
AcDbBlockTableRecord
  2
*D45
340
0
  0
BLOCK_RECORD
  5
26BAC
330
1
100
AcDbSymbolTableRecord
100
AcDbBlockTableRecord
  2
*D46
340
0
  0
BLOCK_RECORD
  5
26BBC
330
1
100
AcDbSymbolTableRecord
100
AcDbBlockTableRecord
  2
*D47
340
0
  0
BLOCK_RECORD
  5
26BC8
330
1
100
AcDbSymbolTableRecord
100
AcDbBlockTableRecord
  2
*D48
340
0
  0
BLOCK_RECORD
  5
26C9C
330
1
100
AcDbSymbolTableRecord
100
AcDbBlockTableRecord
  2
*D49
340
0
  0
BLOCK_RECORD
  5
26CA9
330
1
100
AcDbSymbolTableRecord
100
AcDbBlockTableRecord
  2
*D50
340
0
  0
BLOCK_RECORD
  5
26CB6
330
1
100
AcDbSymbolTableRecord
100
AcDbBlockTableRecord
  2
*D51
340
0
  0
BLOCK_RECORD
  5
26CE7
330
1
100
AcDbSymbolTableRecord
100
AcDbBlockTableRecord
  2
*D52
340
0
  0
BLOCK_RECORD
  5
26EBA
330
1
100
AcDbSymbolTableRecord
100
AcDbBlockTableRecord
  2
*D53
340
0
  0
BLOCK_RECORD
  5
26EC9
330
1
100
AcDbSymbolTableRecord
100
AcDbBlockTableRecord
  2
*D54
340
0
  0
BLOCK_RECORD
  5
26ED6
330
1
100
AcDbSymbolTableRecord
100
AcDbBlockTableRecord
  2
*D55
340
0
  0
BLOCK_RECORD
  5
26EE3
330
1
100
AcDbSymbolTableRecord
100
AcDbBlockTableRecord
  2
*D56
340
0
  0
BLOCK_RECORD
  5
28105
330
1
100
AcDbSymbolTableRecord
100
AcDbBlockTableRecord
  2
*D57
340
0
  0
BLOCK_RECORD
  5
2812F
330
1
100
AcDbSymbolTableRecord
100
AcDbBlockTableRecord
  2
*D58
340
0
  0
BLOCK_RECORD
  5
2814B
330
1
100
AcDbSymbolTableRecord
100
AcDbBlockTableRecord
  2
*D59
340
0
  0
ENDTAB
  0
ENDSEC
  0
SECTION
  2
BLOCKS
  0
BLOCK
  5
19
330
18
100
AcDbEntity
  8
0
100
AcDbBlockBegin
  2
*MODEL_SPACE
 70
     0
 10
0.0
 20
0.0
 30
0.0
  3
*MODEL_SPACE
  1

  0
ENDBLK
  5
1A
330
18
100
AcDbEntity
  8
0
100
AcDbBlockEnd
  0
BLOCK
  5
16
330
15
100
AcDbEntity
 67
     1
  8
0
100
AcDbBlockBegin
  2
*PAPER_SPACE
 70
     0
 10
0.0
 20
0.0
 30
0.0
  3
*PAPER_SPACE
  1

  0
ENDBLK
  5
17
330
15
100
AcDbEntity
 67
     1
  8
0
100
AcDbBlockEnd
  0
BLOCK
  5
115D
330
115C
100
AcDbEntity
  8
0
100
AcDbBlockBegin
  2
機械A4横_LBP
 70
     0
 10
0.0
 20
0.0
 30
0.0
  3
機械A4横_LBP
  1

  0
ENDBLK
  5
115E
330
115C
100
AcDbEntity
  8
0
100
AcDbBlockEnd
  0
BLOCK
  5
12161
330
1215D
100
AcDbEntity
  8
0
100
AcDbBlockBegin
  2
_Open30
 70
     0
 10
0.0
 20
0.0
 30
0.0
  3
_Open30
  1

  0
LINE
  5
1215E
330
1215D
100
AcDbEntity
  8
0
  6
ByBlock
 62
     0
370
    -2
100
AcDbLine
 10
-1.0
 20
0.26794919
 30
0.0
 11
0.0
 21
0.0
 31
0.0
  0
LINE
  5
1215F
330
1215D
100
AcDbEntity
  8
0
  6
ByBlock
 62
     0
370
    -2
100
AcDbLine
 10
0.0
 20
0.0
 30
0.0
 11
-1.0
 21
-0.26794919
 31
0.0
  0
LINE
  5
12160
330
1215D
100
AcDbEntity
  8
0
  6
ByBlock
 62
     0
370
    -2
100
AcDbLine
 10
0.0
 20
0.0
 30
0.0
 11
-1.0
 21
0.0
 31
0.0
  0
ENDBLK
  5
12162
330
1215D
100
AcDbEntity
  8
0
100
AcDbBlockEnd
  0
BLOCK
  5
153E4
330
153E2
100
AcDbEntity
  8
0
100
AcDbBlockBegin
  2
_DotSmall
 70
     0
 10
0.0
 20
0.0
 30
0.0
  3
_DotSmall
  1

  0
LWPOLYLINE
  5
153E3
330
153E2
100
AcDbEntity
  8
0
  6
ByBlock
 62
     0
100
AcDbPolyline
 90
        2
 70
     1
 43
0.5
 10
-0.0625
 20
0.0
 42
1.0
 10
0.0625
 20
0.0
 42
1.0
  0
ENDBLK
  5
153E5
330
153E2
100
AcDbEntity
  8
0
100
AcDbBlockEnd
  0
BLOCK
  5
26937
330
2692D
100
AcDbEntity
  8
0
 62
     4
370
    13
100
AcDbBlockBegin
  2
*D39
 70
     1
 10
0.0
 20
0.0
 30
0.0
  3
*D39
  1

  0
LINE
  5
28569
330
2692D
100
AcDbEntity
  8
文字
 62
     4
370
    13
100
AcDbLine
 10
4406.761898348199
 20
-1178.752370584253
 30
0.0
 11
4406.761898348199
 21
-1219.038888195348
 31
0.0
  0
LINE
  5
2856A
330
2692D
100
AcDbEntity
  8
文字
 62
     4
370
    13
100
AcDbLine
 10
4594.761898348198
 20
-1178.762245024304
 30
0.0
 11
4594.761898348198
 21
-1219.038888195348
 31
0.0
  0
LINE
  5
2856B
330
2692D
100
AcDbEntity
  8
文字
 62
     4
370
    13
100
AcDbLine
 10
4410.511898348199
 20
-1218.768888195348
 30
0.0
 11
4591.011898348198
 21
-1218.768888195348
 31
0.0
  0
INSERT
  5
2856C
330
2692D
100
AcDbEntity
  8
文字
 62
     4
370
    13
100
AcDbBlockReference
  2
_Open30
 10
4406.761898348199
 20
-1218.768888195348
 30
0.0
 41
3.75
 42
3.75
 43
3.75
 50
180.0
  0
INSERT
  5
2856D
330
2692D
100
AcDbEntity
  8
文字
 62
     4
370
    13
100
AcDbBlockReference
  2
_Open30
 10
4594.761898348198
 20
-1218.768888195348
 30
0.0
 41
3.75
 42
3.75
 43
3.75
  0
MTEXT
  5
2856E
330
2692D
100
AcDbEntity
  8
文字
370
    13
100
AcDbMText
 10
4500.761898348199
 20
-1215.768888195348
 30
0.0
 40
4.5
 41
0.0
 71
     5
 72
     1
  1
\A1;188
  7
まこ
 73
     1
 44
1.0
  0
POINT
  5
2856F
330
2692D
100
AcDbEntity
  8
DEFPOINTS
 62
     0
370
    13
100
AcDbPoint
 10
4406.761898348199
 20
-1177.552370584253
 30
0.0
  0
POINT
  5
28570
330
2692D
100
AcDbEntity
  8
DEFPOINTS
 62
     0
370
    13
100
AcDbPoint
 10
4594.761898348198
 20
-1177.562245024304
 30
0.0
  0
POINT
  5
28571
330
2692D
100
AcDbEntity
  8
DEFPOINTS
 62
     0
370
    13
100
AcDbPoint
 10
4594.761898348198
 20
-1218.768888195348
 30
0.0
  0
ENDBLK
  5
26938
330
2692D
100
AcDbEntity
  8
0
 62
     4
370
    13
100
AcDbBlockEnd
  0
BLOCK
  5
26943
330
26939
100
AcDbEntity
  8
0
 62
     4
370
    13
100
AcDbBlockBegin
  2
*D40
 70
     1
 10
0.0
 20
0.0
 30
0.0
  3
*D40
  1

  0
LINE
  5
28584
330
26939
100
AcDbEntity
  8
文字
 62
     4
370
    13
100
AcDbLine
 10
4406.761898348199
 20
-1178.762245024304
 30
0.0
 11
4406.761898348199
 21
-1208.403126211934
 31
0.0
  0
LINE
  5
28585
330
26939
100
AcDbEntity
  8
文字
 62
     4
370
    13
100
AcDbLine
 10
4436.761898348199
 20
-1176.319821873386
 30
0.0
 11
4436.761898348199
 21
-1208.403126211934
 31
0.0
  0
LINE
  5
28586
330
26939
100
AcDbEntity
  8
文字
 62
     4
370
    13
100
AcDbLine
 10
4410.511898348199
 20
-1208.133126211934
 30
0.0
 11
4433.011898348198
 21
-1208.133126211934
 31
0.0
  0
INSERT
  5
28587
330
26939
100
AcDbEntity
  8
文字
 62
     4
370
    13
100
AcDbBlockReference
  2
_Open30
 10
4406.761898348199
 20
-1208.133126211934
 30
0.0
 41
3.75
 42
3.75
 43
3.75
 50
180.0
  0
INSERT
  5
28588
330
26939
100
AcDbEntity
  8
文字
 62
     4
370
    13
100
AcDbBlockReference
  2
_Open30
 10
4436.761898348199
 20
-1208.133126211934
 30
0.0
 41
3.75
 42
3.75
 43
3.75
  0
MTEXT
  5
28589
330
26939
100
AcDbEntity
  8
文字
370
    13
100
AcDbMText
 10
4421.80648537563
 20
-1205.133126211934
 30
0.0
 40
4.5
 41
0.0
 71
     5
 72
     1
  1
\A1;30
  7
まこ
 73
     1
 44
1.0
  0
POINT
  5
2858A
330
26939
100
AcDbEntity
  8
DEFPOINTS
 62
     0
370
    13
100
AcDbPoint
 10
4406.761898348199
 20
-1177.562245024304
 30
0.0
  0
POINT
  5
2858B
330
26939
100
AcDbEntity
  8
DEFPOINTS
 62
     0
370
    13
100
AcDbPoint
 10
4436.761898348199
 20
-1175.119821873386
 30
0.0
  0
POINT
  5
2858C
330
26939
100
AcDbEntity
  8
DEFPOINTS
 62
     0
370
    13
100
AcDbPoint
 10
4436.761898348199
 20
-1208.133126211934
 30
0.0
  0
ENDBLK
  5
26944
330
26939
100
AcDbEntity
  8
0
 62
     4
370
    13
100
AcDbBlockEnd
  0
BLOCK
  5
2698D
330
26983
100
AcDbEntity
  8
0
 62
     4
370
    13
100
AcDbBlockBegin
  2
*D41
 70
     1
 10
0.0
 20
0.0
 30
0.0
  3
*D41
  1

  0
LINE
  5
28869
330
26983
100
AcDbEntity
  8
文字
 62
     4
370
    13
100
AcDbLine
 10
4594.781898348199
 20
-1179.871954620329
 30
0.0
 11
4594.781898348199
 21
-1220.158472231424
 31
0.0
  0
LINE
  5
2886A
330
26983
100
AcDbEntity
  8
文字
 62
     4
370
    13
100
AcDbLine
 10
4662.976107127188
 20
-1177.918063961217
 30
0.0
 11
4662.976107127188
 21
-1220.158472231424
 31
0.0
  0
LINE
  5
2886B
330
26983
100
AcDbEntity
  8
文字
 62
     4
370
    13
100
AcDbLine
 10
4598.531898348199
 20
-1219.888472231424
 30
0.0
 11
4659.226107127188
 21
-1219.888472231424
 31
0.0
  0
INSERT
  5
2886C
330
26983
100
AcDbEntity
  8
文字
 62
     4
370
    13
100
AcDbBlockReference
  2
_Open30
 10
4594.781898348199
 20
-1219.888472231424
 30
0.0
 41
3.75
 42
3.75
 43
3.75
 50
180.0
  0
INSERT
  5
2886D
330
26983
100
AcDbEntity
  8
文字
 62
     4
370
    13
100
AcDbBlockReference
  2
_Open30
 10
4662.976107127188
 20
-1219.888472231424
 30
0.0
 41
3.75
 42
3.75
 43
3.75
  0
MTEXT
  5
2886E
330
26983
100
AcDbEntity
  8
文字
370
    13
100
AcDbMText
 10
4628.879002737694
 20
-1216.888472231424
 30
0.0
 40
4.5
 41
0.0
 71
     5
 72
     1
  1
\A1;（200）
  7
まこ
 73
     1
 44
1.0
  0
POINT
  5
2886F
330
26983
100
AcDbEntity
  8
DEFPOINTS
 62
     0
370
    13
100
AcDbPoint
 10
4594.781898348199
 20
-1178.671954620329
 30
0.0
  0
POINT
  5
28870
330
26983
100
AcDbEntity
  8
DEFPOINTS
 62
     0
370
    13
100
AcDbPoint
 10
4662.976107127188
 20
-1176.718063961217
 30
0.0
  0
POINT
  5
28871
330
26983
100
AcDbEntity
  8
DEFPOINTS
 62
     0
370
    13
100
AcDbPoint
 10
4662.976107127188
 20
-1219.888472231424
 30
0.0
  0
ENDBLK
  5
2698E
330
26983
100
AcDbEntity
  8
0
 62
     4
370
    13
100
AcDbBlockEnd
  0
BLOCK
  5
26999
330
2698F
100
AcDbEntity
  8
0
 62
     4
370
    13
100
AcDbBlockBegin
  2
*D42
 70
     1
 10
0.0
 20
0.0
 30
0.0
  3
*D42
  1

  0
LINE
  5
2857B
330
2698F
100
AcDbEntity
  8
文字
 62
     4
370
    13
100
AcDbLine
 10
4436.761898348199
 20
-1176.319821873386
 30
0.0
 11
4436.761898348199
 21
-1208.403126211934
 31
0.0
  0
LINE
  5
2857C
330
2698F
100
AcDbEntity
  8
文字
 62
     4
370
    13
100
AcDbLine
 10
4564.761898348199
 20
-1175.66419457365
 30
0.0
 11
4564.761898348199
 21
-1208.403126211934
 31
0.0
  0
LINE
  5
2857D
330
2698F
100
AcDbEntity
  8
文字
 62
     4
370
    13
100
AcDbLine
 10
4440.511898348199
 20
-1208.133126211934
 30
0.0
 11
4561.011898348199
 21
-1208.133126211934
 31
0.0
  0
INSERT
  5
2857E
330
2698F
100
AcDbEntity
  8
文字
 62
     4
370
    13
100
AcDbBlockReference
  2
_Open30
 10
4436.761898348199
 20
-1208.133126211934
 30
0.0
 41
3.75
 42
3.75
 43
3.75
 50
180.0
  0
INSERT
  5
2857F
330
2698F
100
AcDbEntity
  8
文字
 62
     4
370
    13
100
AcDbBlockReference
  2
_Open30
 10
4564.761898348199
 20
-1208.133126211934
 30
0.0
 41
3.75
 42
3.75
 43
3.75
  0
MTEXT
  5
28580
330
2698F
100
AcDbEntity
  8
文字
370
    13
100
AcDbMText
 10
4500.761898348199
 20
-1205.133126211934
 30
0.0
 40
4.5
 41
0.0
 71
     5
 72
     1
  1
\A1;2xP64=128
  7
まこ
 73
     1
 44
1.0
  0
POINT
  5
28581
330
2698F
100
AcDbEntity
  8
DEFPOINTS
 62
     0
370
    13
100
AcDbPoint
 10
4436.761898348199
 20
-1175.119821873386
 30
0.0
  0
POINT
  5
28582
330
2698F
100
AcDbEntity
  8
DEFPOINTS
 62
     0
370
    13
100
AcDbPoint
 10
4564.761898348199
 20
-1174.46419457365
 30
0.0
  0
POINT
  5
28583
330
2698F
100
AcDbEntity
  8
DEFPOINTS
 62
     0
370
    13
100
AcDbPoint
 10
4564.761898348199
 20
-1208.133126211934
 30
0.0
  0
ENDBLK
  5
2699A
330
2698F
100
AcDbEntity
  8
0
 62
     4
370
    13
100
AcDbBlockEnd
  0
BLOCK
  5
269B1
330
269A7
100
AcDbEntity
  8
0
 62
     4
370
    13
100
AcDbBlockBegin
  2
*D43
 70
     1
 10
0.0
 20
0.0
 30
0.0
  3
*D43
  1

  0
LINE
  5
28572
330
269A7
100
AcDbEntity
  8
文字
 62
     4
370
    13
100
AcDbLine
 10
4564.761898348199
 20
-1175.66419457365
 30
0.0
 11
4564.761898348199
 21
-1208.403126211934
 31
0.0
  0
LINE
  5
28573
330
269A7
100
AcDbEntity
  8
文字
 62
     4
370
    13
100
AcDbLine
 10
4594.761898348198
 20
-1178.762245024304
 30
0.0
 11
4594.761898348198
 21
-1208.403126211934
 31
0.0
  0
LINE
  5
28574
330
269A7
100
AcDbEntity
  8
文字
 62
     4
370
    13
100
AcDbLine
 10
4568.511898348199
 20
-1208.133126211934
 30
0.0
 11
4591.011898348198
 21
-1208.133126211934
 31
0.0
  0
INSERT
  5
28575
330
269A7
100
AcDbEntity
  8
文字
 62
     4
370
    13
100
AcDbBlockReference
  2
_Open30
 10
4564.761898348199
 20
-1208.133126211934
 30
0.0
 41
3.75
 42
3.75
 43
3.75
 50
180.0
  0
INSERT
  5
28576
330
269A7
100
AcDbEntity
  8
文字
 62
     4
370
    13
100
AcDbBlockReference
  2
_Open30
 10
4594.761898348198
 20
-1208.133126211934
 30
0.0
 41
3.75
 42
3.75
 43
3.75
  0
MTEXT
  5
28577
330
269A7
100
AcDbEntity
  8
文字
370
    13
100
AcDbMText
 10
4579.761898348198
 20
-1205.133126211934
 30
0.0
 40
4.5
 41
0.0
 71
     5
 72
     1
  1
\A1;（30）
  7
まこ
 73
     1
 44
1.0
  0
POINT
  5
28578
330
269A7
100
AcDbEntity
  8
DEFPOINTS
 62
     0
370
    13
100
AcDbPoint
 10
4564.761898348199
 20
-1174.46419457365
 30
0.0
  0
POINT
  5
28579
330
269A7
100
AcDbEntity
  8
DEFPOINTS
 62
     0
370
    13
100
AcDbPoint
 10
4594.761898348198
 20
-1177.562245024304
 30
0.0
  0
POINT
  5
2857A
330
269A7
100
AcDbEntity
  8
DEFPOINTS
 62
     0
370
    13
100
AcDbPoint
 10
4594.761898348198
 20
-1208.133126211934
 30
0.0
  0
ENDBLK
  5
269B2
330
269A7
100
AcDbEntity
  8
0
 62
     4
370
    13
100
AcDbBlockEnd
  0
BLOCK
  5
26B9E
330
26B94
100
AcDbEntity
  8
0
 62
     4
370
    13
100
AcDbBlockBegin
  2
*D44
 70
     1
 10
0.0
 20
0.0
 30
0.0
  3
*D44
  1

  0
LINE
  5
286C3
330
26B94
100
AcDbEntity
  8
0
 62
     4
370
    13
100
AcDbLine
 10
4738.906876603704
 20
-1046.359955563712
 30
0.0
 11
4738.906876603704
 21
-988.2741756183618
 31
0.0
  0
LINE
  5
286C4
330
26B94
100
AcDbEntity
  8
0
 62
     4
370
    13
100
AcDbLine
 10
4792.906876603704
 20
-1046.359933425514
 30
0.0
 11
4792.906876603704
 21
-988.2741756183618
 31
0.0
  0
LINE
  5
286C5
330
26B94
100
AcDbEntity
  8
0
 62
     4
370
    13
100
AcDbLine
 10
4742.656876603704
 20
-988.5441756183618
 30
0.0
 11
4789.156876603704
 21
-988.5441756183618
 31
0.0
  0
INSERT
  5
286C6
330
26B94
100
AcDbEntity
  8
0
 62
     4
370
    13
100
AcDbBlockReference
  2
_Open30
 10
4738.906876603704
 20
-988.5441756183618
 30
0.0
 41
3.75
 42
3.75
 43
3.75
 50
180.0
  0
INSERT
  5
286C7
330
26B94
100
AcDbEntity
  8
0
 62
     4
370
    13
100
AcDbBlockReference
  2
_Open30
 10
4792.906876603704
 20
-988.5441756183618
 30
0.0
 41
3.75
 42
3.75
 43
3.75
  0
MTEXT
  5
286C8
330
26B94
100
AcDbEntity
  8
0
370
    13
100
AcDbMText
 10
4765.906876603704
 20
-985.5441756183617
 30
0.0
 40
4.5
 41
0.0
 71
     5
 72
     1
  1
\A1;54（取付寸法）
  7
まこ
 73
     1
 44
1.0
  0
POINT
  5
286C9
330
26B94
100
AcDbEntity
  8
DEFPOINTS
 62
     0
100
AcDbPoint
 10
4738.906876603704
 20
-1047.559955563712
 30
0.0
  0
POINT
  5
286CA
330
26B94
100
AcDbEntity
  8
DEFPOINTS
 62
     0
100
AcDbPoint
 10
4792.906876603704
 20
-1047.559933425514
 30
0.0
  0
POINT
  5
286CB
330
26B94
100
AcDbEntity
  8
DEFPOINTS
 62
     0
100
AcDbPoint
 10
4792.906876603704
 20
-988.5441756183618
 30
0.0
  0
ENDBLK
  5
26B9F
330
26B94
100
AcDbEntity
  8
0
 62
     4
370
    13
100
AcDbBlockEnd
  0
BLOCK
  5
26BAA
330
26BA0
100
AcDbEntity
  8
0
 62
     4
370
    13
100
AcDbBlockBegin
  2
*D45
 70
     1
 10
0.0
 20
0.0
 30
0.0
  3
*D45
  1

  0
LINE
  5
283B8
330
26BA0
100
AcDbEntity
  8
0
 62
     4
370
    13
100
AcDbLine
 10
4738.906876603704
 20
-1046.359955563712
 30
0.0
 11
4738.906876603704
 21
-1007.182399042242
 31
0.0
  0
LINE
  5
283B9
330
26BA0
100
AcDbEntity
  8
0
 62
     4
370
    13
100
AcDbLine
 10
4778.906876603705
 20
-1046.359955563712
 30
0.0
 11
4778.906876603705
 21
-1007.182399042242
 31
0.0
  0
LINE
  5
283BA
330
26BA0
100
AcDbEntity
  8
0
 62
     4
370
    13
100
AcDbLine
 10
4742.656876603704
 20
-1007.452399042242
 30
0.0
 11
4775.156876603705
 21
-1007.452399042242
 31
0.0
  0
INSERT
  5
283BB
330
26BA0
100
AcDbEntity
  8
0
 62
     4
370
    13
100
AcDbBlockReference
  2
_Open30
 10
4738.906876603704
 20
-1007.452399042242
 30
0.0
 41
3.75
 42
3.75
 43
3.75
 50
180.0
  0
INSERT
  5
283BC
330
26BA0
100
AcDbEntity
  8
0
 62
     4
370
    13
100
AcDbBlockReference
  2
_Open30
 10
4778.906876603705
 20
-1007.452399042242
 30
0.0
 41
3.75
 42
3.75
 43
3.75
  0
MTEXT
  5
283BD
330
26BA0
100
AcDbEntity
  8
0
370
    13
100
AcDbMText
 10
4758.906876603704
 20
-1004.452399042242
 30
0.0
 40
4.5
 41
0.0
 71
     5
 72
     1
  1
\A1;40
  7
まこ
 73
     1
 44
1.0
  0
POINT
  5
283BE
330
26BA0
100
AcDbEntity
  8
DEFPOINTS
 62
     0
370
    13
100
AcDbPoint
 10
4738.906876603704
 20
-1047.559955563712
 30
0.0
  0
POINT
  5
283BF
330
26BA0
100
AcDbEntity
  8
DEFPOINTS
 62
     0
370
    13
100
AcDbPoint
 10
4778.906876603705
 20
-1047.559955563712
 30
0.0
  0
POINT
  5
283C0
330
26BA0
100
AcDbEntity
  8
DEFPOINTS
 62
     0
370
    13
100
AcDbPoint
 10
4778.906876603705
 20
-1007.452399042242
 30
0.0
  0
ENDBLK
  5
26BAB
330
26BA0
100
AcDbEntity
  8
0
 62
     4
370
    13
100
AcDbBlockEnd
  0
BLOCK
  5
26BBA
330
26BAC
100
AcDbEntity
  8
0
 62
     4
370
    13
100
AcDbBlockBegin
  2
*D46
 70
     1
 10
0.0
 20
0.0
 30
0.0
  3
*D46
  1

  0
LINE
  5
2873D
330
26BAC
100
AcDbEntity
  8
0
 62
     4
370
    13
100
AcDbLine
 10
4778.906876603705
 20
-1046.359955563712
 30
0.0
 11
4778.906876603705
 21
-1007.182399042242
 31
0.0
  0
LINE
  5
2873E
330
26BAC
100
AcDbEntity
  8
0
 62
     4
370
    13
100
AcDbLine
 10
4780.106876603704
 20
-1061.283500741361
 30
0.0
 11
4780.106876603704
 21
-1007.182399042242
 31
0.0
  0
LINE
  5
2873F
330
26BAC
100
AcDbEntity
  8
0
 62
     4
370
    13
100
AcDbLine
 10
4775.156876603705
 20
-1007.452399042242
 30
0.0
 11
4771.406876603704
 21
-1007.452399042242
 31
0.0
  0
LINE
  5
28740
330
26BAC
100
AcDbEntity
  8
0
 62
     4
370
    13
100
AcDbLine
 10
4780.106876603704
 20
-1007.452399042242
 30
0.0
 11
4783.856876603704
 21
-1007.452399042242
 31
0.0
  0
MTEXT
  5
28741
330
26BAC
100
AcDbEntity
  8
0
370
    13
100
AcDbMText
 10
4799.114447017556
 20
-994.6455010894323
 30
0.0
 40
4.5
 41
0.0
 71
     5
 72
     1
  1
\A1;1.2
  7
まこ
 73
     1
 44
1.0
  0
INSERT
  5
28742
330
26BAC
100
AcDbEntity
  8
0
 62
     4
370
    13
100
AcDbBlockReference
  2
_Open30
 10
4778.906876603705
 20
-1007.452399042242
 30
0.0
 41
3.75
 42
3.75
 43
3.75
  0
INSERT
  5
28743
330
26BAC
100
AcDbEntity
  8
0
 62
     4
370
    13
100
AcDbBlockReference
  2
_DotSmall
 10
4780.106876603704
 20
-1007.452399042242
 30
0.0
 41
3.75
 42
3.75
 43
3.75
 50
180.0
  0
POINT
  5
28744
330
26BAC
100
AcDbEntity
  8
DEFPOINTS
 62
     0
100
AcDbPoint
 10
4778.906876603705
 20
-1047.559955563712
 30
0.0
  0
POINT
  5
28745
330
26BAC
100
AcDbEntity
  8
DEFPOINTS
 62
     0
100
AcDbPoint
 10
4780.106876603704
 20
-1062.483500741361
 30
0.0
  0
POINT
  5
28746
330
26BAC
100
AcDbEntity
  8
DEFPOINTS
 62
     0
100
AcDbPoint
 10
4780.106876603704
 20
-1007.452399042242
 30
0.0
  0
ENDBLK
  5
26BBB
330
26BAC
100
AcDbEntity
  8
0
 62
     4
370
    13
100
AcDbBlockEnd
  0
BLOCK
  5
26BC6
330
26BBC
100
AcDbEntity
  8
0
 62
     4
370
    13
100
AcDbBlockBegin
  2
*D47
 70
     1
 10
0.0
 20
0.0
 30
0.0
  3
*D47
  1

  0
LINE
  5
28714
330
26BBC
100
AcDbEntity
  8
0
 62
     4
370
    13
100
AcDbLine
 10
4780.106876603704
 20
-1061.283500741361
 30
0.0
 11
4780.106876603704
 21
-1007.182399042242
 31
0.0
  0
LINE
  5
28715
330
26BBC
100
AcDbEntity
  8
0
 62
     4
370
    13
100
AcDbLine
 10
4792.906876603704
 20
-1046.361722748411
 30
0.0
 11
4792.906876603704
 21
-1007.182399042242
 31
0.0
  0
LINE
  5
28716
330
26BBC
100
AcDbEntity
  8
0
 62
     4
370
    13
100
AcDbLine
 10
4780.106876603704
 20
-1007.452399042242
 30
0.0
 11
4776.356876603705
 21
-1007.452399042242
 31
0.0
  0
LINE
  5
28717
330
26BBC
100
AcDbEntity
  8
0
 62
     4
370
    13
100
AcDbLine
 10
4796.656876603704
 20
-1007.452399042242
 30
0.0
 11
4814.764019460848
 21
-1007.452399042242
 31
0.0
  0
LINE
  5
28718
330
26BBC
100
AcDbEntity
  8
0
 62
     4
370
    13
100
AcDbLine
 10
4780.106876603704
 20
-1007.452399042242
 30
0.0
 11
4792.906876603704
 21
-1007.452399042242
 31
0.0
  0
INSERT
  5
28719
330
26BBC
100
AcDbEntity
  8
0
 62
     4
370
    13
100
AcDbBlockReference
  2
_DotSmall
 10
4780.106876603704
 20
-1007.452399042242
 30
0.0
 41
3.75
 42
3.75
 43
3.75
  0
INSERT
  5
2871A
330
26BBC
100
AcDbEntity
  8
0
 62
     4
370
    13
100
AcDbBlockReference
  2
_Open30
 10
4792.906876603704
 20
-1007.452399042242
 30
0.0
 41
3.75
 42
3.75
 43
3.75
 50
180.0
  0
MTEXT
  5
2871B
330
26BBC
100
AcDbEntity
  8
0
370
    13
100
AcDbMText
 10
4807.585448032276
 20
-1004.452399042242
 30
0.0
 40
4.5
 41
0.0
 71
     5
 72
     1
  1
\A1;12.8
  7
まこ
 73
     1
 44
1.0
  0
POINT
  5
2871C
330
26BBC
100
AcDbEntity
  8
DEFPOINTS
 62
     0
100
AcDbPoint
 10
4780.106876603704
 20
-1062.483500741361
 30
0.0
  0
POINT
  5
2871D
330
26BBC
100
AcDbEntity
  8
DEFPOINTS
 62
     0
100
AcDbPoint
 10
4792.906876603704
 20
-1047.561722748411
 30
0.0
  0
POINT
  5
2871E
330
26BBC
100
AcDbEntity
  8
DEFPOINTS
 62
     0
100
AcDbPoint
 10
4792.906876603704
 20
-1007.452399042242
 30
0.0
  0
ENDBLK
  5
26BC7
330
26BBC
100
AcDbEntity
  8
0
 62
     4
370
    13
100
AcDbBlockEnd
  0
BLOCK
  5
26BD2
330
26BC8
100
AcDbEntity
  8
0
 62
     4
370
    13
100
AcDbBlockBegin
  2
*D48
 70
     1
 10
0.0
 20
0.0
 30
0.0
  3
*D48
  1

  0
LINE
  5
286D5
330
26BC8
100
AcDbEntity
  8
0
 62
     4
370
    13
100
AcDbLine
 10
4785.106826846736
 20
-1046.359933425514
 30
0.0
 11
4785.106826846736
 21
-1017.047054521938
 31
0.0
  0
LINE
  5
286D6
330
26BC8
100
AcDbEntity
  8
0
 62
     4
370
    13
100
AcDbLine
 10
4792.906826846736
 20
-1046.359933425514
 30
0.0
 11
4792.906826846736
 21
-1017.047054521938
 31
0.0
  0
LINE
  5
286D7
330
26BC8
100
AcDbEntity
  8
0
 62
     4
370
    13
100
AcDbLine
 10
4781.356826846736
 20
-1017.317054521938
 30
0.0
 11
4777.606826846736
 21
-1017.317054521938
 31
0.0
  0
LINE
  5
286D8
330
26BC8
100
AcDbEntity
  8
0
 62
     4
370
    13
100
AcDbLine
 10
4796.656826846736
 20
-1017.317054521938
 30
0.0
 11
4811.335398275308
 21
-1017.317054521938
 31
0.0
  0
INSERT
  5
286D9
330
26BC8
100
AcDbEntity
  8
0
 62
     4
370
    13
100
AcDbBlockReference
  2
_Open30
 10
4785.106826846736
 20
-1017.317054521938
 30
0.0
 41
3.75
 42
3.75
 43
3.75
  0
INSERT
  5
286DA
330
26BC8
100
AcDbEntity
  8
0
 62
     4
370
    13
100
AcDbBlockReference
  2
_Open30
 10
4792.906826846736
 20
-1017.317054521938
 30
0.0
 41
3.75
 42
3.75
 43
3.75
 50
180.0
  0
MTEXT
  5
286DB
330
26BC8
100
AcDbEntity
  8
0
370
    13
100
AcDbMText
 10
4805.871112561021
 20
-1014.317054521938
 30
0.0
 40
4.5
 41
0.0
 71
     5
 72
     1
  1
\A1;7.8
  7
まこ
 73
     1
 44
1.0
  0
POINT
  5
286DC
330
26BC8
100
AcDbEntity
  8
DEFPOINTS
 62
     0
100
AcDbPoint
 10
4785.106826846736
 20
-1047.559933425514
 30
0.0
  0
POINT
  5
286DD
330
26BC8
100
AcDbEntity
  8
DEFPOINTS
 62
     0
100
AcDbPoint
 10
4792.906826846736
 20
-1047.559933425514
 30
0.0
  0
POINT
  5
286DE
330
26BC8
100
AcDbEntity
  8
DEFPOINTS
 62
     0
100
AcDbPoint
 10
4792.906826846736
 20
-1017.317054521938
 30
0.0
  0
ENDBLK
  5
26BD3
330
26BC8
100
AcDbEntity
  8
0
 62
     4
370
    13
100
AcDbBlockEnd
  0
BLOCK
  5
26CA6
330
26C9C
100
AcDbEntity
  8
0
 62
     4
370
    13
100
AcDbBlockBegin
  2
*D49
 70
     1
 10
0.0
 20
0.0
 30
0.0
  3
*D49
  1

  0
LINE
  5
2846B
330
26C9C
100
AcDbEntity
  8
0
 62
     4
370
    13
100
AcDbLine
 10
4737.706876603705
 20
-1047.559955563712
 30
0.0
 11
4714.72494391602
 21
-1047.559955563712
 31
0.0
  0
LINE
  5
2846C
330
26C9C
100
AcDbEntity
  8
0
 62
     4
370
    13
100
AcDbLine
 10
4737.706876603705
 20
-1065.559955563712
 30
0.0
 11
4714.72494391602
 21
-1065.559955563712
 31
0.0
  0
LINE
  5
2846D
330
26C9C
100
AcDbEntity
  8
0
 62
     4
370
    13
100
AcDbLine
 10
4714.99494391602
 20
-1051.309955563712
 30
0.0
 11
4714.99494391602
 21
-1061.809955563712
 31
0.0
  0
INSERT
  5
2846E
330
26C9C
100
AcDbEntity
  8
0
 62
     4
370
    13
100
AcDbBlockReference
  2
_Open30
 10
4714.99494391602
 20
-1047.559955563712
 30
0.0
 41
3.75
 42
3.75
 43
3.75
 50
90.0
  0
INSERT
  5
2846F
330
26C9C
100
AcDbEntity
  8
0
 62
     4
370
    13
100
AcDbBlockReference
  2
_Open30
 10
4714.99494391602
 20
-1065.559955563712
 30
0.0
 41
3.75
 42
3.75
 43
3.75
 50
270.0
  0
MTEXT
  5
28470
330
26C9C
100
AcDbEntity
  8
0
370
    13
100
AcDbMText
 10
4711.99494391602
 20
-1056.559955563711
 30
0.0
 40
4.5
 41
0.0
 71
     5
 72
     1
  1
\A1;（18）
  7
まこ
 11
0.0000000000000001
 21
1.0
 31
0.0
 73
     1
 44
1.0
  0
POINT
  5
28471
330
26C9C
100
AcDbEntity
  8
DEFPOINTS
 62
     0
370
    13
100
AcDbPoint
 10
4738.906876603704
 20
-1047.559955563712
 30
0.0
  0
POINT
  5
28472
330
26C9C
100
AcDbEntity
  8
DEFPOINTS
 62
     0
370
    13
100
AcDbPoint
 10
4738.906876603704
 20
-1065.559955563712
 30
0.0
  0
POINT
  5
28473
330
26C9C
100
AcDbEntity
  8
DEFPOINTS
 62
     0
370
    13
100
AcDbPoint
 10
4714.99494391602
 20
-1065.559955563712
 30
0.0
  0
ENDBLK
  5
26CA7
330
26C9C
100
AcDbEntity
  8
0
 62
     4
370
    13
100
AcDbBlockEnd
  0
BLOCK
  5
26CB3
330
26CA9
100
AcDbEntity
  8
0
 62
     4
370
    13
100
AcDbBlockBegin
  2
*D50
 70
     1
 10
0.0
 20
0.0
 30
0.0
  3
*D50
  1

  0
LINE
  5
283CC
330
26CA9
100
AcDbEntity
  8
0
 62
     4
370
    13
100
AcDbLine
 10
4737.706876603705
 20
-1065.559955563712
 30
0.0
 11
4714.72494391602
 21
-1065.559955563712
 31
0.0
  0
LINE
  5
283CD
330
26CA9
100
AcDbEntity
  8
0
 62
     4
370
    13
100
AcDbLine
 10
4737.706876603705
 20
-1159.559955563712
 30
0.0
 11
4714.72494391602
 21
-1159.559955563712
 31
0.0
  0
LINE
  5
283CE
330
26CA9
100
AcDbEntity
  8
0
 62
     4
370
    13
100
AcDbLine
 10
4714.99494391602
 20
-1069.309955563712
 30
0.0
 11
4714.99494391602
 21
-1155.809955563712
 31
0.0
  0
INSERT
  5
283CF
330
26CA9
100
AcDbEntity
  8
0
 62
     4
370
    13
100
AcDbBlockReference
  2
_Open30
 10
4714.99494391602
 20
-1065.559955563712
 30
0.0
 41
3.75
 42
3.75
 43
3.75
 50
90.0
  0
INSERT
  5
283D0
330
26CA9
100
AcDbEntity
  8
0
 62
     4
370
    13
100
AcDbBlockReference
  2
_Open30
 10
4714.99494391602
 20
-1159.559955563712
 30
0.0
 41
3.75
 42
3.75
 43
3.75
 50
270.0
  0
MTEXT
  5
283D1
330
26CA9
100
AcDbEntity
  8
0
370
    13
100
AcDbMText
 10
4711.99494391602
 20
-1112.559955563711
 30
0.0
 40
4.5
 41
0.0
 71
     5
 72
     1
  1
\A1;94
  7
まこ
 11
0.0000000000000001
 21
1.0
 31
0.0
 73
     1
 44
1.0
  0
POINT
  5
283D2
330
26CA9
100
AcDbEntity
  8
DEFPOINTS
 62
     0
370
    13
100
AcDbPoint
 10
4738.906876603704
 20
-1065.559955563712
 30
0.0
  0
POINT
  5
283D3
330
26CA9
100
AcDbEntity
  8
DEFPOINTS
 62
     0
370
    13
100
AcDbPoint
 10
4738.906876603704
 20
-1159.559955563712
 30
0.0
  0
POINT
  5
283D4
330
26CA9
100
AcDbEntity
  8
DEFPOINTS
 62
     0
370
    13
100
AcDbPoint
 10
4714.99494391602
 20
-1159.559955563712
 30
0.0
  0
ENDBLK
  5
26CB4
330
26CA9
100
AcDbEntity
  8
0
 62
     4
370
    13
100
AcDbBlockEnd
  0
BLOCK
  5
26CC0
330
26CB6
100
AcDbEntity
  8
0
 62
     4
370
    13
100
AcDbBlockBegin
  2
*D51
 70
     1
 10
0.0
 20
0.0
 30
0.0
  3
*D51
  1

  0
LINE
  5
28458
330
26CB6
100
AcDbEntity
  8
0
 62
     4
370
    13
100
AcDbLine
 10
4738.207535920843
 20
-1159.559911699457
 30
0.0
 11
4714.72494391602
 21
-1159.559911699457
 31
0.0
  0
LINE
  5
28459
330
26CB6
100
AcDbEntity
  8
0
 62
     4
370
    13
100
AcDbLine
 10
4737.706876605421
 20
-1177.559911699457
 30
0.0
 11
4714.72494391602
 21
-1177.559911699457
 31
0.0
  0
LINE
  5
2845A
330
26CB6
100
AcDbEntity
  8
0
 62
     4
370
    13
100
AcDbLine
 10
4714.99494391602
 20
-1163.309911699457
 30
0.0
 11
4714.99494391602
 21
-1173.809911699457
 31
0.0
  0
INSERT
  5
2845B
330
26CB6
100
AcDbEntity
  8
0
 62
     4
370
    13
100
AcDbBlockReference
  2
_Open30
 10
4714.99494391602
 20
-1159.559911699457
 30
0.0
 41
3.75
 42
3.75
 43
3.75
 50
90.0
  0
INSERT
  5
2845C
330
26CB6
100
AcDbEntity
  8
0
 62
     4
370
    13
100
AcDbBlockReference
  2
_Open30
 10
4714.99494391602
 20
-1177.559911699457
 30
0.0
 41
3.75
 42
3.75
 43
3.75
 50
270.0
  0
MTEXT
  5
2845D
330
26CB6
100
AcDbEntity
  8
0
370
    13
100
AcDbMText
 10
4711.99494391602
 20
-1168.559911699456
 30
0.0
 40
4.5
 41
0.0
 71
     5
 72
     1
  1
\A1;（18）
  7
まこ
 11
0.0000000000000001
 21
1.0
 31
0.0
 73
     1
 44
1.0
  0
POINT
  5
2845E
330
26CB6
100
AcDbEntity
  8
DEFPOINTS
 62
     0
370
    13
100
AcDbPoint
 10
4739.407535920843
 20
-1159.559911699457
 30
0.0
  0
POINT
  5
2845F
330
26CB6
100
AcDbEntity
  8
DEFPOINTS
 62
     0
370
    13
100
AcDbPoint
 10
4738.906876605422
 20
-1177.559911699457
 30
0.0
  0
POINT
  5
28460
330
26CB6
100
AcDbEntity
  8
DEFPOINTS
 62
     0
370
    13
100
AcDbPoint
 10
4714.99494391602
 20
-1177.559911699457
 30
0.0
  0
ENDBLK
  5
26CC1
330
26CB6
100
AcDbEntity
  8
0
 62
     4
370
    13
100
AcDbBlockEnd
  0
BLOCK
  5
26CF2
330
26CE7
100
AcDbEntity
  8
0
 62
     4
370
    13
100
AcDbBlockBegin
  2
*D52
 70
     1
 10
0.0
 20
0.0
 30
0.0
  3
*D52
  1

  0
LINE
  5
283C1
330
26CE7
100
AcDbEntity
  8
0
 62
     4
370
    13
100
AcDbLine
 10
4738.906876603704
 20
-1066.759955563712
 30
0.0
 11
4738.906876603704
 21
-1084.232764455629
 31
0.0
  0
LINE
  5
283C2
330
26CE7
100
AcDbEntity
  8
0
 62
     4
370
    13
100
AcDbLine
 10
4739.406876603704
 20
-1066.759955563712
 30
0.0
 11
4739.406876603704
 21
-1084.232764455629
 31
0.0
  0
LINE
  5
283C3
330
26CE7
100
AcDbEntity
  8
0
 62
     4
370
    13
100
AcDbLine
 10
4743.156876603705
 20
-1083.962764455629
 30
0.0
 11
4746.906876603705
 21
-1083.962764455629
 31
0.0
  0
LINE
  5
283C4
330
26CE7
100
AcDbEntity
  8
0
 62
     4
370
    13
100
AcDbLine
 10
4735.156876603705
 20
-1083.962764455629
 30
0.0
 11
4720.478305175133
 21
-1083.962764455629
 31
0.0
  0
INSERT
  5
283C5
330
26CE7
100
AcDbEntity
  8
0
 62
     4
370
    13
100
AcDbBlockReference
  2
_Open30
 10
4739.406876603704
 20
-1083.962764455629
 30
0.0
 41
3.75
 42
3.75
 43
3.75
 50
180.0
  0
INSERT
  5
283C6
330
26CE7
100
AcDbEntity
  8
0
 62
     4
370
    13
100
AcDbBlockReference
  2
_Open30
 10
4738.906876603704
 20
-1083.962764455629
 30
0.0
 41
3.75
 42
3.75
 43
3.75
  0
MTEXT
  5
283C7
330
26CE7
100
AcDbEntity
  8
0
370
    13
100
AcDbMText
 10
4725.942590889419
 20
-1080.962764455629
 30
0.0
 40
4.5
 41
0.0
 71
     5
 72
     1
  1
\A1;0.5
  7
まこ
 73
     1
 44
1.0
  0
POINT
  5
283C8
330
26CE7
100
AcDbEntity
  8
DEFPOINTS
 62
     0
370
    13
100
AcDbPoint
 10
4738.906876603704
 20
-1065.559955563712
 30
0.0
  0
POINT
  5
283C9
330
26CE7
100
AcDbEntity
  8
DEFPOINTS
 62
     0
370
    13
100
AcDbPoint
 10
4739.406876603704
 20
-1065.559955563712
 30
0.0
  0
POINT
  5
283CA
330
26CE7
100
AcDbEntity
  8
DEFPOINTS
 62
     0
370
    13
100
AcDbPoint
 10
4739.406876603704
 20
-1083.962764455629
 30
0.0
  0
ENDBLK
  5
26CF3
330
26CE7
100
AcDbEntity
  8
0
 62
     4
370
    13
100
AcDbBlockEnd
  0
BLOCK
  5
26EC4
330
26EBA
100
AcDbEntity
  8
0
 62
     4
370
    13
100
AcDbBlockBegin
  2
*D53
 70
     1
 10
0.0
 20
0.0
 30
0.0
  3
*D53
  1

  0
LINE
  5
28302
330
26EBA
100
AcDbEntity
  8
0
 62
     4
370
    13
100
AcDbLine
 10
4405.561898348199
 20
-1047.562245024304
 30
0.0
 11
4373.085853475873
 21
-1047.562245024304
 31
0.0
  0
LINE
  5
28303
330
26EBA
100
AcDbEntity
  8
0
 62
     4
370
    13
100
AcDbLine
 10
4405.561898348199
 20
-1177.562245024304
 30
0.0
 11
4373.085853475873
 21
-1177.562245024304
 31
0.0
  0
LINE
  5
28304
330
26EBA
100
AcDbEntity
  8
0
 62
     4
370
    13
100
AcDbLine
 10
4373.355853475874
 20
-1051.312245024304
 30
0.0
 11
4373.355853475874
 21
-1173.812245024304
 31
0.0
  0
INSERT
  5
28305
330
26EBA
100
AcDbEntity
  8
0
 62
     4
370
    13
100
AcDbBlockReference
  2
_Open30
 10
4373.355853475874
 20
-1047.562245024304
 30
0.0
 41
3.75
 42
3.75
 43
3.75
 50
90.0
  0
INSERT
  5
28306
330
26EBA
100
AcDbEntity
  8
0
 62
     4
370
    13
100
AcDbBlockReference
  2
_Open30
 10
4373.355853475874
 20
-1177.562245024304
 30
0.0
 41
3.75
 42
3.75
 43
3.75
 50
270.0
  0
MTEXT
  5
28307
330
26EBA
100
AcDbEntity
  8
0
370
    13
100
AcDbMText
 10
4370.355853475873
 20
-1112.562245024304
 30
0.0
 40
4.5
 41
0.0
 71
     5
 72
     1
  1
\A1;130
  7
まこ
 11
0.0000000000000001
 21
1.0
 31
0.0
 73
     1
 44
1.0
  0
POINT
  5
28308
330
26EBA
100
AcDbEntity
  8
DEFPOINTS
 62
     0
370
    13
100
AcDbPoint
 10
4406.761898348199
 20
-1047.562245024304
 30
0.0
  0
POINT
  5
28309
330
26EBA
100
AcDbEntity
  8
DEFPOINTS
 62
     0
370
    13
100
AcDbPoint
 10
4406.761898348199
 20
-1177.562245024304
 30
0.0
  0
POINT
  5
2830A
330
26EBA
100
AcDbEntity
  8
DEFPOINTS
 62
     0
370
    13
100
AcDbPoint
 10
4373.355853475874
 20
-1177.562245024304
 30
0.0
  0
ENDBLK
  5
26EC5
330
26EBA
100
AcDbEntity
  8
0
 62
     4
370
    13
100
AcDbBlockEnd
  0
BLOCK
  5
26ED3
330
26EC9
100
AcDbEntity
  8
0
 62
     4
370
    13
100
AcDbBlockBegin
  2
*D54
 70
     1
 10
0.0
 20
0.0
 30
0.0
  3
*D54
  1

  0
LINE
  5
284FB
330
26EC9
100
AcDbEntity
  8
0
 62
     4
370
    13
100
AcDbLine
 10
4430.499714982262
 20
-1055.062245024304
 30
0.0
 11
4382.620258103838
 21
-1055.062245024304
 31
0.0
  0
LINE
  5
284FC
330
26EC9
100
AcDbEntity
  8
0
 62
     4
370
    13
100
AcDbLine
 10
4430.478658765632
 20
-1170.062245024304
 30
0.0
 11
4382.620258103838
 21
-1170.062245024304
 31
0.0
  0
LINE
  5
284FD
330
26EC9
100
AcDbEntity
  8
0
 62
     4
370
    13
100
AcDbLine
 10
4382.890258103838
 20
-1058.812245024304
 30
0.0
 11
4382.890258103838
 21
-1166.312245024304
 31
0.0
  0
INSERT
  5
284FE
330
26EC9
100
AcDbEntity
  8
0
 62
     4
370
    13
100
AcDbBlockReference
  2
_Open30
 10
4382.890258103838
 20
-1055.062245024304
 30
0.0
 41
3.75
 42
3.75
 43
3.75
 50
90.0
  0
INSERT
  5
284FF
330
26EC9
100
AcDbEntity
  8
0
 62
     4
370
    13
100
AcDbBlockReference
  2
_Open30
 10
4382.890258103838
 20
-1170.062245024304
 30
0.0
 41
3.75
 42
3.75
 43
3.75
 50
270.0
  0
MTEXT
  5
28500
330
26EC9
100
AcDbEntity
  8
0
370
    13
100
AcDbMText
 10
4379.890258103838
 20
-1112.562245024304
 30
0.0
 40
4.5
 41
0.0
 71
     5
 72
     1
  1
\A1;115
  7
まこ
 11
0.0000000000000001
 21
1.0
 31
0.0
 73
     1
 44
1.0
  0
POINT
  5
28501
330
26EC9
100
AcDbEntity
  8
DEFPOINTS
 62
     0
370
    13
100
AcDbPoint
 10
4431.699714982261
 20
-1055.062245024304
 30
0.0
  0
POINT
  5
28502
330
26EC9
100
AcDbEntity
  8
DEFPOINTS
 62
     0
370
    13
100
AcDbPoint
 10
4431.678658765632
 20
-1170.062245024304
 30
0.0
  0
POINT
  5
28503
330
26EC9
100
AcDbEntity
  8
DEFPOINTS
 62
     0
370
    13
100
AcDbPoint
 10
4382.890258103838
 20
-1170.062245024304
 30
0.0
  0
ENDBLK
  5
26ED4
330
26EC9
100
AcDbEntity
  8
0
 62
     4
370
    13
100
AcDbBlockEnd
  0
BLOCK
  5
26EE0
330
26ED6
100
AcDbEntity
  8
0
 62
     4
370
    13
100
AcDbBlockBegin
  2
*D55
 70
     1
 10
0.0
 20
0.0
 30
0.0
  3
*D55
  1

  0
LINE
  5
28314
330
26ED6
100
AcDbEntity
  8
0
 62
     4
370
    13
100
AcDbLine
 10
4405.561898348199
 20
-1047.562245024304
 30
0.0
 11
4382.620258103838
 21
-1047.562245024304
 31
0.0
  0
LINE
  5
28315
330
26ED6
100
AcDbEntity
  8
0
 62
     4
370
    13
100
AcDbLine
 10
4428.265408454854
 20
-1055.062245024304
 30
0.0
 11
4382.620258103838
 21
-1055.062245024304
 31
0.0
  0
LINE
  5
28316
330
26ED6
100
AcDbEntity
  8
0
 62
     4
370
    13
100
AcDbLine
 10
4382.890258103838
 20
-1058.812245024304
 30
0.0
 11
4382.890258103838
 21
-1062.562245024304
 31
0.0
  0
LINE
  5
28317
330
26ED6
100
AcDbEntity
  8
0
 62
     4
370
    13
100
AcDbLine
 10
4382.890258103838
 20
-1043.812245024304
 30
0.0
 11
4382.890258103838
 21
-1020.005102167161
 31
0.0
  0
INSERT
  5
28318
330
26ED6
100
AcDbEntity
  8
0
 62
     4
370
    13
100
AcDbBlockReference
  2
_Open30
 10
4382.890258103838
 20
-1055.062245024304
 30
0.0
 41
3.75
 42
3.75
 43
3.75
 50
90.0
  0
INSERT
  5
28319
330
26ED6
100
AcDbEntity
  8
0
 62
     4
370
    13
100
AcDbBlockReference
  2
_Open30
 10
4382.890258103838
 20
-1047.562245024304
 30
0.0
 41
3.75
 42
3.75
 43
3.75
 50
270.0
  0
MTEXT
  5
2831A
330
26ED6
100
AcDbEntity
  8
0
370
    13
100
AcDbMText
 10
4379.890258103838
 20
-1030.033673595732
 30
0.0
 40
4.5
 41
0.0
 71
     5
 72
     1
  1
\A1;（7.5）
  7
まこ
 11
0.0000000000000001
 21
1.0
 31
0.0
 73
     1
 44
1.0
  0
POINT
  5
2831B
330
26ED6
100
AcDbEntity
  8
DEFPOINTS
 62
     0
370
    13
100
AcDbPoint
 10
4406.761898348199
 20
-1047.562245024304
 30
0.0
  0
POINT
  5
2831C
330
26ED6
100
AcDbEntity
  8
DEFPOINTS
 62
     0
370
    13
100
AcDbPoint
 10
4429.465408454855
 20
-1055.062245024304
 30
0.0
  0
POINT
  5
2831D
330
26ED6
100
AcDbEntity
  8
DEFPOINTS
 62
     0
370
    13
100
AcDbPoint
 10
4382.890258103838
 20
-1055.062245024304
 30
0.0
  0
ENDBLK
  5
26EE1
330
26ED6
100
AcDbEntity
  8
0
 62
     4
370
    13
100
AcDbBlockEnd
  0
BLOCK
  5
26EED
330
26EE3
100
AcDbEntity
  8
0
 62
     4
370
    13
100
AcDbBlockBegin
  2
*D56
 70
     1
 10
0.0
 20
0.0
 30
0.0
  3
*D56
  1

  0
LINE
  5
2831E
330
26EE3
100
AcDbEntity
  8
0
 62
     4
370
    13
100
AcDbLine
 10
4428.265408454854
 20
-1170.062245024304
 30
0.0
 11
4382.620258103838
 21
-1170.062245024304
 31
0.0
  0
LINE
  5
2831F
330
26EE3
100
AcDbEntity
  8
0
 62
     4
370
    13
100
AcDbLine
 10
4405.561898348199
 20
-1177.562245024304
 30
0.0
 11
4382.620258103838
 21
-1177.562245024304
 31
0.0
  0
LINE
  5
28320
330
26EE3
100
AcDbEntity
  8
0
 62
     4
370
    13
100
AcDbLine
 10
4382.890258103838
 20
-1166.312245024304
 30
0.0
 11
4382.890258103838
 21
-1162.562245024304
 31
0.0
  0
LINE
  5
28321
330
26EE3
100
AcDbEntity
  8
0
 62
     4
370
    13
100
AcDbLine
 10
4382.890258103838
 20
-1181.312245024304
 30
0.0
 11
4382.890258103838
 21
-1205.119387881447
 31
0.0
  0
INSERT
  5
28322
330
26EE3
100
AcDbEntity
  8
0
 62
     4
370
    13
100
AcDbBlockReference
  2
_Open30
 10
4382.890258103838
 20
-1170.062245024304
 30
0.0
 41
3.75
 42
3.75
 43
3.75
 50
270.0
  0
INSERT
  5
28323
330
26EE3
100
AcDbEntity
  8
0
 62
     4
370
    13
100
AcDbBlockReference
  2
_Open30
 10
4382.890258103838
 20
-1177.562245024304
 30
0.0
 41
3.75
 42
3.75
 43
3.75
 50
90.0
  0
MTEXT
  5
28324
330
26EE3
100
AcDbEntity
  8
0
370
    13
100
AcDbMText
 10
4379.890258103838
 20
-1195.090816452875
 30
0.0
 40
4.5
 41
0.0
 71
     5
 72
     1
  1
\A1;（7.5）
  7
まこ
 11
0.0000000000000001
 21
1.0
 31
0.0
 73
     1
 44
1.0
  0
POINT
  5
28325
330
26EE3
100
AcDbEntity
  8
DEFPOINTS
 62
     0
370
    13
100
AcDbPoint
 10
4429.465408454855
 20
-1170.062245024304
 30
0.0
  0
POINT
  5
28326
330
26EE3
100
AcDbEntity
  8
DEFPOINTS
 62
     0
370
    13
100
AcDbPoint
 10
4406.761898348199
 20
-1177.562245024304
 30
0.0
  0
POINT
  5
28327
330
26EE3
100
AcDbEntity
  8
DEFPOINTS
 62
     0
370
    13
100
AcDbPoint
 10
4382.890258103838
 20
-1177.562245024304
 30
0.0
  0
ENDBLK
  5
26EEE
330
26EE3
100
AcDbEntity
  8
0
 62
     4
370
    13
100
AcDbBlockEnd
  0
BLOCK
  5
28110
330
28105
100
AcDbEntity
  8
0
370
    30
100
AcDbBlockBegin
  2
*D57
 70
     1
 10
0.0
 20
0.0
 30
0.0
  3
*D57
  1

  0
LINE
  5
284DD
330
28105
100
AcDbEntity
  8
0
 62
     4
370
    13
100
AcDbLine
 10
4737.707620635709
 20
-1177.559911699457
 30
0.0
 11
4724.724943916021
 21
-1177.559911699457
 31
0.0
  0
LINE
  5
284DE
330
28105
100
AcDbEntity
  8
0
 62
     4
370
    13
100
AcDbLine
 10
4739.706168767827
 20
-1160.559911699457
 30
0.0
 11
4724.724943916021
 21
-1160.559911699457
 31
0.0
  0
LINE
  5
284DF
330
28105
100
AcDbEntity
  8
0
 62
     4
370
    13
100
AcDbLine
 10
4724.994943916021
 20
-1173.809911699457
 30
0.0
 11
4724.994943916021
 21
-1164.309911699457
 31
0.0
  0
INSERT
  5
284E0
330
28105
100
AcDbEntity
  8
0
 62
     4
370
    13
100
AcDbBlockReference
  2
_Open30
 10
4724.994943916021
 20
-1177.559911699457
 30
0.0
 41
3.75
 42
3.75
 43
3.75
 50
270.0
  0
INSERT
  5
284E1
330
28105
100
AcDbEntity
  8
0
 62
     4
370
    13
100
AcDbBlockReference
  2
_Open30
 10
4724.994943916021
 20
-1160.559911699457
 30
0.0
 41
3.75
 42
3.75
 43
3.75
 50
90.0
  0
MTEXT
  5
284E2
330
28105
100
AcDbEntity
  8
0
370
    13
100
AcDbMText
 10
4721.994943916021
 20
-1168.986433631584
 30
0.0
 40
4.5
 41
0.0
 71
     5
 72
     1
  1
\A1;17
  7
まこ
 11
0.0000000000000001
 21
1.0
 31
0.0
 73
     1
 44
1.0
  0
POINT
  5
284E3
330
28105
100
AcDbEntity
  8
DEFPOINTS
 62
     0
370
    13
100
AcDbPoint
 10
4738.90762063571
 20
-1177.559911699457
 30
0.0
  0
POINT
  5
284E4
330
28105
100
AcDbEntity
  8
DEFPOINTS
 62
     0
370
    13
100
AcDbPoint
 10
4740.906168767827
 20
-1160.559911699457
 30
0.0
  0
POINT
  5
284E5
330
28105
100
AcDbEntity
  8
DEFPOINTS
 62
     0
370
    13
100
AcDbPoint
 10
4724.994943916021
 20
-1160.559911699457
 30
0.0
  0
ENDBLK
  5
28111
330
28105
100
AcDbEntity
  8
0
370
    30
100
AcDbBlockEnd
  0
BLOCK
  5
28139
330
2812F
100
AcDbEntity
  8
0
370
    30
100
AcDbBlockBegin
  2
*D58
 70
     1
 10
0.0
 20
0.0
 30
0.0
  3
*D58
  1

  0
LINE
  5
284F0
330
2812F
100
AcDbEntity
  8
0
 62
     4
370
    13
100
AcDbLine
 10
4739.706167819178
 20
-1160.559911699457
 30
0.0
 11
4724.724943916021
 21
-1160.559911699457
 31
0.0
  0
LINE
  5
284F1
330
2812F
100
AcDbEntity
  8
0
 62
     4
370
    13
100
AcDbLine
 10
4739.706167819178
 20
-1136.559911699457
 30
0.0
 11
4724.724943916021
 21
-1136.559911699457
 31
0.0
  0
LINE
  5
284F2
330
2812F
100
AcDbEntity
  8
0
 62
     4
370
    13
100
AcDbLine
 10
4724.994943916021
 20
-1156.809911699457
 30
0.0
 11
4724.994943916021
 21
-1140.309911699457
 31
0.0
  0
INSERT
  5
284F3
330
2812F
100
AcDbEntity
  8
0
 62
     4
370
    13
100
AcDbBlockReference
  2
_Open30
 10
4724.994943916021
 20
-1160.559911699457
 30
0.0
 41
3.75
 42
3.75
 43
3.75
 50
270.0
  0
INSERT
  5
284F4
330
2812F
100
AcDbEntity
  8
0
 62
     4
370
    13
100
AcDbBlockReference
  2
_Open30
 10
4724.994943916021
 20
-1136.559911699457
 30
0.0
 41
3.75
 42
3.75
 43
3.75
 50
90.0
  0
MTEXT
  5
284F5
330
2812F
100
AcDbEntity
  8
0
370
    13
100
AcDbMText
 10
4721.994943916021
 20
-1148.559911699456
 30
0.0
 40
4.5
 41
0.0
 71
     5
 72
     1
  1
\A1;24
  7
まこ
 11
0.0000000000000001
 21
1.0
 31
0.0
 73
     1
 44
1.0
  0
POINT
  5
284F6
330
2812F
100
AcDbEntity
  8
DEFPOINTS
 62
     0
370
    13
100
AcDbPoint
 10
4740.906167819178
 20
-1160.559911699457
 30
0.0
  0
POINT
  5
284F7
330
2812F
100
AcDbEntity
  8
DEFPOINTS
 62
     0
370
    13
100
AcDbPoint
 10
4740.906167819178
 20
-1136.559911699457
 30
0.0
  0
POINT
  5
284F8
330
2812F
100
AcDbEntity
  8
DEFPOINTS
 62
     0
370
    13
100
AcDbPoint
 10
4724.994943916021
 20
-1136.559911699457
 30
0.0
  0
ENDBLK
  5
2813A
330
2812F
100
AcDbEntity
  8
0
370
    30
100
AcDbBlockEnd
  0
BLOCK
  5
28156
330
2814B
100
AcDbEntity
  8
0
370
    13
100
AcDbBlockBegin
  2
*D59
 70
     1
 10
0.0
 20
0.0
 30
0.0
  3
*D59
  1

  0
LINE
  5
284AD
330
2814B
100
AcDbEntity
  8
0
 62
     4
370
    13
100
AcDbLine
 10
4738.906876603704
 20
-1178.759911699457
 30
0.0
 11
4738.906876603704
 21
-1192.794232211703
 31
0.0
  0
LINE
  5
284AE
330
2814B
100
AcDbEntity
  8
0
 62
     4
370
    13
100
AcDbLine
 10
4746.906876597559
 20
-1178.759598159671
 30
0.0
 11
4746.906876597559
 21
-1192.794232211703
 31
0.0
  0
LINE
  5
284AF
330
2814B
100
AcDbEntity
  8
0
 62
     4
370
    13
100
AcDbLine
 10
4735.156876603705
 20
-1192.524232211703
 30
0.0
 11
4731.406876603704
 21
-1192.524232211703
 31
0.0
  0
LINE
  5
284B0
330
2814B
100
AcDbEntity
  8
0
 62
     4
370
    13
100
AcDbLine
 10
4750.65687659756
 20
-1192.524232211703
 30
0.0
 11
4754.40687659756
 21
-1192.524232211703
 31
0.0
  0
INSERT
  5
284B1
330
2814B
100
AcDbEntity
  8
0
 62
     4
370
    13
100
AcDbBlockReference
  2
_Open30
 10
4738.906876603704
 20
-1192.524232211703
 30
0.0
 41
3.75
 42
3.75
 43
3.75
  0
INSERT
  5
284B2
330
2814B
100
AcDbEntity
  8
0
 62
     4
370
    13
100
AcDbBlockReference
  2
_Open30
 10
4746.906876597559
 20
-1192.524232211703
 30
0.0
 41
3.75
 42
3.75
 43
3.75
 50
180.0
  0
MTEXT
  5
284B3
330
2814B
100
AcDbEntity
  8
0
370
    13
100
AcDbMText
 10
4742.906876600632
 20
-1189.524232211703
 30
0.0
 40
4.5
 41
0.0
 71
     5
 72
     1
  1
\A1;8
  7
まこ
 73
     1
 44
1.0
  0
POINT
  5
284B4
330
2814B
100
AcDbEntity
  8
DEFPOINTS
 62
     0
370
    13
100
AcDbPoint
 10
4738.906876603704
 20
-1177.559911699457
 30
0.0
  0
POINT
  5
284B5
330
2814B
100
AcDbEntity
  8
DEFPOINTS
 62
     0
370
    13
100
AcDbPoint
 10
4746.906876597559
 20
-1177.559598159671
 30
0.0
  0
POINT
  5
284B6
330
2814B
100
AcDbEntity
  8
DEFPOINTS
 62
     0
370
    13
100
AcDbPoint
 10
4746.906876597559
 20
-1192.524232211703
 30
0.0
  0
ENDBLK
  5
28157
330
2814B
100
AcDbEntity
  8
0
370
    13
100
AcDbBlockEnd
  0
ENDSEC
  0
SECTION
  2
ENTITIES
  0
MTEXT
  5
176FC
330
18
100
AcDbEntity
  8
dimension
 62
     2
100
AcDbMText
 10
-100.7823601383244
 20
171.621314412839
 30
0.0
 40
8.0
 41
0.0
 71
     4
 72
     1
  1

 73
     1
 44
1.0
  0
TEXT
  5
187C8
330
18
100
AcDbEntity
  8
A
100
AcDbText
 10
27.08248755054501
 20
1784.547672862096
 30
0.0
 40
2.5
  1

  7
MSｺﾞｼｯｸ
100
AcDbText
  0
TEXT
  5
187C9
330
18
100
AcDbEntity
  8
A
100
AcDbText
 10
19.25748755054502
 20
1784.547672862096
 30
0.0
 40
2.5
  1

 41
0.5
  7
MSｺﾞｼｯｸ
100
AcDbText
  0
TEXT
  5
187CA
330
18
100
AcDbEntity
  8
A
100
AcDbText
 10
167.1825875009164
 20
2214.514692980458
 30
0.0
 40
3.524999999999999
  1
�    
100
AcDbText
  0
MTEXT
  5
187CB
330
18
100
AcDbEntity
  8
0
  6
ByBlock
100
AcDbMText
 10
325.4874764241681
 20
2232.511722574347
 30
0.0
 40
2.0
 41
0.0
 71
     4
 72
     5
  1

 11
-0.0000000000000002
 21
-1.0
 31
0.0
 73
     1
 44
1.0
1001
ACAD
1000
MTEXTBEGIN
1070
    73
1070
     1
1070
    44
1040
1.0
1070
    74
1070
     0
1000
MTEXTEND
  0
MTEXT
  5
187CC
330
18
100
AcDbEntity
  8
0
  6
ByBlock
100
AcDbMText
 10
360.9528647873208
 20
2221.718414215929
 30
0.0
 40
2.0
 41
0.0
 71
     7
 72
     5
  1

 11
0.0000000000000001
 21
1.0
 31
0.0
 73
     1
 44
1.0
1001
ACAD
1000
MTEXTBEGIN
1070
    73
1070
     1
1070
    44
1040
1.0
1070
    74
1070
     0
1000
MTEXTEND
  0
MTEXT
  5
187CD
330
18
100
AcDbEntity
  8
0
100
AcDbMText
 10
325.1733668026532
 20
2146.93890367364
 30
0.0
 40
2.0
 41
10.1453
 71
     1
 72
     5
  1

 11
-0.0000000000000002
 21
-1.0
 31
0.0
 73
     1
 44
1.0
1001
ACAD
1000
MTEXTBEGIN
1070
    73
1070
     1
1070
    44
1040
1.0
1070
    74
1070
     0
1000
MTEXTEND
  0
MTEXT
  5
187CE
330
18
100
AcDbEntity
  8
0
100
AcDbMText
 10
280.7738750495033
 20
2115.30742008065
 30
0.0
 40
2.0
 41
0.0
 71
     1
 72
     5
  1

 73
     1
 44
1.0
1001
ACAD
1000
MTEXTBEGIN
1070
    73
1070
     1
1070
    44
1040
1.0
1070
    74
1070
     0
1000
MTEXTEND
  0
MTEXT
  5
187CF
330
18
100
AcDbEntity
  8
0
  6
CENTER
100
AcDbMText
 10
606.3621522332663
 20
2216.239946825076
 30
0.0
 40
2.0
 41
15.6417
 71
     1
 72
     5
  1

  7
BIGFONT
 73
     1
 44
1.0
1001
ACAD
1000
MTEXTBEGIN
1070
    73
1070
     1
1070
    44
1040
1.0
1070
    74
1070
     0
1000
MTEXTEND
  0
MTEXT
  5
187D0
330
18
100
AcDbEntity
  8
0
  6
DASHDOT
100
AcDbMText
 10
368.6842112890944
 20
2323.029441652852
 30
0.0
 40
1.0
 41
2.0
 71
     1
 72
     5
  1

  7
BIGFONT
 73
     1
 44
1.0
1001
ACAD
1000
MTEXTBEGIN
1070
    73
1070
     1
1070
    44
1040
1.0
1070
    74
1070
     0
1000
MTEXTEND
  0
MTEXT
  5
187D1
330
18
100
AcDbEntity
  8
0
  6
ByBlock
100
AcDbMText
 10
325.4873894192178
 20
2232.511722574347
 30
0.0
 40
2.0
 41
0.0
 71
     4
 72
     5
  1

 11
-0.0000000000000002
 21
-1.0
 31
0.0
 73
     1
 44
1.0
1001
ACAD
1000
MTEXTBEGIN
1070
    73
1070
     1
1070
    44
1040
1.0
1070
    74
1070
     0
1000
MTEXTEND
  0
MTEXT
  5
187D2
330
18
100
AcDbEntity
  8
0
  6
ByBlock
100
AcDbMText
 10
360.9527777823707
 20
2221.718414215929
 30
0.0
 40
2.0
 41
0.0
 71
     7
 72
     5
  1

 11
0.0000000000000001
 21
1.0
 31
0.0
 73
     1
 44
1.0
1001
ACAD
1000
MTEXTBEGIN
1070
    73
1070
     1
1070
    44
1040
1.0
1070
    74
1070
     0
1000
MTEXTEND
  0
MTEXT
  5
187D3
330
18
100
AcDbEntity
  8
0
100
AcDbMText
 10
325.1732797977028
 20
2146.93890367364
 30
0.0
 40
2.0
 41
10.1453
 71
     1
 72
     5
  1

 11
-0.0000000000000002
 21
-1.0
 31
0.0
 73
     1
 44
1.0
1001
ACAD
1000
MTEXTBEGIN
1070
    73
1070
     1
1070
    44
1040
1.0
1070
    74
1070
     0
1000
MTEXTEND
  0
MTEXT
  5
187D4
330
18
100
AcDbEntity
  8
0
100
AcDbMText
 10
280.773788044553
 20
2115.30742008065
 30
0.0
 40
2.0
 41
0.0
 71
     1
 72
     5
  1

 73
     1
 44
1.0
1001
ACAD
1000
MTEXTBEGIN
1070
    73
1070
     1
1070
    44
1040
1.0
1070
    74
1070
     0
1000
MTEXTEND
  0
MTEXT
  5
187D5
330
18
100
AcDbEntity
  8
0
  6
CENTER
100
AcDbMText
 10
606.3620652283159
 20
2216.239946825076
 30
0.0
 40
2.0
 41
15.6417
 71
     1
 72
     5
  1

  7
BIGFONT
 73
     1
 44
1.0
1001
ACAD
1000
MTEXTBEGIN
1070
    73
1070
     1
1070
    44
1040
1.0
1070
    74
1070
     0
1000
MTEXTEND
  0
MTEXT
  5
187D6
330
18
100
AcDbEntity
  8
0
  6
DASHDOT
100
AcDbMText
 10
368.6841242841443
 20
2323.029441652852
 30
0.0
 40
1.0
 41
2.0
 71
     1
 72
     5
  1

  7
BIGFONT
 73
     1
 44
1.0
1001
ACAD
1000
MTEXTBEGIN
1070
    73
1070
     1
1070
    44
1040
1.0
1070
    74
1070
     0
1000
MTEXTEND
  0
INSERT
  5
187D7
330
18
100
AcDbEntity
  8
FRAME025
100
AcDbBlockReference
  2
機械A4横_LBP
 10
271.0019941658661
 20
2006.88884056487
 30
0.0
  0
LWPOLYLINE
  5
24A5E
330
18
100
AcDbEntity
  8
0
370
    50
100
AcDbPolyline
 90
        2
 70
     0
 43
0.0
 10
4580.784120748199
 20
-1065.559472852431
 10
4420.784081367976
 20
-1065.559472852431
  0
LWPOLYLINE
  5
24A60
330
18
100
AcDbEntity
  8
0
370
    50
100
AcDbPolyline
 90
        2
 70
     0
 43
0.0
 10
4580.784120748199
 20
-1159.565017196177
 10
4420.784081367976
 20
-1159.565017196177
  0
CIRCLE
  5
24A64
330
18
100
AcDbEntity
  8
0
370
     9
100
AcDbCircle
 10
4436.761898348199
 20
-1170.062245024304
 30
0.0
 40
2.5
  0
CIRCLE
  5
24A65
330
18
100
AcDbEntity
  8
0
370
    20
100
AcDbCircle
 10
4436.761898348199
 20
-1170.062245024304
 30
0.0
 40
2.0
  0
LINE
  5
24A68
330
18
100
AcDbEntity
  8
0
370
    50
100
AcDbLine
 10
4421.784081367976
 20
-1159.565017196177
 30
0.0
 11
4421.784081367976
 21
-1177.562245024304
 31
0.0
  0
LINE
  5
24A6C
330
18
100
AcDbEntity
  8
0
370
    50
100
AcDbLine
 10
4406.806303767977
 20
-1159.565017196177
 30
0.0
 11
4420.784081367976
 21
-1159.565017196177
 31
0.0
  0
CIRCLE
  5
24A6D
330
18
100
AcDbEntity
  8
0
370
     9
100
AcDbCircle
 10
4436.761898348199
 20
-1055.062245024304
 30
0.0
 40
2.5
  0
CIRCLE
  5
24A6E
330
18
100
AcDbEntity
  8
0
370
    20
100
AcDbCircle
 10
4436.761898348199
 20
-1055.062245024304
 30
0.0
 40
2.0
  0
LINE
  5
24A71
330
18
100
AcDbEntity
  8
0
370
    50
100
AcDbLine
 10
4406.806303767977
 20
-1065.559472852431
 30
0.0
 11
4420.784081367976
 21
-1065.559472852431
 31
0.0
  0
LINE
  5
24A74
330
18
100
AcDbEntity
  8
0
370
    50
100
AcDbLine
 10
4421.784081367976
 20
-1047.562245024304
 30
0.0
 11
4421.784081367976
 21
-1065.559472852431
 31
0.0
  0
CIRCLE
  5
24A75
330
18
100
AcDbEntity
  8
0
370
     9
100
AcDbCircle
 10
4500.761898348199
 20
-1170.062245024304
 30
0.0
 40
2.5
  0
CIRCLE
  5
24A78
330
18
100
AcDbEntity
  8
0
370
    20
100
AcDbCircle
 10
4500.761898348199
 20
-1170.062245024304
 30
0.0
 40
2.0
  0
CIRCLE
  5
24A7D
330
18
100
AcDbEntity
  8
0
370
     9
100
AcDbCircle
 10
4500.761898348199
 20
-1055.062245024304
 30
0.0
 40
2.5
  0
CIRCLE
  5
24A7E
330
18
100
AcDbEntity
  8
0
370
    20
100
AcDbCircle
 10
4500.761898348199
 20
-1055.062245024304
 30
0.0
 40
2.0
  0
LINE
  5
24A8D
330
18
100
AcDbEntity
  8
0
370
    50
100
AcDbLine
 10
4579.804081367977
 20
-1159.565017196177
 30
0.0
 11
4579.784120748199
 21
-1177.562245024304
 31
0.0
  0
CIRCLE
  5
24A92
330
18
100
AcDbEntity
  8
0
370
    20
100
AcDbCircle
 10
4564.761898348199
 20
-1170.062245024304
 30
0.0
 40
2.0
  0
CIRCLE
  5
24A93
330
18
100
AcDbEntity
  8
0
370
     9
100
AcDbCircle
 10
4564.761898348199
 20
-1170.062245024304
 30
0.0
 40
2.5
  0
LINE
  5
24A96
330
18
100
AcDbEntity
  8
0
370
    50
100
AcDbLine
 10
4580.804081367977
 20
-1159.565017196177
 30
0.0
 11
4594.761898348198
 21
-1159.565017196177
 31
0.0
  0
CIRCLE
  5
24A9E
330
18
100
AcDbEntity
  8
0
370
     9
100
AcDbCircle
 10
4564.761898348199
 20
-1055.062245024304
 30
0.0
 40
2.5
  0
CIRCLE
  5
24A9F
330
18
100
AcDbEntity
  8
0
370
    20
100
AcDbCircle
 10
4564.761898348199
 20
-1055.062245024304
 30
0.0
 40
2.0
  0
LINE
  5
24AA0
330
18
100
AcDbEntity
  8
0
370
    50
100
AcDbLine
 10
4579.784120748199
 20
-1047.562245024304
 30
0.0
 11
4579.784120748199
 21
-1065.559472852431
 31
0.0
  0
LINE
  5
24AA1
330
18
100
AcDbEntity
  8
0
370
    50
100
AcDbLine
 10
4580.784120748199
 20
-1065.559472852431
 30
0.0
 11
4594.761898348198
 21
-1065.559472852431
 31
0.0
  0
CIRCLE
  5
26788
330
18
100
AcDbEntity
  8
0
  6
HIDDEN
 48
0.45
370
    13
100
AcDbCircle
 10
4518.544956366486
 20
-1272.929326277385
 30
0.0
 40
6.0
  0
DIMENSION
  5
2678A
330
18
100
AcDbEntity
  8
文字
370
    13
100
AcDbDimension
  2
*D42
 10
4564.761898348199
 20
-1208.133126211934
 30
0.0
 11
4500.761898348199
 21
-1205.133126211934
 31
0.0
 70
    32
  1
2xP64=<>
 71
     5
 42
128.0
  3
まこ
100
AcDbAlignedDimension
 13
4436.761898348199
 23
-1175.119821873386
 33
0.0
 14
4564.761898348199
 24
-1174.46419457365
 34
0.0
100
AcDbRotatedDimension
1001
ACAD
1000
DSTYLE
1002
{
1070
   271
1070
     6
1002
}
  0
LWPOLYLINE
  5
2678B
330
18
100
AcDbEntity
  8
0
370
    50
100
AcDbPolyline
 90
        2
 70
     0
 43
0.0
 10
4524.487740774721
 20
-1291.429326277385
 10
4488.93218521918
 20
-1291.429326277385
  0
LWPOLYLINE
  5
2678E
330
18
100
AcDbEntity
  8
0
370
    50
100
AcDbPolyline
 90
        2
 70
     0
 43
0.0
 10
4420.784081367976
 20
-1265.429326277385
 10
4580.784120748199
 20
-1265.429326277385
  0
LINE
  5
26791
330
18
100
AcDbEntity
  8
0
370
    50
100
AcDbLine
 10
4406.761898348199
 20
-1265.429326277385
 30
0.0
 11
4594.761898348198
 21
-1265.429326277385
 31
0.0
  0
LINE
  5
26792
330
18
100
AcDbEntity
  8
0
370
    50
100
AcDbLine
 10
4594.761898348198
 20
-1305.429326277385
 30
0.0
 11
4406.761898348199
 21
-1305.429326277385
 31
0.0
  0
DIMENSION
  5
26794
330
18
100
AcDbEntity
  8
文字
370
    13
100
AcDbDimension
  2
*D39
 10
4594.761898348198
 20
-1218.768888195348
 30
0.0
 11
4500.761898348199
 21
-1215.768888195348
 31
0.0
 70
    32
 71
     5
 42
188.0
  3
まこ
100
AcDbAlignedDimension
 13
4406.761898348199
 23
-1177.552370584253
 33
0.0
 14
4594.761898348198
 24
-1177.562245024304
 34
0.0
100
AcDbRotatedDimension
1001
ACAD
1000
DSTYLE
1002
{
1070
   271
1070
     6
1002
}
  0
LINE
  5
26795
330
18
100
AcDbEntity
  8
隠れ線
 48
0.45
370
    13
100
AcDbLine
 10
4421.784081367976
 20
-1276.929326277385
 30
0.0
 11
4579.784120748199
 21
-1276.929326277385
 31
0.0
  0
LINE
  5
26796
330
18
100
AcDbEntity
  8
隠れ線
 48
0.45
370
    13
100
AcDbLine
 10
4421.784081367976
 20
-1267.420733804245
 30
0.0
 11
4579.784120748199
 21
-1267.420733804245
 31
0.0
  0
LINE
  5
267F2
330
18
100
AcDbEntity
  8
0
370
    50
100
AcDbLine
 10
4406.761898348199
 20
-1267.420733804245
 30
0.0
 11
4421.784081367976
 21
-1267.420733804245
 31
0.0
  0
LINE
  5
267F3
330
18
100
AcDbEntity
  8
0
370
    50
100
AcDbLine
 10
4406.761898348199
 20
-1265.429326277385
 30
0.0
 11
4406.761898348199
 21
-1305.429326277385
 31
0.0
  0
LWPOLYLINE
  5
267F6
330
18
100
AcDbEntity
  8
0
370
    50
100
AcDbPolyline
 90
        2
 70
     0
 43
0.0
 10
4488.93218521918
 20
-1291.429326277385
 10
4453.376629663641
 20
-1291.429326277385
  0
LINE
  5
267F7
330
18
100
AcDbEntity
  8
隠れ線
 48
0.45
370
    13
100
AcDbLine
 10
4434.764220446628
 20
-1275.429326277385
 30
0.0
 11
4438.756742937434
 21
-1275.429326277385
 31
0.0
  0
LINE
  5
267F8
330
18
100
AcDbEntity
  8
隠れ線
 48
0.45
370
    13
100
AcDbLine
 10
4434.764220446628
 20
-1265.429326277385
 30
0.0
 11
4434.764220446628
 21
-1275.429326277385
 31
0.0
  0
LINE
  5
267F9
330
18
100
AcDbEntity
  8
隠れ線
 48
0.45
370
    13
100
AcDbLine
 10
4438.756742937434
 20
-1275.429326277385
 30
0.0
 11
4438.756742937434
 21
-1265.429326277385
 31
0.0
  0
LINE
  5
267FA
330
18
100
AcDbEntity
  8
隠れ線
 48
0.45
370
    13
100
AcDbLine
 10
4434.764220446628
 20
-1275.429326277385
 30
0.0
 11
4435.264220446629
 21
-1276.118018931656
 31
0.0
  0
LINE
  5
267FB
330
18
100
AcDbEntity
  8
隠れ線
 48
0.45
370
    13
100
AcDbLine
 10
4438.264220446629
 20
-1276.118018931656
 30
0.0
 11
4438.756742937434
 21
-1275.429326277385
 31
0.0
  0
LINE
  5
267FC
330
18
100
AcDbEntity
  8
0
  6
CENTER
 62
     1
 48
0.3
370
    13
100
AcDbLine
 10
4436.764956366486
 20
-1279.196860246153
 30
0.0
 11
4436.764956366486
 21
-1263.679013575243
 31
0.0
  0
LINE
  5
267FD
330
18
100
AcDbEntity
  8
隠れ線
 48
0.45
370
    13
100
AcDbLine
 10
4438.264220446629
 20
-1265.429326277385
 30
0.0
 11
4438.264220446629
 21
-1276.929326277385
 31
0.0
  0
LINE
  5
267FE
330
18
100
AcDbEntity
  8
隠れ線
 48
0.45
370
    13
100
AcDbLine
 10
4435.264220446629
 20
-1265.429326277385
 30
0.0
 11
4435.264220446629
 21
-1276.929326277385
 31
0.0
  0
CIRCLE
  5
267FF
330
18
100
AcDbEntity
  8
0
  6
HIDDEN
 48
0.45
370
    13
100
AcDbCircle
 10
4447.424956366487
 20
-1272.929326277385
 30
0.0
 40
6.0
  0
LINE
  5
26803
330
18
100
AcDbEntity
  8
0
370
    50
100
AcDbLine
 10
4421.784081367976
 20
-1265.429326277385
 30
0.0
 11
4421.784081367976
 21
-1291.429326277385
 31
0.0
  0
LWPOLYLINE
  5
26804
330
18
100
AcDbEntity
  8
0
370
    50
100
AcDbPolyline
 90
        2
 70
     0
 43
0.0
 10
4453.376629663641
 20
-1291.429326277385
 10
4421.784081367976
 20
-1291.429326277385
  0
LINE
  5
26806
330
18
100
AcDbEntity
  8
隠れ線
 48
0.45
370
    13
100
AcDbLine
 10
4498.764220446628
 20
-1275.429326277385
 30
0.0
 11
4502.756742937434
 21
-1275.429326277385
 31
0.0
  0
LINE
  5
26807
330
18
100
AcDbEntity
  8
隠れ線
 48
0.45
370
    13
100
AcDbLine
 10
4498.764220446628
 20
-1265.429326277385
 30
0.0
 11
4498.764220446628
 21
-1275.429326277385
 31
0.0
  0
LINE
  5
26808
330
18
100
AcDbEntity
  8
隠れ線
 48
0.45
370
    13
100
AcDbLine
 10
4502.756742937434
 20
-1275.429326277385
 30
0.0
 11
4502.756742937434
 21
-1265.429326277385
 31
0.0
  0
LINE
  5
26809
330
18
100
AcDbEntity
  8
隠れ線
 48
0.45
370
    13
100
AcDbLine
 10
4498.764220446628
 20
-1275.429326277385
 30
0.0
 11
4499.264220446629
 21
-1276.118018931656
 31
0.0
  0
LINE
  5
2680A
330
18
100
AcDbEntity
  8
隠れ線
 48
0.45
370
    13
100
AcDbLine
 10
4502.264220446629
 20
-1276.118018931656
 30
0.0
 11
4502.756742937434
 21
-1275.429326277385
 31
0.0
  0
LINE
  5
2680B
330
18
100
AcDbEntity
  8
0
  6
CENTER
 62
     1
 48
0.3
370
    13
100
AcDbLine
 10
4500.764956366486
 20
-1279.155043627372
 30
0.0
 11
4500.764956366486
 21
-1263.570081096471
 31
0.0
  0
LINE
  5
2680C
330
18
100
AcDbEntity
  8
隠れ線
 48
0.45
370
    13
100
AcDbLine
 10
4499.264220446629
 20
-1265.429326277385
 30
0.0
 11
4499.264220446629
 21
-1276.929326277385
 31
0.0
  0
LINE
  5
2680D
330
18
100
AcDbEntity
  8
隠れ線
 48
0.45
370
    13
100
AcDbLine
 10
4502.264220446629
 20
-1265.429326277385
 30
0.0
 11
4502.264220446629
 21
-1276.929326277385
 31
0.0
  0
CIRCLE
  5
2680E
330
18
100
AcDbEntity
  8
0
  6
HIDDEN
 48
0.45
370
    13
100
AcDbCircle
 10
4482.984956366486
 20
-1272.929326277385
 30
0.0
 40
6.0
  0
DIMENSION
  5
26818
330
18
100
AcDbEntity
  8
文字
370
    13
100
AcDbDimension
  2
*D40
 10
4436.761898348199
 20
-1208.133126211934
 30
0.0
 11
4421.80648537563
 21
-1208.133126211934
 31
0.0
 70
   160
 71
     5
 42
30.0
  3
まこ
100
AcDbAlignedDimension
 13
4406.761898348199
 23
-1177.562245024304
 33
0.0
 14
4436.761898348199
 24
-1175.119821873386
 34
0.0
100
AcDbRotatedDimension
1001
ACAD
1000
DSTYLE
1002
{
1070
   271
1070
     6
1002
}
  0
LINE
  5
2685D
330
18
100
AcDbEntity
  8
0
370
    50
100
AcDbLine
 10
4594.761898348198
 20
-1265.429326277385
 30
0.0
 11
4594.761898348198
 21
-1305.429326277385
 31
0.0
  0
LWPOLYLINE
  5
26860
330
18
100
AcDbEntity
  8
0
370
    50
100
AcDbPolyline
 90
        2
 70
     0
 43
0.0
 10
4579.784120748199
 20
-1291.429326277385
 10
4560.043296330261
 20
-1291.429326277385
  0
LINE
  5
26861
102
{ACAD_REACTORS
330
26C43
102
}
330
18
100
AcDbEntity
  8
隠れ線
 48
0.45
370
    13
100
AcDbLine
 10
4562.764220446628
 20
-1275.429326277385
 30
0.0
 11
4566.756742937434
 21
-1275.429326277385
 31
0.0
  0
LINE
  5
26862
102
{ACAD_REACTORS
330
26C43
102
}
330
18
100
AcDbEntity
  8
隠れ線
 48
0.45
370
    13
100
AcDbLine
 10
4562.764220446628
 20
-1265.429326277385
 30
0.0
 11
4562.764220446628
 21
-1275.429326277385
 31
0.0
  0
LINE
  5
26863
102
{ACAD_REACTORS
330
26C43
102
}
330
18
100
AcDbEntity
  8
隠れ線
 48
0.45
370
    13
100
AcDbLine
 10
4566.756742937434
 20
-1275.429326277385
 30
0.0
 11
4566.756742937434
 21
-1265.429326277385
 31
0.0
  0
LINE
  5
26864
102
{ACAD_REACTORS
330
26C43
102
}
330
18
100
AcDbEntity
  8
隠れ線
 48
0.45
370
    13
100
AcDbLine
 10
4562.764220446628
 20
-1275.429326277385
 30
0.0
 11
4563.264220446629
 21
-1276.118018931656
 31
0.0
  0
LINE
  5
26865
102
{ACAD_REACTORS
330
26C43
102
}
330
18
100
AcDbEntity
  8
隠れ線
 48
0.45
370
    13
100
AcDbLine
 10
4566.264220446629
 20
-1276.118018931656
 30
0.0
 11
4566.756742937434
 21
-1275.429326277385
 31
0.0
  0
LINE
  5
26866
330
18
100
AcDbEntity
  8
0
  6
CENTER
 62
     1
 48
0.3
370
    13
100
AcDbLine
 10
4564.764956366486
 20
-1279.128596604592
 30
0.0
 11
4564.764956366486
 21
-1263.370644706274
 31
0.0
  0
LINE
  5
26867
102
{ACAD_REACTORS
330
26C43
102
}
330
18
100
AcDbEntity
  8
隠れ線
 48
0.45
370
    13
100
AcDbLine
 10
4566.264220446629
 20
-1265.429326277385
 30
0.0
 11
4566.264220446629
 21
-1276.929326277385
 31
0.0
  0
LINE
  5
26868
102
{ACAD_REACTORS
330
26C43
102
}
330
18
100
AcDbEntity
  8
隠れ線
 48
0.45
370
    13
100
AcDbLine
 10
4563.264220446629
 20
-1265.429326277385
 30
0.0
 11
4563.264220446629
 21
-1276.929326277385
 31
0.0
  0
CIRCLE
  5
26869
330
18
100
AcDbEntity
  8
0
  6
HIDDEN
 48
0.45
370
    13
100
AcDbCircle
 10
4554.104956366486
 20
-1272.929326277385
 30
0.0
 40
6.0
  0
LWPOLYLINE
  5
2686B
330
18
100
AcDbEntity
  8
0
370
    50
100
AcDbPolyline
 90
        2
 70
     0
 43
0.0
 10
4560.043296330261
 20
-1291.429326277385
 10
4524.487740774721
 20
-1291.429326277385
  0
LINE
  5
26870
330
18
100
AcDbEntity
  8
0
370
    50
100
AcDbLine
 10
4579.784120748199
 20
-1267.420733804245
 30
0.0
 11
4594.761898348198
 21
-1267.420733804245
 31
0.0
  0
LINE
  5
26871
330
18
100
AcDbEntity
  8
0
370
    50
100
AcDbLine
 10
4579.784120748199
 20
-1265.429326277385
 30
0.0
 11
4579.784120748199
 21
-1291.429326277385
 31
0.0
  0
DIMENSION
  5
2689C
330
18
100
AcDbEntity
  8
文字
370
    13
100
AcDbDimension
  2
*D41
 10
4662.976107127188
 20
-1219.888472231424
 30
0.0
 11
4628.879002737694
 21
-1216.888472231424
 31
0.0
 70
    32
  1
（200）
 71
     5
 42
68.19420877898938
  3
まこ
100
AcDbAlignedDimension
 13
4594.781898348199
 23
-1178.671954620329
 33
0.0
 14
4662.976107127188
 24
-1176.718063961217
 34
0.0
100
AcDbRotatedDimension
  0
DIMENSION
  5
268A1
330
18
100
AcDbEntity
  8
文字
370
    13
100
AcDbDimension
  2
*D43
 10
4594.761898348198
 20
-1208.133126211934
 30
0.0
 11
4579.761898348198
 21
-1205.133126211934
 31
0.0
 70
    32
  1
（<>）
 71
     5
 42
30.0
  3
まこ
100
AcDbAlignedDimension
 13
4564.761898348199
 23
-1174.46419457365
 33
0.0
 14
4594.761898348198
 24
-1177.562245024304
 34
0.0
100
AcDbRotatedDimension
1001
ACAD
1000
DSTYLE
1002
{
1070
   271
1070
     6
1002
}
  0
LINE
  5
26AE9
330
18
100
AcDbEntity
  8
0
370
    50
100
AcDbLine
 10
4406.761898348199
 20
-1047.562245024304
 30
0.0
 11
4406.761898348199
 21
-1177.562245024304
 31
0.0
  0
LINE
  5
26AFD
330
18
100
AcDbEntity
  8
0
  6
CENTER
 62
     1
 48
0.45
370
    13
100
AcDbLine
 10
4391.678877883276
 20
-1112.562245024304
 30
0.0
 11
4611.224359221481
 21
-1112.562245024304
 31
0.0
  0
LINE
  5
26AFE
330
18
100
AcDbEntity
  8
0
370
    50
100
AcDbLine
 10
4406.761898348199
 20
-1047.562245024304
 30
0.0
 11
4594.761898348198
 21
-1047.562245024304
 31
0.0
  0
LINE
  5
26AFF
330
18
100
AcDbEntity
  8
0
370
    50
100
AcDbLine
 10
4406.761898348199
 20
-1177.562245024304
 30
0.0
 11
4594.761898348198
 21
-1177.562245024304
 31
0.0
  0
LINE
  5
26B00
330
18
100
AcDbEntity
  8
0
370
    50
100
AcDbLine
 10
4594.761898348198
 20
-1047.562245024304
 30
0.0
 11
4594.761898348198
 21
-1177.562245024304
 31
0.0
  0
LINE
  5
26B20
330
18
100
AcDbEntity
  8
0
  6
CENTER
 62
     1
 48
0.3
370
    13
100
AcDbLine
 10
4436.761898348199
 20
-1175.119821873386
 30
0.0
 11
4436.761898348199
 21
-1164.981671559821
 31
0.0
  0
LINE
  5
26B21
330
18
100
AcDbEntity
  8
0
  6
CENTER
 62
     1
 48
0.3
370
    13
100
AcDbLine
 10
4500.761898348199
 20
-1174.532458215211
 30
0.0
 11
4500.761898348199
 21
-1164.959958431387
 31
0.0
  0
LINE
  5
26B22
330
18
100
AcDbEntity
  8
0
  6
CENTER
 62
     1
 48
0.3
370
    13
100
AcDbLine
 10
4564.761898348199
 20
-1174.46419457365
 30
0.0
 11
4564.761898348199
 21
-1164.979725763909
 31
0.0
  0
LINE
  5
26B23
330
18
100
AcDbEntity
  8
0
  6
CENTER
 62
     1
 48
0.3
370
    13
100
AcDbLine
 10
4436.761898348199
 20
-1059.647711454098
 30
0.0
 11
4436.761898348199
 21
-1050.193854413095
 31
0.0
  0
LINE
  5
26B24
330
18
100
AcDbEntity
  8
0
  6
CENTER
 62
     1
 48
0.3
370
    13
100
AcDbLine
 10
4500.761898348199
 20
-1059.781385190785
 30
0.0
 11
4500.761898348199
 21
-1049.852859785691
 31
0.0
  0
LINE
  5
26B25
330
18
100
AcDbEntity
  8
0
  6
CENTER
 62
     1
 48
0.3
370
    13
100
AcDbLine
 10
4564.761898348199
 20
-1059.681758811843
 30
0.0
 11
4564.761898348199
 21
-1049.652564927906
 31
0.0
  0
LINE
  5
26B35
330
18
100
AcDbEntity
  8
0
  6
CENTER
 62
     1
 48
0.3
370
    13
100
AcDbLine
 10
4431.676656963974
 20
-1055.062245024304
 30
0.0
 11
4441.644943001054
 21
-1055.062245024304
 31
0.0
  0
LINE
  5
26B36
330
18
100
AcDbEntity
  8
0
  6
CENTER
 62
     1
 48
0.3
370
    13
100
AcDbLine
 10
4496.256001506552
 20
-1055.062245024304
 30
0.0
 11
4505.658225055468
 21
-1055.062245024304
 31
0.0
  0
LINE
  5
26B37
330
18
100
AcDbEntity
  8
0
  6
CENTER
 62
     1
 48
0.3
370
    13
100
AcDbLine
 10
4560.153378550537
 20
-1055.062245024304
 30
0.0
 11
4569.97810382963
 21
-1055.062245024304
 31
0.0
  0
LINE
  5
26B38
330
18
100
AcDbEntity
  8
0
  6
CENTER
 62
     1
 48
0.3
370
    13
100
AcDbLine
 10
4431.655600747343
 20
-1170.062245024304
 30
0.0
 11
4441.924003746949
 21
-1170.062245024304
 31
0.0
  0
LINE
  5
26B39
330
18
100
AcDbEntity
  8
0
  6
CENTER
 62
     1
 48
0.3
370
    13
100
AcDbLine
 10
4495.785470522284
 20
-1170.062245024304
 30
0.0
 11
4506.025618905829
 21
-1170.062245024304
 31
0.0
  0
LINE
  5
26B3A
330
18
100
AcDbEntity
  8
0
  6
CENTER
 62
     1
 48
0.3
370
    13
100
AcDbLine
 10
4559.81728156824
 20
-1170.062245024304
 30
0.0
 11
4570.241234673297
 21
-1170.062245024304
 31
0.0
  0
LINE
  5
26B69
330
18
100
AcDbEntity
  8
0
  6
PHANTOM
 48
0.45
370
     5
100
AcDbLine
 10
4780.106876603704
 20
-1162.459955563712
 30
0.0
 11
4780.106876603704
 21
-1062.483500741361
 31
0.0
  0
LWPOLYLINE
  5
26B6B
102
{ACAD_REACTORS
330
2832B
102
}
330
18
100
AcDbEntity
  8
0
  6
PHANTOM
 48
0.45
370
     5
100
AcDbPolyline
 90
        4
 70
     1
 43
0.0
 10
4785.106876603705
 20
-1047.559933425514
 10
4792.906876603704
 20
-1047.559933425514
 10
4792.906876603704
 20
-1177.559933425515
 10
4785.106876603705
 20
-1177.559933425515
  0
LINE
  5
26B6C
330
18
100
AcDbEntity
  8
0
 48
0.3
370
    50
100
AcDbLine
 10
4739.406876603704
 20
-1065.559955563712
 30
0.0
 11
4739.406876603704
 21
-1159.559911699457
 31
0.0
  0
CIRCLE
  5
26B70
330
18
100
AcDbEntity
  8
0
  6
HIDDEN
 48
0.45
370
    13
100
AcDbCircle
 10
4746.905796413036
 20
-1167.470538738286
 30
0.0
 40
4.0
  0
LEADER
  5
26B72
330
18
100
AcDbEntity
  8
文字
370
    13
100
AcDbLeader
  3
まこ
 73
     0
 74
     0
 75
     1
 40
13.37055837563451
 41
63.91370558375633
 76
     3
 10
4787.601067288426
 20
-1177.559933425515
 30
0.0
 10
4769.870354635515
 20
-1198.674283356166
 30
0.0
 10
4773.620354635515
 20
-1198.674283356166
 30
0.0
340
26B73
213
-7.652947169478466
223
0.0
233
0.0
1001
ACAD
1000
DSTYLE
1002
{
1070
   147
1040
0.5
1070
    77
1070
     1
1002
}
  0
MTEXT
  5
26B73
102
{ACAD_REACTORS
330
26B72
102
}
330
18
100
AcDbEntity
  8
文字
370
    13
100
AcDbMText
 10
4782.023301804994
 20
-1197.924283356166
 30
0.0
 40
4.5
 41
0.0
 71
     7
 72
     1
  1
組合せマグネットベース\PＭＢＮＡシリーズ
  7
まこ
 73
     1
 44
1.0
  0
LINE
  5
26B76
102
{ACAD_REACTORS
330
2832B
102
}
330
18
100
AcDbEntity
  8
0
  6
CENTER
 62
     1
 48
0.45
370
    13
100
AcDbLine
 10
4802.784107471815
 20
-1169.959111699457
 30
0.0
 11
4775.823802002739
 21
-1169.959111699457
 31
0.0
  0
LINE
  5
26B77
330
18
100
AcDbEntity
  8
0
  6
PHANTOM
 48
0.45
370
     5
100
AcDbLine
 10
4785.106826846736
 20
-1162.459955563712
 30
0.0
 11
4780.106876603704
 21
-1162.459955563712
 31
0.0
  0
DIMENSION
  5
26B7F
330
18
100
AcDbEntity
  8
0
 62
     4
370
    13
100
AcDbDimension
  2
*D48
 10
4792.906826846736
 20
-1017.317054521938
 30
0.0
 11
4805.871112561021
 21
-1014.317054521938
 31
0.0
 70
    32
 71
     5
 42
7.800000000000181
  3
まこ
100
AcDbAlignedDimension
 13
4785.106826846736
 23
-1047.559933425514
 33
0.0
 14
4792.906826846736
 24
-1047.559933425514
 34
0.0
100
AcDbRotatedDimension
1001
ACAD
1000
DSTYLE
1002
{
1070
   271
1070
     6
1002
}
  0
DIMENSION
  5
26B80
330
18
100
AcDbEntity
  8
0
 62
     4
370
    13
100
AcDbDimension
  2
*D47
 10
4792.906876603704
 20
-1007.452399042242
 30
0.0
 11
4807.585448032276
 21
-1004.452399042242
 31
0.0
 70
    32
 71
     5
 42
12.80000000000018
  3
まこ
100
AcDbAlignedDimension
 13
4780.106876603704
 23
-1062.483500741361
 33
0.0
 14
4792.906876603704
 24
-1047.561722748411
 34
0.0
100
AcDbRotatedDimension
1001
ACAD
1000
DSTYLE
1002
{
1070
   344
1005
1215D
1070
   342
1005
0
1070
   173
1070
     1
1070
   343
1005
153E2
1070
   172
1070
     1
1070
   271
1070
     6
1002
}
  0
DIMENSION
  5
26B81
330
18
100
AcDbEntity
  8
0
 62
     4
370
    13
100
AcDbDimension
  2
*D46
 10
4780.106876603704
 20
-1007.452399042242
 30
0.0
 11
4799.114447017556
 21
-994.6455010894323
 31
0.0
 70
   160
 71
     5
 42
1.199999999999818
  3
まこ
100
AcDbAlignedDimension
 13
4778.906876603705
 23
-1047.559955563712
 33
0.0
 14
4780.106876603704
 24
-1062.483500741361
 34
0.0
100
AcDbRotatedDimension
1001
ACAD
1000
DSTYLE
1002
{
1070
   343
1005
1215D
1070
   342
1005
0
1070
   173
1070
     1
1070
   344
1005
153E2
1070
   271
1070
     6
1070
   279
1070
     2
1002
}
  0
DIMENSION
  5
26B82
330
18
100
AcDbEntity
  8
0
 62
     4
370
    13
100
AcDbDimension
  2
*D45
 10
4778.906876603705
 20
-1007.452399042242
 30
0.0
 11
4758.906876603704
 21
-1004.452399042242
 31
0.0
 70
    32
 71
     5
 42
40.0
  3
まこ
100
AcDbAlignedDimension
 13
4738.906876603704
 23
-1047.559955563712
 33
0.0
 14
4778.906876603705
 24
-1047.559955563712
 34
0.0
100
AcDbRotatedDimension
1001
ACAD
1000
DSTYLE
1002
{
1070
   271
1070
     6
1002
}
  0
DIMENSION
  5
26B83
330
18
100
AcDbEntity
  8
0
 62
     4
370
    13
100
AcDbDimension
  2
*D44
 10
4792.906876603704
 20
-988.5441756183618
 30
0.0
 11
4765.906876603704
 21
-985.5441756183617
 31
0.0
 70
    32
  1
<>（取付寸法）
 71
     5
 42
54.0
  3
まこ
100
AcDbAlignedDimension
 13
4738.906876603704
 23
-1047.559955563712
 33
0.0
 14
4792.906876603704
 24
-1047.559933425514
 34
0.0
100
AcDbRotatedDimension
  0
LINE
  5
26B85
330
18
100
AcDbEntity
  8
0
  6
CENTER
 62
     1
 48
0.45
370
    13
100
AcDbLine
 10
4729.576156980185
 20
-1112.559911699457
 30
0.0
 11
4800.484188161841
 21
-1112.559911699457
 31
0.0
  0
CIRCLE
  5
26B86
330
18
100
AcDbEntity
  8
0
  6
HIDDEN
 48
0.45
370
    13
100
AcDbCircle
 10
4746.905796413035
 20
-1057.470538738285
 30
0.0
 40
4.0
  0
LINE
  5
26B87
330
18
100
AcDbEntity
  8
0
 48
0.3
370
    50
100
AcDbLine
 10
4738.906876603704
 20
-1065.559955563712
 30
0.0
 11
4739.406876603704
 21
-1065.559955563712
 31
0.0
  0
LINE
  5
26B8A
102
{ACAD_REACTORS
330
2832B
102
}
330
18
100
AcDbEntity
  8
0
  6
CENTER
 62
     1
 48
0.45
370
    13
100
AcDbLine
 10
4802.784107471815
 20
-1054.959111699457
 30
0.0
 11
4775.865946126532
 21
-1054.959111699457
 31
0.0
  0
LINE
  5
26B8B
330
18
100
AcDbEntity
  8
0
  6
PHANTOM
 48
0.45
370
     5
100
AcDbLine
 10
4780.106876603704
 20
-1062.483500741361
 30
0.0
 11
4785.106826846736
 21
-1062.483500741361
 31
0.0
  0
TEXT
  5
26B93
330
18
100
AcDbEntity
  8
文字
370
    13
100
AcDbText
 10
4804.576286363505
 20
-996.8465302094466
 30
0.0
 40
4.5
  1
（ギャップ）
 41
0.6
  7
ｽﾀｲﾙ3
100
AcDbText
  0
LINE
  5
26C41
330
18
100
AcDbEntity
  8
0
  6
CENTER
 62
     1
 48
0.45
370
    13
100
AcDbLine
 10
4735.941637113136
 20
-1055.059911699457
 30
0.0
 11
4751.322927882455
 21
-1055.059911699457
 31
0.0
  0
LINE
  5
26C42
330
18
100
AcDbEntity
  8
0
  6
CENTER
 62
     1
 48
0.45
370
    13
100
AcDbLine
 10
4735.941637113136
 20
-1170.059911699457
 30
0.0
 11
4751.322927882455
 21
-1170.059911699457
 31
0.0
  0
LINE
  5
26C55
330
18
100
AcDbEntity
  8
0
 48
0.3
370
    50
100
AcDbLine
 10
4738.906876603704
 20
-1065.559955563712
 30
0.0
 11
4738.906876603704
 21
-1047.559955563712
 31
0.0
  0
LINE
  5
26C56
330
18
100
AcDbEntity
  8
0
 48
0.3
370
    50
100
AcDbLine
 10
4738.906876603704
 20
-1047.559911699457
 30
0.0
 11
4778.906876603705
 21
-1047.559911699457
 31
0.0
  0
LINE
  5
26C57
330
18
100
AcDbEntity
  8
0
 48
0.3
370
    50
100
AcDbLine
 10
4778.906876603705
 20
-1047.559955563712
 30
0.0
 11
4778.906876603705
 21
-1177.559955563711
 31
0.0
  0
LINE
  5
26C58
330
18
100
AcDbEntity
  8
0
 48
0.3
370
    50
100
AcDbLine
 10
4778.906876603705
 20
-1177.559911699457
 30
0.0
 11
4738.906876603704
 21
-1177.559911699457
 31
0.0
  0
LINE
  5
26C59
330
18
100
AcDbEntity
  8
0
 48
0.3
370
    50
100
AcDbLine
 10
4738.906876603704
 20
-1177.559911699457
 30
0.0
 11
4738.906171140904
 21
-1159.559955563712
 31
0.0
  0
DIMENSION
  5
26C9B
330
18
100
AcDbEntity
  8
0
 62
     4
370
    13
100
AcDbDimension
  2
*D49
 10
4714.99494391602
 20
-1065.559955563712
 30
0.0
 11
4711.99494391602
 21
-1056.559955563711
 31
0.0
 70
    32
  1
（<>）
 71
     5
 42
18.0
  3
まこ
100
AcDbAlignedDimension
 13
4738.906876603704
 23
-1047.559955563712
 33
0.0
 14
4738.906876603704
 24
-1065.559955563712
 34
0.0
 50
90.0
100
AcDbRotatedDimension
1001
ACAD
1000
DSTYLE
1002
{
1070
   271
1070
     6
1002
}
  0
DIMENSION
  5
26CA8
330
18
100
AcDbEntity
  8
0
 62
     4
370
    13
100
AcDbDimension
  2
*D50
 10
4714.99494391602
 20
-1159.559955563712
 30
0.0
 11
4711.99494391602
 21
-1112.559955563711
 31
0.0
 70
    32
 71
     5
 42
94.0
  3
まこ
100
AcDbAlignedDimension
 13
4738.906876603704
 23
-1065.559955563712
 33
0.0
 14
4738.906876603704
 24
-1159.559955563712
 34
0.0
 50
90.0
100
AcDbRotatedDimension
1001
ACAD
1000
DSTYLE
1002
{
1070
   279
1070
     1
1002
}
  0
DIMENSION
  5
26CB5
330
18
100
AcDbEntity
  8
0
 62
     4
370
    13
100
AcDbDimension
  2
*D51
 10
4714.99494391602
 20
-1177.559911699457
 30
0.0
 11
4711.99494391602
 21
-1168.559911699456
 31
0.0
 70
    32
  1
（<>）
 71
     5
 42
18.0
  3
まこ
100
AcDbAlignedDimension
 13
4739.407535920843
 23
-1159.559911699457
 33
0.0
 14
4738.906876605422
 24
-1177.559911699457
 34
0.0
 50
90.0
100
AcDbRotatedDimension
1001
ACAD
1000
DSTYLE
1002
{
1070
   279
1070
     1
1002
}
  0
DIMENSION
  5
26CE6
330
18
100
AcDbEntity
  8
0
 62
     4
370
    13
100
AcDbDimension
  2
*D52
 10
4739.406876603704
 20
-1083.962764455629
 30
0.0
 11
4725.942590889419
 21
-1083.962764455629
 31
0.0
 70
   160
 71
     5
 42
0.5
  3
まこ
100
AcDbAlignedDimension
 13
4738.906876603704
 23
-1065.559955563712
 33
0.0
 14
4739.406876603704
 24
-1065.559955563712
 34
0.0
100
AcDbRotatedDimension
1001
ACAD
1000
DSTYLE
1002
{
1070
   271
1070
     6
1002
}
  0
LEADER
  5
26CFE
330
18
100
AcDbEntity
  8
0
370
    13
100
AcDbLeader
  3
まこ
 73
     0
 75
     1
 40
5.459390862944161
 41
34.19543147208122
 76
     3
 10
4759.118737401929
 20
-1175.589509732959
 30
0.0
 10
4769.334431050022
 20
-1205.136787536284
 30
0.0
 10
4765.584431050022
 20
-1205.136787536284
 30
0.0
340
26CFF
213
-0.6254683605275205
223
-0.9313709820642088
233
0.0
1001
ACAD
1000
DSTYLE
1002
{
1070
   147
1040
0.5
1070
    77
1070
     1
1002
}
  0
MTEXT
  5
26CFF
102
{ACAD_REACTORS
330
26CFE
102
}
330
18
100
AcDbEntity
  8
0
 62
     2
370
    13
100
AcDbMText
 10
4731.264467938468
 20
-1203.45541655422
 30
0.0
 40
4.5
 41
0.0
 71
     7
 72
     1
  1
\A1;ケーブル位置
  7
まこ
 73
     1
 44
1.0
  0
LWPOLYLINE
  5
26E27
330
18
100
AcDbEntity
  8
0
  6
HIDDEN
 48
0.45
370
    13
100
AcDbPolyline
 90
        5
 70
     0
 43
0.0
 10
4322.550487972828
 20
-1173.488745024304
 10
4322.550487972828
 20
-1051.488745024304
 10
4334.550487972828
 20
-1051.488745024304
 10
4334.550487972828
 20
-1173.488745024304
 10
4322.550487972828
 20
-1173.488745024304
  0
LINE
  5
26E28
330
18
100
AcDbEntity
  8
0
  6
PHANTOM
 48
0.3
370
     5
100
AcDbLine
 10
4295.349779188302
 20
-1162.462288888559
 30
0.0
 11
4295.349779188302
 21
-1062.485834066209
 31
0.0
  0
LWPOLYLINE
  5
26E29
330
18
100
AcDbEntity
  8
0
  6
PHANTOM
 48
0.3
370
     5
100
AcDbPolyline
 90
        4
 70
     1
 43
0.0
 10
4290.349779188302
 20
-1047.562266750361
 10
4282.549779188301
 20
-1047.562266750361
 10
4282.549779188301
 20
-1177.562266750362
 10
4290.349779188302
 20
-1177.562266750362
  0
LINE
  5
26E2A
330
18
100
AcDbEntity
  8
0
 48
0.3
370
    50
100
AcDbLine
 10
4296.549779188302
 20
-1047.562288888559
 30
0.0
 11
4296.549779188302
 21
-1177.562288888559
 31
0.0
  0
LINE
  5
26E2C
330
18
100
AcDbEntity
  8
0
 48
0.3
370
    50
100
AcDbLine
 10
4336.049647531607
 20
-1065.562288888559
 30
0.0
 11
4336.049647531607
 21
-1159.562288888559
 31
0.0
  0
LINE
  5
26E2D
330
18
100
AcDbEntity
  8
0
 48
0.3
370
    50
100
AcDbLine
 10
4296.549779188302
 20
-1177.562288888559
 30
0.0
 11
4336.549779188302
 21
-1177.562288888559
 31
0.0
  0
CIRCLE
  5
26E31
330
18
100
AcDbEntity
  8
0
  6
HIDDEN
 48
0.45
370
    13
100
AcDbCircle
 10
4328.55085937897
 20
-1167.472872063133
 30
0.0
 40
4.0
  0
LINE
  5
26E35
330
18
100
AcDbEntity
  8
0
  6
CENTER
 62
     1
 48
0.45
370
    13
100
AcDbLine
 10
4339.515018678869
 20
-1170.062245024304
 30
0.0
 11
4324.13372790955
 21
-1170.062245024304
 31
0.0
  0
LINE
  5
26E3E
330
18
100
AcDbEntity
  8
0
 48
0.3
370
    50
100
AcDbLine
 10
4336.549779188302
 20
-1177.562288888559
 30
0.0
 11
4336.550484651102
 21
-1159.562288888559
 31
0.0
  0
LINE
  5
26E44
330
18
100
AcDbEntity
  8
0
  6
PHANTOM
 48
0.3
370
     5
100
AcDbLine
 10
4290.349828945269
 20
-1162.462288888559
 30
0.0
 11
4295.349779188302
 21
-1162.462288888559
 31
0.0
  0
LINE
  5
26E45
330
18
100
AcDbEntity
  8
0
  6
CENTER
 62
     1
 48
0.45
370
    13
100
AcDbLine
 10
4272.672598077159
 20
-1169.961445024304
 30
0.0
 11
4299.632903546235
 21
-1169.961445024304
 31
0.0
  0
LINE
  5
26E46
330
18
100
AcDbEntity
  8
0
 48
0.3
370
    50
100
AcDbLine
 10
4336.549779188302
 20
-1047.562288888559
 30
0.0
 11
4296.549779188302
 21
-1047.562288888559
 31
0.0
  0
LINE
  5
26E47
330
18
100
AcDbEntity
  8
0
  6
CENTER
 62
     1
 48
0.45
370
    13
100
AcDbLine
 10
4343.242861633707
 20
-1112.562245024304
 30
0.0
 11
4276.303331326955
 21
-1112.562245024304
 31
0.0
  0
CIRCLE
  5
26E4A
330
18
100
AcDbEntity
  8
0
  6
HIDDEN
 48
0.45
370
    13
100
AcDbCircle
 10
4328.55085937897
 20
-1057.472872063133
 30
0.0
 40
4.0
  0
LINE
  5
26E4D
330
18
100
AcDbEntity
  8
0
  6
CENTER
 62
     1
 48
0.45
370
    13
100
AcDbLine
 10
4339.515018678869
 20
-1055.062245024304
 30
0.0
 11
4324.13372790955
 21
-1055.062245024304
 31
0.0
  0
LINE
  5
26E55
330
18
100
AcDbEntity
  8
0
 48
0.3
370
    50
100
AcDbLine
 10
4336.549779188302
 20
-1065.562288888559
 30
0.0
 11
4336.549779188302
 21
-1047.562288888559
 31
0.0
  0
LINE
  5
26E56
330
18
100
AcDbEntity
  8
0
 48
0.3
370
    50
100
AcDbLine
 10
4336.550487972828
 20
-1065.562288888559
 30
0.0
 11
4336.049647531607
 21
-1065.562288888559
 31
0.0
  0
LINE
  5
26E5C
330
18
100
AcDbEntity
  8
0
  6
PHANTOM
 48
0.3
370
     5
100
AcDbLine
 10
4295.349779188302
 20
-1062.485834066209
 30
0.0
 11
4290.349828945269
 21
-1062.485834066209
 31
0.0
  0
LINE
  5
26E5D
330
18
100
AcDbEntity
  8
0
  6
CENTER
 62
     1
 48
0.45
370
    13
100
AcDbLine
 10
4272.672598077159
 20
-1054.961445024304
 30
0.0
 11
4299.590759422442
 21
-1054.961445024304
 31
0.0
  0
TEXT
  5
26E62
330
18
100
AcDbEntity
  8
0
 62
     2
100
AcDbText
 10
4307.108657987549
 20
-1096.859088482359
 30
0.0
 40
2.0
  1
SER No.******
 50
270.0
 41
1.199999999999999
  7
MSｺﾞｼｯｸN
 11
4306.743175754045
 21
-1096.859088482359
 31
0.0
100
AcDbText
 73
     1
  0
LINE
  5
26E63
330
18
100
AcDbEntity
  8
0
 62
     2
100
AcDbLine
 10
4306.549779188301
 20
-1095.062245024304
 30
0.0
 11
4306.549779188301
 21
-1130.062245024304
 31
0.0
  0
TEXT
  5
26E64
330
18
100
AcDbEntity
  8
0
 62
     2
100
AcDbText
 10
4302.451036744887
 20
-1103.23039074977
 30
0.0
 40
1.44
  1
DENSO
 50
270.0
 41
1.3
  7
TIMESNR
100
AcDbText
  0
LINE
  5
26E65
330
18
100
AcDbEntity
  8
0
 62
     2
100
AcDbLine
 10
4301.549779188301
 20
-1095.562245024304
 30
0.0
 11
4301.549779188301
 21
-1129.562245024304
 31
0.0
  0
TEXT
  5
26E66
330
18
100
AcDbEntity
  8
0
 62
     2
100
AcDbText
 10
4304.147799153873
 20
-1103.35180385991
 30
0.0
 40
1.44
  1
NIKKI
 50
270.0
 41
1.25
  7
TIMESNR
100
AcDbText
  0
LINE
  5
26E67
330
18
100
AcDbEntity
  8
0
 62
     2
100
AcDbLine
 10
4313.549779188302
 20
-1129.562245024304
 30
0.0
 11
4313.549779188302
 21
-1095.562245024304
 31
0.0
  0
LINE
  5
26E68
330
18
100
AcDbEntity
  8
0
 62
     2
100
AcDbLine
 10
4301.549779188301
 20
-1095.562245024304
 30
0.0
 11
4301.549779188301
 21
-1129.562245024304
 31
0.0
  0
TEXT
  5
26E69
330
18
100
AcDbEntity
  8
0
 62
     2
100
AcDbText
 10
4309.93269133598
 20
-1096.88621505517
 30
0.0
 40
2.6
  1
MODEL:CLN500MA
 50
270.0
 41
1.199999999999999
  7
MSゴシックN
 11
4309.457564432427
 21
-1096.88621505517
 31
0.0
100
AcDbText
 73
     1
  0
LINE
  5
26E6A
330
18
100
AcDbEntity
  8
0
 62
     2
100
AcDbLine
 10
4306.549779188301
 20
-1095.062245024304
 30
0.0
 11
4306.549779188301
 21
-1130.062245024304
 31
0.0
  0
LINE
  5
26E6B
330
18
100
AcDbEntity
  8
0
 62
     2
100
AcDbLine
 10
4313.549779188302
 20
-1129.562245024304
 30
0.0
 11
4313.549779188302
 21
-1095.562245024304
 31
0.0
  0
TEXT
  5
26E6C
330
18
100
AcDbEntity
  8
0
 62
     2
100
AcDbText
 10
4307.108657987549
 20
-1096.859088482359
 30
0.0
 40
2.0
  1
SER No.******
 50
270.0
 41
1.199999999999999
  7
MSゴシックN
 11
4306.743175754045
 21
-1096.859088482359
 31
0.0
100
AcDbText
 73
     1
  0
TEXT
  5
26E6D
330
18
100
AcDbEntity
  8
0
 62
     2
100
AcDbText
 10
4302.451036744887
 20
-1103.23039074977
 30
0.0
 40
1.44
  1
DENSO
 50
270.0
 41
1.3
  7
TIMESNR
100
AcDbText
  0
TEXT
  5
26E6E
330
18
100
AcDbEntity
  8
0
 62
     2
100
AcDbText
 10
4304.147799153873
 20
-1103.351803859909
 30
0.0
 40
1.44
  1
NIKKI
 50
270.0
 41
1.25
  7
TIMESNR
100
AcDbText
  0
ARC
  5
26E6F
330
18
100
AcDbEntity
  8
0
 62
     2
100
AcDbCircle
 10
4302.049779188301
 20
-1129.562245024304
 30
0.0
 40
0.5
100
AcDbArc
 50
180.0
 51
270.0
  0
ARC
  5
26E70
330
18
100
AcDbEntity
  8
0
 62
     2
100
AcDbCircle
 10
4313.049779188301
 20
-1129.562245024304
 30
0.0
 40
0.5
100
AcDbArc
 50
270.0
 51
0.0
  0
LINE
  5
26E71
330
18
100
AcDbEntity
  8
0
 62
     2
100
AcDbLine
 10
4302.049779188301
 20
-1130.062245024304
 30
0.0
 11
4313.049779188301
 21
-1130.062245024304
 31
0.0
  0
ARC
  5
26E72
330
18
100
AcDbEntity
  8
0
 62
     2
100
AcDbCircle
 10
4313.049779188301
 20
-1129.562245024304
 30
0.0
 40
0.5
100
AcDbArc
 50
270.0
 51
0.0
  0
ARC
  5
26E73
330
18
100
AcDbEntity
  8
0
 62
     2
100
AcDbCircle
 10
4302.049779188301
 20
-1129.562245024304
 30
0.0
 40
0.5
100
AcDbArc
 50
180.0
 51
270.0
  0
LINE
  5
26E74
330
18
100
AcDbEntity
  8
0
 62
     2
100
AcDbLine
 10
4302.049779188301
 20
-1130.062245024304
 30
0.0
 11
4313.049779188301
 21
-1130.062245024304
 31
0.0
  0
LINE
  5
26E75
102
{ACAD_REACTORS
330
26E7F
102
}
330
18
100
AcDbEntity
  8
0
 62
     2
100
AcDbLine
 10
4305.607302606303
 20
-1102.414291525383
 30
0.0
 11
4304.726202606303
 21
-1099.610791525383
 31
0.0
  0
LINE
  5
26E76
102
{ACAD_REACTORS
330
26E7F
102
}
330
18
100
AcDbEntity
  8
0
 62
     2
100
AcDbLine
 10
4305.607302606303
 20
-1098.008791525382
 30
0.0
 11
4305.607302606303
 21
-1102.414291525383
 31
0.0
  0
LINE
  5
26E77
102
{ACAD_REACTORS
330
26E7F
102
}
330
18
100
AcDbEntity
  8
0
 62
     2
100
AcDbLine
 10
4302.403302606303
 20
-1102.013791525383
 30
0.0
 11
4304.405802606304
 21
-1102.254091525383
 31
0.0
  0
ARC
  5
26E78
102
{ACAD_REACTORS
330
26E7F
102
}
330
18
100
AcDbEntity
  8
0
 62
     2
100
AcDbCircle
 10
4303.604802606304
 20
-1100.011291525383
 30
0.0
 40
0.8009999999999999
100
AcDbArc
 50
180.0
 51
0.0
  0
CIRCLE
  5
26E79
102
{ACAD_REACTORS
330
26E7F
102
}
330
18
100
AcDbEntity
  8
0
 62
     2
100
AcDbCircle
 10
4303.805052606303
 20
-1100.011291525383
 30
0.0
 40
0.6007500000000002
  0
ARC
  5
26E7A
330
18
100
AcDbEntity
  8
0
 62
     2
100
AcDbCircle
 10
4302.049779188301
 20
-1095.562245024304
 30
0.0
 40
0.5
100
AcDbArc
 50
90.0
 51
180.0
  0
LINE
  5
26E7B
102
{ACAD_REACTORS
330
26E7F
102
}
330
18
100
AcDbEntity
  8
0
 62
     2
100
AcDbLine
 10
4304.405802606304
 20
-1100.011291525383
 30
0.0
 11
4304.405802606304
 21
-1102.254091525383
 31
0.0
  0
LINE
  5
26E7C
102
{ACAD_REACTORS
330
26E7F
102
}
330
18
100
AcDbEntity
  8
0
 62
     2
100
AcDbLine
 10
4302.403302606303
 20
-1097.608291525382
 30
0.0
 11
4302.403302606303
 21
-1102.013791525383
 31
0.0
  0
LINE
  5
26E7D
102
{ACAD_REACTORS
330
26E7F
102
}
330
18
100
AcDbEntity
  8
0
 62
     2
100
AcDbLine
 10
4302.403302606303
 20
-1097.608291525382
 30
0.0
 11
4305.607302606303
 21
-1098.008791525382
 31
0.0
  0
ARC
  5
26E7E
102
{ACAD_REACTORS
330
26E7F
102
}
330
18
100
AcDbEntity
  8
0
 62
     2
100
AcDbCircle
 10
4303.806915397
 20
-1100.012222920731
 30
0.0
 40
1.00311322310025
100
AcDbArc
 50
23.58977727261614
 51
179.9468005913759
  0
HATCH
  5
26E7F
330
18
100
AcDbEntity
  8
0
 62
     2
100
AcDbHatch
 10
0.0
 20
0.0
 30
0.0
210
0.0
220
0.0
230
1.0
  2
SOLID
 70
     1
 71
     1
 91
        2
 92
       16
 93
        1
 72
     2
 10
4303.805052606303
 20
-1100.011291525383
 40
0.6007500000000002
 50
0.0
 51
360.0
 73
     1
 97
        1
330
26E79
 92
        1
 93
        8
 72
     2
 10
4303.806915397
 20
-1100.012222920731
 40
1.00311322310025
 50
23.58977727261614
 51
179.9468005913759
 73
     1
 72
     2
 10
4303.604802606304
 20
-1100.011291525383
 40
0.8009999999999999
 50
180.0
 51
360.0
 73
     1
 72
     1
 10
4304.405802606304
 20
-1100.011291525383
 11
4304.405802606304
 21
-1102.254091525383
 72
     1
 10
4304.405802606304
 20
-1102.254091525383
 11
4302.403302606303
 21
-1102.013791525383
 72
     1
 10
4302.403302606303
 20
-1102.013791525383
 11
4302.403302606303
 21
-1097.608291525382
 72
     1
 10
4302.403302606303
 20
-1097.608291525382
 11
4305.607302606303
 21
-1098.008791525382
 72
     1
 10
4305.607302606303
 20
-1098.008791525382
 11
4305.607302606303
 21
-1102.414291525383
 72
     1
 10
4305.607302606303
 20
-1102.414291525383
 11
4304.726202606303
 21
-1099.610791525383
 97
        8
330
26E7E
330
26E78
330
26E7B
330
26E77
330
26E7C
330
26E7D
330
26E76
330
26E75
 75
     0
 76
     1
 98
        1
 10
4306.284527422063
 20
-898.5335814311476
  0
ARC
  5
26E80
330
18
100
AcDbEntity
  8
0
 62
     2
100
AcDbCircle
 10
4313.049779188301
 20
-1095.562245024304
 30
0.0
 40
0.5
100
AcDbArc
 50
0.0
 51
90.0
  0
LINE
  5
26E81
330
18
100
AcDbEntity
  8
0
 62
     2
100
AcDbLine
 10
4313.049779188301
 20
-1095.062245024304
 30
0.0
 11
4302.049779188301
 21
-1095.062245024304
 31
0.0
  0
ARC
  5
26E82
330
18
100
AcDbEntity
  8
0
 62
     2
100
AcDbCircle
 10
4313.049779188301
 20
-1095.562245024304
 30
0.0
 40
0.5
100
AcDbArc
 50
0.0
 51
90.0
  0
LINE
  5
26E83
102
{ACAD_REACTORS
330
26E86
102
}
330
18
100
AcDbEntity
  8
0
 62
     2
100
AcDbLine
 10
4304.405802606304
 20
-1100.011291525382
 30
0.0
 11
4304.405802606304
 21
-1102.254091525382
 31
0.0
  0
ARC
  5
26E84
102
{ACAD_REACTORS
330
26E86
102
}
330
18
100
AcDbEntity
  8
0
 62
     2
100
AcDbCircle
 10
4303.604802606304
 20
-1100.011291525382
 30
0.0
 40
0.8009999999999999
100
AcDbArc
 50
180.0
 51
0.0
  0
LINE
  5
26E85
102
{ACAD_REACTORS
330
26E86
102
}
330
18
100
AcDbEntity
  8
0
 62
     2
100
AcDbLine
 10
4305.607302606303
 20
-1098.008791525382
 30
0.0
 11
4305.607302606303
 21
-1102.414291525382
 31
0.0
  0
HATCH
  5
26E86
330
18
100
AcDbEntity
  8
0
 62
     2
100
AcDbHatch
 10
0.0
 20
0.0
 30
0.0
210
0.0
220
0.0
230
1.0
  2
SOLID
 70
     1
 71
     1
 91
        2
 92
       16
 93
        1
 72
     2
 10
4303.805052606303
 20
-1100.011291525382
 40
0.6007500000000002
 50
0.0
 51
360.0
 73
     1
 97
        1
330
26E88
 92
        1
 93
        8
 72
     2
 10
4303.806915397
 20
-1100.012222920731
 40
1.00311322310025
 50
23.58977727261614
 51
179.9468005914019
 73
     1
 72
     2
 10
4303.604802606304
 20
-1100.011291525382
 40
0.8009999999999999
 50
180.0
 51
360.0
 73
     1
 72
     1
 10
4304.405802606304
 20
-1100.011291525382
 11
4304.405802606304
 21
-1102.254091525382
 72
     1
 10
4304.405802606304
 20
-1102.254091525382
 11
4302.403302606303
 21
-1102.013791525382
 72
     1
 10
4302.403302606303
 20
-1102.013791525382
 11
4302.403302606303
 21
-1097.608291525382
 72
     1
 10
4302.403302606303
 20
-1097.608291525382
 11
4305.607302606303
 21
-1098.008791525382
 72
     1
 10
4305.607302606303
 20
-1098.008791525382
 11
4305.607302606303
 21
-1102.414291525382
 72
     1
 10
4305.607302606303
 20
-1102.414291525382
 11
4304.726202606303
 21
-1099.610791525382
 97
        8
330
26E8C
330
26E84
330
26E83
330
26E8D
330
26E87
330
26E8A
330
26E85
330
26E89
 75
     0
 76
     1
 98
        1
 10
4306.284527422063
 20
-898.5335814311461
  0
LINE
  5
26E87
102
{ACAD_REACTORS
330
26E86
102
}
330
18
100
AcDbEntity
  8
0
 62
     2
100
AcDbLine
 10
4302.403302606303
 20
-1097.608291525382
 30
0.0
 11
4302.403302606303
 21
-1102.013791525382
 31
0.0
  0
CIRCLE
  5
26E88
102
{ACAD_REACTORS
330
26E86
102
}
330
18
100
AcDbEntity
  8
0
 62
     2
100
AcDbCircle
 10
4303.805052606303
 20
-1100.011291525382
 30
0.0
 40
0.6007500000000002
  0
LINE
  5
26E89
102
{ACAD_REACTORS
330
26E86
102
}
330
18
100
AcDbEntity
  8
0
 62
     2
100
AcDbLine
 10
4305.607302606303
 20
-1102.414291525382
 30
0.0
 11
4304.726202606303
 21
-1099.610791525382
 31
0.0
  0
LINE
  5
26E8A
102
{ACAD_REACTORS
330
26E86
102
}
330
18
100
AcDbEntity
  8
0
 62
     2
100
AcDbLine
 10
4302.403302606303
 20
-1097.608291525382
 30
0.0
 11
4305.607302606303
 21
-1098.008791525382
 31
0.0
  0
ARC
  5
26E8B
330
18
100
AcDbEntity
  8
0
 62
     2
100
AcDbCircle
 10
4302.049779188301
 20
-1095.562245024304
 30
0.0
 40
0.5
100
AcDbArc
 50
90.0
 51
180.0
  0
ARC
  5
26E8C
102
{ACAD_REACTORS
330
26E86
102
}
330
18
100
AcDbEntity
  8
0
 62
     2
100
AcDbCircle
 10
4303.806915397
 20
-1100.012222920731
 30
0.0
 40
1.00311322310025
100
AcDbArc
 50
23.58977727261614
 51
179.9468005914019
  0
LINE
  5
26E8D
102
{ACAD_REACTORS
330
26E86
102
}
330
18
100
AcDbEntity
  8
0
 62
     2
100
AcDbLine
 10
4302.403302606303
 20
-1102.013791525382
 30
0.0
 11
4304.405802606304
 21
-1102.254091525382
 31
0.0
  0
LINE
  5
26E8E
330
18
100
AcDbEntity
  8
0
 62
     2
100
AcDbLine
 10
4313.049779188301
 20
-1095.062245024304
 30
0.0
 11
4302.049779188301
 21
-1095.062245024304
 31
0.0
  0
TEXT
  5
26E8F
330
18
100
AcDbEntity
  8
0
 62
     7
100
AcDbText
 10
4302.184588414353
 20
-1114.683905418855
 30
137.5
 40
1.5
  1
MADE IN JAPAN
 50
270.0
  7
MSゴシックN
 11
4301.910476739226
 21
-1114.683905418855
 31
137.5
100
AcDbText
 73
     1
  0
TEXT
  5
26E90
330
18
100
AcDbEntity
  8
0
 62
     7
100
AcDbText
 10
4304.054374464739
 20
-1114.683905418855
 30
137.5
 40
1.5
  1
SN-16140
 50
270.0
  7
MSゴシックN
 11
4303.780262789612
 21
-1114.683905418855
 31
137.5
100
AcDbText
 73
     1
  0
ARC
  5
26E91
330
18
100
AcDbEntity
  8
0
 62
     4
100
AcDbCircle
 10
4303.049779188302
 20
-1155.062245024304
 30
0.0
 40
0.5
100
AcDbArc
 50
180.0
 51
270.0
  0
LINE
  5
26E92
102
{ACAD_REACTORS
330
26EA2
102
}
330
18
100
AcDbEntity
  8
0
 62
     4
100
AcDbLine
 10
4305.850773268915
 20
-1144.222318425921
 30
0.0
 11
4305.850773268915
 21
-1146.465118425922
 31
0.0
  0
ARC
  5
26E93
102
{ACAD_REACTORS
330
26EA2
102
}
330
18
100
AcDbEntity
  8
0
 62
     4
100
AcDbCircle
 10
4305.049773268915
 20
-1144.222318425921
 30
0.0
 40
0.8009999999999999
100
AcDbArc
 50
180.0
 51
0.0
  0
LINE
  5
26E94
102
{ACAD_REACTORS
330
26EA2
102
}
330
18
100
AcDbEntity
  8
0
 62
     4
100
AcDbLine
 10
4303.848273268915
 20
-1146.224818425922
 30
0.0
 11
4305.850773268915
 21
-1146.465118425922
 31
0.0
  0
LINE
  5
26E95
102
{ACAD_REACTORS
330
26EA2
102
}
330
18
100
AcDbEntity
  8
0
 62
     4
100
AcDbLine
 10
4307.052273268914
 20
-1146.625318425922
 30
0.0
 11
4306.171173268914
 21
-1143.821818425922
 31
0.0
  0
CIRCLE
  5
26E96
102
{ACAD_REACTORS
330
26EA2
102
}
330
18
100
AcDbEntity
  8
0
 62
     4
100
AcDbCircle
 10
4305.250023268914
 20
-1144.222318425921
 30
0.0
 40
0.6007500000000002
  0
ARC
  5
26E97
102
{ACAD_REACTORS
330
26EA2
102
}
330
18
100
AcDbEntity
  8
0
 62
     4
100
AcDbCircle
 10
4305.251886059613
 20
-1144.22324982127
 30
0.0
 40
1.00311322310025
100
AcDbArc
 50
23.58977727261614
 51
179.9468005913759
  0
TEXT
  5
26E98
330
18
100
AcDbEntity
  8
0
 62
     4
100
AcDbText
 10
4303.896007407498
 20
-1147.44141765031
 30
0.0
 40
1.44
  1
DENSO
 50
270.0
  7
TIMESNR
100
AcDbText
  0
TEXT
  5
26E99
330
18
100
AcDbEntity
  8
0
 62
     4
100
AcDbText
 10
4305.592769816484
 20
-1147.562830760449
 30
0.0
 40
1.44
  1
NIKKI
 50
270.0
  7
TIMESNR
100
AcDbText
  0
LINE
  5
26E9A
330
18
100
AcDbEntity
  8
0
 62
     4
100
AcDbLine
 10
4303.049779188302
 20
-1155.562245024304
 30
0.0
 11
4312.049779188302
 21
-1155.562245024304
 31
0.0
  0
ARC
  5
26E9B
330
18
100
AcDbEntity
  8
0
 62
     4
100
AcDbCircle
 10
4312.049779188302
 20
-1141.062245024304
 30
0.0
 40
0.5
100
AcDbArc
 50
0.0
 51
90.0
  0
ARC
  5
26E9C
330
18
100
AcDbEntity
  8
0
 62
     4
100
AcDbCircle
 10
4303.049779188302
 20
-1141.062245024304
 30
0.0
 40
0.5
100
AcDbArc
 50
90.0
 51
180.0
  0
LINE
  5
26E9D
102
{ACAD_REACTORS
330
26EA2
102
}
330
18
100
AcDbEntity
  8
0
 62
     4
100
AcDbLine
 10
4303.848273268915
 20
-1141.819318425921
 30
0.0
 11
4307.052273268914
 21
-1142.219818425923
 31
0.0
  0
LINE
  5
26E9E
330
18
100
AcDbEntity
  8
0
 62
     4
100
AcDbLine
 10
4312.049779188302
 20
-1140.562245024304
 30
0.0
 11
4303.049779188302
 21
-1140.562245024304
 31
0.0
  0
TEXT
  5
26E9F
330
18
100
AcDbEntity
  8
0
 62
     4
100
AcDbText
 10
4309.508338639229
 20
-1141.776963503511
 30
0.0
 40
2.0
  1
Certificate
 50
270.0
  7
TIMESNR
 11
4308.869549886526
 21
-1141.776963503511
 31
0.0
100
AcDbText
 73
     1
  0
LINE
  5
26EA0
330
18
100
AcDbEntity
  8
0
 62
     4
100
AcDbLine
 10
4308.549779188303
 20
-1140.562245024304
 30
0.0
 11
4308.549779188303
 21
-1155.562245024304
 31
0.0
  0
LINE
  5
26EA1
330
18
100
AcDbEntity
  8
0
 62
     4
100
AcDbLine
 10
4302.549779188303
 20
-1141.062245024304
 30
0.0
 11
4302.549779188302
 21
-1155.062245024304
 31
0.0
  0
HATCH
  5
26EA2
330
18
100
AcDbEntity
  8
0
 62
     4
100
AcDbHatch
 10
0.0
 20
0.0
 30
0.0
210
0.0
220
0.0
230
1.0
  2
SOLID
 70
     1
 71
     1
 91
        2
 92
       16
 93
        1
 72
     2
 10
4305.250023268914
 20
-1144.222318425921
 40
0.6007500000000002
 50
0.0
 51
360.0
 73
     1
 97
        1
330
26E96
 92
        1
 93
        8
 72
     2
 10
4305.251886059613
 20
-1144.22324982127
 40
1.00311322310025
 50
23.58977727261614
 51
179.9468005913759
 73
     1
 72
     2
 10
4305.049773268915
 20
-1144.222318425921
 40
0.8009999999999999
 50
180.0
 51
360.0
 73
     1
 72
     1
 10
4305.850773268915
 20
-1144.222318425921
 11
4305.850773268915
 21
-1146.465118425922
 72
     1
 10
4305.850773268915
 20
-1146.465118425922
 11
4303.848273268915
 21
-1146.224818425922
 72
     1
 10
4303.848273268915
 20
-1146.224818425922
 11
4303.848273268915
 21
-1141.819318425921
 72
     1
 10
4303.848273268915
 20
-1141.819318425921
 11
4307.052273268914
 21
-1142.219818425923
 72
     1
 10
4307.052273268914
 20
-1142.219818425923
 11
4307.052273268914
 21
-1146.625318425922
 72
     1
 10
4307.052273268914
 20
-1146.625318425922
 11
4306.171173268914
 21
-1143.821818425922
 97
        8
330
26E97
330
26E93
330
26E92
330
26E94
330
26EA4
330
26E9D
330
26EA3
330
26E95
 75
     0
 76
     1
 98
        1
 10
4307.729498084674
 20
-942.7446083316864
  0
LINE
  5
26EA3
102
{ACAD_REACTORS
330
26EA2
102
}
330
18
100
AcDbEntity
  8
0
 62
     4
100
AcDbLine
 10
4307.052273268914
 20
-1142.219818425923
 30
0.0
 11
4307.052273268914
 21
-1146.625318425922
 31
0.0
  0
LINE
  5
26EA4
102
{ACAD_REACTORS
330
26EA2
102
}
330
18
100
AcDbEntity
  8
0
 62
     4
100
AcDbLine
 10
4303.848273268915
 20
-1141.819318425921
 30
0.0
 11
4303.848273268915
 21
-1146.224818425922
 31
0.0
  0
LINE
  5
26EA5
330
18
100
AcDbEntity
  8
0
 62
     4
100
AcDbLine
 10
4312.549779188302
 20
-1155.062245024304
 30
0.0
 11
4312.549779188302
 21
-1141.062245024304
 31
0.0
  0
ARC
  5
26EA6
330
18
100
AcDbEntity
  8
0
 62
     4
100
AcDbCircle
 10
4312.049779188302
 20
-1155.062245024304
 30
0.0
 40
0.5
100
AcDbArc
 50
270.0
 51
0.0
  0
MTEXT
  5
26EA7
102
{ACAD_REACTORS
330
26EA8
102
}
330
18
100
AcDbEntity
  8
文字
370
    13
100
AcDbMText
 10
4340.675200507909
 20
-1094.871752851608
 30
0.0
 40
4.5
 41
0.0
 71
     7
 72
     1
  1
\A1;銘板
  7
まこ
 73
     1
 44
1.0
  0
LEADER
  5
26EA8
330
18
100
AcDbEntity
  8
文字
370
    13
100
AcDbLeader
  3
まこ
 73
     0
 74
     0
 75
     1
 40
5.368020304568527
 41
11.28426395939086
 76
     3
 10
4313.549779188302
 20
-1112.562205777996
 30
0.0
 10
4336.175200507908
 20
-1095.621752851608
 30
0.0
 10
4339.925200507908
 20
-1095.621752851608
 30
0.0
340
26EA7
1001
ACAD
1000
DSTYLE
1002
{
1070
   147
1040
0.5
1070
    77
1070
     1
1002
}
  0
MTEXT
  5
26EA9
102
{ACAD_REACTORS
330
26EAA
102
}
330
18
100
AcDbEntity
  8
文字
370
    13
100
AcDbMText
 10
4341.645991944822
 20
-1126.285601730991
 30
0.0
 40
4.5
 41
0.0
 71
     7
 72
     1
  1
\A1;合格証
  7
まこ
 73
     1
 44
1.0
  0
LEADER
  5
26EAA
330
18
100
AcDbEntity
  8
文字
370
    13
100
AcDbLeader
  3
まこ
 73
     0
 74
     0
 75
     1
 40
5.253807106598983
 41
16.74365482233502
 76
     3
 10
4312.549779188302
 20
-1148.062245024304
 30
0.0
 10
4337.145991944822
 20
-1127.035601730991
 30
0.0
 10
4340.895991944822
 20
-1127.035601730991
 30
0.0
340
26EA9
1001
ACAD
1000
DSTYLE
1002
{
1070
   147
1040
0.5
1070
    77
1070
     1
1002
}
  0
DIMENSION
  5
26EB9
330
18
100
AcDbEntity
  8
0
 62
     4
370
    13
100
AcDbDimension
  2
*D53
 10
4373.355853475874
 20
-1177.562245024304
 30
0.0
 11
4370.355853475873
 21
-1112.562245024304
 31
0.0
 70
    32
 71
     5
 42
130.0
  3
まこ
100
AcDbAlignedDimension
 13
4406.761898348199
 23
-1047.562245024304
 33
0.0
 14
4406.761898348199
 24
-1177.562245024304
 34
0.0
 50
90.0
100
AcDbRotatedDimension
1001
ACAD
1000
DSTYLE
1002
{
1070
   271
1070
     6
1002
}
  0
DIMENSION
  5
26EC8
330
18
100
AcDbEntity
  8
0
 62
     4
370
    13
100
AcDbDimension
  2
*D54
 10
4382.890258103838
 20
-1170.062245024304
 30
0.0
 11
4382.890258103838
 21
-1112.562245024304
 31
0.0
 70
   160
 71
     5
 42
115.0
  3
まこ
100
AcDbAlignedDimension
 13
4431.699714982261
 23
-1055.062245024304
 33
0.0
 14
4431.678658765632
 24
-1170.062245024304
 34
0.0
 50
90.0
100
AcDbRotatedDimension
1001
ACAD
1000
DSTYLE
1002
{
1070
   271
1070
     6
1002
}
  0
DIMENSION
  5
26ED5
330
18
100
AcDbEntity
  8
0
 62
     4
370
    13
100
AcDbDimension
  2
*D55
 10
4382.890258103838
 20
-1055.062245024304
 30
0.0
 11
4382.890258103838
 21
-1030.033673595732
 31
0.0
 70
   160
  1
（<>）
 71
     5
 42
7.5
  3
まこ
100
AcDbAlignedDimension
 13
4406.761898348199
 23
-1047.562245024304
 33
0.0
 14
4429.465408454855
 24
-1055.062245024304
 34
0.0
 50
90.0
100
AcDbRotatedDimension
1001
ACAD
1000
DSTYLE
1002
{
1070
   271
1070
     6
1002
}
  0
DIMENSION
  5
26EE2
330
18
100
AcDbEntity
  8
0
 62
     4
370
    13
100
AcDbDimension
  2
*D56
 10
4382.890258103838
 20
-1177.562245024304
 30
0.0
 11
4379.890258103838
 21
-1195.090816452875
 31
0.0
 70
    32
  1
（<>）
 71
     5
 42
7.5
  3
まこ
100
AcDbAlignedDimension
 13
4429.465408454855
 23
-1170.062245024304
 33
0.0
 14
4406.761898348199
 24
-1177.562245024304
 34
0.0
 50
90.0
100
AcDbRotatedDimension
1001
ACAD
1000
DSTYLE
1002
{
1070
   271
1070
     6
1002
}
  0
LINE
  5
26F03
330
18
100
AcDbEntity
  8
0
 62
     4
370
    13
100
AcDbLine
 10
4382.916376024884
 20
-1177.562245024304
 30
0.0
 11
4382.916376024884
 21
-1170.062245024304
 31
0.0
  0
LINE
  5
26F0E
330
18
100
AcDbEntity
  8
0
 62
     4
370
    13
100
AcDbLine
 10
4382.916376024884
 20
-1047.562245024304
 30
0.0
 11
4382.916376024884
 21
-1055.062245024304
 31
0.0
  0
LEADER
  5
26F0F
330
18
100
AcDbEntity
  8
文字
370
    13
100
AcDbLeader
  3
まこ
 73
     0
 74
     0
 75
     1
 40
5.390862944162436
 41
52.05837563451776
 76
     3
 10
4566.482126129243
 20
-1053.258320172788
 30
0.0
 10
4577.640138870205
 20
-1038.291202583525
 30
0.0
 10
4581.390138870204
 20
-1038.291202583525
 30
0.0
340
26F10
1001
ACAD
1000
DSTYLE
1002
{
1070
   147
1040
0.5
1070
    77
1070
     1
1002
}
  0
MTEXT
  5
26F10
102
{ACAD_REACTORS
330
26F0F
102
}
330
18
100
AcDbEntity
  8
文字
370
    13
100
AcDbMText
 10
4582.140138870204
 20
-1037.541202583525
 30
0.0
 40
4.5
 41
0.0
 71
     7
 72
     1
  1
\A1;取付穴6-M5ネジ深10
  7
まこ
 73
     1
 44
1.0
  0
LINE
  5
280A2
330
18
100
AcDbEntity
  8
0
 62
     4
370
    13
100
AcDbLine
 10
4778.906876603705
 20
-1007.452399042242
 30
0.0
 11
4779.906876603704
 21
-1007.452399042242
 31
0.0
  0
LINE
  5
280A3
330
18
100
AcDbEntity
  8
0
 62
     4
370
    13
100
AcDbLine
 10
4779.406876603704
 20
-1007.452399042242
 30
0.0
 11
4783.769109110022
 21
-997.915313330086
 31
0.0
  0
LINE
  5
280A4
330
18
100
AcDbEntity
  8
0
 62
     4
370
    13
100
AcDbLine
 10
4783.769109110022
 20
-997.915313330086
 30
0.0
 11
4822.6953601672
 21
-997.915313330086
 31
0.0
  0
LINE
  5
280C2
330
18
100
AcDbEntity
  8
0
 62
     4
370
    13
100
AcDbLine
 10
4785.106826846736
 20
-1017.317054521938
 30
0.0
 11
4794.906826846736
 21
-1017.317054521938
 31
0.0
  0
LINE
  5
280C3
330
18
100
AcDbEntity
  8
0
 62
     4
370
    13
100
AcDbLine
 10
4738.906167819179
 20
-1083.962764455629
 30
0.0
 11
4739.407008260399
 21
-1083.962764455629
 31
0.0
  0
LINE
  5
280F7
330
18
100
AcDbEntity
  8
0
  6
HIDDEN
 48
0.45
370
    13
100
AcDbLine
 10
4752.906167819179
 20
-1173.486411699457
 30
0.0
 11
4752.906167819179
 21
-1051.486411699457
 31
0.0
  0
LINE
  5
280F8
330
18
100
AcDbEntity
  8
0
  6
HIDDEN
 48
0.45
370
    13
100
AcDbLine
 10
4752.906167819179
 20
-1051.486411699457
 30
0.0
 11
4740.906167819178
 21
-1051.486411699457
 31
0.0
  0
LINE
  5
280F9
330
18
100
AcDbEntity
  8
0
  6
HIDDEN
 48
0.45
370
    13
100
AcDbLine
 10
4740.906167819178
 20
-1051.486411699457
 30
0.0
 11
4740.906167819178
 21
-1173.486411699457
 31
0.0
  0
LINE
  5
280FA
330
18
100
AcDbEntity
  8
0
  6
HIDDEN
 48
0.45
370
    13
100
AcDbLine
 10
4740.906167819178
 20
-1173.486411699457
 30
0.0
 11
4752.906167819179
 21
-1173.486411699457
 31
0.0
  0
LINE
  5
280FB
330
18
100
AcDbEntity
  8
0
  6
CENTER
 62
     1
 48
0.45
370
    13
100
AcDbLine
 10
4740.906168767827
 20
-1160.559911699457
 30
0.0
 11
4752.906168767827
 21
-1160.559911699457
 31
0.0
  0
LINE
  5
280FC
330
18
100
AcDbEntity
  8
0
  6
CENTER
 62
     1
 48
0.45
370
    13
100
AcDbLine
 10
4740.906167819178
 20
-1136.559911699457
 30
0.0
 11
4752.906167819179
 21
-1136.559911699457
 31
0.0
  0
CIRCLE
  5
280FE
330
18
100
AcDbEntity
  8
0
370
     9
100
AcDbCircle
 10
4746.906715711622
 20
-1136.559911679537
 30
0.0
 40
2.0
  0
CIRCLE
  5
280FF
330
18
100
AcDbEntity
  8
0
370
    20
100
AcDbCircle
 10
4746.906715711622
 20
-1136.559911679537
 30
0.0
 40
1.6
  0
CIRCLE
  5
28100
330
18
100
AcDbEntity
  8
0
370
    20
100
AcDbCircle
 10
4746.90671666027
 20
-1160.559911679537
 30
0.0
 40
1.6
  0
CIRCLE
  5
28101
330
18
100
AcDbEntity
  8
0
370
     9
100
AcDbCircle
 10
4746.90671666027
 20
-1160.559911679537
 30
0.0
 40
2.0
  0
DIMENSION
  5
28104
330
18
100
AcDbEntity
  8
0
370
    13
100
AcDbDimension
  2
*D57
 10
4724.994943916021
 20
-1160.559911699457
 30
0.0
 11
4724.994943916021
 21
-1168.986433631584
 31
0.0
 70
   160
 71
     5
 42
17.0
  3
まこ
100
AcDbAlignedDimension
 13
4738.90762063571
 23
-1177.559911699457
 33
0.0
 14
4740.906168767827
 24
-1160.559911699457
 34
0.0
 50
90.0
100
AcDbRotatedDimension
1001
ACAD
1000
DSTYLE
1002
{
1070
   271
1070
     6
1002
}
  0
DIMENSION
  5
2812E
330
18
100
AcDbEntity
  8
0
370
    13
100
AcDbDimension
  2
*D58
 10
4724.994943916021
 20
-1136.559911699457
 30
0.0
 11
4721.994943916021
 21
-1148.559911699456
 31
0.0
 70
    32
 71
     5
 42
24.0
  3
まこ
100
AcDbAlignedDimension
 13
4740.906167819178
 23
-1160.559911699457
 33
0.0
 14
4740.906167819178
 24
-1136.559911699457
 34
0.0
 50
90.0
100
AcDbRotatedDimension
1001
ACAD
1000
DSTYLE
1002
{
1070
   271
1070
     6
1002
}
  0
DIMENSION
  5
2814A
330
18
100
AcDbEntity
  8
0
370
    13
100
AcDbDimension
  2
*D59
 10
4746.906876597559
 20
-1192.524232211703
 30
0.0
 11
4742.906876600632
 21
-1189.524232211703
 31
0.0
 70
    32
 71
     5
 42
7.999999993855453
  3
まこ
100
AcDbAlignedDimension
 13
4738.906876603704
 23
-1177.559911699457
 33
0.0
 14
4746.906876597559
 24
-1177.559598159671
 34
0.0
100
AcDbRotatedDimension
1001
ACAD
1000
DSTYLE
1002
{
1070
   271
1070
     6
1002
}
  0
LINE
  5
28158
330
18
100
AcDbEntity
  8
0
 62
     4
370
    13
100
AcDbLine
 10
4738.906167819179
 20
-1192.524232211703
 30
0.0
 11
4746.906167819179
 21
-1192.524232211703
 31
0.0
  0
LINE
  5
2815C
330
18
100
AcDbEntity
  8
0
  6
CENTER
 62
     1
 48
0.45
370
    13
100
AcDbLine
 10
4588.761898348199
 20
-1136.486411699457
 30
0.0
 11
4600.761898348198
 21
-1136.486411699457
 31
0.0
  0
LINE
  5
2815D
330
18
100
AcDbEntity
  8
0
  6
CENTER
 62
     1
 48
0.45
370
    13
100
AcDbLine
 10
4588.761898348199
 20
-1160.486411699457
 30
0.0
 11
4600.761898348198
 21
-1160.486411699457
 31
0.0
  0
LINE
  5
28457
330
18
100
AcDbEntity
  8
0
 48
0.3
370
    50
100
AcDbLine
 10
4739.406876603704
 20
-1159.559911699457
 30
0.0
 11
4738.906876603704
 21
-1159.559911699457
 31
0.0
  0
LINE
  5
284AC
330
18
100
AcDbEntity
  8
0
  6
CENTER
 62
     1
 48
0.3
370
    13
100
AcDbLine
 10
4746.906876597559
 20
-1177.559598159671
 30
0.0
 11
4746.906171134759
 21
-1122.901293702619
 31
0.0
  0
LINE
  5
285C2
330
18
100
AcDbEntity
  8
0
 48
0.3
370
    50
100
AcDbLine
 10
4336.550487972828
 20
-1159.562288888559
 30
0.0
 11
4336.049647531607
 21
-1159.562288888559
 31
0.0
  0
LINE
  5
286BB
330
18
100
AcDbEntity
  8
隠れ線
 48
0.45
370
     5
100
AcDbLine
 10
4282.549779188301
 20
-1166.961445024304
 30
0.0
 11
4290.349779188302
 21
-1166.961445024304
 31
0.0
  0
LINE
  5
286BC
330
18
100
AcDbEntity
  8
隠れ線
 48
0.45
370
     5
100
AcDbLine
 10
4282.549779188301
 20
-1172.961445024304
 30
0.0
 11
4290.349779188302
 21
-1172.961445024304
 31
0.0
  0
LINE
  5
286BD
330
18
100
AcDbEntity
  8
隠れ線
 48
0.45
370
     5
100
AcDbLine
 10
4282.549779188301
 20
-1051.961445024304
 30
0.0
 11
4290.349779188302
 21
-1051.961445024304
 31
0.0
  0
LINE
  5
286BE
330
18
100
AcDbEntity
  8
隠れ線
 48
0.45
370
     5
100
AcDbLine
 10
4282.549779188301
 20
-1057.961445024304
 30
0.0
 11
4290.349779188302
 21
-1057.961445024304
 31
0.0
  0
LINE
  5
286BF
330
18
100
AcDbEntity
  8
隠れ線
 48
0.45
370
     5
100
AcDbLine
 10
4792.906876603704
 20
-1051.959111699457
 30
0.0
 11
4785.106876603705
 21
-1051.959111699457
 31
0.0
  0
LINE
  5
286C0
330
18
100
AcDbEntity
  8
隠れ線
 48
0.45
370
     5
100
AcDbLine
 10
4792.906876603704
 20
-1057.959111699457
 30
0.0
 11
4785.106876603705
 21
-1057.959111699457
 31
0.0
  0
LINE
  5
286C1
330
18
100
AcDbEntity
  8
隠れ線
 48
0.45
370
     5
100
AcDbLine
 10
4792.906876603704
 20
-1166.959111699457
 30
0.0
 11
4785.106876603705
 21
-1166.959111699457
 31
0.0
  0
LINE
  5
286C2
330
18
100
AcDbEntity
  8
隠れ線
 48
0.45
370
     5
100
AcDbLine
 10
4792.906876603704
 20
-1172.959111699457
 30
0.0
 11
4785.106876603705
 21
-1172.959111699457
 31
0.0
  0
TEXT
  5
28748
330
18
100
AcDbEntity
  8
文字
370
    13
100
AcDbText
 10
4812.851327179717
 20
-990.5343746078344
 30
0.0
 40
4.5
  1
注：1
 41
0.6
  7
ｽﾀｲﾙ3
100
AcDbText
  0
TEXT
  5
2874B
330
18
100
AcDbEntity
  8
文字
370
    13
100
AcDbText
 10
4817.786025948073
 20
-1006.881579391628
 30
0.0
 40
4.5
  1
注：1
 41
0.6
  7
ｽﾀｲﾙ3
100
AcDbText
  0
LEADER
  5
2878B
330
18
100
AcDbEntity
  8
0
370
    13
100
AcDbLeader
  3
まこ
 73
     0
 75
     1
 40
12.86802030456852
 41
55.21065989847715
 76
     3
 10
4746.183595518787
 20
-1161.987180334955
 30
0.0
 10
4720.072229702434
 20
-1213.524788409003
 30
0.0
 10
4716.322229702433
 20
-1213.524788409003
 30
0.0
340
2878C
1001
ACAD
1000
DSTYLE
1002
{
1070
   147
1040
0.5
1070
    77
1070
     1
1002
}
  0
MTEXT
  5
2878C
102
{ACAD_REACTORS
330
2878B
102
}
330
18
100
AcDbEntity
  8
0
370
    13
100
AcDbMText
 10
4715.572229702433
 20
-1212.774788409003
 30
0.0
 40
4.5
 41
0.0
 71
     9
 72
     1
  1
2-M4ﾈｼﾞ深10\Pｵﾌﾟｼｮﾝ磁極ｾﾝｻ取付用
  7
まこ
 73
     1
 44
1.0
  0
LINE
  5
2883B
102
{ACAD_REACTORS
330
28867
102
}
330
18
100
AcDbEntity
  8
0
370
    50
100
AcDbLine
 10
4663.961811873887
 20
-1166.620354780185
 30
0.0
 11
4674.811744342036
 21
-1166.620354780185
 31
0.0
  0
LINE
  5
2883C
102
{ACAD_REACTORS
330
28867
102
}
330
18
100
AcDbEntity
  8
0
370
    50
100
AcDbLine
 10
4663.961811873887
 20
-1176.617441294208
 30
0.0
 11
4676.956107127189
 21
-1176.617441294208
 31
0.0
  0
LINE
  5
2883D
102
{ACAD_REACTORS
330
28867
102
}
330
18
100
AcDbEntity
  8
0
370
    50
100
AcDbLine
 10
4663.961811873887
 20
-1165.620354780185
 30
0.0
 11
4663.961811873887
 21
-1166.620354780185
 31
0.0
  0
LINE
  5
2883E
102
{ACAD_REACTORS
330
28867
102
}
330
18
100
AcDbEntity
  8
0
370
    50
100
AcDbLine
 10
4663.961811873887
 20
-1177.620354780185
 30
0.0
 11
4663.961811873887
 21
-1176.617441294208
 31
0.0
  0
LWPOLYLINE
  5
2883F
102
{ACAD_REACTORS
330
28867
102
}
330
18
100
AcDbEntity
  8
0
370
    50
100
AcDbPolyline
 90
        4
 70
     0
 43
0.0
 10
4663.961811873887
 20
-1177.620354780185
 10
4662.956107127189
 20
-1177.620354780185
 10
4662.956107127189
 20
-1165.620354780185
 10
4663.961811873887
 20
-1165.620354780185
  0
LWPOLYLINE
  5
28840
102
{ACAD_REACTORS
330
28867
102
}
330
18
100
AcDbEntity
  8
0
370
    50
100
AcDbPolyline
 90
        5
 70
     0
 43
0.0
 10
4676.956107127189
 20
-1168.456074262925
 10
4676.956107127189
 20
-1167.620354780185
 10
4685.956107127188
 20
-1167.620354780185
 10
4685.956107127188
 20
-1171.116458640405
 10
4681.971015845658
 20
-1171.116458640405
  0
LWPOLYLINE
  5
28841
102
{ACAD_REACTORS
330
28867
102
}
330
18
100
AcDbEntity
  8
0
370
    50
100
AcDbPolyline
 90
        5
 70
     0
 43
0.0
 10
4681.971015845658
 20
-1172.128433766808
 10
4685.956107127188
 20
-1172.128433766808
 10
4685.956107127188
 20
-1175.617441294207
 10
4676.956107127189
 20
-1175.617441294207
 10
4676.956107127189
 20
-1174.742677909183
  0
LINE
  5
28842
102
{ACAD_REACTORS
330
28867
102
}
330
18
100
AcDbEntity
  8
0
370
    50
100
AcDbLine
 10
4674.811744342036
 20
-1166.620354780185
 30
0.0
 11
4676.956107127189
 21
-1166.620354780185
 31
0.0
  0
LINE
  5
28843
102
{ACAD_REACTORS
330
28867
102
}
330
18
100
AcDbEntity
  8
0
370
    50
100
AcDbLine
 10
4676.511744191885
 20
-1175.094630860728
 30
0.0
 11
4678.967796209728
 21
-1173.14934090031
 31
0.0
  0
LINE
  5
28844
102
{ACAD_REACTORS
330
28867
102
}
330
18
100
AcDbEntity
  8
0
370
    50
100
AcDbLine
 10
4678.967796209728
 20
-1170.002548528896
 30
0.0
 11
4676.511744191885
 21
-1168.114472844415
 31
0.0
  0
LINE
  5
28845
102
{ACAD_REACTORS
330
28867
102
}
330
18
100
AcDbEntity
  8
0
370
    50
100
AcDbLine
 10
4669.965918034557
 20
-1171.116458640405
 30
0.0
 11
4678.967796209728
 21
-1171.116458640405
 31
0.0
  0
LINE
  5
28846
102
{ACAD_REACTORS
330
28867
102
}
330
18
100
AcDbEntity
  8
0
370
    50
100
AcDbLine
 10
4678.967796209728
 20
-1172.128433766808
 30
0.0
 11
4669.965918034557
 21
-1172.128433766808
 31
0.0
  0
LINE
  5
28847
102
{ACAD_REACTORS
330
28867
102
}
330
18
100
AcDbEntity
  8
0
370
    50
100
AcDbLine
 10
4669.965918034557
 20
-1168.114472844415
 30
0.0
 11
4669.965918034557
 21
-1171.116458640405
 31
0.0
  0
LINE
  5
28848
102
{ACAD_REACTORS
330
28867
102
}
330
18
100
AcDbEntity
  8
0
370
    50
100
AcDbLine
 10
4668.967907392461
 20
-1168.114472844415
 30
0.0
 11
4668.967907392461
 21
-1175.094630860728
 31
0.0
  0
LINE
  5
28849
102
{ACAD_REACTORS
330
28867
102
}
330
18
100
AcDbEntity
  8
0
370
    50
100
AcDbLine
 10
4669.965918034557
 20
-1172.128433766808
 30
0.0
 11
4669.965918034557
 21
-1175.094630860728
 31
0.0
  0
LINE
  5
2884A
102
{ACAD_REACTORS
330
28867
102
}
330
18
100
AcDbEntity
  8
0
370
    50
100
AcDbLine
 10
4676.511744191885
 20
-1168.114472844415
 30
0.0
 11
4668.967907392461
 21
-1168.114472844415
 31
0.0
  0
LINE
  5
2884B
102
{ACAD_REACTORS
330
28867
102
}
330
18
100
AcDbEntity
  8
0
370
    50
100
AcDbLine
 10
4668.967907392461
 20
-1175.094630860728
 30
0.0
 11
4676.511744191885
 21
-1175.094630860728
 31
0.0
  0
LINE
  5
2884C
102
{ACAD_REACTORS
330
28867
102
}
330
18
100
AcDbEntity
  8
0
370
    50
100
AcDbLine
 10
4681.971015845658
 20
-1173.14934090031
 30
0.0
 11
4681.971015845658
 21
-1170.002548528896
 31
0.0
  0
LINE
  5
2884D
102
{ACAD_REACTORS
330
28867
102
}
330
18
100
AcDbEntity
  8
0
370
    50
100
AcDbLine
 10
4678.967796209728
 20
-1171.116458640405
 30
0.0
 11
4678.967796209728
 21
-1172.128433766808
 31
0.0
  0
LINE
  5
2884E
102
{ACAD_REACTORS
330
28867
102
}
330
18
100
AcDbEntity
  8
0
370
    50
100
AcDbLine
 10
4676.956107127189
 20
-1174.742677909183
 30
0.0
 11
4676.956107127189
 21
-1176.617441294208
 31
0.0
  0
LWPOLYLINE
  5
2884F
102
{ACAD_REACTORS
330
28867
102
}
330
18
100
AcDbEntity
  8
0
370
    50
100
AcDbPolyline
 90
        2
 70
     0
 43
0.0
 10
4678.967796209728
 20
-1171.116458640405
 10
4676.956107127189
 20
-1171.116458640405
  0
LWPOLYLINE
  5
28850
102
{ACAD_REACTORS
330
28867
102
}
330
18
100
AcDbEntity
  8
0
370
    50
100
AcDbPolyline
 90
        2
 70
     0
 43
0.0
 10
4676.956107127189
 20
-1172.128433766808
 10
4678.967796209728
 20
-1172.128433766808
  0
LINE
  5
28851
102
{ACAD_REACTORS
330
28867
102
}
330
18
100
AcDbEntity
  8
0
370
    50
100
AcDbLine
 10
4676.956107127189
 20
-1166.620354780185
 30
0.0
 11
4676.956107127189
 21
-1168.456074262925
 31
0.0
  0
LINE
  5
28852
102
{ACAD_REACTORS
330
28867
102
}
330
18
100
AcDbEntity
  8
0
370
    50
100
AcDbLine
 10
4681.971015845658
 20
-1170.002548528896
 30
0.0
 11
4678.967796209728
 21
-1170.002548528896
 31
0.0
  0
LINE
  5
28853
102
{ACAD_REACTORS
330
28867
102
}
330
18
100
AcDbEntity
  8
0
370
    50
100
AcDbLine
 10
4678.967796209728
 20
-1173.14934090031
 30
0.0
 11
4681.971015845658
 21
-1173.14934090031
 31
0.0
  0
LINE
  5
28854
102
{ACAD_REACTORS
330
28867
102
}
330
18
100
AcDbEntity
  8
0
 48
10.0
370
    50
100
AcDbLine
 10
4594.761898348198
 20
-1167.062245024304
 30
0.0
 11
4614.761898348199
 21
-1167.062245024304
 31
0.0
  0
LINE
  5
28855
102
{ACAD_REACTORS
330
28867
102
}
330
18
100
AcDbEntity
  8
0
 48
10.0
370
    50
100
AcDbLine
 10
4614.761898348199
 20
-1176.062245024304
 30
0.0
 11
4594.761898348198
 21
-1176.062245024304
 31
0.0
  0
LINE
  5
28856
102
{ACAD_REACTORS
330
28867
102
}
330
18
100
AcDbEntity
  8
0
  6
CENTER
 62
     1
 48
0.45
370
    13
100
AcDbLine
 10
4590.63047083317
 20
-1171.562245024304
 30
0.0
 11
4658.792380676648
 21
-1171.562245024304
 31
0.0
  0
LINE
  5
28857
102
{ACAD_REACTORS
330
28867
102
}
330
18
100
AcDbEntity
  8
0
 48
10.0
370
    50
100
AcDbLine
 10
4594.761898348198
 20
-1167.062245024304
 30
0.0
 11
4594.761898348198
 21
-1176.062245024304
 31
0.0
  0
LINE
  5
28858
102
{ACAD_REACTORS
330
28867
102
}
330
18
100
AcDbEntity
  8
0
370
    50
100
AcDbLine
 10
4638.272894955499
 20
-1175.312245024304
 30
0.0
 11
4614.761898348199
 21
-1175.312245024304
 31
0.0
  0
LINE
  5
28859
102
{ACAD_REACTORS
330
28867
102
}
330
18
100
AcDbEntity
  8
0
370
    50
100
AcDbLine
 10
4614.761898348199
 20
-1167.812245024304
 30
0.0
 11
4640.606739444323
 21
-1167.812245024304
 31
0.0
  0
LINE
  5
2885A
102
{ACAD_REACTORS
330
28867
102
}
330
18
100
AcDbEntity
  8
0
  6
CENTER
 62
     1
 48
0.45
370
    13
100
AcDbLine
 10
4643.566168900107
 20
-1158.341803135904
 30
0.0
 11
4634.972462583411
 21
-1185.875228112851
 31
0.0
  0
LINE
  5
2885B
102
{ACAD_REACTORS
330
28867
102
}
330
18
100
AcDbEntity
  8
0
370
    50
100
AcDbLine
 10
4614.761898348199
 20
-1175.30095389873
 30
0.0
 11
4614.761898348199
 21
-1167.823536149878
 31
0.0
  0
LINE
  5
2885C
102
{ACAD_REACTORS
330
28867
102
}
330
18
100
AcDbEntity
  8
0
370
    50
100
AcDbLine
 10
4614.761898348199
 20
-1167.062245024304
 30
0.0
 11
4614.761898348199
 21
-1176.062245024304
 31
0.0
  0
LINE
  5
2885D
102
{ACAD_REACTORS
330
28867
102
}
330
18
100
AcDbEntity
  8
0
370
    50
100
AcDbLine
 10
4657.935437808219
 20
-1175.312245024304
 30
0.0
 11
4642.966717704122
 21
-1175.312245024304
 31
0.0
  0
LINE
  5
2885E
102
{ACAD_REACTORS
330
28867
102
}
330
18
100
AcDbEntity
  8
0
370
    50
100
AcDbLine
 10
4645.300562192945
 20
-1167.812245024304
 30
0.0
 11
4657.935437808219
 21
-1167.812245024304
 31
0.0
  0
LINE
  5
2885F
102
{ACAD_REACTORS
330
28867
102
}
330
18
100
AcDbEntity
  8
0
  6
CENTER
 62
     1
 48
0.45
370
    13
100
AcDbLine
 10
4648.259991648729
 20
-1158.341803135904
 30
0.0
 11
4639.666285332034
 21
-1185.875228112851
 31
0.0
  0
LWPOLYLINE
  5
28860
102
{ACAD_REACTORS
330
28867
102
}
330
18
100
AcDbEntity
  8
0
370
    50
100
AcDbPolyline
 90
        4
 70
     1
 43
0.0
 10
4657.935437808219
 20
-1168.976563057223
 10
4662.956107127189
 20
-1168.976563057223
 10
4662.956107127189
 20
-1174.267826262269
 10
4657.935437808219
 20
-1174.267826262269
  0
LINE
  5
28861
102
{ACAD_REACTORS
330
28867
102
}
330
18
100
AcDbEntity
  8
0
370
    50
100
AcDbLine
 10
4657.935437808219
 20
-1167.812245024304
 30
0.0
 11
4657.935437808219
 21
-1175.312245024304
 31
0.0
  0
LINE
  5
28862
102
{ACAD_REACTORS
330
28867
102
}
330
18
100
AcDbEntity
  8
0
370
    50
100
AcDbLine
 10
4657.935437808219
 20
-1172.879043296287
 30
0.0
 11
4662.956107127189
 21
-1172.879043296287
 31
0.0
  0
LINE
  5
28863
102
{ACAD_REACTORS
330
28867
102
}
330
18
100
AcDbEntity
  8
0
370
    50
100
AcDbLine
 10
4657.935437808219
 20
-1171.562245024304
 30
0.0
 11
4662.946384861593
 21
-1171.562245024304
 31
0.0
  0
LINE
  5
28864
102
{ACAD_REACTORS
330
28867
102
}
330
18
100
AcDbEntity
  8
0
370
    50
100
AcDbLine
 10
4657.935437808219
 20
-1170.290854243366
 30
0.0
 11
4662.956107127189
 21
-1170.290854243366
 31
0.0
  0
LINE
  5
288A9
102
{ACAD_REACTORS
330
288DC
102
}
330
18
100
AcDbEntity
  8
0
370
    50
100
AcDbLine
 10
4663.961811873887
 20
-1280.487436033266
 30
0.0
 11
4674.811744342036
 21
-1280.487436033266
 31
0.0
  0
LINE
  5
288AA
102
{ACAD_REACTORS
330
288DC
102
}
330
18
100
AcDbEntity
  8
0
370
    50
100
AcDbLine
 10
4663.961811873887
 20
-1290.484522547288
 30
0.0
 11
4676.956107127189
 21
-1290.484522547288
 31
0.0
  0
LINE
  5
288AB
102
{ACAD_REACTORS
330
288DC
102
}
330
18
100
AcDbEntity
  8
0
370
    50
100
AcDbLine
 10
4614.761898348199
 20
-1281.679326277385
 30
0.0
 11
4640.606739444323
 21
-1281.679326277385
 31
0.0
  0
LINE
  5
288AC
102
{ACAD_REACTORS
330
288DC
102
}
330
18
100
AcDbEntity
  8
0
370
    50
100
AcDbLine
 10
4638.272894955499
 20
-1289.179326277384
 30
0.0
 11
4614.761898348199
 21
-1289.179326277384
 31
0.0
  0
LINE
  5
288AE
102
{ACAD_REACTORS
330
288DC
102
}
330
18
100
AcDbEntity
  8
0
370
    50
100
AcDbLine
 10
4614.761898348199
 20
-1280.929326277385
 30
0.0
 11
4614.761898348199
 21
-1289.929326277384
 31
0.0
  0
LINE
  5
288AF
102
{ACAD_REACTORS
330
288DC
102
}
330
18
100
AcDbEntity
  8
0
370
    50
100
AcDbLine
 10
4614.761898348199
 20
-1289.16803515181
 30
0.0
 11
4614.761898348199
 21
-1281.690617402958
 31
0.0
  0
LINE
  5
288B1
102
{ACAD_REACTORS
330
288DC
102
}
330
18
100
AcDbEntity
  8
0
370
    50
100
AcDbLine
 10
4645.300562192945
 20
-1281.679326277385
 30
0.0
 11
4657.935437808219
 21
-1281.679326277385
 31
0.0
  0
LINE
  5
288B2
102
{ACAD_REACTORS
330
288DC
102
}
330
18
100
AcDbEntity
  8
0
370
    50
100
AcDbLine
 10
4657.935437808219
 20
-1289.179326277384
 30
0.0
 11
4642.966717704122
 21
-1289.179326277384
 31
0.0
  0
LINE
  5
288B3
330
18
100
AcDbEntity
  8
0
  6
CENTER
 62
     1
 48
0.45
370
    13
100
AcDbLine
 10
4648.259991648729
 20
-1272.208884388984
 30
0.0
 11
4639.666285332034
 21
-1299.742309365931
 31
0.0
  0
LINE
  5
288B4
330
18
100
AcDbEntity
  8
0
  6
CENTER
 62
     1
 48
0.45
370
    13
100
AcDbLine
 10
4643.566168900107
 20
-1272.208884388984
 30
0.0
 11
4634.972462583411
 21
-1299.742309365931
 31
0.0
  0
LWPOLYLINE
  5
288B5
102
{ACAD_REACTORS
330
288DC
102
}
330
18
100
AcDbEntity
  8
0
370
    50
100
AcDbPolyline
 90
        4
 70
     0
 43
0.0
 10
4663.961811873887
 20
-1291.487436033266
 10
4662.956107127189
 20
-1291.487436033266
 10
4662.956107127189
 20
-1279.487436033266
 10
4663.961811873887
 20
-1279.487436033266
  0
LINE
  5
288B6
102
{ACAD_REACTORS
330
288DC
102
}
330
18
100
AcDbEntity
  8
0
370
    50
100
AcDbLine
 10
4657.935437808219
 20
-1281.679326277385
 30
0.0
 11
4657.935437808219
 21
-1289.179326277384
 31
0.0
  0
LINE
  5
288B7
102
{ACAD_REACTORS
330
288DC
102
}
330
18
100
AcDbEntity
  8
0
370
    50
100
AcDbLine
 10
4657.935437808219
 20
-1284.157935496446
 30
0.0
 11
4662.956107127189
 21
-1284.157935496446
 31
0.0
  0
LINE
  5
288B8
102
{ACAD_REACTORS
330
288DC
102
}
330
18
100
AcDbEntity
  8
0
370
    50
100
AcDbLine
 10
4657.935437808219
 20
-1285.429326277385
 30
0.0
 11
4662.946384861593
 21
-1285.429326277385
 31
0.0
  0
LINE
  5
288B9
102
{ACAD_REACTORS
330
288DC
102
}
330
18
100
AcDbEntity
  8
0
370
    50
100
AcDbLine
 10
4657.935437808219
 20
-1286.746124549367
 30
0.0
 11
4662.956107127189
 21
-1286.746124549367
 31
0.0
  0
LWPOLYLINE
  5
288BA
102
{ACAD_REACTORS
330
288DC
102
}
330
18
100
AcDbEntity
  8
0
370
    50
100
AcDbPolyline
 90
        4
 70
     1
 43
0.0
 10
4657.935437808219
 20
-1282.843644310303
 10
4662.956107127189
 20
-1282.843644310303
 10
4662.956107127189
 20
-1288.13490751535
 10
4657.935437808219
 20
-1288.13490751535
  0
LINE
  5
288BB
102
{ACAD_REACTORS
330
288DC
102
}
330
18
100
AcDbEntity
  8
0
370
    50
100
AcDbLine
 10
4663.961811873887
 20
-1291.487436033266
 30
0.0
 11
4663.961811873887
 21
-1290.484522547288
 31
0.0
  0
LINE
  5
288BC
102
{ACAD_REACTORS
330
288DC
102
}
330
18
100
AcDbEntity
  8
0
370
    50
100
AcDbLine
 10
4663.961811873887
 20
-1279.487436033266
 30
0.0
 11
4663.961811873887
 21
-1280.487436033266
 31
0.0
  0
LWPOLYLINE
  5
288BD
102
{ACAD_REACTORS
330
288DC
102
}
330
18
100
AcDbEntity
  8
0
370
    50
100
AcDbPolyline
 90
        4
 70
     1
 43
0.0
 10
4676.956107127189
 20
-1281.487436033266
 10
4685.956107127188
 20
-1281.487436033266
 10
4685.956107127188
 20
-1284.983539893486
 10
4676.956107127189
 20
-1284.983539893486
  0
LWPOLYLINE
  5
288BE
102
{ACAD_REACTORS
330
288DC
102
}
330
18
100
AcDbEntity
  8
0
370
    50
100
AcDbPolyline
 90
        4
 70
     1
 43
0.0
 10
4676.956107127189
 20
-1285.995515019888
 10
4685.956107127188
 20
-1285.995515019888
 10
4685.956107127188
 20
-1289.484522547288
 10
4676.956107127189
 20
-1289.484522547288
  0
LINE
  5
288BF
102
{ACAD_REACTORS
330
288DC
102
}
330
18
100
AcDbEntity
  8
0
370
    50
100
AcDbLine
 10
4676.956107127189
 20
-1280.487436033266
 30
0.0
 11
4676.956107127189
 21
-1290.484522547288
 31
0.0
  0
LINE
  5
288C0
102
{ACAD_REACTORS
330
288DC
102
}
330
18
100
AcDbEntity
  8
0
370
    50
100
AcDbLine
 10
4674.811744342036
 20
-1280.487436033266
 30
0.0
 11
4676.711744191885
 21
-1280.487436033266
 31
0.0
  0
LINE
  5
288C1
102
{ACAD_REACTORS
330
288DC
102
}
330
18
100
AcDbEntity
  8
0
370
    50
100
AcDbLine
 10
4676.511744191885
 20
-1280.287436033266
 30
0.0
 11
4676.711744191885
 21
-1280.487436033266
 31
0.0
  0
LINE
  5
288C2
102
{ACAD_REACTORS
330
288DC
102
}
330
18
100
AcDbEntity
  8
0
370
    50
100
AcDbLine
 10
4678.967796209728
 20
-1278.992410897073
 30
0.0
 11
4676.511744191885
 21
-1278.992410897073
 31
0.0
  0
LINE
  5
288C3
102
{ACAD_REACTORS
330
288DC
102
}
330
18
100
AcDbEntity
  8
0
370
    50
100
AcDbLine
 10
4676.511744191885
 20
-1277.759891677967
 30
0.0
 11
4678.967796209728
 21
-1277.759891677967
 31
0.0
  0
LINE
  5
288C4
102
{ACAD_REACTORS
330
288DC
102
}
330
18
100
AcDbEntity
  8
0
370
    50
100
AcDbLine
 10
4669.965918034557
 20
-1277.016477543975
 30
0.0
 11
4680.971015845658
 21
-1277.016477543975
 31
0.0
  0
LINE
  5
288C5
102
{ACAD_REACTORS
330
288DC
102
}
330
18
100
AcDbEntity
  8
0
370
    50
100
AcDbLine
 10
4669.965918034557
 20
-1276.508658337495
 30
0.0
 11
4678.767796209728
 21
-1276.508658337495
 31
0.0
  0
LINE
  5
288C6
102
{ACAD_REACTORS
330
288DC
102
}
330
18
100
AcDbEntity
  8
0
370
    50
100
AcDbLine
 10
4675.011744342037
 20
-1278.992410897073
 30
0.0
 11
4675.011744342037
 21
-1279.487436033266
 31
0.0
  0
LINE
  5
288C7
102
{ACAD_REACTORS
330
288DC
102
}
330
18
100
AcDbEntity
  8
0
370
    50
100
AcDbLine
 10
4675.011744342037
 20
-1279.487436033266
 30
0.0
 11
4675.011744342037
 21
-1280.287436033266
 31
0.0
  0
LINE
  5
288C8
102
{ACAD_REACTORS
330
288DC
102
}
330
18
100
AcDbEntity
  8
0
370
    50
100
AcDbLine
 10
4675.011744342037
 20
-1280.287436033266
 30
0.0
 11
4674.811744342036
 21
-1280.487436033266
 31
0.0
  0
LINE
  5
288C9
102
{ACAD_REACTORS
330
288DC
102
}
330
18
100
AcDbEntity
  8
0
370
    50
100
AcDbLine
 10
4676.511744191885
 20
-1278.992410897073
 30
0.0
 11
4676.511744191885
 21
-1280.287436033266
 31
0.0
  0
LINE
  5
288CA
102
{ACAD_REACTORS
330
288DC
102
}
330
18
100
AcDbEntity
  8
0
370
    50
100
AcDbLine
 10
4676.511744191885
 20
-1278.992410897073
 30
0.0
 11
4676.511744191885
 21
-1277.759891677967
 31
0.0
  0
LINE
  5
288CB
102
{ACAD_REACTORS
330
288DC
102
}
330
18
100
AcDbEntity
  8
0
370
    50
100
AcDbLine
 10
4668.967907392461
 20
-1276.508658337495
 30
0.0
 11
4668.967907392461
 21
-1278.023894462982
 31
0.0
  0
LINE
  5
288CC
102
{ACAD_REACTORS
330
288DC
102
}
330
18
100
AcDbEntity
  8
0
370
    50
100
AcDbLine
 10
4668.967907392461
 20
-1276.508658337495
 30
0.0
 11
4669.965918034557
 21
-1276.508658337495
 31
0.0
  0
LINE
  5
288CD
102
{ACAD_REACTORS
330
288DC
102
}
330
18
100
AcDbEntity
  8
0
370
    50
100
AcDbLine
 10
4669.965918034557
 20
-1276.508658337495
 30
0.0
 11
4669.965918034557
 21
-1277.016477543975
 31
0.0
  0
LINE
  5
288CE
102
{ACAD_REACTORS
330
288DC
102
}
330
18
100
AcDbEntity
  8
0
370
    50
100
AcDbLine
 10
4668.967907392461
 20
-1278.023894462982
 30
0.0
 11
4675.011744342037
 21
-1278.992410897073
 31
0.0
  0
LINE
  5
288CF
102
{ACAD_REACTORS
330
288DC
102
}
330
18
100
AcDbEntity
  8
0
370
    50
100
AcDbLine
 10
4680.971015845658
 20
-1277.016477543975
 30
0.0
 11
4681.971015845658
 21
-1278.016477543975
 31
0.0
  0
LINE
  5
288D0
102
{ACAD_REACTORS
330
288DC
102
}
330
18
100
AcDbEntity
  8
0
370
    50
100
AcDbLine
 10
4680.971015845658
 20
-1279.487436033266
 30
0.0
 11
4681.971015845658
 21
-1278.487436033266
 31
0.0
  0
LINE
  5
288D1
102
{ACAD_REACTORS
330
288DC
102
}
330
18
100
AcDbEntity
  8
0
370
    50
100
AcDbLine
 10
4681.971015845658
 20
-1278.016477543975
 30
0.0
 11
4681.971015845658
 21
-1278.487436033266
 31
0.0
  0
LINE
  5
288D2
102
{ACAD_REACTORS
330
288DC
102
}
330
18
100
AcDbEntity
  8
0
370
    50
100
AcDbLine
 10
4678.967796209728
 20
-1276.708658337495
 30
0.0
 11
4678.967796209728
 21
-1277.016477543975
 31
0.0
  0
LINE
  5
288D3
102
{ACAD_REACTORS
330
288DC
102
}
330
18
100
AcDbEntity
  8
0
370
    50
100
AcDbLine
 10
4678.767796209728
 20
-1276.508658337495
 30
0.0
 11
4678.967796209728
 21
-1276.708658337495
 31
0.0
  0
LINE
  5
288D4
102
{ACAD_REACTORS
330
288DC
102
}
330
18
100
AcDbEntity
  8
0
370
    50
100
AcDbLine
 10
4678.967796209728
 20
-1277.759891677967
 30
0.0
 11
4678.967796209728
 21
-1277.016477543975
 31
0.0
  0
LINE
  5
288D5
102
{ACAD_REACTORS
330
288DC
102
}
330
18
100
AcDbEntity
  8
0
370
    50
100
AcDbLine
 10
4678.967796209728
 20
-1279.487436033266
 30
0.0
 11
4678.967796209728
 21
-1278.992410897073
 31
0.0
  0
LINE
  5
288D6
102
{ACAD_REACTORS
330
288DC
102
}
330
18
100
AcDbEntity
  8
0
370
    50
100
AcDbLine
 10
4676.711744191885
 20
-1280.487436033266
 30
0.0
 11
4676.956107127189
 21
-1280.487436033266
 31
0.0
  0
LINE
  5
288D7
102
{ACAD_REACTORS
330
288DC
102
}
330
18
100
AcDbEntity
  8
0
370
    50
100
AcDbLine
 10
4680.971015845658
 20
-1279.487436033266
 30
0.0
 11
4678.967796209728
 21
-1279.487436033266
 31
0.0
  0
LINE
  5
288D8
330
18
100
AcDbEntity
  8
0
  6
CENTER
 62
     1
 48
0.45
370
    13
100
AcDbLine
 10
4590.63047083317
 20
-1285.429326277385
 30
0.0
 11
4658.792380676648
 21
-1285.429326277385
 31
0.0
  0
LINE
  5
288D9
102
{ACAD_REACTORS
330
288DC
102
}
330
18
100
AcDbEntity
  8
0
 48
10.0
370
    50
100
AcDbLine
 10
4614.761898348199
 20
-1289.929326277384
 30
0.0
 11
4594.761898348198
 21
-1289.929326277384
 31
0.0
  0
LINE
  5
288DA
102
{ACAD_REACTORS
330
288DC
102
}
330
18
100
AcDbEntity
  8
0
 48
10.0
370
    50
100
AcDbLine
 10
4594.761898348198
 20
-1280.929326277385
 30
0.0
 11
4614.761898348199
 21
-1280.929326277385
 31
0.0
  0
LINE
  5
288DB
102
{ACAD_REACTORS
330
288DC
102
}
330
18
100
AcDbEntity
  8
0
 48
10.0
370
    50
100
AcDbLine
 10
4594.761898348198
 20
-1280.929326277385
 30
0.0
 11
4594.761898348198
 21
-1289.929326277384
 31
0.0
  0
LINE
  5
288F4
330
18
100
AcDbEntity
  8
細線
100
AcDbLine
 10
4758.906876603704
 20
-1168.908261270007
 30
0.0
 11
4759.967954748679
 21
-1167.847183125032
 31
0.0
  0
CIRCLE
  5
288F6
330
18
100
AcDbEntity
  8
実線
370
    50
100
AcDbCircle
 10
4758.906876603704
 20
-1171.433506196125
 30
0.0
 40
3.74
  0
LINE
  5
288F7
330
18
100
AcDbEntity
  8
細線
100
AcDbLine
 10
4757.384787326457
 20
-1174.849767929671
 30
0.0
 11
4758.906876603704
 21
-1173.327678652424
 31
0.0
  0
LINE
  5
288F8
330
18
100
AcDbEntity
  8
細線
100
AcDbLine
 10
4758.906876603704
 20
-1171.559911699457
 30
0.0
 11
4761.613903368458
 21
-1168.852884934703
 31
0.0
  0
LINE
  5
288F9
330
18
100
AcDbEntity
  8
0
  6
CENTER
 62
     1
 48
0.3
370
    13
100
AcDbLine
 10
4763.534596475742
 20
-1171.559911699457
 30
0.0
 11
4753.402534675227
 21
-1171.559911699457
 31
0.0
  0
LINE
  5
288FA
330
18
100
AcDbEntity
  8
細線
100
AcDbLine
 10
4758.045482096739
 20
-1175.072956635871
 30
0.0
 11
4758.906876603704
 21
-1174.211562128907
 31
0.0
  0
LINE
  5
288FB
330
18
100
AcDbEntity
  8
細線
100
AcDbLine
 10
4755.572178546426
 20
-1173.126842803768
 30
0.0
 11
4757.139109650739
 21
-1171.559911699456
 31
0.0
  0
LINE
  5
288FC
330
18
100
AcDbEntity
  8
細線
100
AcDbLine
 10
4755.910818993032
 20
-1173.672085833648
 30
0.0
 11
4758.022993127221
 21
-1171.559911699457
 31
0.0
  0
LINE
  5
288FD
330
18
100
AcDbEntity
  8
細線
100
AcDbLine
 10
4756.326255342282
 20
-1174.140532960879
 30
0.0
 11
4758.906876603704
 21
-1171.559911699457
 31
0.0
  0
LINE
  5
288FE
330
18
100
AcDbEntity
  8
細線
100
AcDbLine
 10
4756.81613414609
 20
-1174.534537633555
 30
0.0
 11
4758.906876603704
 21
-1172.443795175941
 31
0.0
  0
LINE
  5
288FF
330
18
100
AcDbEntity
  8
0
  6
CENTER
 62
     1
 48
0.3
370
    13
100
AcDbLine
 10
4758.906876603704
 20
-1166.520339293484
 30
0.0
 11
4758.906876603704
 21
-1175.999616369772
 31
0.0
  0
LINE
  5
28900
330
18
100
AcDbEntity
  8
細線
100
AcDbLine
 10
4758.906876603704
 20
-1169.792144746491
 30
0.0
 11
4760.600213211347
 21
-1168.098808138847
 31
0.0
  0
LINE
  5
28901
330
18
100
AcDbEntity
  8
細線
100
AcDbLine
 10
4759.790760080188
 20
-1171.559911699457
 30
0.0
 11
4762.007908041134
 21
-1169.34276373851
 31
0.0
  0
LINE
  5
28902
330
18
100
AcDbEntity
  8
細線
100
AcDbLine
 10
4758.906876603704
 20
-1170.676028222974
 30
0.0
 11
4761.145456241226
 21
-1168.437448585452
 31
0.0
  0
LINE
  5
28903
330
18
100
AcDbEntity
  8
細線
100
AcDbLine
 10
4761.558527033154
 20
-1171.559911699457
 30
0.0
 11
4762.546327043451
 21
-1170.57211168916
 31
0.0
  0
LINE
  5
28904
330
18
100
AcDbEntity
  8
細線
100
AcDbLine
 10
4760.674643556671
 20
-1171.559911699457
 30
0.0
 11
4762.32313833725
 21
-1169.911416918877
 31
0.0
  0
VIEWPORT
  5
23
330
15
100
AcDbEntity
 67
     1
  8
0
100
AcDbViewport
 10
200.0100500839802
 20
143.9953656426365
 30
0.0
 40
580.5684887768012
 41
291.4430637272764
 68
     1
 69
     1
 12
200.0100500839802
 22
143.9953656426365
 13
0.0
 23
0.0
 14
10.0
 24
10.0
 15
10.0
 25
10.0
 16
0.0
 26
0.0
 36
1.0
 17
0.0
 27
0.0
 37
0.0
 42
50.0
 43
0.0
 44
0.0
 45
291.4430637272764
 50
0.0
 51
0.0
 72
   100
 90
    32768
  1

281
     0
 71
     1
 74
     0
110
0.0
120
0.0
130
0.0
111
1.0
121
0.0
131
0.0
112
0.0
122
1.0
132
0.0
 79
     0
146
0.0
  0
VIEWPORT
  5
2E
330
15
100
AcDbEntity
 67
     1
  8
M_VIEW
100
AcDbViewport
 10
200.0
 20
144.0
 30
0.0
 40
400.0
 41
288.0
 68
     2
 69
     2
 12
4557.841325951676
 22
-1180.417131714583
 13
0.0
 23
0.0
 14
10.0
 24
10.0
 15
10.0
 25
10.0
 16
0.0
 26
0.0
 36
1.0
 17
0.0
 27
0.0
 37
0.0
 42
50.0
 43
0.0
 44
0.0
 45
429.8507423677973
 50
0.0
 51
0.0
 72
   100
 90
    32768
  1

281
     0
 71
     1
 74
     0
110
0.0
120
0.0
130
0.0
111
1.0
121
0.0
131
0.0
112
0.0
122
1.0
132
0.0
 79
     0
146
0.0
  0
INSERT
  5
115F
330
15
100
AcDbEntity
 67
     1
  8
FRAME025
100
AcDbBlockReference
  2
機械A4横_LBP
 10
82.74908858651452
 20
152.030959079227
 30
0.0
  0
TEXT
  5
AA6A
330
15
100
AcDbEntity
 67
     1
  8
文字
  6
ByBlock
 62
     0
100
AcDbText
 10
32.81885892396519
 20
73.01882819621747
 30
0.0
 40
3.2
  1

 50
90.0
 41
0.625
  7
MSｺﾞｼｯｸ
100
AcDbText
  0
TEXT
  5
AA6C
330
15
100
AcDbEntity
 67
     1
  8
文字
  6
ByBlock
 62
     0
100
AcDbText
 10
37.25020936743055
 20
73.01882819621747
 30
0.0
 40
3.2
  1

 50
90.0
 41
0.625
  7
MSｺﾞｼｯｸ
100
AcDbText
  0
TEXT
  5
FCA5
330
15
100
AcDbEntity
 67
     1
  8
FRAME020
  6
Continuous
100
AcDbText
 10
126.6213117262079
 20
29.63926951973459
 30
0.0
 40
2.5
  1

 41
0.625
  7
MSｺﾞｼｯｸ
100
AcDbText
  0
TEXT
  5
12229
330
15
100
AcDbEntity
 67
     1
  8
0
100
AcDbText
 10
313.7054721981445
 20
11.20994300572817
 30
0.0
 40
6.0
  1
ＳＥ－３７９９０Ｂ
 41
1.1
100
AcDbText
  0
MTEXT
  5
21047
330
15
100
AcDbEntity
 67
     1
  8
0
 48
10.0
100
AcDbMText
 10
327.7719738752167
 20
55.46212977036839
 30
0.0
 40
6.0
 41
50.05040000000001
 71
     1
 72
     5
  1
{\L質量：5.5kg}
 73
     1
 44
1.0
  0
LINE
  5
28683
330
15
100
AcDbEntity
 67
     1
  8
細線
  6
Continuous
100
AcDbLine
 10
17.43438746271434
 20
30.34467421753243
 30
0.0
 11
107.7165685218278
 21
30.34467421753243
 31
0.0
  0
LINE
  5
28684
330
15
100
AcDbEntity
 67
     1
  8
細線
  6
Continuous
100
AcDbLine
 10
17.43438746271434
 20
25.34467421753243
 30
0.0
 11
107.7165685218278
 21
25.34467421753243
 31
0.0
  0
TEXT
  5
28685
330
15
100
AcDbEntity
 67
     1
  8
wakumoji
  6
Continuous
100
AcDbText
 10
19.53487108163415
 20
26.41713572360471
 30
0.0
 40
2.88
  1
  マグネットカバーを付けた場合は、マグネットベースの
 41
0.9
  7
まこ
100
AcDbText
  0
TEXT
  5
28686
330
15
100
AcDbEntity
 67
     1
  8
wakumoji
  6
Continuous
100
AcDbText
 10
19.53487108163415
 20
21.41713572360471
 30
0.0
 40
2.88
  1
  全高は13mm、ギャップは1mmになります。
 41
0.9
  7
まこ
100
AcDbText
  0
LINE
  5
28687
330
15
100
AcDbEntity
 67
     1
  8
細線
  6
Continuous
100
AcDbLine
 10
17.43438746271434
 20
20.34467421753242
 30
0.0
 11
107.7165685218278
 21
20.34467421753242
 31
0.0
  0
TEXT
  5
28688
330
15
100
AcDbEntity
 67
     1
  8
wakumoji
  6
Continuous
100
AcDbText
 10
19.53487108163415
 20
31.41713572360471
 30
0.0
 40
2.88
  1
1.本図は、オプション（マグネットカバー）未装着です。
 41
0.9
  7
まこ
100
AcDbText
  0
LINE
  5
28689
330
15
100
AcDbEntity
 67
     1
  8
細線
  6
Continuous
100
AcDbLine
 10
17.43438746271434
 20
35.7446742175324
 30
0.0
 11
33.13123620262848
 21
35.7446742175324
 31
0.0
  0
TEXT
  5
2868A
330
15
100
AcDbEntity
 67
     1
  8
wakumoji
  6
Continuous
100
AcDbText
 10
18.39326712426958
 20
37.16127201058196
 30
0.0
 40
2.88
  1
注　　記
  7
まこ
100
AcDbText
  0
MTEXT
  5
28943
330
15
100
AcDbEntity
 67
     1
  8
0
100
AcDbMText
 10
219.6514309946518
 20
28.85159170207474
 30
0.0
 40
6.0
 41
177.9959295625386
 71
     1
 72
     5
  1
τﾘﾆｱﾓｰﾀ ｺｱ付N NLA-NA CLﾕﾆｯﾄ CLN500MA (500N)
  7
ｽﾀｲﾙ3
 73
     1
 44
1.0
1001
ACAD
1000
MTEXTBEGIN
1070
    73
1070
     1
1070
    44
1040
1.0
1070
    74
1070
     0
1000
MTEXTEND
  0
ENDSEC
  0
SECTION
  2
OBJECTS
  0
DICTIONARY
  5
C
330
0
100
AcDbDictionary
281
     1
  3
ACAD_GROUP
350
D
  3
ACAD_LAYOUT
350
DB2
  3
ACAD_MLINESTYLE
350
1B
  3
ACAD_PLOTSETTINGS
350
DB3
  3
ACAD_PLOTSTYLENAME
350
FB5B
  3
AcadDim
350
1B534
  3
AcDbVariableDictionary
350
106A6
  3
ASE_INDEX_DICTIONARY
350
1A99F
  3
DWGPROPS
350
15EC9
1001
ACAD
1000
TREAT_AS_HARD
1070
     0
  0
DICTIONARY
  5
28669
330
2
100
AcDbDictionary
280
     1
281
     1
  3
ACAD_LAYERFILTERS
360
2866A
  3
ACAD_LAYERSTATES
360
28676
  0
DICTIONARY
  5
EFC6
330
18
100
AcDbDictionary
280
     1
281
     1
  0
DICTIONARY
  5
EFC4
330
15
100
AcDbDictionary
280
     1
281
     1
  0
DICTIONARY
  5
D
102
{ACAD_REACTORS
330
C
102
}
330
C
100
AcDbDictionary
281
     1
  3
*A1
350
AC8A
  3
*A10
350
198F1
  3
*A100
350
25596
  3
*A101
350
26090
  3
*A102
350
26E22
  3
*A103
350
25301
  3
*A104
350
1738A
  3
*A105
350
2559C
  3
*A106
350
262A0
  3
*A107
350
2559D
  3
*A108
350
26C06
  3
*A109
350
FC9A
  3
*A11
350
25337
  3
*A110
350
2786C
  3
*A111
350
28867
  3
*A112
350
1F91D
  3
*A113
350
20025
  3
*A114
350
288DC
  3
*A115
350
26E23
  3
*A116
350
252FB
  3
*A117
350
1EB7F
  3
*A118
350
265C7
  3
*A119
350
26E24
  3
*A12
350
19259
  3
*A120
350
19786
  3
*A121
350
2531F
  3
*A122
350
1D6DE
  3
*A123
350
25D0D
  3
*A124
350
265C8
  3
*A125
350
26E25
  3
*A126
350
1D6C0
  3
*A127
350
1D67A
  3
*A128
350
265CF
  3
*A129
350
27802
  3
*A13
350
ACB4
  3
*A130
350
2832B
  3
*A131
350
1D6FC
  3
*A132
350
26E26
  3
*A133
350
26E5E
  3
*A134
350
26E5F
  3
*A135
350
25325
  3
*A136
350
26C07
  3
*A137
350
19F99
  3
*A138
350
17BFF
  3
*A139
350
252F5
  3
*A14
350
17B11
  3
*A140
350
25E13
  3
*A141
350
26C78
  3
*A142
350
1F918
  3
*A143
350
26E60
  3
*A144
350
2629D
  3
*A145
350
25307
  3
*A146
350
2001C
  3
*A147
350
25D0A
  3
*A148
350
2533D
  3
*A149
350
26E61
  3
*A15
350
16069
  3
*A150
350
1D6AC
  3
*A151
350
106A5
  3
*A152
350
AC9A
  3
*A153
350
ACA1
  3
*A154
350
2732E
  3
*A155
350
173BF
  3
*A156
350
2732F
  3
*A157
350
1F8F0
  3
*A158
350
27330
  3
*A159
350
26094
  3
*A16
350
25313
  3
*A160
350
20019
  3
*A161
350
1B744
  3
*A162
350
25E10
  3
*A163
350
27CB8
  3
*A164
350
27331
  3
*A165
350
259CF
  3
*A166
350
2001F
  3
*A167
350
106C6
  3
*A168
350
2532B
  3
*A169
350
20013
  3
*A17
350
26C8B
  3
*A170
350
19A52
  3
*A171
350
18F20
  3
*A172
350
1F90E
  3
*A173
350
27332
  3
*A174
350
19989
  3
*A175
350
25D0B
  3
*A176
350
26C43
  3
*A177
350
259D0
  3
*A178
350
27333
  3
*A179
350
2629A
  3
*A18
350
1B74D
  3
*A180
350
2608F
  3
*A181
350
FCB8
  3
*A182
350
27334
  3
*A183
350
1D670
  3
*A184
350
259D2
  3
*A185
350
27335
  3
*A186
350
27336
  3
*A187
350
20218
  3
*A188
350
169DA
  3
*A189
350
259D1
  3
*A19
350
27CB7
  3
*A190
350
252DD
  3
*A191
350
265D2
  3
*A192
350
27337
  3
*A193
350
265CA
  3
*A194
350
1A695
  3
*A195
350
27338
  3
*A196
350
18F22
  3
*A197
350
1606A
  3
*A198
350
17389
  3
*A199
350
25AC2
  3
*A2
350
277FC
  3
*A20
350
19AA4
  3
*A200
350
265CB
  3
*A201
350
FB6B
  3
*A202
350
1B720
  3
*A203
350
2629C
  3
*A204
350
FBFF
  3
*A205
350
FC91
  3
*A206
350
19256
  3
*A207
350
265D0
  3
*A208
350
25343
  3
*A209
350
27CB0
  3
*A21
350
25367
  3
*A210
350
19861
  3
*A211
350
1AA94
  3
*A212
350
2530D
  3
*A213
350
19255
  3
*A214
350
19794
  3
*A215
350
25AC3
  3
*A216
350
265C9
  3
*A217
350
26096
  3
*A218
350
173BD
  3
*A219
350
19787
  3
*A22
350
265D1
  3
*A220
350
19F67
  3
*A221
350
1EB80
  3
*A222
350
25331
  3
*A223
350
20016
  3
*A224
350
27CB5
  3
*A225
350
1B732
  3
*A226
350
2629E
  3
*A227
350
2022C
  3
*A228
350
18F1F
  3
*A229
350
2535B
  3
*A23
350
1998A
  3
*A230
350
2786D
  3
*A231
350
196C2
  3
*A232
350
20209
  3
*A233
350
25E12
  3
*A234
350
27803
  3
*A235
350
277FD
  3
*A236
350
25D0C
  3
*A237
350
17901
  3
*A238
350
20231
  3
*A239
350
19A86
  3
*A24
350
2020E
  3
*A240
350
1B756
  3
*A241
350
27D88
  3
*A242
350
2002B
  3
*A243
350
27806
  3
*A244
350
2021D
  3
*A245
350
262A1
  3
*A246
350
18F23
  3
*A247
350
277FA
  3
*A248
350
1A691
  3
*A249
350
18FA7
  3
*A25
350
1A09A
  3
*A250
350
277FE
  3
*A251
350
25D0E
  3
*A252
350
26092
  3
*A253
350
20028
  3
*A254
350
1D6A2
  3
*A255
350
265CC
  3
*A256
350
2786E
  3
*A257
350
26095
  3
*A258
350
277FB
  3
*A259
350
19988
  3
*A26
350
1D698
  3
*A260
350
27CB6
  3
*A261
350
25349
  3
*A262
350
FC95
  3
*A263
350
27CB3
  3
*A264
350
277FF
  3
*A265
350
1F909
  3
*A266
350
106C7
  3
*A267
350
26093
  3
*A268
350
1D6E8
  3
*A269
350
19A5A
  3
*A27
350
2536D
  3
*A270
350
24D3F
  3
*A271
350
1A692
  3
*A272
350
19729
  3
*A273
350
27804
  3
*A274
350
20236
  3
*A275
350
20213
  3
*A276
350
ACAB
  3
*A277
350
25D97
  3
*A278
350
27800
  3
*A279
350
1B73B
  3
*A28
350
1F904
  3
*A29
350
252EF
  3
*A3
350
20222
  3
*A30
350
2629F
  3
*A31
350
25319
  3
*A32
350
19881
  3
*A33
350
19FAB
  3
*A34
350
26C4B
  3
*A35
350
265CE
  3
*A36
350
20010
  3
*A37
350
25373
  3
*A38
350
25379
  3
*A39
350
20CA6
  3
*A4
350
20CA2
  3
*A40
350
27801
  3
*A41
350
1F8F5
  3
*A42
350
265CD
  3
*A43
350
215A2
  3
*A44
350
ACA2
  3
*A45
350
2534F
  3
*A46
350
16058
  3
*A47
350
26B3D
  3
*A48
350
2537F
  3
*A49
350
1D6D4
  3
*A5
350
25361
  3
*A50
350
1D6CA
  3
*A51
350
ACBD
  3
*A52
350
1606B
  3
*A53
350
1738B
  3
*A54
350
25385
  3
*A55
350
FB6C
  3
*A56
350
106B3
  3
*A57
350
27CB4
  3
*A58
350
FC9B
  3
*A59
350
1D684
  3
*A6
350
27CAF
  3
*A60
350
2538B
  3
*A61
350
25391
  3
*A62
350
25397
  3
*A63
350
253AB
  3
*A64
350
1D706
  3
*A65
350
25E11
  3
*A66
350
19A51
  3
*A67
350
18FA8
  3
*A68
350
20227
  3
*A69
350
173BE
  3
*A7
350
252E3
  3
*A70
350
26091
  3
*A71
350
1F913
  3
*A72
350
19F55
  3
*A73
350
27CB1
  3
*A74
350
25584
  3
*A75
350
1D6F2
  3
*A76
350
27CB9
  3
*A77
350
1D68E
  3
*A78
350
20022
  3
*A79
350
25355
  3
*A8
350
1B729
  3
*A80
350
18F21
  3
*A81
350
16059
  3
*A82
350
26C53
  3
*A83
350
1EB7C
  3
*A84
350
1EB7E
  3
*A85
350
1F8FA
  3
*A86
350
19F87
  3
*A87
350
1EB7D
  3
*A88
350
27CBA
  3
*A89
350
27805
  3
*A9
350
18FA6
  3
*A90
350
2629B
  3
*A91
350
25585
  3
*A92
350
16068
  3
*A93
350
252E9
  3
*A94
350
25586
  3
*A95
350
25590
  3
*A96
350
1D710
  3
*A97
350
27CB2
  3
*A98
350
1D6B6
  3
*A99
350
1F8FF
1001
ACAD
1000
TREAT_AS_HARD
1070
     0
  0
DICTIONARY
  5
DB2
102
{ACAD_REACTORS
330
C
102
}
330
C
100
AcDbDictionary
281
     1
  3
Model
350
FB5D
  3
外形図
350
FB5E
1001
ACAD
1000
TREAT_AS_HARD
1070
     0
  0
DICTIONARY
  5
1B
102
{ACAD_REACTORS
330
C
102
}
330
C
100
AcDbDictionary
281
     1
  3
STANDARD
350
1C
1001
ACAD
1000
TREAT_AS_HARD
1070
     0
  0
DICTIONARY
  5
DB3
102
{ACAD_REACTORS
330
C
102
}
330
C
100
AcDbDictionary
281
     1
1001
ACAD
1000
TREAT_AS_HARD
1070
     0
  0
ACDBDICTIONARYWDFLT
  5
FB5B
102
{ACAD_REACTORS
330
C
102
}
330
C
100
AcDbDictionary
281
     1
  3
Normal
350
FB5C
100
AcDbDictionaryWithDefault
340
FB5C
  0
XRECORD
  5
1B534
102
{ACAD_REACTORS
330
C
102
}
330
C
100
AcDbXrecord
280
     1
 90
   990106
  3

 60
     0
 61
     0
 62
     4
 63
     4
 64
     1
 65
     0
 66
     0
 67
     3
 68
     1
 69
     0
 70
     0
 71
     0
 72
     0
 40
0.0
170
     2
340
2878C
  0
DICTIONARY
  5
106A6
102
{ACAD_REACTORS
330
C
102
}
330
C
100
AcDbDictionary
281
     1
  3
SORTENTS
350
106A7
  0
DICTIONARY
  5
1A99F
102
{ACAD_REACTORS
330
C
102
}
330
C
100
AcDbDictionary
281
     1
  3
ASEBlockHierarchyIndexRecord
350
1A9A1
1001
DCO15
1040
1464612067.17
  0
XRECORD
  5
15EC9
102
{ACAD_REACTORS
330
C
102
}
330
C
100
AcDbXrecord
280
     1
  1
DWGPROPS COOKIE
  2

  3

  4

  6

  7

  8

  9

300
=
301
=
302
=
303
=
304
=
305
=
306
=
307
=
308
=
309
=
 40
12.65185717592592
 41
2451224.660162384
 42
2452395.660827315
  1

 90
        0
  0
DICTIONARY
  5
2866A
102
{ACAD_REACTORS
330
28669
102
}
330
28669
100
AcDbDictionary
280
     1
281
     1
  3
0
360
2866B
  3
11
360
2866C
  3
150_
360
2866D
  3
160_
360
2866E
  3
170_
360
2866F
  3
171_
360
28670
  3
350_
360
28671
  3
4
360
28672
  3
5
360
28673
  3
7
360
28674
  3
kiseki
360
28675
  0
DICTIONARY
  5
28676
102
{ACAD_REACTORS
330
28669
102
}
330
28669
100
AcDbDictionary
281
     1
  0
GROUP
  5
AC8A
102
{ACAD_REACTORS
330
D
102
}
330
D
100
AcDbGroup
300

 70
     1
 71
     1
  0
GROUP
  5
198F1
102
{ACAD_REACTORS
330
D
102
}
330
D
100
AcDbGroup
300

 70
     1
 71
     1
  0
GROUP
  5
25596
102
{ACAD_REACTORS
330
D
102
}
330
D
100
AcDbGroup
300

 70
     1
 71
     1
  0
GROUP
  5
26090
102
{ACAD_REACTORS
330
D
102
}
330
D
100
AcDbGroup
300

 70
     1
 71
     1
  0
GROUP
  5
26E22
102
{ACAD_REACTORS
330
D
102
}
330
D
100
AcDbGroup
300

 70
     1
 71
     1
  0
GROUP
  5
25301
102
{ACAD_REACTORS
330
D
102
}
330
D
100
AcDbGroup
300

 70
     1
 71
     1
  0
GROUP
  5
1738A
102
{ACAD_REACTORS
330
D
102
}
330
D
100
AcDbGroup
300

 70
     1
 71
     1
  0
GROUP
  5
2559C
102
{ACAD_REACTORS
330
D
102
}
330
D
100
AcDbGroup
300

 70
     1
 71
     1
  0
GROUP
  5
262A0
102
{ACAD_REACTORS
330
D
102
}
330
D
100
AcDbGroup
300

 70
     1
 71
     1
  0
GROUP
  5
2559D
102
{ACAD_REACTORS
330
D
102
}
330
D
100
AcDbGroup
300

 70
     1
 71
     1
  0
GROUP
  5
26C06
102
{ACAD_REACTORS
330
D
102
}
330
D
100
AcDbGroup
300

 70
     1
 71
     1
  0
GROUP
  5
FC9A
102
{ACAD_REACTORS
330
D
102
}
330
D
100
AcDbGroup
300

 70
     1
 71
     1
  0
GROUP
  5
25337
102
{ACAD_REACTORS
330
D
102
}
330
D
100
AcDbGroup
300

 70
     1
 71
     1
  0
GROUP
  5
2786C
102
{ACAD_REACTORS
330
D
102
}
330
D
100
AcDbGroup
300

 70
     1
 71
     1
  0
GROUP
  5
28867
102
{ACAD_REACTORS
330
D
102
}
330
D
100
AcDbGroup
300

 70
     1
 71
     1
340
28856
340
28855
340
28854
340
28857
340
2885E
340
2885D
340
2885C
340
2885B
340
28859
340
28858
340
28864
340
28863
340
28862
340
28861
340
28860
340
28853
340
28852
340
28851
340
28850
340
2884F
340
2884E
340
2884D
340
2884C
340
2884B
340
2884A
340
28849
340
28848
340
28847
340
28846
340
28845
340
28844
340
28843
340
28842
340
28841
340
28840
340
2883F
340
2883E
340
2883D
340
2883C
340
2883B
340
2885F
340
2885A
  0
GROUP
  5
1F91D
102
{ACAD_REACTORS
330
D
102
}
330
D
100
AcDbGroup
300

 70
     1
 71
     1
  0
GROUP
  5
20025
102
{ACAD_REACTORS
330
D
102
}
330
D
100
AcDbGroup
300

 70
     1
 71
     1
  0
GROUP
  5
288DC
102
{ACAD_REACTORS
330
D
102
}
330
D
100
AcDbGroup
300

 70
     1
 71
     1
340
288AB
340
288DB
340
288DA
340
288D9
340
288AF
340
288AE
340
288AC
340
288D6
340
288C8
340
288C1
340
288C0
340
288BF
340
288BE
340
288BD
340
288BB
340
288BA
340
288B9
340
288B8
340
288B7
340
288B6
340
288B2
340
288B1
340
288AA
340
288A9
340
288D7
340
288D5
340
288D4
340
288D3
340
288D2
340
288D1
340
288D0
340
288CF
340
288CE
340
288CD
340
288CC
340
288CB
340
288CA
340
288C9
340
288C7
340
288C6
340
288C5
340
288C4
340
288C3
340
288C2
340
288BC
340
288B5
  0
GROUP
  5
26E23
102
{ACAD_REACTORS
330
D
102
}
330
D
100
AcDbGroup
300

 70
     1
 71
     1
  0
GROUP
  5
252FB
102
{ACAD_REACTORS
330
D
102
}
330
D
100
AcDbGroup
300

 70
     1
 71
     1
  0
GROUP
  5
1EB7F
102
{ACAD_REACTORS
330
D
102
}
330
D
100
AcDbGroup
300

 70
     1
 71
     1
  0
GROUP
  5
265C7
102
{ACAD_REACTORS
330
D
102
}
330
D
100
AcDbGroup
300

 70
     1
 71
     1
  0
GROUP
  5
26E24
102
{ACAD_REACTORS
330
D
102
}
330
D
100
AcDbGroup
300

 70
     1
 71
     1
  0
GROUP
  5
19259
102
{ACAD_REACTORS
330
D
102
}
330
D
100
AcDbGroup
300

 70
     1
 71
     1
  0
GROUP
  5
19786
102
{ACAD_REACTORS
330
D
102
}
330
D
100
AcDbGroup
300

 70
     1
 71
     1
  0
GROUP
  5
2531F
102
{ACAD_REACTORS
330
D
102
}
330
D
100
AcDbGroup
300

 70
     1
 71
     1
  0
GROUP
  5
1D6DE
102
{ACAD_REACTORS
330
D
102
}
330
D
100
AcDbGroup
300

 70
     1
 71
     1
  0
GROUP
  5
25D0D
102
{ACAD_REACTORS
330
D
102
}
330
D
100
AcDbGroup
300

 70
     1
 71
     1
  0
GROUP
  5
265C8
102
{ACAD_REACTORS
330
D
102
}
330
D
100
AcDbGroup
300

 70
     1
 71
     1
  0
GROUP
  5
26E25
102
{ACAD_REACTORS
330
D
102
}
330
D
100
AcDbGroup
300

 70
     1
 71
     1
  0
GROUP
  5
1D6C0
102
{ACAD_REACTORS
330
D
102
}
330
D
100
AcDbGroup
300

 70
     1
 71
     1
  0
GROUP
  5
1D67A
102
{ACAD_REACTORS
330
D
102
}
330
D
100
AcDbGroup
300

 70
     1
 71
     1
  0
GROUP
  5
265CF
102
{ACAD_REACTORS
330
D
102
}
330
D
100
AcDbGroup
300

 70
     1
 71
     1
  0
GROUP
  5
27802
102
{ACAD_REACTORS
330
D
102
}
330
D
100
AcDbGroup
300

 70
     1
 71
     1
  0
GROUP
  5
ACB4
102
{ACAD_REACTORS
330
D
102
}
330
D
100
AcDbGroup
300

 70
     1
 71
     1
  0
GROUP
  5
2832B
102
{ACAD_REACTORS
330
D
102
}
330
D
100
AcDbGroup
300

 70
     1
 71
     1
340
26B6B
340
26B8A
340
26B76
  0
GROUP
  5
1D6FC
102
{ACAD_REACTORS
330
D
102
}
330
D
100
AcDbGroup
300

 70
     1
 71
     1
  0
GROUP
  5
26E26
102
{ACAD_REACTORS
330
D
102
}
330
D
100
AcDbGroup
300

 70
     1
 71
     1
  0
GROUP
  5
26E5E
102
{ACAD_REACTORS
330
D
102
}
330
D
100
AcDbGroup
300

 70
     1
 71
     1
  0
GROUP
  5
26E5F
102
{ACAD_REACTORS
330
D
102
}
330
D
100
AcDbGroup
300

 70
     1
 71
     1
  0
GROUP
  5
25325
102
{ACAD_REACTORS
330
D
102
}
330
D
100
AcDbGroup
300

 70
     1
 71
     1
  0
GROUP
  5
26C07
102
{ACAD_REACTORS
330
D
102
}
330
D
100
AcDbGroup
300

 70
     1
 71
     1
  0
GROUP
  5
19F99
102
{ACAD_REACTORS
330
D
102
}
330
D
100
AcDbGroup
300

 70
     1
 71
     1
  0
GROUP
  5
17BFF
102
{ACAD_REACTORS
330
D
102
}
330
D
100
AcDbGroup
300

 70
     1
 71
     1
  0
GROUP
  5
252F5
102
{ACAD_REACTORS
330
D
102
}
330
D
100
AcDbGroup
300

 70
     1
 71
     1
  0
GROUP
  5
17B11
102
{ACAD_REACTORS
330
D
102
}
330
D
100
AcDbGroup
300

 70
     1
 71
     1
  0
GROUP
  5
25E13
102
{ACAD_REACTORS
330
D
102
}
330
D
100
AcDbGroup
300

 70
     1
 71
     1
  0
GROUP
  5
26C78
102
{ACAD_REACTORS
330
D
102
}
330
D
100
AcDbGroup
300

 70
     1
 71
     1
  0
GROUP
  5
1F918
102
{ACAD_REACTORS
330
D
102
}
330
D
100
AcDbGroup
300

 70
     1
 71
     1
  0
GROUP
  5
26E60
102
{ACAD_REACTORS
330
D
102
}
330
D
100
AcDbGroup
300

 70
     1
 71
     1
  0
GROUP
  5
2629D
102
{ACAD_REACTORS
330
D
102
}
330
D
100
AcDbGroup
300

 70
     1
 71
     1
  0
GROUP
  5
25307
102
{ACAD_REACTORS
330
D
102
}
330
D
100
AcDbGroup
300

 70
     1
 71
     1
  0
GROUP
  5
2001C
102
{ACAD_REACTORS
330
D
102
}
330
D
100
AcDbGroup
300

 70
     1
 71
     1
  0
GROUP
  5
25D0A
102
{ACAD_REACTORS
330
D
102
}
330
D
100
AcDbGroup
300

 70
     1
 71
     1
  0
GROUP
  5
2533D
102
{ACAD_REACTORS
330
D
102
}
330
D
100
AcDbGroup
300

 70
     1
 71
     1
  0
GROUP
  5
26E61
102
{ACAD_REACTORS
330
D
102
}
330
D
100
AcDbGroup
300

 70
     1
 71
     1
  0
GROUP
  5
16069
102
{ACAD_REACTORS
330
D
102
}
330
D
100
AcDbGroup
300

 70
     1
 71
     1
  0
GROUP
  5
1D6AC
102
{ACAD_REACTORS
330
D
102
}
330
D
100
AcDbGroup
300

 70
     1
 71
     1
  0
GROUP
  5
106A5
102
{ACAD_REACTORS
330
D
102
}
330
D
100
AcDbGroup
300

 70
     1
 71
     1
  0
GROUP
  5
AC9A
102
{ACAD_REACTORS
330
D
102
}
330
D
100
AcDbGroup
300

 70
     1
 71
     1
  0
GROUP
  5
ACA1
102
{ACAD_REACTORS
330
D
102
}
330
D
100
AcDbGroup
300

 70
     1
 71
     1
  0
GROUP
  5
2732E
102
{ACAD_REACTORS
330
D
102
}
330
D
100
AcDbGroup
300

 70
     1
 71
     1
  0
GROUP
  5
173BF
102
{ACAD_REACTORS
330
D
102
}
330
D
100
AcDbGroup
300

 70
     1
 71
     1
  0
GROUP
  5
2732F
102
{ACAD_REACTORS
330
D
102
}
330
D
100
AcDbGroup
300

 70
     1
 71
     1
  0
GROUP
  5
1F8F0
102
{ACAD_REACTORS
330
D
102
}
330
D
100
AcDbGroup
300

 70
     1
 71
     1
  0
GROUP
  5
27330
102
{ACAD_REACTORS
330
D
102
}
330
D
100
AcDbGroup
300

 70
     1
 71
     1
  0
GROUP
  5
26094
102
{ACAD_REACTORS
330
D
102
}
330
D
100
AcDbGroup
300

 70
     1
 71
     1
  0
GROUP
  5
25313
102
{ACAD_REACTORS
330
D
102
}
330
D
100
AcDbGroup
300

 70
     1
 71
     1
  0
GROUP
  5
20019
102
{ACAD_REACTORS
330
D
102
}
330
D
100
AcDbGroup
300

 70
     1
 71
     1
  0
GROUP
  5
1B744
102
{ACAD_REACTORS
330
D
102
}
330
D
100
AcDbGroup
300

 70
     1
 71
     1
  0
GROUP
  5
25E10
102
{ACAD_REACTORS
330
D
102
}
330
D
100
AcDbGroup
300

 70
     1
 71
     1
  0
GROUP
  5
27CB8
102
{ACAD_REACTORS
330
D
102
}
330
D
100
AcDbGroup
300

 70
     1
 71
     1
  0
GROUP
  5
27331
102
{ACAD_REACTORS
330
D
102
}
330
D
100
AcDbGroup
300

 70
     1
 71
     1
  0
GROUP
  5
259CF
102
{ACAD_REACTORS
330
D
102
}
330
D
100
AcDbGroup
300

 70
     1
 71
     1
  0
GROUP
  5
2001F
102
{ACAD_REACTORS
330
D
102
}
330
D
100
AcDbGroup
300

 70
     1
 71
     1
  0
GROUP
  5
106C6
102
{ACAD_REACTORS
330
D
102
}
330
D
100
AcDbGroup
300

 70
     1
 71
     1
  0
GROUP
  5
2532B
102
{ACAD_REACTORS
330
D
102
}
330
D
100
AcDbGroup
300

 70
     1
 71
     1
  0
GROUP
  5
20013
102
{ACAD_REACTORS
330
D
102
}
330
D
100
AcDbGroup
300

 70
     1
 71
     1
  0
GROUP
  5
26C8B
102
{ACAD_REACTORS
330
D
102
}
330
D
100
AcDbGroup
300

 70
     1
 71
     1
  0
GROUP
  5
19A52
102
{ACAD_REACTORS
330
D
102
}
330
D
100
AcDbGroup
300

 70
     1
 71
     1
  0
GROUP
  5
18F20
102
{ACAD_REACTORS
330
D
102
}
330
D
100
AcDbGroup
300

 70
     1
 71
     1
  0
GROUP
  5
1F90E
102
{ACAD_REACTORS
330
D
102
}
330
D
100
AcDbGroup
300

 70
     1
 71
     1
  0
GROUP
  5
27332
102
{ACAD_REACTORS
330
D
102
}
330
D
100
AcDbGroup
300

 70
     1
 71
     1
  0
GROUP
  5
19989
102
{ACAD_REACTORS
330
D
102
}
330
D
100
AcDbGroup
300

 70
     1
 71
     1
  0
GROUP
  5
25D0B
102
{ACAD_REACTORS
330
D
102
}
330
D
100
AcDbGroup
300

 70
     1
 71
     1
  0
GROUP
  5
26C43
102
{ACAD_REACTORS
330
D
102
}
330
D
100
AcDbGroup
300

 70
     1
 71
     1
340
26868
340
26865
340
26864
340
26861
340
26862
340
26867
340
26863
  0
GROUP
  5
259D0
102
{ACAD_REACTORS
330
D
102
}
330
D
100
AcDbGroup
300

 70
     1
 71
     1
  0
GROUP
  5
27333
102
{ACAD_REACTORS
330
D
102
}
330
D
100
AcDbGroup
300

 70
     1
 71
     1
  0
GROUP
  5
2629A
102
{ACAD_REACTORS
330
D
102
}
330
D
100
AcDbGroup
300

 70
     1
 71
     1
  0
GROUP
  5
1B74D
102
{ACAD_REACTORS
330
D
102
}
330
D
100
AcDbGroup
300

 70
     1
 71
     1
  0
GROUP
  5
2608F
102
{ACAD_REACTORS
330
D
102
}
330
D
100
AcDbGroup
300

 70
     1
 71
     1
  0
GROUP
  5
FCB8
102
{ACAD_REACTORS
330
D
102
}
330
D
100
AcDbGroup
300

 70
     1
 71
     1
  0
GROUP
  5
27334
102
{ACAD_REACTORS
330
D
102
}
330
D
100
AcDbGroup
300

 70
     1
 71
     1
  0
GROUP
  5
1D670
102
{ACAD_REACTORS
330
D
102
}
330
D
100
AcDbGroup
300

 70
     1
 71
     1
  0
GROUP
  5
259D2
102
{ACAD_REACTORS
330
D
102
}
330
D
100
AcDbGroup
300

 70
     1
 71
     1
  0
GROUP
  5
27335
102
{ACAD_REACTORS
330
D
102
}
330
D
100
AcDbGroup
300

 70
     1
 71
     1
  0
GROUP
  5
27336
102
{ACAD_REACTORS
330
D
102
}
330
D
100
AcDbGroup
300

 70
     1
 71
     1
  0
GROUP
  5
20218
102
{ACAD_REACTORS
330
D
102
}
330
D
100
AcDbGroup
300

 70
     1
 71
     1
  0
GROUP
  5
169DA
102
{ACAD_REACTORS
330
D
102
}
330
D
100
AcDbGroup
300

 70
     1
 71
     1
  0
GROUP
  5
259D1
102
{ACAD_REACTORS
330
D
102
}
330
D
100
AcDbGroup
300

 70
     1
 71
     1
  0
GROUP
  5
27CB7
102
{ACAD_REACTORS
330
D
102
}
330
D
100
AcDbGroup
300

 70
     1
 71
     1
  0
GROUP
  5
252DD
102
{ACAD_REACTORS
330
D
102
}
330
D
100
AcDbGroup
300

 70
     1
 71
     1
  0
GROUP
  5
265D2
102
{ACAD_REACTORS
330
D
102
}
330
D
100
AcDbGroup
300

 70
     1
 71
     1
  0
GROUP
  5
27337
102
{ACAD_REACTORS
330
D
102
}
330
D
100
AcDbGroup
300

 70
     1
 71
     1
  0
GROUP
  5
265CA
102
{ACAD_REACTORS
330
D
102
}
330
D
100
AcDbGroup
300

 70
     1
 71
     1
  0
GROUP
  5
1A695
102
{ACAD_REACTORS
330
D
102
}
330
D
100
AcDbGroup
300

 70
     1
 71
     1
  0
GROUP
  5
27338
102
{ACAD_REACTORS
330
D
102
}
330
D
100
AcDbGroup
300

 70
     1
 71
     1
  0
GROUP
  5
18F22
102
{ACAD_REACTORS
330
D
102
}
330
D
100
AcDbGroup
300

 70
     1
 71
     1
  0
GROUP
  5
1606A
102
{ACAD_REACTORS
330
D
102
}
330
D
100
AcDbGroup
300

 70
     1
 71
     1
  0
GROUP
  5
17389
102
{ACAD_REACTORS
330
D
102
}
330
D
100
AcDbGroup
300

 70
     1
 71
     1
  0
GROUP
  5
25AC2
102
{ACAD_REACTORS
330
D
102
}
330
D
100
AcDbGroup
300

 70
     1
 71
     1
  0
GROUP
  5
277FC
102
{ACAD_REACTORS
330
D
102
}
330
D
100
AcDbGroup
300

 70
     1
 71
     1
  0
GROUP
  5
19AA4
102
{ACAD_REACTORS
330
D
102
}
330
D
100
AcDbGroup
300

 70
     1
 71
     1
  0
GROUP
  5
265CB
102
{ACAD_REACTORS
330
D
102
}
330
D
100
AcDbGroup
300

 70
     1
 71
     1
  0
GROUP
  5
FB6B
102
{ACAD_REACTORS
330
D
102
}
330
D
100
AcDbGroup
300

 70
     1
 71
     1
  0
GROUP
  5
1B720
102
{ACAD_REACTORS
330
D
102
}
330
D
100
AcDbGroup
300

 70
     1
 71
     1
  0
GROUP
  5
2629C
102
{ACAD_REACTORS
330
D
102
}
330
D
100
AcDbGroup
300

 70
     1
 71
     1
  0
GROUP
  5
FBFF
102
{ACAD_REACTORS
330
D
102
}
330
D
100
AcDbGroup
300

 70
     1
 71
     1
  0
GROUP
  5
FC91
102
{ACAD_REACTORS
330
D
102
}
330
D
100
AcDbGroup
300

 70
     1
 71
     1
  0
GROUP
  5
19256
102
{ACAD_REACTORS
330
D
102
}
330
D
100
AcDbGroup
300

 70
     1
 71
     1
  0
GROUP
  5
265D0
102
{ACAD_REACTORS
330
D
102
}
330
D
100
AcDbGroup
300

 70
     1
 71
     1
  0
GROUP
  5
25343
102
{ACAD_REACTORS
330
D
102
}
330
D
100
AcDbGroup
300

 70
     1
 71
     1
  0
GROUP
  5
27CB0
102
{ACAD_REACTORS
330
D
102
}
330
D
100
AcDbGroup
300

 70
     1
 71
     1
  0
GROUP
  5
25367
102
{ACAD_REACTORS
330
D
102
}
330
D
100
AcDbGroup
300

 70
     1
 71
     1
  0
GROUP
  5
19861
102
{ACAD_REACTORS
330
D
102
}
330
D
100
AcDbGroup
300

 70
     1
 71
     1
  0
GROUP
  5
1AA94
102
{ACAD_REACTORS
330
D
102
}
330
D
100
AcDbGroup
300

 70
     1
 71
     1
  0
GROUP
  5
2530D
102
{ACAD_REACTORS
330
D
102
}
330
D
100
AcDbGroup
300

 70
     1
 71
     1
  0
GROUP
  5
19255
102
{ACAD_REACTORS
330
D
102
}
330
D
100
AcDbGroup
300

 70
     1
 71
     1
  0
GROUP
  5
19794
102
{ACAD_REACTORS
330
D
102
}
330
D
100
AcDbGroup
300

 70
     1
 71
     1
  0
GROUP
  5
25AC3
102
{ACAD_REACTORS
330
D
102
}
330
D
100
AcDbGroup
300

 70
     1
 71
     1
  0
GROUP
  5
265C9
102
{ACAD_REACTORS
330
D
102
}
330
D
100
AcDbGroup
300

 70
     1
 71
     1
  0
GROUP
  5
26096
102
{ACAD_REACTORS
330
D
102
}
330
D
100
AcDbGroup
300

 70
     1
 71
     1
  0
GROUP
  5
173BD
102
{ACAD_REACTORS
330
D
102
}
330
D
100
AcDbGroup
300

 70
     1
 71
     1
  0
GROUP
  5
19787
102
{ACAD_REACTORS
330
D
102
}
330
D
100
AcDbGroup
300

 70
     1
 71
     1
  0
GROUP
  5
265D1
102
{ACAD_REACTORS
330
D
102
}
330
D
100
AcDbGroup
300

 70
     1
 71
     1
  0
GROUP
  5
19F67
102
{ACAD_REACTORS
330
D
102
}
330
D
100
AcDbGroup
300

 70
     1
 71
     1
  0
GROUP
  5
1EB80
102
{ACAD_REACTORS
330
D
102
}
330
D
100
AcDbGroup
300

 70
     1
 71
     1
  0
GROUP
  5
25331
102
{ACAD_REACTORS
330
D
102
}
330
D
100
AcDbGroup
300

 70
     1
 71
     1
  0
GROUP
  5
20016
102
{ACAD_REACTORS
330
D
102
}
330
D
100
AcDbGroup
300

 70
     1
 71
     1
  0
GROUP
  5
27CB5
102
{ACAD_REACTORS
330
D
102
}
330
D
100
AcDbGroup
300

 70
     1
 71
     1
  0
GROUP
  5
1B732
102
{ACAD_REACTORS
330
D
102
}
330
D
100
AcDbGroup
300

 70
     1
 71
     1
  0
GROUP
  5
2629E
102
{ACAD_REACTORS
330
D
102
}
330
D
100
AcDbGroup
300

 70
     1
 71
     1
  0
GROUP
  5
2022C
102
{ACAD_REACTORS
330
D
102
}
330
D
100
AcDbGroup
300

 70
     1
 71
     1
  0
GROUP
  5
18F1F
102
{ACAD_REACTORS
330
D
102
}
330
D
100
AcDbGroup
300

 70
     1
 71
     1
  0
GROUP
  5
2535B
102
{ACAD_REACTORS
330
D
102
}
330
D
100
AcDbGroup
300

 70
     1
 71
     1
  0
GROUP
  5
1998A
102
{ACAD_REACTORS
330
D
102
}
330
D
100
AcDbGroup
300

 70
     1
 71
     1
  0
GROUP
  5
2786D
102
{ACAD_REACTORS
330
D
102
}
330
D
100
AcDbGroup
300

 70
     1
 71
     1
  0
GROUP
  5
196C2
102
{ACAD_REACTORS
330
D
102
}
330
D
100
AcDbGroup
300

 70
     1
 71
     1
  0
GROUP
  5
20209
102
{ACAD_REACTORS
330
D
102
}
330
D
100
AcDbGroup
300

 70
     1
 71
     1
  0
GROUP
  5
25E12
102
{ACAD_REACTORS
330
D
102
}
330
D
100
AcDbGroup
300

 70
     1
 71
     1
  0
GROUP
  5
27803
102
{ACAD_REACTORS
330
D
102
}
330
D
100
AcDbGroup
300

 70
     1
 71
     1
  0
GROUP
  5
277FD
102
{ACAD_REACTORS
330
D
102
}
330
D
100
AcDbGroup
300

 70
     1
 71
     1
  0
GROUP
  5
25D0C
102
{ACAD_REACTORS
330
D
102
}
330
D
100
AcDbGroup
300

 70
     1
 71
     1
  0
GROUP
  5
17901
102
{ACAD_REACTORS
330
D
102
}
330
D
100
AcDbGroup
300

 70
     1
 71
     1
  0
GROUP
  5
20231
102
{ACAD_REACTORS
330
D
102
}
330
D
100
AcDbGroup
300

 70
     1
 71
     1
  0
GROUP
  5
19A86
102
{ACAD_REACTORS
330
D
102
}
330
D
100
AcDbGroup
300

 70
     1
 71
     1
  0
GROUP
  5
2020E
102
{ACAD_REACTORS
330
D
102
}
330
D
100
AcDbGroup
300

 70
     1
 71
     1
  0
GROUP
  5
1B756
102
{ACAD_REACTORS
330
D
102
}
330
D
100
AcDbGroup
300

 70
     1
 71
     1
  0
GROUP
  5
27D88
102
{ACAD_REACTORS
330
D
102
}
330
D
100
AcDbGroup
300

 70
     1
 71
     1
  0
GROUP
  5
2002B
102
{ACAD_REACTORS
330
D
102
}
330
D
100
AcDbGroup
300

 70
     1
 71
     1
  0
GROUP
  5
27806
102
{ACAD_REACTORS
330
D
102
}
330
D
100
AcDbGroup
300

 70
     1
 71
     1
  0
GROUP
  5
2021D
102
{ACAD_REACTORS
330
D
102
}
330
D
100
AcDbGroup
300

 70
     1
 71
     1
  0
GROUP
  5
262A1
102
{ACAD_REACTORS
330
D
102
}
330
D
100
AcDbGroup
300

 70
     1
 71
     1
  0
GROUP
  5
18F23
102
{ACAD_REACTORS
330
D
102
}
330
D
100
AcDbGroup
300

 70
     1
 71
     1
  0
GROUP
  5
277FA
102
{ACAD_REACTORS
330
D
102
}
330
D
100
AcDbGroup
300

 70
     1
 71
     1
  0
GROUP
  5
1A691
102
{ACAD_REACTORS
330
D
102
}
330
D
100
AcDbGroup
300

 70
     1
 71
     1
  0
GROUP
  5
18FA7
102
{ACAD_REACTORS
330
D
102
}
330
D
100
AcDbGroup
300

 70
     1
 71
     1
  0
GROUP
  5
1A09A
102
{ACAD_REACTORS
330
D
102
}
330
D
100
AcDbGroup
300

 70
     1
 71
     1
  0
GROUP
  5
277FE
102
{ACAD_REACTORS
330
D
102
}
330
D
100
AcDbGroup
300

 70
     1
 71
     1
  0
GROUP
  5
25D0E
102
{ACAD_REACTORS
330
D
102
}
330
D
100
AcDbGroup
300

 70
     1
 71
     1
  0
GROUP
  5
26092
102
{ACAD_REACTORS
330
D
102
}
330
D
100
AcDbGroup
300

 70
     1
 71
     1
  0
GROUP
  5
20028
102
{ACAD_REACTORS
330
D
102
}
330
D
100
AcDbGroup
300

 70
     1
 71
     1
  0
GROUP
  5
1D6A2
102
{ACAD_REACTORS
330
D
102
}
330
D
100
AcDbGroup
300

 70
     1
 71
     1
  0
GROUP
  5
265CC
102
{ACAD_REACTORS
330
D
102
}
330
D
100
AcDbGroup
300

 70
     1
 71
     1
  0
GROUP
  5
2786E
102
{ACAD_REACTORS
330
D
102
}
330
D
100
AcDbGroup
300

 70
     1
 71
     1
  0
GROUP
  5
26095
102
{ACAD_REACTORS
330
D
102
}
330
D
100
AcDbGroup
300

 70
     1
 71
     1
  0
GROUP
  5
277FB
102
{ACAD_REACTORS
330
D
102
}
330
D
100
AcDbGroup
300

 70
     1
 71
     1
  0
GROUP
  5
19988
102
{ACAD_REACTORS
330
D
102
}
330
D
100
AcDbGroup
300

 70
     1
 71
     1
  0
GROUP
  5
1D698
102
{ACAD_REACTORS
330
D
102
}
330
D
100
AcDbGroup
300

 70
     1
 71
     1
  0
GROUP
  5
27CB6
102
{ACAD_REACTORS
330
D
102
}
330
D
100
AcDbGroup
300

 70
     1
 71
     1
  0
GROUP
  5
25349
102
{ACAD_REACTORS
330
D
102
}
330
D
100
AcDbGroup
300

 70
     1
 71
     1
  0
GROUP
  5
FC95
102
{ACAD_REACTORS
330
D
102
}
330
D
100
AcDbGroup
300

 70
     1
 71
     1
  0
GROUP
  5
27CB3
102
{ACAD_REACTORS
330
D
102
}
330
D
100
AcDbGroup
300

 70
     1
 71
     1
  0
GROUP
  5
277FF
102
{ACAD_REACTORS
330
D
102
}
330
D
100
AcDbGroup
300

 70
     1
 71
     1
  0
GROUP
  5
1F909
102
{ACAD_REACTORS
330
D
102
}
330
D
100
AcDbGroup
300

 70
     1
 71
     1
  0
GROUP
  5
106C7
102
{ACAD_REACTORS
330
D
102
}
330
D
100
AcDbGroup
300

 70
     1
 71
     1
  0
GROUP
  5
26093
102
{ACAD_REACTORS
330
D
102
}
330
D
100
AcDbGroup
300

 70
     1
 71
     1
  0
GROUP
  5
1D6E8
102
{ACAD_REACTORS
330
D
102
}
330
D
100
AcDbGroup
300

 70
     1
 71
     1
  0
GROUP
  5
19A5A
102
{ACAD_REACTORS
330
D
102
}
330
D
100
AcDbGroup
300

 70
     1
 71
     1
  0
GROUP
  5
2536D
102
{ACAD_REACTORS
330
D
102
}
330
D
100
AcDbGroup
300

 70
     1
 71
     1
  0
GROUP
  5
24D3F
102
{ACAD_REACTORS
330
D
102
}
330
D
100
AcDbGroup
300

 70
     1
 71
     1
  0
GROUP
  5
1A692
102
{ACAD_REACTORS
330
D
102
}
330
D
100
AcDbGroup
300

 70
     1
 71
     1
  0
GROUP
  5
19729
102
{ACAD_REACTORS
330
D
102
}
330
D
100
AcDbGroup
300

 70
     1
 71
     1
  0
GROUP
  5
27804
102
{ACAD_REACTORS
330
D
102
}
330
D
100
AcDbGroup
300

 70
     1
 71
     1
  0
GROUP
  5
20236
102
{ACAD_REACTORS
330
D
102
}
330
D
100
AcDbGroup
300

 70
     1
 71
     1
  0
GROUP
  5
20213
102
{ACAD_REACTORS
330
D
102
}
330
D
100
AcDbGroup
300

 70
     1
 71
     1
  0
GROUP
  5
ACAB
102
{ACAD_REACTORS
330
D
102
}
330
D
100
AcDbGroup
300

 70
     1
 71
     1
  0
GROUP
  5
25D97
102
{ACAD_REACTORS
330
D
102
}
330
D
100
AcDbGroup
300

 70
     1
 71
     1
  0
GROUP
  5
27800
102
{ACAD_REACTORS
330
D
102
}
330
D
100
AcDbGroup
300

 70
     1
 71
     1
  0
GROUP
  5
1B73B
102
{ACAD_REACTORS
330
D
102
}
330
D
100
AcDbGroup
300

 70
     1
 71
     1
  0
GROUP
  5
1F904
102
{ACAD_REACTORS
330
D
102
}
330
D
100
AcDbGroup
300

 70
     1
 71
     1
  0
GROUP
  5
252EF
102
{ACAD_REACTORS
330
D
102
}
330
D
100
AcDbGroup
300

 70
     1
 71
     1
  0
GROUP
  5
20222
102
{ACAD_REACTORS
330
D
102
}
330
D
100
AcDbGroup
300

 70
     1
 71
     1
  0
GROUP
  5
2629F
102
{ACAD_REACTORS
330
D
102
}
330
D
100
AcDbGroup
300

 70
     1
 71
     1
  0
GROUP
  5
25319
102
{ACAD_REACTORS
330
D
102
}
330
D
100
AcDbGroup
300

 70
     1
 71
     1
  0
GROUP
  5
19881
102
{ACAD_REACTORS
330
D
102
}
330
D
100
AcDbGroup
300

 70
     1
 71
     1
  0
GROUP
  5
19FAB
102
{ACAD_REACTORS
330
D
102
}
330
D
100
AcDbGroup
300

 70
     1
 71
     1
  0
GROUP
  5
26C4B
102
{ACAD_REACTORS
330
D
102
}
330
D
100
AcDbGroup
300

 70
     1
 71
     1
  0
GROUP
  5
265CE
102
{ACAD_REACTORS
330
D
102
}
330
D
100
AcDbGroup
300

 70
     1
 71
     1
  0
GROUP
  5
20010
102
{ACAD_REACTORS
330
D
102
}
330
D
100
AcDbGroup
300

 70
     1
 71
     1
  0
GROUP
  5
25373
102
{ACAD_REACTORS
330
D
102
}
330
D
100
AcDbGroup
300

 70
     1
 71
     1
  0
GROUP
  5
25379
102
{ACAD_REACTORS
330
D
102
}
330
D
100
AcDbGroup
300

 70
     1
 71
     1
  0
GROUP
  5
20CA6
102
{ACAD_REACTORS
330
D
102
}
330
D
100
AcDbGroup
300

 70
     1
 71
     1
  0
GROUP
  5
20CA2
102
{ACAD_REACTORS
330
D
102
}
330
D
100
AcDbGroup
300

 70
     1
 71
     1
  0
GROUP
  5
27801
102
{ACAD_REACTORS
330
D
102
}
330
D
100
AcDbGroup
300

 70
     1
 71
     1
  0
GROUP
  5
1F8F5
102
{ACAD_REACTORS
330
D
102
}
330
D
100
AcDbGroup
300

 70
     1
 71
     1
  0
GROUP
  5
265CD
102
{ACAD_REACTORS
330
D
102
}
330
D
100
AcDbGroup
300

 70
     1
 71
     1
  0
GROUP
  5
215A2
102
{ACAD_REACTORS
330
D
102
}
330
D
100
AcDbGroup
300

 70
     1
 71
     1
  0
GROUP
  5
ACA2
102
{ACAD_REACTORS
330
D
102
}
330
D
100
AcDbGroup
300

 70
     1
 71
     1
  0
GROUP
  5
2534F
102
{ACAD_REACTORS
330
D
102
}
330
D
100
AcDbGroup
300

 70
     1
 71
     1
  0
GROUP
  5
16058
102
{ACAD_REACTORS
330
D
102
}
330
D
100
AcDbGroup
300

 70
     1
 71
     1
  0
GROUP
  5
26B3D
102
{ACAD_REACTORS
330
D
102
}
330
D
100
AcDbGroup
300

 70
     1
 71
     1
  0
GROUP
  5
2537F
102
{ACAD_REACTORS
330
D
102
}
330
D
100
AcDbGroup
300

 70
     1
 71
     1
  0
GROUP
  5
1D6D4
102
{ACAD_REACTORS
330
D
102
}
330
D
100
AcDbGroup
300

 70
     1
 71
     1
  0
GROUP
  5
25361
102
{ACAD_REACTORS
330
D
102
}
330
D
100
AcDbGroup
300

 70
     1
 71
     1
  0
GROUP
  5
1D6CA
102
{ACAD_REACTORS
330
D
102
}
330
D
100
AcDbGroup
300

 70
     1
 71
     1
  0
GROUP
  5
ACBD
102
{ACAD_REACTORS
330
D
102
}
330
D
100
AcDbGroup
300

 70
     1
 71
     1
  0
GROUP
  5
1606B
102
{ACAD_REACTORS
330
D
102
}
330
D
100
AcDbGroup
300

 70
     1
 71
     1
  0
GROUP
  5
1738B
102
{ACAD_REACTORS
330
D
102
}
330
D
100
AcDbGroup
300

 70
     1
 71
     1
  0
GROUP
  5
25385
102
{ACAD_REACTORS
330
D
102
}
330
D
100
AcDbGroup
300

 70
     1
 71
     1
  0
GROUP
  5
FB6C
102
{ACAD_REACTORS
330
D
102
}
330
D
100
AcDbGroup
300

 70
     1
 71
     1
  0
GROUP
  5
106B3
102
{ACAD_REACTORS
330
D
102
}
330
D
100
AcDbGroup
300

 70
     1
 71
     1
  0
GROUP
  5
27CB4
102
{ACAD_REACTORS
330
D
102
}
330
D
100
AcDbGroup
300

 70
     1
 71
     1
  0
GROUP
  5
FC9B
102
{ACAD_REACTORS
330
D
102
}
330
D
100
AcDbGroup
300

 70
     1
 71
     1
  0
GROUP
  5
1D684
102
{ACAD_REACTORS
330
D
102
}
330
D
100
AcDbGroup
300

 70
     1
 71
     1
  0
GROUP
  5
27CAF
102
{ACAD_REACTORS
330
D
102
}
330
D
100
AcDbGroup
300

 70
     1
 71
     1
  0
GROUP
  5
2538B
102
{ACAD_REACTORS
330
D
102
}
330
D
100
AcDbGroup
300

 70
     1
 71
     1
  0
GROUP
  5
25391
102
{ACAD_REACTORS
330
D
102
}
330
D
100
AcDbGroup
300

 70
     1
 71
     1
  0
GROUP
  5
25397
102
{ACAD_REACTORS
330
D
102
}
330
D
100
AcDbGroup
300

 70
     1
 71
     1
  0
GROUP
  5
253AB
102
{ACAD_REACTORS
330
D
102
}
330
D
100
AcDbGroup
300

 70
     1
 71
     1
  0
GROUP
  5
1D706
102
{ACAD_REACTORS
330
D
102
}
330
D
100
AcDbGroup
300

 70
     1
 71
     1
  0
GROUP
  5
25E11
102
{ACAD_REACTORS
330
D
102
}
330
D
100
AcDbGroup
300

 70
     1
 71
     1
  0
GROUP
  5
19A51
102
{ACAD_REACTORS
330
D
102
}
330
D
100
AcDbGroup
300

 70
     1
 71
     1
  0
GROUP
  5
18FA8
102
{ACAD_REACTORS
330
D
102
}
330
D
100
AcDbGroup
300

 70
     1
 71
     1
  0
GROUP
  5
20227
102
{ACAD_REACTORS
330
D
102
}
330
D
100
AcDbGroup
300

 70
     1
 71
     1
  0
GROUP
  5
173BE
102
{ACAD_REACTORS
330
D
102
}
330
D
100
AcDbGroup
300

 70
     1
 71
     1
  0
GROUP
  5
252E3
102
{ACAD_REACTORS
330
D
102
}
330
D
100
AcDbGroup
300

 70
     1
 71
     1
  0
GROUP
  5
26091
102
{ACAD_REACTORS
330
D
102
}
330
D
100
AcDbGroup
300

 70
     1
 71
     1
  0
GROUP
  5
1F913
102
{ACAD_REACTORS
330
D
102
}
330
D
100
AcDbGroup
300

 70
     1
 71
     1
  0
GROUP
  5
19F55
102
{ACAD_REACTORS
330
D
102
}
330
D
100
AcDbGroup
300

 70
     1
 71
     1
  0
GROUP
  5
27CB1
102
{ACAD_REACTORS
330
D
102
}
330
D
100
AcDbGroup
300

 70
     1
 71
     1
  0
GROUP
  5
25584
102
{ACAD_REACTORS
330
D
102
}
330
D
100
AcDbGroup
300

 70
     1
 71
     1
  0
GROUP
  5
1D6F2
102
{ACAD_REACTORS
330
D
102
}
330
D
100
AcDbGroup
300

 70
     1
 71
     1
  0
GROUP
  5
27CB9
102
{ACAD_REACTORS
330
D
102
}
330
D
100
AcDbGroup
300

 70
     1
 71
     1
  0
GROUP
  5
1D68E
102
{ACAD_REACTORS
330
D
102
}
330
D
100
AcDbGroup
300

 70
     1
 71
     1
  0
GROUP
  5
20022
102
{ACAD_REACTORS
330
D
102
}
330
D
100
AcDbGroup
300

 70
     1
 71
     1
  0
GROUP
  5
25355
102
{ACAD_REACTORS
330
D
102
}
330
D
100
AcDbGroup
300

 70
     1
 71
     1
  0
GROUP
  5
1B729
102
{ACAD_REACTORS
330
D
102
}
330
D
100
AcDbGroup
300

 70
     1
 71
     1
  0
GROUP
  5
18F21
102
{ACAD_REACTORS
330
D
102
}
330
D
100
AcDbGroup
300

 70
     1
 71
     1
  0
GROUP
  5
16059
102
{ACAD_REACTORS
330
D
102
}
330
D
100
AcDbGroup
300

 70
     1
 71
     1
  0
GROUP
  5
26C53
102
{ACAD_REACTORS
330
D
102
}
330
D
100
AcDbGroup
300

 70
     1
 71
     1
  0
GROUP
  5
1EB7C
102
{ACAD_REACTORS
330
D
102
}
330
D
100
AcDbGroup
300

 70
     1
 71
     1
  0
GROUP
  5
1EB7E
102
{ACAD_REACTORS
330
D
102
}
330
D
100
AcDbGroup
300

 70
     1
 71
     1
  0
GROUP
  5
1F8FA
102
{ACAD_REACTORS
330
D
102
}
330
D
100
AcDbGroup
300

 70
     1
 71
     1
  0
GROUP
  5
19F87
102
{ACAD_REACTORS
330
D
102
}
330
D
100
AcDbGroup
300

 70
     1
 71
     1
  0
GROUP
  5
1EB7D
102
{ACAD_REACTORS
330
D
102
}
330
D
100
AcDbGroup
300

 70
     1
 71
     1
  0
GROUP
  5
27CBA
102
{ACAD_REACTORS
330
D
102
}
330
D
100
AcDbGroup
300

 70
     1
 71
     1
  0
GROUP
  5
27805
102
{ACAD_REACTORS
330
D
102
}
330
D
100
AcDbGroup
300

 70
     1
 71
     1
  0
GROUP
  5
18FA6
102
{ACAD_REACTORS
330
D
102
}
330
D
100
AcDbGroup
300

 70
     1
 71
     1
  0
GROUP
  5
2629B
102
{ACAD_REACTORS
330
D
102
}
330
D
100
AcDbGroup
300

 70
     1
 71
     1
  0
GROUP
  5
25585
102
{ACAD_REACTORS
330
D
102
}
330
D
100
AcDbGroup
300

 70
     1
 71
     1
  0
GROUP
  5
16068
102
{ACAD_REACTORS
330
D
102
}
330
D
100
AcDbGroup
300

 70
     1
 71
     1
  0
GROUP
  5
252E9
102
{ACAD_REACTORS
330
D
102
}
330
D
100
AcDbGroup
300

 70
     1
 71
     1
  0
GROUP
  5
25586
102
{ACAD_REACTORS
330
D
102
}
330
D
100
AcDbGroup
300

 70
     1
 71
     1
  0
GROUP
  5
25590
102
{ACAD_REACTORS
330
D
102
}
330
D
100
AcDbGroup
300

 70
     1
 71
     1
  0
GROUP
  5
1D710
102
{ACAD_REACTORS
330
D
102
}
330
D
100
AcDbGroup
300

 70
     1
 71
     1
  0
GROUP
  5
27CB2
102
{ACAD_REACTORS
330
D
102
}
330
D
100
AcDbGroup
300

 70
     1
 71
     1
  0
GROUP
  5
1D6B6
102
{ACAD_REACTORS
330
D
102
}
330
D
100
AcDbGroup
300

 70
     1
 71
     1
  0
GROUP
  5
1F8FF
102
{ACAD_REACTORS
330
D
102
}
330
D
100
AcDbGroup
300

 70
     1
 71
     1
  0
LAYOUT
  5
FB5D
102
{ACAD_REACTORS
330
DB2
102
}
330
DB2
100
AcDbPlotSettings
  1

  2
\\HONAMI\LBP-910
  4
A3
  6

 40
5.873749732971191
 41
5.873747825622558
 42
5.873748779296875
 43
5.873748779296875
 44
296.9259948730469
 45
419.9466552734374
 46
0.0
 47
0.0
 48
-134.0496161171158
 49
-116.2294073187233
140
1105.745250909008
141
633.2284101676227
142
1.0
143
2.866823569012708
 70
 11952
 72
     1
 73
     1
 74
     1
  7
monochrome.ctb
 75
     0
147
0.3488181173089717
148
98.7130430422485
149
74.96499340265336
100
AcDbLayout
  1
Model
 70
     1
 71
     0
 10
0.0
 20
0.0
 11
12.0
 21
9.0
 12
0.0
 22
0.0
 32
0.0
 14
0.0
 24
0.0
 34
0.0
 15
0.0
 25
0.0
 35
0.0
146
0.0
 13
0.0
 23
0.0
 33
0.0
 16
1.0
 26
0.0
 36
0.0
 17
0.0
 27
1.0
 37
0.0
 76
     0
330
18
  0
LAYOUT
  5
FB5E
102
{ACAD_REACTORS
330
DB2
102
}
330
DB2
100
AcDbPlotSettings
  1

  2
HP 750C_aaa3.pc3
  4
User257
  6

 40
4.995333194732666
 41
9.990656852722167
 42
4.995330810546875
 43
9.99066162109375
 44
296.9683227539062
 45
419.9466552734374
 46
-1.28
 47
2.0
 48
0.0
 49
0.0
140
0.0
141
0.0
142
1.0
143
1.0
 70
   688
 72
     1
 73
     1
 74
     1
  7
monochrome.ctb
 75
    16
147
1.0
148
0.0231376894987534
149
1.521140436086625
100
AcDbLayout
  1
外形図
 70
     0
 71
     1
 10
-12.0137993105925
 20
-5.236473630819291
 11
407.9328559628449
 21
291.7318491230869
 12
0.0
 22
0.0
 32
0.0
 14
-0.0118438918668744
 24
-0.0117952579000758
 34
-0.0000000000112498
 15
400.0319440598273
 25
288.0025265431731
 35
0.0000000000002956
146
0.0
 13
0.0
 23
0.0
 33
0.0
 16
1.0
 26
0.0
 36
0.0
 17
0.0
 27
1.0
 37
0.0
 76
     0
330
15
331
23
  0
MLINESTYLE
  5
1C
102
{ACAD_REACTORS
330
1B
102
}
330
1B
100
AcDbMlineStyle
  2
STANDARD
 70
     0
  3

 62
   256
 51
90.0
 52
90.0
 71
     2
 49
0.5
 62
   256
  6
BYLAYER
 49
-0.5
 62
   256
  6
BYLAYER
  0
ACDBPLACEHOLDER
  5
FB5C
102
{ACAD_REACTORS
330
FB5B
102
}
330
FB5B
  0
DICTIONARYVAR
  5
106A7
102
{ACAD_REACTORS
330
106A6
102
}
330
106A6
100
DictionaryVariables
280
     0
  1
96
  0
XRECORD
  5
1A9A1
102
{ACAD_REACTORS
330
1A99F
102
}
330
1A99F
100
AcDbXrecord
280
     1
330
187D7
330
0
330
0
330
0
330
0
330
0
330
0
330
0
330
0
330
0
330
79
330
115F
330
0
330
0
330
0
330
0
330
0
330
0
330
0
330
0
330
0
330
0
330
0
330
0
330
0
330
0
330
0
330
0
330
0
330
0
330
0
330
0
330
0
330
0
330
0
330
0
330
0
330
0
330
0
330
0
330
0
330
0
330
0
330
0
  0
XRECORD
  5
2866B
102
{ACAD_REACTORS
330
2866A
102
}
330
2866A
100
AcDbXrecord
280
     1
  1
0
  1
*0
  1
*
  1
*
 70
     0
  1
*
  1
*
  0
XRECORD
  5
2866C
102
{ACAD_REACTORS
330
2866A
102
}
330
2866A
100
AcDbXrecord
280
     1
  1
11
  1
*11
  1
*
  1
*
 70
     0
  1
*
  1
*
  0
XRECORD
  5
2866D
102
{ACAD_REACTORS
330
2866A
102
}
330
2866A
100
AcDbXrecord
280
     1
  1
150_
  1
150_*
  1
*
  1
*
 70
     0
  1
*
  1
*
  0
XRECORD
  5
2866E
102
{ACAD_REACTORS
330
2866A
102
}
330
2866A
100
AcDbXrecord
280
     1
  1
160_
  1
160_*
  1
*
  1
*
 70
     0
  1
*
  1
*
  0
XRECORD
  5
2866F
102
{ACAD_REACTORS
330
2866A
102
}
330
2866A
100
AcDbXrecord
280
     1
  1
170_
  1
170_*
  1
*
  1
*
 70
     0
  1
*
  1
*
  0
XRECORD
  5
28670
102
{ACAD_REACTORS
330
2866A
102
}
330
2866A
100
AcDbXrecord
280
     1
  1
171_
  1
171_*
  1
*
  1
*
 70
     0
  1
*
  1
*
  0
XRECORD
  5
28671
102
{ACAD_REACTORS
330
2866A
102
}
330
2866A
100
AcDbXrecord
280
     1
  1
350_
  1
350_*
  1
*
  1
*
 70
     0
  1
*
  1
*
  0
XRECORD
  5
28672
102
{ACAD_REACTORS
330
2866A
102
}
330
2866A
100
AcDbXrecord
280
     1
  1
4
  1
*4
  1
*
  1
*
 70
     0
  1
*
  1
*
  0
XRECORD
  5
28673
102
{ACAD_REACTORS
330
2866A
102
}
330
2866A
100
AcDbXrecord
280
     1
  1
5
  1
*5
  1
*
  1
*
 70
     0
  1
*
  1
*
  0
XRECORD
  5
28674
102
{ACAD_REACTORS
330
2866A
102
}
330
2866A
100
AcDbXrecord
280
     1
  1
7
  1
*7
  1
*
  1
*
 70
     0
  1
*
  1
*
  0
XRECORD
  5
28675
102
{ACAD_REACTORS
330
2866A
102
}
330
2866A
100
AcDbXrecord
280
     1
  1
kiseki
  1
kiseki*
  1
*
  1
*
 70
     0
  1
*
  1
*
  0
ENDSEC
  0
EOF
