  0
SECTION
  2
HEADER
  9
$ACADVER
  1
AC1015
  9
$ACADMAINTVER
 70
    10
  9
$DWGCODEPAGE
  3
ANSI_932
  9
$INSBASE
 10
0.0
 20
0.0
 30
0.0
  9
$EXTMIN
 10
167.1825875009164
 20
-250.1484581668433
 30
0.0
  9
$EXTMAX
 10
4890.221153854271
 20
2218.451241203808
 30
137.5
  9
$LIMMIN
 10
0.0
 20
0.0
  9
$LIMMAX
 10
420.0
 20
297.0
  9
$ORTHOMODE
 70
     1
  9
$REGENMODE
 70
     1
  9
$FILLMODE
 70
     1
  9
$QTEXTMODE
 70
     0
  9
$MIRRTEXT
 70
     0
  9
$LTSCALE
 40
20.0
  9
$ATTMODE
 70
     2
  9
$TEXTSIZE
 40
2.5
  9
$TRACEWID
 40
1.0
  9
$TEXTSTYLE
  7
まこ
  9
$CLAYER
  8
dimension
  9
$CELTYPE
  6
BYLAYER
  9
$CECOLOR
 62
   256
  9
$CELTSCALE
 40
1.0
  9
$DISPSILH
 70
     0
  9
$DIMSCALE
 40
2.0
  9
$DIMASZ
 40
2.5
  9
$DIMEXO
 40
0.8
  9
$DIMDLI
 40
0.38
  9
$DIMRND
 40
0.0
  9
$DIMDLE
 40
0.0
  9
$DIMEXE
 40
0.18
  9
$DIMTP
 40
0.0
  9
$DIMTM
 40
0.0
  9
$DIMTXT
 40
3.0
  9
$DIMCEN
 40
0.0
  9
$DIMTSZ
 40
0.0
  9
$DIMTOL
 70
     0
  9
$DIMLIM
 70
     0
  9
$DIMTIH
 70
     0
  9
$DIMTOH
 70
     0
  9
$DIMSE1
 70
     0
  9
$DIMSE2
 70
     0
  9
$DIMTAD
 70
     3
  9
$DIMZIN
 70
     8
  9
$DIMBLK
  1
Open30
  9
$DIMASO
 70
     1
  9
$DIMSHO
 70
     1
  9
$DIMPOST
  1

  9
$DIMAPOST
  1

  9
$DIMALT
 70
     0
  9
$DIMALTD
 70
     2
  9
$DIMALTF
 40
25.4
  9
$DIMLFAC
 40
1.0
  9
$DIMTOFL
 70
     0
  9
$DIMTVP
 40
0.0
  9
$DIMTIX
 70
     0
  9
$DIMSOXD
 70
     0
  9
$DIMSAH
 70
     0
  9
$DIMBLK1
  1

  9
$DIMBLK2
  1

  9
$DIMSTYLE
  2
まこ
  9
$DIMCLRD
 70
     4
  9
$DIMCLRE
 70
     4
  9
$DIMCLRT
 70
   256
  9
$DIMTFAC
 40
1.0
  9
$DIMGAP
 40
0.5
  9
$DIMJUST
 70
     0
  9
$DIMSD1
 70
     0
  9
$DIMSD2
 70
     0
  9
$DIMTOLJ
 70
     1
  9
$DIMTZIN
 70
     0
  9
$DIMALTZ
 70
     0
  9
$DIMALTTZ
 70
     0
  9
$DIMUPT
 70
     0
  9
$DIMDEC
 70
     8
  9
$DIMTDEC
 70
     8
  9
$DIMALTU
 70
     2
  9
$DIMALTTD
 70
     2
  9
$DIMTXSTY
  7
まこ
  9
$DIMAUNIT
 70
     0
  9
$DIMADEC
 70
     0
  9
$DIMALTRND
 40
0.0
  9
$DIMAZIN
 70
     0
  9
$DIMDSEP
 70
    46
  9
$DIMATFIT
 70
     1
  9
$DIMFRAC
 70
     0
  9
$DIMLDRBLK
  1
Open30
  9
$DIMLUNIT
 70
     2
  9
$DIMLWD
 70
    13
  9
$DIMLWE
 70
    13
  9
$DIMTMOVE
 70
     0
  9
$LUNITS
 70
     2
  9
$LUPREC
 70
     4
  9
$SKETCHINC
 40
1.0
  9
$FILLETRAD
 40
2.0
  9
$AUNITS
 70
     0
  9
$AUPREC
 70
     0
  9
$MENU
  1
.
  9
$ELEVATION
 40
0.0
  9
$PELEVATION
 40
0.0
  9
$THICKNESS
 40
0.0
  9
$LIMCHECK
 70
     0
  9
$CHAMFERA
 40
0.5
  9
$CHAMFERB
 40
0.5
  9
$CHAMFERC
 40
20.0
  9
$CHAMFERD
 40
0.0
  9
$SKPOLY
 70
     0
  9
$TDCREATE
 40
2451224.660162384
  9
$TDUCREATE
 40
2451224.285162384
  9
$TDUPDATE
 40
2456589.409542453
  9
$TDUUPDATE
 40
2456589.034542453
  9
$TDINDWG
 40
16.1871983681
  9
$TDUSRTIMER
 40
16.1871983681
  9
$USRTIMER
 70
     1
  9
$ANGBASE
 50
0.0
  9
$ANGDIR
 70
     0
  9
$PDMODE
 70
     0
  9
$PDSIZE
 40
0.0
  9
$PLINEWID
 40
0.0
  9
$SPLFRAME
 70
     0
  9
$SPLINETYPE
 70
     6
  9
$SPLINESEGS
 70
     8
  9
$HANDSEED
  5
288CC
  9
$SURFTAB1
 70
     6
  9
$SURFTAB2
 70
     6
  9
$SURFTYPE
 70
     6
  9
$SURFU
 70
     6
  9
$SURFV
 70
     6
  9
$UCSBASE
  2

  9
$UCSNAME
  2

  9
$UCSORG
 10
0.0
 20
0.0
 30
0.0
  9
$UCSXDIR
 10
1.0
 20
0.0
 30
0.0
  9
$UCSYDIR
 10
0.0
 20
1.0
 30
0.0
  9
$UCSORTHOREF
  2

  9
$UCSORTHOVIEW
 70
     0
  9
$UCSORGTOP
 10
0.0
 20
0.0
 30
0.0
  9
$UCSORGBOTTOM
 10
0.0
 20
0.0
 30
0.0
  9
$UCSORGLEFT
 10
0.0
 20
0.0
 30
0.0
  9
$UCSORGRIGHT
 10
0.0
 20
0.0
 30
0.0
  9
$UCSORGFRONT
 10
0.0
 20
0.0
 30
0.0
  9
$UCSORGBACK
 10
0.0
 20
0.0
 30
0.0
  9
$PUCSBASE
  2

  9
$PUCSNAME
  2

  9
$PUCSORG
 10
0.0
 20
0.0
 30
0.0
  9
$PUCSXDIR
 10
1.0
 20
0.0
 30
0.0
  9
$PUCSYDIR
 10
0.0
 20
1.0
 30
0.0
  9
$PUCSORTHOREF
  2

  9
$PUCSORTHOVIEW
 70
     0
  9
$PUCSORGTOP
 10
0.0
 20
0.0
 30
0.0
  9
$PUCSORGBOTTOM
 10
0.0
 20
0.0
 30
0.0
  9
$PUCSORGLEFT
 10
0.0
 20
0.0
 30
0.0
  9
$PUCSORGRIGHT
 10
0.0
 20
0.0
 30
0.0
  9
$PUCSORGFRONT
 10
0.0
 20
0.0
 30
0.0
  9
$PUCSORGBACK
 10
0.0
 20
0.0
 30
0.0
  9
$USERI1
 70
     0
  9
$USERI2
 70
     0
  9
$USERI3
 70
     0
  9
$USERI4
 70
     0
  9
$USERI5
 70
     0
  9
$USERR1
 40
245.9999999999999
  9
$USERR2
 40
0.0
  9
$USERR3
 40
0.0
  9
$USERR4
 40
0.0
  9
$USERR5
 40
0.0
  9
$WORLDVIEW
 70
     1
  9
$SHADEDGE
 70
     3
  9
$SHADEDIF
 70
    70
  9
$TILEMODE
 70
     0
  9
$MAXACTVP
 70
    48
  9
$PINSBASE
 10
0.0
 20
0.0
 30
0.0
  9
$PLIMCHECK
 70
     0
  9
$PEXTMIN
 10
-0.0212956837920047
 20
-0.0064706068073974
 30
-0.0015258207003583
  9
$PEXTMAX
 10
400.0224922679022
 20
288.0078511942658
 30
0.0000000349246037
  9
$PLIMMIN
 10
-11.99121171532874
 20
-5.231148979726612
  9
$PLIMMAX
 10
407.9554435581087
 20
291.7371737741796
  9
$UNITMODE
 70
     0
  9
$VISRETAIN
 70
     1
  9
$PLINEGEN
 70
     0
  9
$PSLTSCALE
 70
     0
  9
$TREEDEPTH
 70
  3020
  9
$CMLSTYLE
  2
STANDARD
  9
$CMLJUST
 70
     0
  9
$CMLSCALE
 40
20.0
  9
$PROXYGRAPHICS
 70
     1
  9
$MEASUREMENT
 70
     0
  9
$CELWEIGHT
370
    -1
  9
$ENDCAPS
280
     0
  9
$JOINSTYLE
280
     0
  9
$LWDISPLAY
290
     0
  9
$INSUNITS
 70
     0
  9
$HYPERLINKBASE
  1

  9
$STYLESHEET
  1
monochrome.ctb
  9
$XEDIT
290
     1
  9
$CEPSNTYPE
380
     0
  9
$PSTYLEMODE
290
     1
  9
$FINGERPRINTGUID
  2
{D14EE3FF-941A-415A-9907-344E0A80D794}
  9
$VERSIONGUID
  2
{66E8FA9B-1618-4147-BFAB-EDCA5ADCBC80}
  9
$EXTNAMES
290
     1
  9
$PSVPSCALE
 40
0.0
  9
$OLESTARTUP
290
     0
  0
ENDSEC
  0
SECTION
  2
CLASSES
  0
CLASS
  1
HATCH
  2
AcDbHatch
  3
AutoCAD 2000
 90
    32768
280
     0
281
     1
  0
CLASS
  1
LWPOLYLINE
  2
AcDbPolyline
  3
AutoCAD 2000
 90
    32768
280
     0
281
     1
  0
CLASS
  1
ACDBDICTIONARYWDFLT
  2
AcDbDictionaryWithDefault
  3
AutoCAD 2000
 90
        0
280
     0
281
     0
  0
CLASS
  1
ACDBPLACEHOLDER
  2
AcDbPlaceHolder
  3
AutoCAD 2000
 90
        0
280
     0
281
     0
  0
CLASS
  1
LAYOUT
  2
AcDbLayout
  3
AutoCAD 2000
 90
        0
280
     0
281
     0
  0
CLASS
  1
LONG_TRANSACTION
  2
AcDbLongTransaction
  3
AutoCAD 2000
 90
    32768
280
     0
281
     0
  0
CLASS
  1
LWPOLYLINE
  2
AcDbPolyline
  3
AutoCAD 2000
 90
    32768
280
     0
281
     1
  0
CLASS
  1
HATCH
  2
AcDbHatch
  3
AutoCAD 2000
 90
    32768
280
     0
281
     1
  0
CLASS
  1
XRECORD
  2
AcDbXrecord
  3
AutoCAD 2000
 90
    32768
280
     0
281
     0
  0
CLASS
  1
DICTIONARYVAR
  2
AcDbDictionaryVar
  3
AutoCAD 2000
 90
        0
280
     0
281
     0
  0
ENDSEC
  0
SECTION
  2
TABLES
  0
TABLE
  2
VPORT
  5
8
330
0
100
AcDbSymbolTable
 70
     2
  0
VPORT
  5
288CB
330
8
100
AcDbSymbolTableRecord
100
AcDbViewportTableRecord
  2
*Active
 70
     0
 10
0.0
 20
0.0
 11
1.0
 21
1.0
 12
4494.407914616131
 22
-85.76461807873783
 13
0.0
 23
0.0
 14
10.0
 24
10.0
 15
10.0
 25
10.0
 16
0.0
 26
0.0
 36
1.0
 17
0.0
 27
0.0
 37
0.0
 40
391.4437689099772
 41
1.992047713717693
 42
50.0
 43
0.0
 44
0.0
 50
0.0
 51
0.0
 71
     0
 72
   100
 73
     1
 74
     0
 75
     0
 76
     0
 77
     0
 78
     0
281
     0
 65
     1
110
0.0
120
0.0
130
0.0
111
1.0
121
0.0
131
0.0
112
0.0
122
1.0
132
0.0
 79
     0
146
0.0
  0
ENDTAB
  0
TABLE
  2
LTYPE
  5
5
330
0
100
AcDbSymbolTable
 70
    10
  0
LTYPE
  5
12
330
5
100
AcDbSymbolTableRecord
100
AcDbLinetypeTableRecord
  2
BYBLOCK
 70
     0
  3

 72
    65
 73
     0
 40
0.0
  0
LTYPE
  5
13
330
5
100
AcDbSymbolTableRecord
100
AcDbLinetypeTableRecord
  2
BYLAYER
 70
     0
  3

 72
    65
 73
     0
 40
0.0
  0
LTYPE
  5
14
330
5
100
AcDbSymbolTableRecord
100
AcDbLinetypeTableRecord
  2
CONTINUOUS
 70
     0
  3
Solid line
 72
    65
 73
     0
 40
0.0
  0
LTYPE
  5
126C
330
5
100
AcDbSymbolTableRecord
100
AcDbLinetypeTableRecord
  2
CENTER
 70
     0
  3
____ _ ____ _ ____ _ ____ _ ____ _ ____ _ ____
 72
    65
 73
     4
 40
2.0
 49
1.25
 74
     0
 49
-0.25
 74
     0
 49
0.25
 74
     0
 49
-0.25
 74
     0
  0
LTYPE
  5
126E
330
5
100
AcDbSymbolTableRecord
100
AcDbLinetypeTableRecord
  2
DASHDOT
 70
     0
  3
__ . __ . __ . __ . __ . __ . __ . __ . __ . __
 72
    65
 73
     4
 40
1.0
 49
0.5
 74
     0
 49
-0.25
 74
     0
 49
0.0
 74
     0
 49
-0.25
 74
     0
  0
LTYPE
  5
1541F
330
5
100
AcDbSymbolTableRecord
100
AcDbLinetypeTableRecord
  2
HIDDEN
 70
     0
  3
_ _ _ _ _ _ _ _ _ _ _ _ _ _ _ _ _ _ _ _ _ _ _
 72
    65
 73
     2
 40
0.375
 49
0.25
 74
     0
 49
-0.125
 74
     0
  0
LTYPE
  5
1615D
330
5
100
AcDbSymbolTableRecord
100
AcDbLinetypeTableRecord
  2
PHANTOM
 70
     0
  3
Phantom ______  __  __  ______  __  __  ______
 72
    65
 73
     6
 40
2.5
 49
1.25
 74
     0
 49
-0.25
 74
     0
 49
0.25
 74
     0
 49
-0.25
 74
     0
 49
0.25
 74
     0
 49
-0.25
 74
     0
  0
ENDTAB
  0
TABLE
  2
LAYER
  5
2
102
{ACAD_XDICTIONARY
360
284A8
102
}
330
0
100
AcDbSymbolTable
 70
    45
  0
LAYER
  5
E
330
2
100
AcDbSymbolTableRecord
100
AcDbLayerTableRecord
  2
0
 70
     2
 62
     7
  6
CONTINUOUS
370
    35
390
FB5C
  0
LAYER
  5
2C
330
2
100
AcDbSymbolTableRecord
100
AcDbLayerTableRecord
  2
M_VIEW
 70
     4
 62
    -1
  6
CONTINUOUS
370
    -3
390
FB5C
  0
LAYER
  5
30
330
2
100
AcDbSymbolTableRecord
100
AcDbLayerTableRecord
  2
FRAME025
 70
     0
 62
     7
  6
CONTINUOUS
370
    -3
390
FB5C
  0
LAYER
  5
12B
330
2
100
AcDbSymbolTableRecord
100
AcDbLayerTableRecord
  2
DEFPOINTS
 70
     4
 62
    -7
  6
CONTINUOUS
290
     0
370
    -3
390
FB5C
  0
LAYER
  5
651
330
2
100
AcDbSymbolTableRecord
100
AcDbLayerTableRecord
  2
FRAME020
 70
     0
 62
     7
  6
CONTINUOUS
370
    -3
390
FB5C
  0
LAYER
  5
1271
330
2
100
AcDbSymbolTableRecord
100
AcDbLayerTableRecord
  2
A
 70
     0
 62
     7
  6
CONTINUOUS
370
    -3
390
FB5C
  0
LAYER
  5
A9BB
330
2
100
AcDbSymbolTableRecord
100
AcDbLayerTableRecord
  2
文字
 70
     0
 62
     2
  6
CONTINUOUS
370
    13
390
FB5C
  0
LAYER
  5
122DE
330
2
100
AcDbSymbolTableRecord
100
AcDbLayerTableRecord
  2
dimension
 70
     0
 62
     4
  6
CONTINUOUS
370
    13
390
FB5C
  0
LAYER
  5
15422
330
2
100
AcDbSymbolTableRecord
100
AcDbLayerTableRecord
  2
細線
 70
     0
 62
     4
  6
CONTINUOUS
370
    13
390
FB5C
  0
LAYER
  5
1A846
330
2
100
AcDbSymbolTableRecord
100
AcDbLayerTableRecord
  2
実線
 70
     0
 62
     3
  6
CONTINUOUS
370
    40
390
FB5C
  0
LAYER
  5
1BB4F
330
2
100
AcDbSymbolTableRecord
100
AcDbLayerTableRecord
  2
隠れ線
 70
     0
 62
   252
  6
HIDDEN
370
     9
390
FB5C
  0
LAYER
  5
1BB52
330
2
100
AcDbSymbolTableRecord
100
AcDbLayerTableRecord
  2
基板
 70
     0
 62
   141
  6
CONTINUOUS
370
    40
390
FB5C
  0
LAYER
  5
1F118
330
2
100
AcDbSymbolTableRecord
100
AcDbLayerTableRecord
  2
wakumoji
 70
     0
 62
     7
  6
CONTINUOUS
370
    -3
390
FB5C
  0
ENDTAB
  0
TABLE
  2
STYLE
  5
3
330
0
100
AcDbSymbolTable
 70
    15
  0
STYLE
  5
F
330
3
100
AcDbSymbolTableRecord
100
AcDbTextStyleTableRecord
  2
STANDARD
 70
     0
 40
0.0
 41
1.0
 50
0.0
 71
     0
 42
2.5
  3
MS Gothic.ttf
  4

1001
ACAD
1000
MS Gothic
1071
    32817
  0
STYLE
  5
34
330
3
100
AcDbSymbolTableRecord
100
AcDbTextStyleTableRecord
  2
TIMESNR
 70
     0
 40
0.0
 41
1.0
 50
0.0
 71
     0
 42
2.0
  3
MS Gothic.ttf
  4

1001
ACAD
1000
MS Gothic
1071
    32817
  0
STYLE
  5
35
330
3
100
AcDbSymbolTableRecord
100
AcDbTextStyleTableRecord
  2
MSｺﾞｼｯｸ
 70
     0
 40
0.0
 41
1.0
 50
0.0
 71
     0
 42
5.0
  3
MS Gothic.ttf
  4

1001
ACAD
1000
MS Gothic
1071
    32817
  0
STYLE
  5
1275
330
3
100
AcDbSymbolTableRecord
100
AcDbTextStyleTableRecord
  2
BIGFONT
 70
     0
 40
2.0
 41
1.0
 50
0.0
 71
     0
 42
2.0
  3
MS Gothic.ttf
  4

1001
ACAD
1000
MS Gothic
1071
    32817
  0
STYLE
  5
1A849
330
3
100
AcDbSymbolTableRecord
100
AcDbTextStyleTableRecord
  2
まこ
 70
     0
 40
0.0
 41
1.0
 50
0.0
 71
     0
 42
2.5
  3
MS Gothic.ttf
  4

1001
ACAD
1000
MS Gothic
1071
    32817
  0
STYLE
  5
1A84A
330
3
100
AcDbSymbolTableRecord
100
AcDbTextStyleTableRecord
  2
ｽﾀｲﾙ3
 70
     0
 40
10.0
 41
1.0
 50
0.0
 71
     0
 42
10.0
  3
MS Gothic.ttf
  4

1001
ACAD
1000
MS Gothic
1071
    32817
  0
STYLE
  5
1F8B3
330
3
100
AcDbSymbolTableRecord
100
AcDbTextStyleTableRecord
  2
MSｺﾞｼｯｸN
 70
     0
 40
0.0
 41
1.0
 50
0.0
 71
     0
 42
5.0
  3
MS Gothic.ttf
  4

1001
ACAD
1000
MS Gothic
1071
    32817
  0
STYLE
  5
1FA56
330
3
100
AcDbSymbolTableRecord
100
AcDbTextStyleTableRecord
  2
MSゴシックN
 70
     0
 40
0.0
 41
1.0
 50
0.0
 71
     0
 42
5.0
  3
MS Gothic.ttf
  4

1001
ACAD
1000
MS Gothic
1071
    32817
  0
ENDTAB
  0
TABLE
  2
VIEW
  5
6
330
0
100
AcDbSymbolTable
 70
     0
  0
ENDTAB
  0
TABLE
  2
UCS
  5
7
330
0
100
AcDbSymbolTable
 70
     0
  0
ENDTAB
  0
TABLE
  2
APPID
  5
9
330
0
100
AcDbSymbolTable
 70
     4
  0
APPID
  5
10
330
9
100
AcDbSymbolTableRecord
100
AcDbRegAppTableRecord
  2
ACAD
 70
     0
  0
APPID
  5
F013
330
9
100
AcDbSymbolTableRecord
100
AcDbRegAppTableRecord
  2
CONTENTBLOCKDESCRIPTION
 70
     0
  0
APPID
  5
F014
330
9
100
AcDbSymbolTableRecord
100
AcDbRegAppTableRecord
  2
CONTENTBLOCKICON
 70
     0
  0
APPID
  5
1A9A0
330
9
100
AcDbSymbolTableRecord
100
AcDbRegAppTableRecord
  2
DCO15
 70
     0
  0
ENDTAB
  0
TABLE
  2
DIMSTYLE
  5
A
330
0
100
AcDbSymbolTable
 70
    13
100
AcDbDimStyleTable
 71
     2
340
1A84D
340
1D
  0
DIMSTYLE
105
1D
330
A
100
AcDbSymbolTableRecord
100
AcDbDimStyleTableRecord
  2
STANDARD
 70
     0
340
F
  0
DIMSTYLE
105
1A84D
102
{ACAD_REACTORS
330
27041
330
27003
330
27002
330
2706D
330
27170
330
27171
330
27172
330
27173
330
27174
330
27175
330
270EE
330
27106
330
27177
330
26FF9
330
26FF8
330
27077
330
27004
330
28046
330
28053
330
28072
330
2707B
330
270AB
330
270E7
330
270F7
330
27154
330
2808F
330
28898
102
}
330
A
100
AcDbSymbolTableRecord
100
AcDbDimStyleTableRecord
  2
まこ
 70
     0
 40
2.0
 41
2.5
 42
0.8
 73
     0
 74
     0
 77
     3
 78
     8
140
3.0
141
0.0
147
0.5
176
     4
177
     4
178
   256
271
     8
272
     8
289
     1
340
1A849
341
1215D
342
1215D
371
    13
372
    13
  0
ENDTAB
  0
TABLE
  2
BLOCK_RECORD
  5
1
330
0
100
AcDbSymbolTable
 70
    61
  0
BLOCK_RECORD
  5
18
102
{ACAD_XDICTIONARY
360
EFC6
102
}
330
1
100
AcDbSymbolTableRecord
100
AcDbBlockTableRecord
  2
*MODEL_SPACE
340
FB5D
  0
BLOCK_RECORD
  5
15
102
{ACAD_XDICTIONARY
360
EFC4
102
}
330
1
100
AcDbSymbolTableRecord
100
AcDbBlockTableRecord
  2
*PAPER_SPACE
340
FB5E
  0
BLOCK_RECORD
  5
115C
330
1
100
AcDbSymbolTableRecord
100
AcDbBlockTableRecord
  2
機械A4横_LBP
340
0
102
{BLKREFS
331
115F
331
187D7
102
}
  0
BLOCK_RECORD
  5
1215D
330
1
100
AcDbSymbolTableRecord
100
AcDbBlockTableRecord
  2
_Open30
340
0
102
{BLKREFS
331
281D1
331
281D2
331
281DB
331
281DC
331
28260
331
28261
331
28269
331
2826A
331
282D5
331
282D6
331
2837E
331
2837F
331
283A9
331
283AA
331
283B2
331
283B3
331
283BB
331
283BC
331
283C4
331
283C5
331
283CD
331
283CE
331
2846D
331
2846E
331
28481
331
28482
331
2848D
331
2848E
331
28496
331
28497
331
2852D
331
2852E
331
2863B
331
28646
331
2864E
331
2864F
331
28658
331
28659
331
288A8
331
288A9
102
}
  0
BLOCK_RECORD
  5
153E2
330
1
100
AcDbSymbolTableRecord
100
AcDbBlockTableRecord
  2
_DotSmall
340
0
102
{BLKREFS
331
2863C
331
28645
102
}
  0
BLOCK_RECORD
  5
27191
330
1
100
AcDbSymbolTableRecord
100
AcDbBlockTableRecord
  2
*D39
340
0
  0
BLOCK_RECORD
  5
2719D
330
1
100
AcDbSymbolTableRecord
100
AcDbBlockTableRecord
  2
*D40
340
0
  0
BLOCK_RECORD
  5
271A9
330
1
100
AcDbSymbolTableRecord
100
AcDbBlockTableRecord
  2
*D41
340
0
  0
BLOCK_RECORD
  5
271CD
330
1
100
AcDbSymbolTableRecord
100
AcDbBlockTableRecord
  2
*D42
340
0
  0
BLOCK_RECORD
  5
271D9
330
1
100
AcDbSymbolTableRecord
100
AcDbBlockTableRecord
  2
*D43
340
0
  0
BLOCK_RECORD
  5
271E5
330
1
100
AcDbSymbolTableRecord
100
AcDbBlockTableRecord
  2
*D44
340
0
  0
BLOCK_RECORD
  5
271F1
330
1
100
AcDbSymbolTableRecord
100
AcDbBlockTableRecord
  2
*D45
340
0
  0
BLOCK_RECORD
  5
27201
330
1
100
AcDbSymbolTableRecord
100
AcDbBlockTableRecord
  2
*D46
340
0
  0
BLOCK_RECORD
  5
2720D
330
1
100
AcDbSymbolTableRecord
100
AcDbBlockTableRecord
  2
*D47
340
0
  0
BLOCK_RECORD
  5
27219
330
1
100
AcDbSymbolTableRecord
100
AcDbBlockTableRecord
  2
*D48
340
0
  0
BLOCK_RECORD
  5
27225
330
1
100
AcDbSymbolTableRecord
100
AcDbBlockTableRecord
  2
*D49
340
0
  0
BLOCK_RECORD
  5
27231
330
1
100
AcDbSymbolTableRecord
100
AcDbBlockTableRecord
  2
*D50
340
0
  0
BLOCK_RECORD
  5
2723D
330
1
100
AcDbSymbolTableRecord
100
AcDbBlockTableRecord
  2
*D51
340
0
  0
BLOCK_RECORD
  5
2724A
330
1
100
AcDbSymbolTableRecord
100
AcDbBlockTableRecord
  2
*D52
340
0
  0
BLOCK_RECORD
  5
27256
330
1
100
AcDbSymbolTableRecord
100
AcDbBlockTableRecord
  2
*D53
340
0
  0
BLOCK_RECORD
  5
27262
330
1
100
AcDbSymbolTableRecord
100
AcDbBlockTableRecord
  2
*D54
340
0
  0
BLOCK_RECORD
  5
2726F
330
1
100
AcDbSymbolTableRecord
100
AcDbBlockTableRecord
  2
*D55
340
0
  0
BLOCK_RECORD
  5
28047
330
1
100
AcDbSymbolTableRecord
100
AcDbBlockTableRecord
  2
*D56
340
0
  0
BLOCK_RECORD
  5
28054
330
1
100
AcDbSymbolTableRecord
100
AcDbBlockTableRecord
  2
*D57
340
0
  0
BLOCK_RECORD
  5
28073
330
1
100
AcDbSymbolTableRecord
100
AcDbBlockTableRecord
  2
*D58
340
0
  0
BLOCK_RECORD
  5
28899
330
1
100
AcDbSymbolTableRecord
100
AcDbBlockTableRecord
  2
*D59
340
0
  0
ENDTAB
  0
ENDSEC
  0
SECTION
  2
BLOCKS
  0
BLOCK
  5
19
330
18
100
AcDbEntity
  8
0
100
AcDbBlockBegin
  2
*MODEL_SPACE
 70
     0
 10
0.0
 20
0.0
 30
0.0
  3
*MODEL_SPACE
  1

  0
ENDBLK
  5
1A
330
18
100
AcDbEntity
  8
0
100
AcDbBlockEnd
  0
BLOCK
  5
16
330
15
100
AcDbEntity
 67
     1
  8
0
100
AcDbBlockBegin
  2
*PAPER_SPACE
 70
     0
 10
0.0
 20
0.0
 30
0.0
  3
*PAPER_SPACE
  1

  0
ENDBLK
  5
17
330
15
100
AcDbEntity
 67
     1
  8
0
100
AcDbBlockEnd
  0
BLOCK
  5
115D
330
115C
100
AcDbEntity
  8
0
100
AcDbBlockBegin
  2
機械A4横_LBP
 70
     0
 10
0.0
 20
0.0
 30
0.0
  3
機械A4横_LBP
  1

  0
ENDBLK
  5
115E
330
115C
100
AcDbEntity
  8
0
100
AcDbBlockEnd
  0
BLOCK
  5
12161
330
1215D
100
AcDbEntity
  8
0
100
AcDbBlockBegin
  2
_Open30
 70
     0
 10
0.0
 20
0.0
 30
0.0
  3
_Open30
  1

  0
LINE
  5
1215E
330
1215D
100
AcDbEntity
  8
0
  6
ByBlock
 62
     0
370
    -2
100
AcDbLine
 10
-1.0
 20
0.26794919
 30
0.0
 11
0.0
 21
0.0
 31
0.0
  0
LINE
  5
1215F
330
1215D
100
AcDbEntity
  8
0
  6
ByBlock
 62
     0
370
    -2
100
AcDbLine
 10
0.0
 20
0.0
 30
0.0
 11
-1.0
 21
-0.26794919
 31
0.0
  0
LINE
  5
12160
330
1215D
100
AcDbEntity
  8
0
  6
ByBlock
 62
     0
370
    -2
100
AcDbLine
 10
0.0
 20
0.0
 30
0.0
 11
-1.0
 21
0.0
 31
0.0
  0
ENDBLK
  5
12162
330
1215D
100
AcDbEntity
  8
0
100
AcDbBlockEnd
  0
BLOCK
  5
153E4
330
153E2
100
AcDbEntity
  8
0
100
AcDbBlockBegin
  2
_DotSmall
 70
     0
 10
0.0
 20
0.0
 30
0.0
  3
_DotSmall
  1

  0
LWPOLYLINE
  5
153E3
330
153E2
100
AcDbEntity
  8
0
  6
ByBlock
 62
     0
100
AcDbPolyline
 90
        2
 70
     1
 43
0.5
 10
-0.0625
 20
0.0
 42
1.0
 10
0.0625
 20
0.0
 42
1.0
  0
ENDBLK
  5
153E5
330
153E2
100
AcDbEntity
  8
0
100
AcDbBlockEnd
  0
BLOCK
  5
2719B
330
27191
100
AcDbEntity
  8
0
 62
     4
370
    13
100
AcDbBlockBegin
  2
*D39
 70
     1
 10
0.0
 20
0.0
 30
0.0
  3
*D39
  1

  0
LINE
  5
2825D
330
27191
100
AcDbEntity
  8
文字
 62
     4
370
    13
100
AcDbLine
 10
4292.761898348198
 20
-121.4389537628449
 30
0.0
 11
4292.761898348198
 21
-153.2122581013924
 31
0.0
  0
LINE
  5
2825E
330
27191
100
AcDbEntity
  8
文字
 62
     4
370
    13
100
AcDbLine
 10
4548.761898348199
 20
-121.7781480188615
 30
0.0
 11
4548.761898348199
 21
-153.2122581013924
 31
0.0
  0
LINE
  5
2825F
330
27191
100
AcDbEntity
  8
文字
 62
     4
370
    13
100
AcDbLine
 10
4297.761898348198
 20
-152.8522581013923
 30
0.0
 11
4543.761898348199
 21
-152.8522581013923
 31
0.0
  0
INSERT
  5
28260
330
27191
100
AcDbEntity
  8
文字
 62
     4
370
    13
100
AcDbBlockReference
  2
_Open30
 10
4292.761898348198
 20
-152.8522581013923
 30
0.0
 41
5.0
 42
5.0
 43
5.0
 50
180.0
  0
INSERT
  5
28261
330
27191
100
AcDbEntity
  8
文字
 62
     4
370
    13
100
AcDbBlockReference
  2
_Open30
 10
4548.761898348199
 20
-152.8522581013923
 30
0.0
 41
5.0
 42
5.0
 43
5.0
  0
MTEXT
  5
28262
330
27191
100
AcDbEntity
  8
文字
370
    13
100
AcDbMText
 10
4420.761898348199
 20
-148.8522581013924
 30
0.0
 40
6.0
 41
0.0
 71
     5
 72
     1
  1
\A1;4xP64=256
  7
まこ
 73
     1
 44
1.0
  0
POINT
  5
28263
330
27191
100
AcDbEntity
  8
DEFPOINTS
 62
     0
370
    30
100
AcDbPoint
 10
4292.761898348198
 20
-119.8389537628449
 30
0.0
  0
POINT
  5
28264
330
27191
100
AcDbEntity
  8
DEFPOINTS
 62
     0
370
    30
100
AcDbPoint
 10
4548.761898348199
 20
-120.1781480188615
 30
0.0
  0
POINT
  5
28265
330
27191
100
AcDbEntity
  8
DEFPOINTS
 62
     0
370
    30
100
AcDbPoint
 10
4548.761898348199
 20
-152.8522581013923
 30
0.0
  0
ENDBLK
  5
2719C
330
27191
100
AcDbEntity
  8
0
 62
     4
370
    13
100
AcDbBlockEnd
  0
BLOCK
  5
271A7
330
2719D
100
AcDbEntity
  8
0
 62
     4
370
    13
100
AcDbBlockBegin
  2
*D40
 70
     1
 10
0.0
 20
0.0
 30
0.0
  3
*D40
  1

  0
LINE
  5
2846A
330
2719D
100
AcDbEntity
  8
文字
 62
     4
370
    13
100
AcDbLine
 10
4246.761898348199
 20
-123.8715024737115
 30
0.0
 11
4246.761898348199
 21
-163.8480200848067
 31
0.0
  0
LINE
  5
2846B
330
2719D
100
AcDbEntity
  8
文字
 62
     4
370
    13
100
AcDbLine
 10
4594.761898348198
 20
-123.8813769137628
 30
0.0
 11
4594.761898348198
 21
-163.8480200848067
 31
0.0
  0
LINE
  5
2846C
330
2719D
100
AcDbEntity
  8
文字
 62
     4
370
    13
100
AcDbLine
 10
4251.761898348198
 20
-163.4880200848067
 30
0.0
 11
4589.761898348199
 21
-163.4880200848067
 31
0.0
  0
INSERT
  5
2846D
330
2719D
100
AcDbEntity
  8
文字
 62
     4
370
    13
100
AcDbBlockReference
  2
_Open30
 10
4246.761898348199
 20
-163.4880200848067
 30
0.0
 41
5.0
 42
5.0
 43
5.0
 50
180.0
  0
INSERT
  5
2846E
330
2719D
100
AcDbEntity
  8
文字
 62
     4
370
    13
100
AcDbBlockReference
  2
_Open30
 10
4594.761898348198
 20
-163.4880200848067
 30
0.0
 41
5.0
 42
5.0
 43
5.0
  0
MTEXT
  5
2846F
330
2719D
100
AcDbEntity
  8
文字
370
    13
100
AcDbMText
 10
4420.761898348199
 20
-159.4880200848067
 30
0.0
 40
6.0
 41
0.0
 71
     5
 72
     1
  1
\A1;348
  7
まこ
 73
     1
 44
1.0
  0
POINT
  5
28470
330
2719D
100
AcDbEntity
  8
DEFPOINTS
 62
     0
370
    30
100
AcDbPoint
 10
4246.761898348199
 20
-122.2715024737115
 30
0.0
  0
POINT
  5
28471
330
2719D
100
AcDbEntity
  8
DEFPOINTS
 62
     0
370
    30
100
AcDbPoint
 10
4594.761898348198
 20
-122.2813769137628
 30
0.0
  0
POINT
  5
28472
330
2719D
100
AcDbEntity
  8
DEFPOINTS
 62
     0
370
    30
100
AcDbPoint
 10
4594.761898348198
 20
-163.4880200848067
 30
0.0
  0
ENDBLK
  5
271A8
330
2719D
100
AcDbEntity
  8
0
 62
     4
370
    13
100
AcDbBlockEnd
  0
BLOCK
  5
271B3
330
271A9
100
AcDbEntity
  8
0
 62
     4
370
    13
100
AcDbBlockBegin
  2
*D41
 70
     1
 10
0.0
 20
0.0
 30
0.0
  3
*D41
  1

  0
LINE
  5
28266
330
271A9
100
AcDbEntity
  8
文字
 62
     4
370
    13
100
AcDbLine
 10
4246.761898348199
 20
-124.210696729728
 30
0.0
 11
4246.761898348199
 21
-153.5514523574089
 31
0.0
  0
LINE
  5
28267
330
271A9
100
AcDbEntity
  8
文字
 62
     4
370
    13
100
AcDbLine
 10
4292.761898348198
 20
-123.5907843606868
 30
0.0
 11
4292.761898348198
 21
-153.5514523574089
 31
0.0
  0
LINE
  5
28268
330
271A9
100
AcDbEntity
  8
文字
 62
     4
370
    13
100
AcDbLine
 10
4251.761898348198
 20
-153.1914523574089
 30
0.0
 11
4287.761898348199
 21
-153.1914523574089
 31
0.0
  0
INSERT
  5
28269
330
271A9
100
AcDbEntity
  8
文字
 62
     4
370
    13
100
AcDbBlockReference
  2
_Open30
 10
4246.761898348199
 20
-153.1914523574089
 30
0.0
 41
5.0
 42
5.0
 43
5.0
 50
180.0
  0
INSERT
  5
2826A
330
271A9
100
AcDbEntity
  8
文字
 62
     4
370
    13
100
AcDbBlockReference
  2
_Open30
 10
4292.761898348198
 20
-153.1914523574089
 30
0.0
 41
5.0
 42
5.0
 43
5.0
  0
MTEXT
  5
2826B
330
271A9
100
AcDbEntity
  8
文字
370
    13
100
AcDbMText
 10
4269.761898348199
 20
-149.1914523574089
 30
0.0
 40
6.0
 41
0.0
 71
     5
 72
     1
  1
\A1;46
  7
まこ
 73
     1
 44
1.0
  0
POINT
  5
2826C
330
271A9
100
AcDbEntity
  8
DEFPOINTS
 62
     0
370
    30
100
AcDbPoint
 10
4246.761898348199
 20
-122.610696729728
 30
0.0
  0
POINT
  5
2826D
330
271A9
100
AcDbEntity
  8
DEFPOINTS
 62
     0
370
    30
100
AcDbPoint
 10
4292.761898348198
 20
-121.9907843606867
 30
0.0
  0
POINT
  5
2826E
330
271A9
100
AcDbEntity
  8
DEFPOINTS
 62
     0
370
    30
100
AcDbPoint
 10
4292.761898348198
 20
-153.1914523574089
 30
0.0
  0
ENDBLK
  5
271B4
330
271A9
100
AcDbEntity
  8
0
 62
     4
370
    13
100
AcDbBlockEnd
  0
BLOCK
  5
271D7
330
271CD
100
AcDbEntity
  8
0
 62
     4
370
    13
100
AcDbBlockBegin
  2
*D42
 70
     1
 10
0.0
 20
0.0
 30
0.0
  3
*D42
  1

  0
LINE
  5
2847E
330
271CD
100
AcDbEntity
  8
文字
 62
     4
370
    13
100
AcDbLine
 10
4548.761898348199
 20
-121.7781480188615
 30
0.0
 11
4548.761898348199
 21
-153.2122581013924
 31
0.0
  0
LINE
  5
2847F
330
271CD
100
AcDbEntity
  8
文字
 62
     4
370
    13
100
AcDbLine
 10
4594.761898348198
 20
-123.8813769137628
 30
0.0
 11
4594.761898348198
 21
-153.2122581013924
 31
0.0
  0
LINE
  5
28480
330
271CD
100
AcDbEntity
  8
文字
 62
     4
370
    13
100
AcDbLine
 10
4553.761898348199
 20
-152.8522581013923
 30
0.0
 11
4589.761898348199
 21
-152.8522581013923
 31
0.0
  0
INSERT
  5
28481
330
271CD
100
AcDbEntity
  8
文字
 62
     4
370
    13
100
AcDbBlockReference
  2
_Open30
 10
4548.761898348199
 20
-152.8522581013923
 30
0.0
 41
5.0
 42
5.0
 43
5.0
 50
180.0
  0
INSERT
  5
28482
330
271CD
100
AcDbEntity
  8
文字
 62
     4
370
    13
100
AcDbBlockReference
  2
_Open30
 10
4594.761898348198
 20
-152.8522581013923
 30
0.0
 41
5.0
 42
5.0
 43
5.0
  0
MTEXT
  5
28483
330
271CD
100
AcDbEntity
  8
文字
370
    13
100
AcDbMText
 10
4571.761898348198
 20
-148.8522581013924
 30
0.0
 40
6.0
 41
0.0
 71
     5
 72
     1
  1
\A1;（46）
  7
まこ
 73
     1
 44
1.0
  0
POINT
  5
28484
330
271CD
100
AcDbEntity
  8
DEFPOINTS
 62
     0
370
    30
100
AcDbPoint
 10
4548.761898348199
 20
-120.1781480188615
 30
0.0
  0
POINT
  5
28485
330
271CD
100
AcDbEntity
  8
DEFPOINTS
 62
     0
370
    30
100
AcDbPoint
 10
4594.761898348198
 20
-122.2813769137628
 30
0.0
  0
POINT
  5
28486
330
271CD
100
AcDbEntity
  8
DEFPOINTS
 62
     0
370
    30
100
AcDbPoint
 10
4594.761898348198
 20
-152.8522581013923
 30
0.0
  0
ENDBLK
  5
271D8
330
271CD
100
AcDbEntity
  8
0
 62
     4
370
    13
100
AcDbBlockEnd
  0
BLOCK
  5
271E3
330
271D9
100
AcDbEntity
  8
0
 62
     4
370
    13
100
AcDbBlockBegin
  2
*D43
 70
     1
 10
0.0
 20
0.0
 30
0.0
  3
*D43
  1

  0
LINE
  5
28654
330
271D9
100
AcDbEntity
  8
0
 62
     4
370
    13
100
AcDbLine
 10
4823.682430506456
 20
9.320934685026093
 30
0.0
 11
4823.682430506456
 21
34.59303937167833
 31
0.0
  0
LINE
  5
28655
330
271D9
100
AcDbEntity
  8
0
 62
     4
370
    13
100
AcDbLine
 10
4831.482430506456
 20
9.320934685026093
 30
0.0
 11
4831.482430506456
 21
34.59303937167833
 31
0.0
  0
LINE
  5
28656
330
271D9
100
AcDbEntity
  8
0
 62
     4
370
    13
100
AcDbLine
 10
4818.682430506456
 20
34.23303937167833
 30
0.0
 11
4813.682430506456
 21
34.23303937167833
 31
0.0
  0
LINE
  5
28657
330
271D9
100
AcDbEntity
  8
0
 62
     4
370
    13
100
AcDbLine
 10
4836.482430506456
 20
34.23303937167833
 30
0.0
 11
4856.053859077884
 21
34.23303937167833
 31
0.0
  0
INSERT
  5
28658
330
271D9
100
AcDbEntity
  8
0
 62
     4
370
    13
100
AcDbBlockReference
  2
_Open30
 10
4823.682430506456
 20
34.23303937167833
 30
0.0
 41
5.0
 42
5.0
 43
5.0
  0
INSERT
  5
28659
330
271D9
100
AcDbEntity
  8
0
 62
     4
370
    13
100
AcDbBlockReference
  2
_Open30
 10
4831.482430506456
 20
34.23303937167833
 30
0.0
 41
5.0
 42
5.0
 43
5.0
 50
180.0
  0
MTEXT
  5
2865A
330
271D9
100
AcDbEntity
  8
0
370
    13
100
AcDbMText
 10
4848.76814479217
 20
38.23303937167834
 30
0.0
 40
6.0
 41
0.0
 71
     5
 72
     1
  1
\A1;7.8
  7
まこ
 73
     1
 44
1.0
  0
POINT
  5
2865B
330
271D9
100
AcDbEntity
  8
DEFPOINTS
 62
     0
100
AcDbPoint
 10
4823.682430506456
 20
7.720934685026094
 30
0.0
  0
POINT
  5
2865C
330
271D9
100
AcDbEntity
  8
DEFPOINTS
 62
     0
100
AcDbPoint
 10
4831.482430506456
 20
7.720934685026094
 30
0.0
  0
POINT
  5
2865D
330
271D9
100
AcDbEntity
  8
DEFPOINTS
 62
     0
100
AcDbPoint
 10
4831.482430506456
 20
34.23303937167833
 30
0.0
  0
ENDBLK
  5
271E4
330
271D9
100
AcDbEntity
  8
0
 62
     4
370
    13
100
AcDbBlockEnd
  0
BLOCK
  5
271EF
330
271E5
100
AcDbEntity
  8
0
 62
     4
370
    13
100
AcDbBlockBegin
  2
*D44
 70
     1
 10
0.0
 20
0.0
 30
0.0
  3
*D44
  1

  0
LINE
  5
28640
330
271E5
100
AcDbEntity
  8
0
 62
     4
370
    13
100
AcDbLine
 10
4818.682430506456
 20
-5.602632630821227
 30
0.0
 11
4818.682430506456
 21
47.72977554391341
 31
0.0
  0
LINE
  5
28641
330
271E5
100
AcDbEntity
  8
0
 62
     4
370
    13
100
AcDbLine
 10
4831.482430506456
 20
9.320934685026093
 30
0.0
 11
4831.482430506456
 21
47.72977554391341
 31
0.0
  0
LINE
  5
28642
330
271E5
100
AcDbEntity
  8
0
 62
     4
370
    13
100
AcDbLine
 10
4818.682430506456
 20
47.36977554391342
 30
0.0
 11
4813.682430506456
 21
47.36977554391342
 31
0.0
  0
LINE
  5
28643
330
271E5
100
AcDbEntity
  8
0
 62
     4
370
    13
100
AcDbLine
 10
4836.482430506456
 20
47.36977554391342
 30
0.0
 11
4860.625287649313
 21
47.36977554391342
 31
0.0
  0
LINE
  5
28644
330
271E5
100
AcDbEntity
  8
0
 62
     4
370
    13
100
AcDbLine
 10
4818.682430506456
 20
47.36977554391342
 30
0.0
 11
4831.482430506456
 21
47.36977554391342
 31
0.0
  0
INSERT
  5
28645
330
271E5
100
AcDbEntity
  8
0
 62
     4
370
    13
100
AcDbBlockReference
  2
_DotSmall
 10
4818.682430506456
 20
47.36977554391342
 30
0.0
 41
5.0
 42
5.0
 43
5.0
  0
INSERT
  5
28646
330
271E5
100
AcDbEntity
  8
0
 62
     4
370
    13
100
AcDbBlockReference
  2
_Open30
 10
4831.482430506456
 20
47.36977554391342
 30
0.0
 41
5.0
 42
5.0
 43
5.0
 50
180.0
  0
MTEXT
  5
28647
330
271E5
100
AcDbEntity
  8
0
370
    13
100
AcDbMText
 10
4851.053859077884
 20
51.36977554391342
 30
0.0
 40
6.0
 41
0.0
 71
     5
 72
     1
  1
\A1;12.8
  7
まこ
 73
     1
 44
1.0
  0
POINT
  5
28648
330
271E5
100
AcDbEntity
  8
DEFPOINTS
 62
     0
100
AcDbPoint
 10
4818.682430506456
 20
-7.202632630821227
 30
0.0
  0
POINT
  5
28649
330
271E5
100
AcDbEntity
  8
DEFPOINTS
 62
     0
100
AcDbPoint
 10
4831.482430506456
 20
7.720934685026094
 30
0.0
  0
POINT
  5
2864A
330
271E5
100
AcDbEntity
  8
DEFPOINTS
 62
     0
100
AcDbPoint
 10
4831.482430506456
 20
47.36977554391342
 30
0.0
  0
ENDBLK
  5
271F0
330
271E5
100
AcDbEntity
  8
0
 62
     4
370
    13
100
AcDbBlockEnd
  0
BLOCK
  5
271FF
330
271F1
100
AcDbEntity
  8
0
 62
     4
370
    13
100
AcDbBlockBegin
  2
*D45
 70
     1
 10
0.0
 20
0.0
 30
0.0
  3
*D45
  1

  0
LINE
  5
28636
330
271F1
100
AcDbEntity
  8
0
 62
     4
370
    13
100
AcDbLine
 10
4817.482430506456
 20
9.320912546828656
 30
0.0
 11
4817.482430506456
 21
47.72977554391341
 31
0.0
  0
LINE
  5
28637
330
271F1
100
AcDbEntity
  8
0
 62
     4
370
    13
100
AcDbLine
 10
4818.682430506456
 20
-5.602632630821227
 30
0.0
 11
4818.682430506456
 21
47.72977554391341
 31
0.0
  0
LINE
  5
28638
330
271F1
100
AcDbEntity
  8
0
 62
     4
370
    13
100
AcDbLine
 10
4812.482430506456
 20
47.36977554391342
 30
0.0
 11
4807.482430506456
 21
47.36977554391342
 31
0.0
  0
LINE
  5
28639
330
271F1
100
AcDbEntity
  8
0
 62
     4
370
    13
100
AcDbLine
 10
4818.682430506456
 20
47.36977554391342
 30
0.0
 11
4823.682430506456
 21
47.36977554391342
 31
0.0
  0
MTEXT
  5
2863A
330
271F1
100
AcDbEntity
  8
0
370
    13
100
AcDbMText
 10
4839.853898051103
 20
64.06711994389934
 30
0.0
 40
6.0
 41
0.0
 71
     5
 72
     1
  1
\A1;1.2
  7
まこ
 73
     1
 44
1.0
  0
INSERT
  5
2863B
330
271F1
100
AcDbEntity
  8
0
 62
     4
370
    13
100
AcDbBlockReference
  2
_Open30
 10
4817.482430506456
 20
47.36977554391342
 30
0.0
 41
5.0
 42
5.0
 43
5.0
  0
INSERT
  5
2863C
330
271F1
100
AcDbEntity
  8
0
 62
     4
370
    13
100
AcDbBlockReference
  2
_DotSmall
 10
4818.682430506456
 20
47.36977554391342
 30
0.0
 41
5.0
 42
5.0
 43
5.0
 50
180.0
  0
POINT
  5
2863D
330
271F1
100
AcDbEntity
  8
DEFPOINTS
 62
     0
100
AcDbPoint
 10
4817.482430506456
 20
7.720912546828657
 30
0.0
  0
POINT
  5
2863E
330
271F1
100
AcDbEntity
  8
DEFPOINTS
 62
     0
100
AcDbPoint
 10
4818.682430506456
 20
-7.202632630821227
 30
0.0
  0
POINT
  5
2863F
330
271F1
100
AcDbEntity
  8
DEFPOINTS
 62
     0
100
AcDbPoint
 10
4818.682430506456
 20
47.36977554391342
 30
0.0
  0
ENDBLK
  5
27200
330
271F1
100
AcDbEntity
  8
0
 62
     4
370
    13
100
AcDbBlockEnd
  0
BLOCK
  5
2720B
330
27201
100
AcDbEntity
  8
0
 62
     4
370
    13
100
AcDbBlockBegin
  2
*D46
 70
     1
 10
0.0
 20
0.0
 30
0.0
  3
*D46
  1

  0
LINE
  5
2864B
330
27201
100
AcDbEntity
  8
0
 62
     4
370
    13
100
AcDbLine
 10
4777.482430506455
 20
9.320912546828656
 30
0.0
 11
4777.482430506455
 21
47.72977554391341
 31
0.0
  0
LINE
  5
2864C
330
27201
100
AcDbEntity
  8
0
 62
     4
370
    13
100
AcDbLine
 10
4817.482430506456
 20
9.320912546828656
 30
0.0
 11
4817.482430506456
 21
47.72977554391341
 31
0.0
  0
LINE
  5
2864D
330
27201
100
AcDbEntity
  8
0
 62
     4
370
    13
100
AcDbLine
 10
4782.482430506456
 20
47.36977554391342
 30
0.0
 11
4812.482430506456
 21
47.36977554391342
 31
0.0
  0
INSERT
  5
2864E
330
27201
100
AcDbEntity
  8
0
 62
     4
370
    13
100
AcDbBlockReference
  2
_Open30
 10
4777.482430506455
 20
47.36977554391342
 30
0.0
 41
5.0
 42
5.0
 43
5.0
 50
180.0
  0
INSERT
  5
2864F
330
27201
100
AcDbEntity
  8
0
 62
     4
370
    13
100
AcDbBlockReference
  2
_Open30
 10
4817.482430506456
 20
47.36977554391342
 30
0.0
 41
5.0
 42
5.0
 43
5.0
  0
MTEXT
  5
28650
330
27201
100
AcDbEntity
  8
0
370
    13
100
AcDbMText
 10
4797.482430506455
 20
51.36977554391342
 30
0.0
 40
6.0
 41
0.0
 71
     5
 72
     1
  1
\A1;40
  7
まこ
 73
     1
 44
1.0
  0
POINT
  5
28651
330
27201
100
AcDbEntity
  8
DEFPOINTS
 62
     0
100
AcDbPoint
 10
4777.482430506455
 20
7.720912546828657
 30
0.0
  0
POINT
  5
28652
330
27201
100
AcDbEntity
  8
DEFPOINTS
 62
     0
100
AcDbPoint
 10
4817.482430506456
 20
7.720912546828657
 30
0.0
  0
POINT
  5
28653
330
27201
100
AcDbEntity
  8
DEFPOINTS
 62
     0
100
AcDbPoint
 10
4817.482430506456
 20
47.36977554391342
 30
0.0
  0
ENDBLK
  5
2720C
330
27201
100
AcDbEntity
  8
0
 62
     4
370
    13
100
AcDbBlockEnd
  0
BLOCK
  5
27217
330
2720D
100
AcDbEntity
  8
0
 62
     4
370
    13
100
AcDbBlockBegin
  2
*D47
 70
     1
 10
0.0
 20
0.0
 30
0.0
  3
*D47
  1

  0
LINE
  5
2852A
330
2720D
100
AcDbEntity
  8
0
 62
     4
370
    13
100
AcDbLine
 10
4777.482430506455
 20
9.320912546828656
 30
0.0
 11
4777.482430506455
 21
71.94389546837562
 31
0.0
  0
LINE
  5
2852B
330
2720D
100
AcDbEntity
  8
0
 62
     4
370
    13
100
AcDbLine
 10
4831.482430506456
 20
9.320934685026093
 30
0.0
 11
4831.482430506456
 21
71.94389546837562
 31
0.0
  0
LINE
  5
2852C
330
2720D
100
AcDbEntity
  8
0
 62
     4
370
    13
100
AcDbLine
 10
4782.482430506456
 20
71.58389546837563
 30
0.0
 11
4826.482430506455
 21
71.58389546837563
 31
0.0
  0
INSERT
  5
2852D
330
2720D
100
AcDbEntity
  8
0
 62
     4
370
    13
100
AcDbBlockReference
  2
_Open30
 10
4777.482430506455
 20
71.58389546837563
 30
0.0
 41
5.0
 42
5.0
 43
5.0
 50
180.0
  0
INSERT
  5
2852E
330
2720D
100
AcDbEntity
  8
0
 62
     4
370
    13
100
AcDbBlockReference
  2
_Open30
 10
4831.482430506456
 20
71.58389546837563
 30
0.0
 41
5.0
 42
5.0
 43
5.0
  0
MTEXT
  5
2852F
330
2720D
100
AcDbEntity
  8
0
370
    13
100
AcDbMText
 10
4804.482430506456
 20
75.58389546837563
 30
0.0
 40
6.0
 41
0.0
 71
     5
 72
     1
  1
\A1;54（取付寸法）
  7
まこ
 73
     1
 44
1.0
  0
POINT
  5
28530
330
2720D
100
AcDbEntity
  8
DEFPOINTS
 62
     0
370
    30
100
AcDbPoint
 10
4777.482430506455
 20
7.720912546828657
 30
0.0
  0
POINT
  5
28531
330
2720D
100
AcDbEntity
  8
DEFPOINTS
 62
     0
370
    30
100
AcDbPoint
 10
4831.482430506456
 20
7.720934685026094
 30
0.0
  0
POINT
  5
28532
330
2720D
100
AcDbEntity
  8
DEFPOINTS
 62
     0
370
    30
100
AcDbPoint
 10
4831.482430506456
 20
71.58389546837563
 30
0.0
  0
ENDBLK
  5
27218
330
2720D
100
AcDbEntity
  8
0
 62
     4
370
    13
100
AcDbBlockEnd
  0
BLOCK
  5
27223
330
27219
100
AcDbEntity
  8
0
 62
     4
370
    13
100
AcDbBlockBegin
  2
*D48
 70
     1
 10
0.0
 20
0.0
 30
0.0
  3
*D48
  1

  0
LINE
  5
28493
330
27219
100
AcDbEntity
  8
0
 62
     4
370
    13
100
AcDbLine
 10
4775.88302481856
 20
7.720956411083264
 30
0.0
 11
4745.252800948176
 21
7.720956411083273
 31
0.0
  0
LINE
  5
28494
330
27219
100
AcDbEntity
  8
0
 62
     4
370
    13
100
AcDbLine
 10
4775.882430506455
 20
-10.27904358891673
 30
0.0
 11
4745.252800948176
 21
-10.27904358891672
 31
0.0
  0
LINE
  5
28495
330
27219
100
AcDbEntity
  8
0
 62
     4
370
    13
100
AcDbLine
 10
4745.612800948175
 20
2.720956411083272
 30
0.0
 11
4745.612800948175
 21
-5.279043588916723
 31
0.0
  0
INSERT
  5
28496
330
27219
100
AcDbEntity
  8
0
 62
     4
370
    13
100
AcDbBlockReference
  2
_Open30
 10
4745.612800948175
 20
7.720956411083273
 30
0.0
 41
5.0
 42
5.0
 43
5.0
 50
90.0
  0
INSERT
  5
28497
330
27219
100
AcDbEntity
  8
0
 62
     4
370
    13
100
AcDbBlockReference
  2
_Open30
 10
4745.612800948175
 20
-10.27904358891672
 30
0.0
 41
5.0
 42
5.0
 43
5.0
 50
270.0
  0
MTEXT
  5
28498
330
27219
100
AcDbEntity
  8
0
370
    13
100
AcDbMText
 10
4741.612800948175
 20
-1.279043588915961
 30
0.0
 40
6.0
 41
0.0
 71
     5
 72
     1
  1
\A1;（18）
  7
まこ
 11
0.0000000000000001
 21
1.0
 31
0.0
 73
     1
 44
1.0
  0
POINT
  5
28499
330
27219
100
AcDbEntity
  8
DEFPOINTS
 62
     0
370
    30
100
AcDbPoint
 10
4777.48302481856
 20
7.720956411083264
 30
0.0
  0
POINT
  5
2849A
330
27219
100
AcDbEntity
  8
DEFPOINTS
 62
     0
370
    30
100
AcDbPoint
 10
4777.482430506455
 20
-10.27904358891673
 30
0.0
  0
POINT
  5
2849B
330
27219
100
AcDbEntity
  8
DEFPOINTS
 62
     0
370
    30
100
AcDbPoint
 10
4745.612800948175
 20
-10.27904358891672
 30
0.0
  0
ENDBLK
  5
27224
330
27219
100
AcDbEntity
  8
0
 62
     4
370
    13
100
AcDbBlockEnd
  0
BLOCK
  5
2722F
330
27225
100
AcDbEntity
  8
0
 62
     4
370
    13
100
AcDbBlockBegin
  2
*D49
 70
     1
 10
0.0
 20
0.0
 30
0.0
  3
*D49
  1

  0
LINE
  5
2848A
330
27225
100
AcDbEntity
  8
0
 62
     4
370
    13
100
AcDbLine
 10
4775.882430506455
 20
-10.27904358891673
 30
0.0
 11
4745.252800948176
 21
-10.27904358891672
 31
0.0
  0
LINE
  5
2848B
330
27225
100
AcDbEntity
  8
0
 62
     4
370
    13
100
AcDbLine
 10
4775.881725041937
 20
-104.2790436367054
 30
0.0
 11
4745.252800948176
 21
-104.2790436367054
 31
0.0
  0
LINE
  5
2848C
330
27225
100
AcDbEntity
  8
0
 62
     4
370
    13
100
AcDbLine
 10
4745.612800948175
 20
-15.27904358891672
 30
0.0
 11
4745.612800948175
 21
-99.27904363670544
 31
0.0
  0
INSERT
  5
2848D
330
27225
100
AcDbEntity
  8
0
 62
     4
370
    13
100
AcDbBlockReference
  2
_Open30
 10
4745.612800948175
 20
-10.27904358891672
 30
0.0
 41
5.0
 42
5.0
 43
5.0
 50
90.0
  0
INSERT
  5
2848E
330
27225
100
AcDbEntity
  8
0
 62
     4
370
    13
100
AcDbBlockReference
  2
_Open30
 10
4745.612800948175
 20
-104.2790436367054
 30
0.0
 41
5.0
 42
5.0
 43
5.0
 50
270.0
  0
MTEXT
  5
2848F
330
27225
100
AcDbEntity
  8
0
370
    13
100
AcDbMText
 10
4741.612800948175
 20
-57.27904361281032
 30
0.0
 40
6.0
 41
0.0
 71
     5
 72
     1
  1
\A1;94
  7
まこ
 11
0.0000000000000001
 21
1.0
 31
0.0
 73
     1
 44
1.0
  0
POINT
  5
28490
330
27225
100
AcDbEntity
  8
DEFPOINTS
 62
     0
370
    30
100
AcDbPoint
 10
4777.482430506455
 20
-10.27904358891673
 30
0.0
  0
POINT
  5
28491
330
27225
100
AcDbEntity
  8
DEFPOINTS
 62
     0
370
    30
100
AcDbPoint
 10
4777.481725041938
 20
-104.2790436367054
 30
0.0
  0
POINT
  5
28492
330
27225
100
AcDbEntity
  8
DEFPOINTS
 62
     0
370
    30
100
AcDbPoint
 10
4745.612800948175
 20
-104.2790436367054
 30
0.0
  0
ENDBLK
  5
27230
330
27225
100
AcDbEntity
  8
0
 62
     4
370
    13
100
AcDbBlockEnd
  0
BLOCK
  5
2723B
330
27231
100
AcDbEntity
  8
0
 62
     4
370
    13
100
AcDbBlockBegin
  2
*D50
 70
     1
 10
0.0
 20
0.0
 30
0.0
  3
*D50
  1

  0
LINE
  5
282D1
330
27231
100
AcDbEntity
  8
0
 62
     4
370
    13
100
AcDbLine
 10
4775.881725041936
 20
-104.2790435889167
 30
0.0
 11
4745.252800948176
 21
-104.2790435889167
 31
0.0
  0
LINE
  5
282D2
330
27231
100
AcDbEntity
  8
0
 62
     4
370
    13
100
AcDbLine
 10
4775.882430504735
 20
-122.2790435611378
 30
0.0
 11
4745.252800948176
 21
-122.2790435611378
 31
0.0
  0
LINE
  5
282D3
330
27231
100
AcDbEntity
  8
0
 62
     4
370
    13
100
AcDbLine
 10
4745.612800948175
 20
-109.2790435889167
 30
0.0
 11
4745.612800948175
 21
-117.2790435611378
 31
0.0
  0
MTEXT
  5
282D4
330
27231
100
AcDbEntity
  8
0
370
    13
100
AcDbMText
 10
4741.612800948175
 20
-113.2766663998159
 30
0.0
 40
6.0
 41
0.0
 71
     5
 72
     1
  1
\A1;（18）
  7
まこ
 11
0.0000000000000001
 21
1.0
 31
0.0
 73
     1
 44
1.0
  0
INSERT
  5
282D5
330
27231
100
AcDbEntity
  8
0
 62
     4
370
    13
100
AcDbBlockReference
  2
_Open30
 10
4745.612800948175
 20
-104.2790435889167
 30
0.0
 41
5.0
 42
5.0
 43
5.0
 50
90.0
  0
INSERT
  5
282D6
330
27231
100
AcDbEntity
  8
0
 62
     4
370
    13
100
AcDbBlockReference
  2
_Open30
 10
4745.612800948175
 20
-122.2790435611378
 30
0.0
 41
5.0
 42
5.0
 43
5.0
 50
270.0
  0
POINT
  5
282D7
330
27231
100
AcDbEntity
  8
DEFPOINTS
 62
     0
370
    30
100
AcDbPoint
 10
4777.481725041936
 20
-104.2790435889167
 30
0.0
  0
POINT
  5
282D8
330
27231
100
AcDbEntity
  8
DEFPOINTS
 62
     0
370
    30
100
AcDbPoint
 10
4777.482430504735
 20
-122.2790435611378
 30
0.0
  0
POINT
  5
282D9
330
27231
100
AcDbEntity
  8
DEFPOINTS
 62
     0
370
    30
100
AcDbPoint
 10
4745.612800948175
 20
-122.2790435611378
 30
0.0
  0
ENDBLK
  5
2723C
330
27231
100
AcDbEntity
  8
0
 62
     4
370
    13
100
AcDbBlockEnd
  0
BLOCK
  5
27248
330
2723D
100
AcDbEntity
  8
0
 62
     4
370
    13
100
AcDbBlockBegin
  2
*D51
 70
     1
 10
0.0
 20
0.0
 30
0.0
  3
*D51
  1

  0
LINE
  5
2837A
330
2723D
100
AcDbEntity
  8
0
 62
     4
370
    13
100
AcDbLine
 10
4777.482430506455
 20
-11.87904358891673
 30
0.0
 11
4777.482430506455
 21
-29.04189634508851
 31
0.0
  0
LINE
  5
2837B
330
2723D
100
AcDbEntity
  8
0
 62
     4
370
    13
100
AcDbLine
 10
4777.982430506455
 20
-11.87904358891673
 30
0.0
 11
4777.982430506455
 21
-29.04189634508851
 31
0.0
  0
LINE
  5
2837C
330
2723D
100
AcDbEntity
  8
0
 62
     4
370
    13
100
AcDbLine
 10
4782.982430506456
 20
-28.68189634508851
 30
0.0
 11
4787.982430506455
 21
-28.68189634508851
 31
0.0
  0
LINE
  5
2837D
330
2723D
100
AcDbEntity
  8
0
 62
     4
370
    13
100
AcDbLine
 10
4772.482430506456
 20
-28.68189634508851
 30
0.0
 11
4752.911001935028
 21
-28.68189634508851
 31
0.0
  0
INSERT
  5
2837E
330
2723D
100
AcDbEntity
  8
0
 62
     4
370
    13
100
AcDbBlockReference
  2
_Open30
 10
4777.982430506455
 20
-28.68189634508851
 30
0.0
 41
5.0
 42
5.0
 43
5.0
 50
180.0
  0
INSERT
  5
2837F
330
2723D
100
AcDbEntity
  8
0
 62
     4
370
    13
100
AcDbBlockReference
  2
_Open30
 10
4777.482430506455
 20
-28.68189634508851
 30
0.0
 41
5.0
 42
5.0
 43
5.0
  0
MTEXT
  5
28380
330
2723D
100
AcDbEntity
  8
0
370
    13
100
AcDbMText
 10
4760.196716220741
 20
-24.68189634508851
 30
0.0
 40
6.0
 41
0.0
 71
     5
 72
     1
  1
\A1;0.5
  7
まこ
 73
     1
 44
1.0
  0
POINT
  5
28381
330
2723D
100
AcDbEntity
  8
DEFPOINTS
 62
     0
370
    30
100
AcDbPoint
 10
4777.482430506455
 20
-10.27904358891673
 30
0.0
  0
POINT
  5
28382
330
2723D
100
AcDbEntity
  8
DEFPOINTS
 62
     0
370
    30
100
AcDbPoint
 10
4777.982430506455
 20
-10.27904358891673
 30
0.0
  0
POINT
  5
28383
330
2723D
100
AcDbEntity
  8
DEFPOINTS
 62
     0
370
    30
100
AcDbPoint
 10
4777.982430506455
 20
-28.68189634508851
 30
0.0
  0
ENDBLK
  5
27249
330
2723D
100
AcDbEntity
  8
0
 62
     4
370
    13
100
AcDbBlockEnd
  0
BLOCK
  5
27254
330
2724A
100
AcDbEntity
  8
0
 62
     4
370
    13
100
AcDbBlockBegin
  2
*D52
 70
     1
 10
0.0
 20
0.0
 30
0.0
  3
*D52
  1

  0
LINE
  5
283CA
330
2724A
100
AcDbEntity
  8
0
 62
     4
370
    13
100
AcDbLine
 10
4245.161898348198
 20
7.718623086237138
 30
0.0
 11
4209.933297272193
 21
7.718623086237148
 31
0.0
  0
LINE
  5
283CB
330
2724A
100
AcDbEntity
  8
0
 62
     4
370
    13
100
AcDbLine
 10
4245.161898348198
 20
-122.2813769137628
 30
0.0
 11
4209.933297272193
 21
-122.2813769137628
 31
0.0
  0
LINE
  5
283CC
330
2724A
100
AcDbEntity
  8
0
 62
     4
370
    13
100
AcDbLine
 10
4210.293297272193
 20
2.718623086237148
 30
0.0
 11
4210.293297272193
 21
-117.2813769137628
 31
0.0
  0
INSERT
  5
283CD
330
2724A
100
AcDbEntity
  8
0
 62
     4
370
    13
100
AcDbBlockReference
  2
_Open30
 10
4210.293297272193
 20
7.718623086237148
 30
0.0
 41
5.0
 42
5.0
 43
5.0
 50
90.0
  0
INSERT
  5
283CE
330
2724A
100
AcDbEntity
  8
0
 62
     4
370
    13
100
AcDbBlockReference
  2
_Open30
 10
4210.293297272193
 20
-122.2813769137628
 30
0.0
 41
5.0
 42
5.0
 43
5.0
 50
270.0
  0
MTEXT
  5
283CF
330
2724A
100
AcDbEntity
  8
0
370
    13
100
AcDbMText
 10
4206.293297272194
 20
-57.28137691376218
 30
0.0
 40
6.0
 41
0.0
 71
     5
 72
     1
  1
\A1;130
  7
まこ
 11
0.0000000000000001
 21
1.0
 31
0.0
 73
     1
 44
1.0
  0
POINT
  5
283D0
330
2724A
100
AcDbEntity
  8
DEFPOINTS
 62
     0
370
    30
100
AcDbPoint
 10
4246.761898348199
 20
7.718623086237137
 30
0.0
  0
POINT
  5
283D1
330
2724A
100
AcDbEntity
  8
DEFPOINTS
 62
     0
370
    30
100
AcDbPoint
 10
4246.761898348199
 20
-122.2813769137628
 30
0.0
  0
POINT
  5
283D2
330
2724A
100
AcDbEntity
  8
DEFPOINTS
 62
     0
370
    30
100
AcDbPoint
 10
4210.293297272193
 20
-122.2813769137628
 30
0.0
  0
ENDBLK
  5
27255
330
2724A
100
AcDbEntity
  8
0
 62
     4
370
    13
100
AcDbBlockEnd
  0
BLOCK
  5
27260
330
27256
100
AcDbEntity
  8
0
 62
     4
370
    13
100
AcDbBlockBegin
  2
*D53
 70
     1
 10
0.0
 20
0.0
 30
0.0
  3
*D53
  1

  0
LINE
  5
283C1
330
27256
100
AcDbEntity
  8
0
 62
     4
370
    13
100
AcDbLine
 10
4270.099714982261
 20
0.2186230862371379
 30
0.0
 11
4220.623381440511
 21
0.2186230862371519
 31
0.0
  0
LINE
  5
283C2
330
27256
100
AcDbEntity
  8
0
 62
     4
370
    13
100
AcDbLine
 10
4270.078658765631
 20
-114.7813769137628
 30
0.0
 11
4220.623381440511
 21
-114.7813769137628
 31
0.0
  0
LINE
  5
283C3
330
27256
100
AcDbEntity
  8
0
 62
     4
370
    13
100
AcDbLine
 10
4220.98338144051
 20
-4.781376913762848
 30
0.0
 11
4220.98338144051
 21
-109.7813769137628
 31
0.0
  0
INSERT
  5
283C4
330
27256
100
AcDbEntity
  8
0
 62
     4
370
    13
100
AcDbBlockReference
  2
_Open30
 10
4220.98338144051
 20
0.2186230862371518
 30
0.0
 41
5.0
 42
5.0
 43
5.0
 50
90.0
  0
INSERT
  5
283C5
330
27256
100
AcDbEntity
  8
0
 62
     4
370
    13
100
AcDbBlockReference
  2
_Open30
 10
4220.98338144051
 20
-114.7813769137628
 30
0.0
 41
5.0
 42
5.0
 43
5.0
 50
270.0
  0
MTEXT
  5
283C6
330
27256
100
AcDbEntity
  8
0
370
    13
100
AcDbMText
 10
4216.983381440511
 20
-57.28137691376217
 30
0.0
 40
6.0
 41
0.0
 71
     5
 72
     1
  1
\A1;115
  7
まこ
 11
0.0000000000000001
 21
1.0
 31
0.0
 73
     1
 44
1.0
  0
POINT
  5
283C7
330
27256
100
AcDbEntity
  8
DEFPOINTS
 62
     0
370
    30
100
AcDbPoint
 10
4271.699714982261
 20
0.2186230862371374
 30
0.0
  0
POINT
  5
283C8
330
27256
100
AcDbEntity
  8
DEFPOINTS
 62
     0
370
    30
100
AcDbPoint
 10
4271.678658765631
 20
-114.7813769137628
 30
0.0
  0
POINT
  5
283C9
330
27256
100
AcDbEntity
  8
DEFPOINTS
 62
     0
370
    30
100
AcDbPoint
 10
4220.98338144051
 20
-114.7813769137628
 30
0.0
  0
ENDBLK
  5
27261
330
27256
100
AcDbEntity
  8
0
 62
     4
370
    13
100
AcDbBlockEnd
  0
BLOCK
  5
2726D
330
27262
100
AcDbEntity
  8
0
 62
     4
370
    13
100
AcDbBlockBegin
  2
*D54
 70
     1
 10
0.0
 20
0.0
 30
0.0
  3
*D54
  1

  0
LINE
  5
281D7
330
27262
100
AcDbEntity
  8
0
 62
     4
370
    13
100
AcDbLine
 10
4245.161898348198
 20
7.718623086237138
 30
0.0
 11
4220.623381440511
 21
7.718623086237145
 31
0.0
  0
LINE
  5
281D8
330
27262
100
AcDbEntity
  8
0
 62
     4
370
    13
100
AcDbLine
 10
4286.076656963973
 20
0.2186230862371308
 30
0.0
 11
4220.623381440511
 21
0.2186230862371493
 31
0.0
  0
LINE
  5
281D9
330
27262
100
AcDbEntity
  8
0
 62
     4
370
    13
100
AcDbLine
 10
4220.98338144051
 20
-4.781376913762851
 30
0.0
 11
4220.98338144051
 21
-9.781376913762851
 31
0.0
  0
LINE
  5
281DA
330
27262
100
AcDbEntity
  8
0
 62
     4
370
    13
100
AcDbLine
 10
4220.98338144051
 20
12.71862308623714
 30
0.0
 11
4220.98338144051
 21
44.46148022909429
 31
0.0
  0
INSERT
  5
281DB
330
27262
100
AcDbEntity
  8
0
 62
     4
370
    13
100
AcDbBlockReference
  2
_Open30
 10
4220.98338144051
 20
0.2186230862371492
 30
0.0
 41
5.0
 42
5.0
 43
5.0
 50
90.0
  0
INSERT
  5
281DC
330
27262
100
AcDbEntity
  8
0
 62
     4
370
    13
100
AcDbBlockReference
  2
_Open30
 10
4220.98338144051
 20
7.718623086237145
 30
0.0
 41
5.0
 42
5.0
 43
5.0
 50
270.0
  0
MTEXT
  5
281DD
330
27262
100
AcDbEntity
  8
0
370
    13
100
AcDbMText
 10
4216.983381440511
 20
31.09005165766639
 30
0.0
 40
6.0
 41
0.0
 71
     5
 72
     1
  1
\A1;（7.5）
  7
まこ
 11
0.0000000000000001
 21
1.0
 31
0.0
 73
     1
 44
1.0
  0
POINT
  5
281DE
330
27262
100
AcDbEntity
  8
DEFPOINTS
 62
     0
370
    30
100
AcDbPoint
 10
4246.761898348199
 20
7.718623086237137
 30
0.0
  0
POINT
  5
281DF
330
27262
100
AcDbEntity
  8
DEFPOINTS
 62
     0
370
    30
100
AcDbPoint
 10
4287.676656963974
 20
0.2186230862371303
 30
0.0
  0
POINT
  5
281E0
330
27262
100
AcDbEntity
  8
DEFPOINTS
 62
     0
370
    30
100
AcDbPoint
 10
4220.98338144051
 20
0.2186230862371492
 30
0.0
  0
ENDBLK
  5
2726E
330
27262
100
AcDbEntity
  8
0
 62
     4
370
    13
100
AcDbBlockEnd
  0
BLOCK
  5
2727A
330
2726F
100
AcDbEntity
  8
0
 62
     4
370
    13
100
AcDbBlockBegin
  2
*D55
 70
     1
 10
0.0
 20
0.0
 30
0.0
  3
*D55
  1

  0
LINE
  5
281CD
330
2726F
100
AcDbEntity
  8
0
 62
     4
370
    13
100
AcDbLine
 10
4286.055600747343
 20
-114.7813769137628
 30
0.0
 11
4220.623381440511
 21
-114.7813769137628
 31
0.0
  0
LINE
  5
281CE
330
2726F
100
AcDbEntity
  8
0
 62
     4
370
    13
100
AcDbLine
 10
4245.161898348198
 20
-122.2813769137628
 30
0.0
 11
4220.623381440511
 21
-122.2813769137628
 31
0.0
  0
LINE
  5
281CF
330
2726F
100
AcDbEntity
  8
0
 62
     4
370
    13
100
AcDbLine
 10
4220.98338144051
 20
-109.7813769137628
 30
0.0
 11
4220.98338144051
 21
-104.7813769137628
 31
0.0
  0
LINE
  5
281D0
330
2726F
100
AcDbEntity
  8
0
 62
     4
370
    13
100
AcDbLine
 10
4220.98338144051
 20
-127.2813769137628
 30
0.0
 11
4220.98338144051
 21
-159.02423405662
 31
0.0
  0
INSERT
  5
281D1
330
2726F
100
AcDbEntity
  8
0
 62
     4
370
    13
100
AcDbBlockReference
  2
_Open30
 10
4220.98338144051
 20
-114.7813769137628
 30
0.0
 41
5.0
 42
5.0
 43
5.0
 50
270.0
  0
INSERT
  5
281D2
330
2726F
100
AcDbEntity
  8
0
 62
     4
370
    13
100
AcDbBlockReference
  2
_Open30
 10
4220.98338144051
 20
-122.2813769137628
 30
0.0
 41
5.0
 42
5.0
 43
5.0
 50
90.0
  0
MTEXT
  5
281D3
330
2726F
100
AcDbEntity
  8
0
370
    13
100
AcDbMText
 10
4216.983381440511
 20
-145.6528054851907
 30
0.0
 40
6.0
 41
0.0
 71
     5
 72
     1
  1
\A1;（7.5）
  7
まこ
 11
0.0000000000000001
 21
1.0
 31
0.0
 73
     1
 44
1.0
  0
POINT
  5
281D4
330
2726F
100
AcDbEntity
  8
DEFPOINTS
 62
     0
370
    30
100
AcDbPoint
 10
4287.655600747344
 20
-114.7813769137628
 30
0.0
  0
POINT
  5
281D5
330
2726F
100
AcDbEntity
  8
DEFPOINTS
 62
     0
370
    30
100
AcDbPoint
 10
4246.761898348199
 20
-122.2813769137628
 30
0.0
  0
POINT
  5
281D6
330
2726F
100
AcDbEntity
  8
DEFPOINTS
 62
     0
370
    30
100
AcDbPoint
 10
4220.98338144051
 20
-122.2813769137628
 30
0.0
  0
ENDBLK
  5
2727B
330
2726F
100
AcDbEntity
  8
0
 62
     4
370
    13
100
AcDbBlockEnd
  0
BLOCK
  5
28051
330
28047
100
AcDbEntity
  8
0
370
    30
100
AcDbBlockBegin
  2
*D56
 70
     1
 10
0.0
 20
0.0
 30
0.0
  3
*D56
  1

  0
LINE
  5
283B8
330
28047
100
AcDbEntity
  8
0
 62
     4
370
    13
100
AcDbLine
 10
4775.882430506455
 20
-122.2790874531713
 30
0.0
 11
4754.870719428523
 21
-122.2790874531713
 31
0.0
  0
LINE
  5
283B9
330
28047
100
AcDbEntity
  8
0
 62
     4
370
    13
100
AcDbLine
 10
4775.882430506455
 20
-105.2790874531713
 30
0.0
 11
4754.870719428523
 21
-105.2790874531713
 31
0.0
  0
LINE
  5
283BA
330
28047
100
AcDbEntity
  8
0
 62
     4
370
    13
100
AcDbLine
 10
4755.230719428523
 20
-117.2790874531713
 30
0.0
 11
4755.230719428523
 21
-110.2790874531713
 31
0.0
  0
INSERT
  5
283BB
330
28047
100
AcDbEntity
  8
0
 62
     4
370
    13
100
AcDbBlockReference
  2
_Open30
 10
4755.230719428523
 20
-122.2790874531713
 30
0.0
 41
5.0
 42
5.0
 43
5.0
 50
270.0
  0
INSERT
  5
283BC
330
28047
100
AcDbEntity
  8
0
 62
     4
370
    13
100
AcDbBlockReference
  2
_Open30
 10
4755.230719428523
 20
-105.2790874531713
 30
0.0
 41
5.0
 42
5.0
 43
5.0
 50
90.0
  0
MTEXT
  5
283BD
330
28047
100
AcDbEntity
  8
0
370
    13
100
AcDbMText
 10
4751.230719428523
 20
-113.7790874531705
 30
0.0
 40
6.0
 41
0.0
 71
     5
 72
     1
  1
\A1;17
  7
まこ
 11
0.0000000000000001
 21
1.0
 31
0.0
 73
     1
 44
1.0
  0
POINT
  5
283BE
330
28047
100
AcDbEntity
  8
DEFPOINTS
 62
     0
370
    30
100
AcDbPoint
 10
4777.482430506455
 20
-122.2790874531713
 30
0.0
  0
POINT
  5
283BF
330
28047
100
AcDbEntity
  8
DEFPOINTS
 62
     0
370
    30
100
AcDbPoint
 10
4777.482430506455
 20
-105.2790874531713
 30
0.0
  0
POINT
  5
283C0
330
28047
100
AcDbEntity
  8
DEFPOINTS
 62
     0
370
    30
100
AcDbPoint
 10
4755.230719428523
 20
-105.2790874531713
 30
0.0
  0
ENDBLK
  5
28052
330
28047
100
AcDbEntity
  8
0
370
    30
100
AcDbBlockEnd
  0
BLOCK
  5
2805E
330
28054
100
AcDbEntity
  8
0
370
    30
100
AcDbBlockBegin
  2
*D57
 70
     1
 10
0.0
 20
0.0
 30
0.0
  3
*D57
  1

  0
LINE
  5
283AF
330
28054
100
AcDbEntity
  8
0
 62
     4
370
    13
100
AcDbLine
 10
4775.882430506455
 20
-105.2790874531713
 30
0.0
 11
4754.870719428523
 21
-105.2790874531713
 31
0.0
  0
LINE
  5
283B0
330
28054
100
AcDbEntity
  8
0
 62
     4
370
    13
100
AcDbLine
 10
4775.882430506455
 20
-81.27908745317133
 30
0.0
 11
4754.870719428523
 21
-81.27908745317133
 31
0.0
  0
LINE
  5
283B1
330
28054
100
AcDbEntity
  8
0
 62
     4
370
    13
100
AcDbLine
 10
4755.230719428523
 20
-100.2790874531713
 30
0.0
 11
4755.230719428523
 21
-86.27908745317133
 31
0.0
  0
INSERT
  5
283B2
330
28054
100
AcDbEntity
  8
0
 62
     4
370
    13
100
AcDbBlockReference
  2
_Open30
 10
4755.230719428523
 20
-105.2790874531713
 30
0.0
 41
5.0
 42
5.0
 43
5.0
 50
270.0
  0
INSERT
  5
283B3
330
28054
100
AcDbEntity
  8
0
 62
     4
370
    13
100
AcDbBlockReference
  2
_Open30
 10
4755.230719428523
 20
-81.27908745317133
 30
0.0
 41
5.0
 42
5.0
 43
5.0
 50
90.0
  0
MTEXT
  5
283B4
330
28054
100
AcDbEntity
  8
0
370
    13
100
AcDbMText
 10
4751.230719428523
 20
-93.27908745317056
 30
0.0
 40
6.0
 41
0.0
 71
     5
 72
     1
  1
\A1;24
  7
まこ
 11
0.0000000000000001
 21
1.0
 31
0.0
 73
     1
 44
1.0
  0
POINT
  5
283B5
330
28054
100
AcDbEntity
  8
DEFPOINTS
 62
     0
370
    30
100
AcDbPoint
 10
4777.482430506455
 20
-105.2790874531713
 30
0.0
  0
POINT
  5
283B6
330
28054
100
AcDbEntity
  8
DEFPOINTS
 62
     0
370
    30
100
AcDbPoint
 10
4777.482430506455
 20
-81.27908745317133
 30
0.0
  0
POINT
  5
283B7
330
28054
100
AcDbEntity
  8
DEFPOINTS
 62
     0
370
    30
100
AcDbPoint
 10
4755.230719428523
 20
-81.27908745317133
 30
0.0
  0
ENDBLK
  5
2805F
330
28054
100
AcDbEntity
  8
0
370
    30
100
AcDbBlockEnd
  0
BLOCK
  5
2807E
330
28073
100
AcDbEntity
  8
0
370
    30
100
AcDbBlockBegin
  2
*D58
 70
     1
 10
0.0
 20
0.0
 30
0.0
  3
*D58
  1

  0
LINE
  5
283A5
330
28073
100
AcDbEntity
  8
0
 62
     4
370
    13
100
AcDbLine
 10
4777.482430490513
 20
-123.8786806706189
 30
0.0
 11
4777.482430490513
 21
-142.7977035421344
 31
0.0
  0
LINE
  5
283A6
330
28073
100
AcDbEntity
  8
0
 62
     4
370
    13
100
AcDbLine
 10
4785.482430498592
 20
-123.8787300498945
 30
0.0
 11
4785.482430498592
 21
-142.7977035421344
 31
0.0
  0
LINE
  5
283A7
330
28073
100
AcDbEntity
  8
0
 62
     4
370
    13
100
AcDbLine
 10
4772.482430490513
 20
-142.4377035421343
 30
0.0
 11
4767.482430490513
 21
-142.4377035421343
 31
0.0
  0
LINE
  5
283A8
330
28073
100
AcDbEntity
  8
0
 62
     4
370
    13
100
AcDbLine
 10
4790.482430498592
 20
-142.4377035421343
 30
0.0
 11
4795.482430498593
 21
-142.4377035421343
 31
0.0
  0
INSERT
  5
283A9
330
28073
100
AcDbEntity
  8
0
 62
     4
370
    13
100
AcDbBlockReference
  2
_Open30
 10
4777.482430490513
 20
-142.4377035421343
 30
0.0
 41
5.0
 42
5.0
 43
5.0
  0
INSERT
  5
283AA
330
28073
100
AcDbEntity
  8
0
 62
     4
370
    13
100
AcDbBlockReference
  2
_Open30
 10
4785.482430498592
 20
-142.4377035421343
 30
0.0
 41
5.0
 42
5.0
 43
5.0
 50
180.0
  0
MTEXT
  5
283AB
330
28073
100
AcDbEntity
  8
0
370
    13
100
AcDbMText
 10
4781.482430494552
 20
-138.4377035421343
 30
0.0
 40
6.0
 41
0.0
 71
     5
 72
     1
  1
\A1;8
  7
まこ
 73
     1
 44
1.0
  0
POINT
  5
283AC
330
28073
100
AcDbEntity
  8
DEFPOINTS
 62
     0
370
    30
100
AcDbPoint
 10
4777.482430490513
 20
-122.2786806706189
 30
0.0
  0
POINT
  5
283AD
330
28073
100
AcDbEntity
  8
DEFPOINTS
 62
     0
370
    30
100
AcDbPoint
 10
4785.482430498592
 20
-122.2787300498945
 30
0.0
  0
POINT
  5
283AE
330
28073
100
AcDbEntity
  8
DEFPOINTS
 62
     0
370
    30
100
AcDbPoint
 10
4785.482430498592
 20
-142.4377035421343
 30
0.0
  0
ENDBLK
  5
2807F
330
28073
100
AcDbEntity
  8
0
370
    30
100
AcDbBlockEnd
  0
BLOCK
  5
288A3
330
28899
100
AcDbEntity
  8
0
100
AcDbBlockBegin
  2
*D59
 70
     1
 10
0.0
 20
0.0
 30
0.0
  3
*D59
  1

  0
LINE
  5
288A5
330
28899
100
AcDbEntity
  8
dimension
 62
     4
370
    13
100
AcDbLine
 10
4594.761898348198
 20
-123.8813769137628
 30
0.0
 11
4594.761898348198
 21
-163.8480200848067
 31
0.0
  0
LINE
  5
288A6
330
28899
100
AcDbEntity
  8
dimension
 62
     4
370
    13
100
AcDbLine
 10
4679.83543780822
 20
-128.8813769137628
 30
0.0
 11
4679.83543780822
 21
-163.8480200848067
 31
0.0
  0
LINE
  5
288A7
330
28899
100
AcDbEntity
  8
dimension
 62
     4
370
    13
100
AcDbLine
 10
4599.761898348199
 20
-163.4880200848067
 30
0.0
 11
4674.83543780822
 21
-163.4880200848067
 31
0.0
  0
INSERT
  5
288A8
330
28899
100
AcDbEntity
  8
dimension
 62
     4
370
    13
100
AcDbBlockReference
  2
_Open30
 10
4594.761898348198
 20
-163.4880200848067
 30
0.0
 41
5.0
 42
5.0
 43
5.0
 50
180.0
  0
INSERT
  5
288A9
330
28899
100
AcDbEntity
  8
dimension
 62
     4
370
    13
100
AcDbBlockReference
  2
_Open30
 10
4679.83543780822
 20
-163.4880200848067
 30
0.0
 41
5.0
 42
5.0
 43
5.0
  0
MTEXT
  5
288AA
330
28899
100
AcDbEntity
  8
dimension
100
AcDbMText
 10
4637.29866807821
 20
-159.4880200848067
 30
0.0
 40
6.0
 41
0.0
 71
     5
 72
     1
  1
\A1;（200）
  7
まこ
 73
     1
 44
1.0
  0
POINT
  5
288AB
330
28899
100
AcDbEntity
  8
DEFPOINTS
 62
     0
100
AcDbPoint
 10
4594.761898348198
 20
-122.2813769137628
 30
0.0
  0
POINT
  5
288AC
330
28899
100
AcDbEntity
  8
DEFPOINTS
 62
     0
100
AcDbPoint
 10
4679.83543780822
 20
-127.2813769137628
 30
0.0
  0
POINT
  5
288AD
330
28899
100
AcDbEntity
  8
DEFPOINTS
 62
     0
100
AcDbPoint
 10
4679.83543780822
 20
-163.4880200848067
 30
0.0
  0
ENDBLK
  5
288A4
330
28899
100
AcDbEntity
  8
0
100
AcDbBlockEnd
  0
ENDSEC
  0
SECTION
  2
ENTITIES
  0
MTEXT
  5
176FC
330
18
100
AcDbEntity
  8
dimension
 62
     2
100
AcDbMText
 10
-100.7823601383244
 20
171.621314412839
 30
0.0
 40
8.0
 41
0.0
 71
     4
 72
     1
  1

 73
     1
 44
1.0
  0
TEXT
  5
187C8
330
18
100
AcDbEntity
  8
A
100
AcDbText
 10
27.08248755054501
 20
1784.547672862096
 30
0.0
 40
2.5
  1

  7
MSｺﾞｼｯｸ
100
AcDbText
  0
TEXT
  5
187C9
330
18
100
AcDbEntity
  8
A
100
AcDbText
 10
19.25748755054502
 20
1784.547672862096
 30
0.0
 40
2.5
  1

 41
0.5
  7
MSｺﾞｼｯｸ
100
AcDbText
  0
TEXT
  5
187CA
330
18
100
AcDbEntity
  8
A
100
AcDbText
 10
167.1825875009164
 20
2214.514692980458
 30
0.0
 40
3.524999999999999
  1
�    
100
AcDbText
  0
MTEXT
  5
187CB
330
18
100
AcDbEntity
  8
0
  6
ByBlock
100
AcDbMText
 10
325.4874764241681
 20
2232.511722574347
 30
0.0
 40
2.0
 41
0.0
 71
     4
 72
     5
  1

 11
-0.0000000000000002
 21
-1.0
 31
0.0
 73
     1
 44
1.0
1001
ACAD
1000
MTEXTBEGIN
1070
    73
1070
     1
1070
    44
1040
1.0
1070
    74
1070
     0
1000
MTEXTEND
  0
MTEXT
  5
187CC
330
18
100
AcDbEntity
  8
0
  6
ByBlock
100
AcDbMText
 10
360.9528647873208
 20
2221.718414215929
 30
0.0
 40
2.0
 41
0.0
 71
     7
 72
     5
  1

 11
0.0000000000000001
 21
1.0
 31
0.0
 73
     1
 44
1.0
1001
ACAD
1000
MTEXTBEGIN
1070
    73
1070
     1
1070
    44
1040
1.0
1070
    74
1070
     0
1000
MTEXTEND
  0
MTEXT
  5
187CD
330
18
100
AcDbEntity
  8
0
100
AcDbMText
 10
325.1733668026532
 20
2146.93890367364
 30
0.0
 40
2.0
 41
10.1453
 71
     1
 72
     5
  1

 11
-0.0000000000000002
 21
-1.0
 31
0.0
 73
     1
 44
1.0
1001
ACAD
1000
MTEXTBEGIN
1070
    73
1070
     1
1070
    44
1040
1.0
1070
    74
1070
     0
1000
MTEXTEND
  0
MTEXT
  5
187CE
330
18
100
AcDbEntity
  8
0
100
AcDbMText
 10
280.7738750495033
 20
2115.30742008065
 30
0.0
 40
2.0
 41
0.0
 71
     1
 72
     5
  1

 73
     1
 44
1.0
1001
ACAD
1000
MTEXTBEGIN
1070
    73
1070
     1
1070
    44
1040
1.0
1070
    74
1070
     0
1000
MTEXTEND
  0
MTEXT
  5
187CF
330
18
100
AcDbEntity
  8
0
  6
CENTER
100
AcDbMText
 10
606.3621522332663
 20
2216.239946825076
 30
0.0
 40
2.0
 41
15.6417
 71
     1
 72
     5
  1

  7
BIGFONT
 73
     1
 44
1.0
1001
ACAD
1000
MTEXTBEGIN
1070
    73
1070
     1
1070
    44
1040
1.0
1070
    74
1070
     0
1000
MTEXTEND
  0
MTEXT
  5
187D0
330
18
100
AcDbEntity
  8
0
  6
DASHDOT
100
AcDbMText
 10
368.6842112890944
 20
2323.029441652852
 30
0.0
 40
1.0
 41
2.0
 71
     1
 72
     5
  1

  7
BIGFONT
 73
     1
 44
1.0
1001
ACAD
1000
MTEXTBEGIN
1070
    73
1070
     1
1070
    44
1040
1.0
1070
    74
1070
     0
1000
MTEXTEND
  0
MTEXT
  5
187D1
330
18
100
AcDbEntity
  8
0
  6
ByBlock
100
AcDbMText
 10
325.4873894192178
 20
2232.511722574347
 30
0.0
 40
2.0
 41
0.0
 71
     4
 72
     5
  1

 11
-0.0000000000000002
 21
-1.0
 31
0.0
 73
     1
 44
1.0
1001
ACAD
1000
MTEXTBEGIN
1070
    73
1070
     1
1070
    44
1040
1.0
1070
    74
1070
     0
1000
MTEXTEND
  0
MTEXT
  5
187D2
330
18
100
AcDbEntity
  8
0
  6
ByBlock
100
AcDbMText
 10
360.9527777823707
 20
2221.718414215929
 30
0.0
 40
2.0
 41
0.0
 71
     7
 72
     5
  1

 11
0.0000000000000001
 21
1.0
 31
0.0
 73
     1
 44
1.0
1001
ACAD
1000
MTEXTBEGIN
1070
    73
1070
     1
1070
    44
1040
1.0
1070
    74
1070
     0
1000
MTEXTEND
  0
MTEXT
  5
187D3
330
18
100
AcDbEntity
  8
0
100
AcDbMText
 10
325.1732797977028
 20
2146.93890367364
 30
0.0
 40
2.0
 41
10.1453
 71
     1
 72
     5
  1

 11
-0.0000000000000002
 21
-1.0
 31
0.0
 73
     1
 44
1.0
1001
ACAD
1000
MTEXTBEGIN
1070
    73
1070
     1
1070
    44
1040
1.0
1070
    74
1070
     0
1000
MTEXTEND
  0
MTEXT
  5
187D4
330
18
100
AcDbEntity
  8
0
100
AcDbMText
 10
280.773788044553
 20
2115.30742008065
 30
0.0
 40
2.0
 41
0.0
 71
     1
 72
     5
  1

 73
     1
 44
1.0
1001
ACAD
1000
MTEXTBEGIN
1070
    73
1070
     1
1070
    44
1040
1.0
1070
    74
1070
     0
1000
MTEXTEND
  0
MTEXT
  5
187D5
330
18
100
AcDbEntity
  8
0
  6
CENTER
100
AcDbMText
 10
606.3620652283159
 20
2216.239946825076
 30
0.0
 40
2.0
 41
15.6417
 71
     1
 72
     5
  1

  7
BIGFONT
 73
     1
 44
1.0
1001
ACAD
1000
MTEXTBEGIN
1070
    73
1070
     1
1070
    44
1040
1.0
1070
    74
1070
     0
1000
MTEXTEND
  0
MTEXT
  5
187D6
330
18
100
AcDbEntity
  8
0
  6
DASHDOT
100
AcDbMText
 10
368.6841242841443
 20
2323.029441652852
 30
0.0
 40
1.0
 41
2.0
 71
     1
 72
     5
  1

  7
BIGFONT
 73
     1
 44
1.0
1001
ACAD
1000
MTEXTBEGIN
1070
    73
1070
     1
1070
    44
1040
1.0
1070
    74
1070
     0
1000
MTEXTEND
  0
INSERT
  5
187D7
330
18
100
AcDbEntity
  8
FRAME025
100
AcDbBlockReference
  2
機械A4横_LBP
 10
271.0019941658661
 20
2006.88884056487
 30
0.0
  0
DIMENSION
  5
26FF8
330
18
100
AcDbEntity
  8
0
 62
     4
370
    13
100
AcDbDimension
  2
*D53
 10
4220.98338144051
 20
-114.7813769137628
 30
0.0
 11
4216.983381440511
 21
-57.28137691376217
 31
0.0
 70
    32
 71
     5
 42
115.0
  3
まこ
100
AcDbAlignedDimension
 13
4271.699714982261
 23
0.2186230862371374
 33
0.0
 14
4271.678658765631
 24
-114.7813769137628
 34
0.0
 50
90.0
100
AcDbRotatedDimension
1001
ACAD
1000
DSTYLE
1002
{
1070
   271
1070
     6
1002
}
  0
DIMENSION
  5
26FF9
330
18
100
AcDbEntity
  8
0
 62
     4
370
    13
100
AcDbDimension
  2
*D52
 10
4210.293297272193
 20
-122.2813769137628
 30
0.0
 11
4206.293297272194
 21
-57.28137691376218
 31
0.0
 70
    32
 71
     5
 42
130.0
  3
まこ
100
AcDbAlignedDimension
 13
4246.761898348199
 23
7.718623086237137
 33
0.0
 14
4246.761898348199
 24
-122.2813769137628
 34
0.0
 50
90.0
100
AcDbRotatedDimension
1001
ACAD
1000
DSTYLE
1002
{
1070
   271
1070
     6
1002
}
  0
LWPOLYLINE
  5
26FFA
330
18
100
AcDbEntity
  8
0
  6
HIDDEN
 48
0.45
370
    13
100
AcDbPolyline
 90
        5
 70
     0
 43
0.0
 10
4156.753071201747
 20
-118.2078769137629
 10
4156.753071201747
 20
3.792123086237104
 10
4168.753071201747
 20
3.792123086237104
 10
4168.753071201747
 20
-118.2078769137629
 10
4156.753071201747
 20
-118.2078769137629
  0
LINE
  5
26FFB
330
18
100
AcDbEntity
  8
0
  6
PHANTOM
 48
0.6
370
     5
100
AcDbLine
 10
4129.552362417221
 20
-107.1814207780175
 30
0.0
 11
4129.552362417221
 21
-7.204965955667368
 31
0.0
  0
LWPOLYLINE
  5
26FFC
330
18
100
AcDbEntity
  8
0
  6
PHANTOM
 48
0.6
370
     5
100
AcDbPolyline
 90
        4
 70
     1
 43
0.0
 10
4124.552362417222
 20
7.718601360179953
 10
4116.752362417221
 20
7.718601360179953
 10
4116.752362417221
 20
-122.2813986398205
 10
4124.552362417222
 20
-122.2813986398205
  0
LINE
  5
26FFD
330
18
100
AcDbEntity
  8
0
 48
0.3
370
    50
100
AcDbLine
 10
4130.752362417221
 20
7.718623086237136
 30
0.0
 11
4130.752362417221
 21
-122.2813769137628
 31
0.0
  0
LINE
  5
26FFF
330
18
100
AcDbEntity
  8
0
 48
0.3
370
    50
100
AcDbLine
 10
4170.252362417221
 20
-10.28142080567356
 30
0.0
 11
4170.253068065972
 21
-104.276666427472
 31
0.0
  0
LINE
  5
27000
330
18
100
AcDbEntity
  8
0
370
    50
100
AcDbLine
 10
4594.761898348198
 20
7.71862308623713
 30
0.0
 11
4594.761898348198
 21
-122.2813769137628
 31
0.0
  0
LINE
  5
27001
330
18
100
AcDbEntity
  8
0
370
    50
100
AcDbLine
 10
4246.761898348199
 20
7.718623086237137
 30
0.0
 11
4246.761898348199
 21
-122.2813769137628
 31
0.0
  0
DIMENSION
  5
27002
330
18
100
AcDbEntity
  8
文字
370
    13
100
AcDbDimension
  2
*D41
 10
4292.761898348198
 20
-153.1914523574089
 30
0.0
 11
4269.761898348199
 21
-149.1914523574089
 31
0.0
 70
    32
 71
     5
 42
46.0
  3
まこ
100
AcDbAlignedDimension
 13
4246.761898348199
 23
-122.610696729728
 33
0.0
 14
4292.761898348198
 24
-121.9907843606867
 34
0.0
100
AcDbRotatedDimension
1001
ACAD
1000
DSTYLE
1002
{
1070
   271
1070
     6
1002
}
  0
DIMENSION
  5
27003
330
18
100
AcDbEntity
  8
文字
370
    13
100
AcDbDimension
  2
*D40
 10
4594.761898348198
 20
-163.4880200848067
 30
0.0
 11
4420.761898348199
 21
-159.4880200848067
 31
0.0
 70
    32
 71
     5
 42
348.0
  3
まこ
100
AcDbAlignedDimension
 13
4246.761898348199
 23
-122.2715024737115
 33
0.0
 14
4594.761898348198
 24
-122.2813769137628
 34
0.0
100
AcDbRotatedDimension
1001
ACAD
1000
DSTYLE
1002
{
1070
   271
1070
     6
1002
}
  0
DIMENSION
  5
27004
330
18
100
AcDbEntity
  8
0
 62
     4
370
    13
100
AcDbDimension
  2
*D55
 10
4220.98338144051
 20
-122.2813769137628
 30
0.0
 11
4216.983381440511
 21
-145.6528054851907
 31
0.0
 70
    32
  1
（<>）
 71
     5
 42
7.500000000000014
  3
まこ
100
AcDbAlignedDimension
 13
4287.655600747344
 23
-114.7813769137628
 33
0.0
 14
4246.761898348199
 24
-122.2813769137628
 34
0.0
 50
90.0
100
AcDbRotatedDimension
1001
ACAD
1000
DSTYLE
1002
{
1070
   271
1070
     6
1002
}
  0
LINE
  5
2700C
330
18
100
AcDbEntity
  8
0
370
    50
100
AcDbLine
 10
4246.761898348199
 20
-122.2813769137628
 30
0.0
 11
4594.761898348198
 21
-122.2813769137628
 31
0.0
  0
LWPOLYLINE
  5
2700D
330
18
100
AcDbEntity
  8
0
370
    50
100
AcDbPolyline
 90
        2
 70
     0
 43
0.0
 10
4580.784120748199
 20
-104.2841490856358
 10
4420.784081367976
 20
-104.2841490856358
  0
LINE
  5
27010
330
18
100
AcDbEntity
  8
0
 48
0.3
370
    50
100
AcDbLine
 10
4130.752362417221
 20
-122.2813769137628
 30
0.0
 11
4170.75236241722
 21
-122.2813769137628
 31
0.0
  0
LINE
  5
27011
330
18
100
AcDbEntity
  8
0
  6
PHANTOM
 48
0.6
370
     5
100
AcDbLine
 10
4124.552412174189
 20
-107.1814207780175
 30
0.0
 11
4129.552362417221
 21
-107.1814207780176
 31
0.0
  0
LINE
  5
27017
330
18
100
AcDbEntity
  8
0
  6
CENTER
 62
     1
 48
0.6
370
    13
100
AcDbLine
 10
4106.875131549109
 20
-114.6805769137626
 30
0.0
 11
4133.835437018186
 21
-114.6805769137626
 31
0.0
  0
CIRCLE
  5
2701B
330
18
100
AcDbEntity
  8
0
  6
HIDDEN
 48
0.45
370
    13
100
AcDbCircle
 10
4162.753442607889
 20
-112.1920039525916
 30
0.0
 40
4.0
  0
LINE
  5
2701F
330
18
100
AcDbEntity
  8
0
  6
CENTER
 62
     1
 48
0.6
370
    13
100
AcDbLine
 10
4173.717601907788
 20
-114.7813769137628
 30
0.0
 11
4158.336311138469
 21
-114.7813769137628
 31
0.0
  0
LINE
  5
27027
330
18
100
AcDbEntity
  8
0
 48
0.3
370
    50
100
AcDbLine
 10
4170.253068065972
 20
-104.2766663998159
 30
0.0
 11
4170.753071201747
 21
-104.2766663998159
 31
0.0
  0
LINE
  5
27028
330
18
100
AcDbEntity
  8
0
 48
0.3
370
    50
100
AcDbLine
 10
4170.75236241722
 20
-122.2814207780174
 30
0.0
 11
4170.753068066356
 21
-104.2766663998159
 31
0.0
  0
LINE
  5
2702A
330
18
100
AcDbEntity
  8
0
 62
     4
370
    13
100
AcDbLine
 10
4220.98338144051
 20
-122.2813769137628
 30
0.0
 11
4220.98338144051
 21
-114.7813769137628
 31
0.0
  0
LINE
  5
2702B
330
18
100
AcDbEntity
  8
0
370
    50
100
AcDbLine
 10
4246.761898348199
 20
-104.2841490856358
 30
0.0
 11
4420.784081367976
 21
-104.2841490856358
 31
0.0
  0
LINE
  5
2702C
330
18
100
AcDbEntity
  8
0
370
    50
100
AcDbLine
 10
4261.784081367976
 20
-104.2841490856358
 30
0.0
 11
4261.784081367976
 21
-122.2813769137628
 31
0.0
  0
DIMENSION
  5
27041
330
18
100
AcDbEntity
  8
文字
370
    13
100
AcDbDimension
  2
*D39
 10
4548.761898348199
 20
-152.8522581013923
 30
0.0
 11
4420.761898348199
 21
-148.8522581013924
 31
0.0
 70
    32
  1
4xP64=<>
 71
     5
 42
256.0
  3
まこ
100
AcDbAlignedDimension
 13
4292.761898348198
 23
-119.8389537628449
 33
0.0
 14
4548.761898348199
 24
-120.1781480188615
 34
0.0
100
AcDbRotatedDimension
1001
ACAD
1000
DSTYLE
1002
{
1070
   271
1070
     6
1002
}
  0
LINE
  5
2705A
330
18
100
AcDbEntity
  8
0
  6
CENTER
 62
     1
 48
0.3
370
    13
100
AcDbLine
 10
4287.655600747344
 20
-114.7813769137628
 30
0.0
 11
4297.924003746948
 21
-114.7813769137629
 31
0.0
  0
CIRCLE
  5
2705B
330
18
100
AcDbEntity
  8
0
370
     9
100
AcDbCircle
 10
4292.761898348198
 20
-114.7813769137628
 30
0.0
 40
2.5
  0
CIRCLE
  5
2705C
330
18
100
AcDbEntity
  8
0
370
    20
100
AcDbCircle
 10
4292.761898348198
 20
-114.7813769137628
 30
0.0
 40
2.0
  0
DIMENSION
  5
2706D
330
18
100
AcDbEntity
  8
文字
370
    13
100
AcDbDimension
  2
*D42
 10
4594.761898348198
 20
-152.8522581013923
 30
0.0
 11
4571.761898348198
 21
-148.8522581013924
 31
0.0
 70
    32
  1
（<>）
 71
     5
 42
46.0
  3
まこ
100
AcDbAlignedDimension
 13
4548.761898348199
 23
-120.1781480188615
 33
0.0
 14
4594.761898348198
 24
-122.2813769137628
 34
0.0
100
AcDbRotatedDimension
1001
ACAD
1000
DSTYLE
1002
{
1070
   271
1070
     6
1002
}
  0
LINE
  5
27075
330
18
100
AcDbEntity
  8
0
370
    50
100
AcDbLine
 10
4580.804081367977
 20
-104.2841490856358
 30
0.0
 11
4594.761898348198
 21
-104.2841490856358
 31
0.0
  0
LINE
  5
27076
330
18
100
AcDbEntity
  8
0
370
    50
100
AcDbLine
 10
4579.804081367977
 20
-104.2841490856358
 30
0.0
 11
4579.784120748199
 21
-122.2813769137628
 31
0.0
  0
DIMENSION
  5
27077
330
18
100
AcDbEntity
  8
0
 62
     4
370
    13
100
AcDbDimension
  2
*D54
 10
4220.98338144051
 20
0.2186230862371492
 30
0.0
 11
4220.98338144051
 21
31.09005165766639
 31
0.0
 70
   160
  1
（<>）
 71
     5
 42
7.499999999999998
  3
まこ
100
AcDbAlignedDimension
 13
4246.761898348199
 23
7.718623086237137
 33
0.0
 14
4287.676656963974
 24
0.2186230862371303
 34
0.0
 50
90.0
100
AcDbRotatedDimension
1001
ACAD
1000
DSTYLE
1002
{
1070
   271
1070
     6
1002
}
  0
LINE
  5
27078
330
18
100
AcDbEntity
  8
0
  6
CENTER
 62
     1
 48
0.6
370
    13
100
AcDbLine
 10
4226.736969194257
 20
-57.28137691376287
 30
0.0
 11
4611.224359221481
 21
-57.28137691376287
 31
0.0
  0
LINE
  5
27079
330
18
100
AcDbEntity
  8
0
370
    50
100
AcDbLine
 10
4246.761898348199
 20
7.718623086237137
 30
0.0
 11
4594.761898348198
 21
7.71862308623713
 31
0.0
  0
LWPOLYLINE
  5
2707A
330
18
100
AcDbEntity
  8
0
370
    50
100
AcDbPolyline
 90
        2
 70
     0
 43
0.0
 10
4580.784120748199
 20
-10.27860474188946
 10
4420.784081367976
 20
-10.27860474188946
  0
LEADER
  5
2707B
330
18
100
AcDbEntity
  8
文字
370
    13
100
AcDbLeader
  3
まこ
 73
     0
 74
     0
 75
     1
 40
7.15736040609137
 41
15.04568527918781
 76
     3
 10
4147.752362417221
 20
-57.2813376674552
 30
0.0
 10
4168.877783736827
 20
-40.59088474106704
 30
0.0
 10
4173.877783736828
 20
-40.59088474106704
 30
0.0
340
270C8
1001
ACAD
1000
DSTYLE
1002
{
1070
   147
1040
0.5
1070
    77
1070
     1
1002
}
  0
LINE
  5
2707C
330
18
100
AcDbEntity
  8
0
 62
     2
100
AcDbLine
 10
4147.752362417221
 20
-74.28137691376298
 30
0.0
 11
4147.752362417221
 21
-40.28137691376297
 31
0.0
  0
LINE
  5
2707D
330
18
100
AcDbEntity
  8
0
 62
     2
100
AcDbLine
 10
4140.75236241722
 20
-39.78137691376297
 30
0.0
 11
4140.75236241722
 21
-74.78137691376298
 31
0.0
  0
LINE
  5
2707E
330
18
100
AcDbEntity
  8
0
 62
     2
100
AcDbLine
 10
4135.75236241722
 20
-40.28137691376297
 30
0.0
 11
4135.75236241722
 21
-74.28137691376298
 31
0.0
  0
LINE
  5
2707F
330
18
100
AcDbEntity
  8
0
 62
     2
100
AcDbLine
 10
4147.752362417221
 20
-74.28137691376298
 30
0.0
 11
4147.752362417221
 21
-40.28137691376297
 31
0.0
  0
LINE
  5
27080
330
18
100
AcDbEntity
  8
0
 62
     2
100
AcDbLine
 10
4135.75236241722
 20
-40.28137691376297
 30
0.0
 11
4135.75236241722
 21
-74.28137691376298
 31
0.0
  0
LINE
  5
27081
330
18
100
AcDbEntity
  8
0
 62
     2
100
AcDbLine
 10
4140.75236241722
 20
-39.78137691376297
 30
0.0
 11
4140.75236241722
 21
-74.78137691376298
 31
0.0
  0
HATCH
  5
27082
330
18
100
AcDbEntity
  8
0
 62
     4
100
AcDbHatch
 10
0.0
 20
0.0
 30
0.0
210
0.0
220
0.0
230
1.0
  2
SOLID
 70
     1
 71
     1
 91
        2
 92
       16
 93
        1
 72
     2
 10
4139.452606497833
 20
-88.94145031538039
 40
0.6007500000000002
 50
0.0
 51
360.0
 73
     1
 97
        1
330
27085
 92
        1
 93
        8
 72
     2
 10
4139.454469288532
 20
-88.94238171072913
 40
1.00311322310025
 50
23.58977727261614
 51
179.9468005913759
 73
     1
 72
     2
 10
4139.252356497833
 20
-88.94145031538039
 40
0.8009999999999999
 50
180.0
 51
360.0
 73
     1
 72
     1
 10
4140.053356497833
 20
-88.94145031538039
 11
4140.053356497833
 21
-91.18425031538038
 72
     1
 10
4140.053356497833
 20
-91.18425031538038
 11
4138.050856497835
 21
-90.94395031538089
 72
     1
 10
4138.050856497835
 20
-90.94395031538089
 11
4138.050856497835
 21
-86.53845031538015
 72
     1
 10
4138.050856497835
 20
-86.53845031538015
 11
4141.254856497834
 21
-86.9389503153817
 72
     1
 10
4141.254856497834
 20
-86.9389503153817
 11
4141.254856497834
 21
-91.34445031538064
 72
     1
 10
4141.254856497834
 20
-91.34445031538064
 11
4140.373756497833
 21
-88.54095031538065
 97
        8
330
27086
330
27083
330
270AD
330
27084
330
27099
330
27089
330
270B3
330
270AE
 75
     0
 76
     1
 98
        1
 10
4141.932081313593
 20
112.5362597788551
  0
ARC
  5
27083
102
{ACAD_REACTORS
330
27082
102
}
330
18
100
AcDbEntity
  8
0
 62
     4
100
AcDbCircle
 10
4139.252356497833
 20
-88.94145031538039
 30
0.0
 40
0.8009999999999999
100
AcDbArc
 50
180.0
 51
0.0
  0
LINE
  5
27084
102
{ACAD_REACTORS
330
27082
102
}
330
18
100
AcDbEntity
  8
0
 62
     4
100
AcDbLine
 10
4138.050856497835
 20
-90.94395031538089
 30
0.0
 11
4140.053356497833
 21
-91.18425031538038
 31
0.0
  0
CIRCLE
  5
27085
102
{ACAD_REACTORS
330
27082
102
}
330
18
100
AcDbEntity
  8
0
 62
     4
100
AcDbCircle
 10
4139.452606497833
 20
-88.94145031538039
 30
0.0
 40
0.6007500000000002
  0
ARC
  5
27086
102
{ACAD_REACTORS
330
27082
102
}
330
18
100
AcDbEntity
  8
0
 62
     4
100
AcDbCircle
 10
4139.454469288532
 20
-88.94238171072913
 30
0.0
 40
1.00311322310025
100
AcDbArc
 50
23.58977727261614
 51
179.9468005913759
  0
TEXT
  5
27087
330
18
100
AcDbEntity
  8
0
 62
     4
100
AcDbText
 10
4138.098590636417
 20
-92.16054953976902
 30
0.0
 40
1.44
  1
DENSO
 50
270.0
  7
TIMESNR
100
AcDbText
  0
LINE
  5
27088
330
18
100
AcDbEntity
  8
0
 62
     4
100
AcDbLine
 10
4137.25236241722
 20
-100.2813769137629
 30
0.0
 11
4146.252362417221
 21
-100.2813769137629
 31
0.0
  0
LINE
  5
27089
102
{ACAD_REACTORS
330
27082
102
}
330
18
100
AcDbEntity
  8
0
 62
     4
100
AcDbLine
 10
4138.050856497835
 20
-86.53845031538015
 30
0.0
 11
4141.254856497834
 21
-86.9389503153817
 31
0.0
  0
LINE
  5
2708A
330
18
100
AcDbEntity
  8
0
 62
     4
100
AcDbLine
 10
4146.252362417221
 20
-85.28137691376299
 30
0.0
 11
4137.252362417221
 21
-85.28137691376299
 31
0.0
  0
LINE
  5
2708B
102
{ACAD_REACTORS
330
2708D
102
}
330
18
100
AcDbEntity
  8
0
 62
     2
100
AcDbLine
 10
4136.605885835222
 20
-42.32742341484082
 30
0.0
 11
4139.809885835222
 21
-42.72792341484102
 31
0.0
  0
LINE
  5
2708C
102
{ACAD_REACTORS
330
2708D
102
}
330
18
100
AcDbEntity
  8
0
 62
     2
100
AcDbLine
 10
4139.809885835222
 20
-47.13342341484087
 30
0.0
 11
4138.928785835222
 21
-44.32992341484088
 31
0.0
  0
HATCH
  5
2708D
330
18
100
AcDbEntity
  8
0
 62
     2
100
AcDbHatch
 10
0.0
 20
0.0
 30
0.0
210
0.0
220
0.0
230
1.0
  2
SOLID
 70
     1
 71
     1
 91
        2
 92
       16
 93
        1
 72
     2
 10
4138.007635835222
 20
-44.73042341484108
 40
0.6007500000000002
 50
0.0
 51
360.0
 73
     1
 97
        1
330
2709C
 92
        1
 93
        8
 72
     2
 10
4138.00949862592
 20
-44.73135481018982
 40
1.00311322310025
 50
23.58977727261614
 51
179.9468005914019
 73
     1
 72
     2
 10
4137.807385835222
 20
-44.73042341484108
 40
0.8009999999999999
 50
180.0
 51
360.0
 73
     1
 72
     1
 10
4138.608385835222
 20
-44.73042341484108
 11
4138.608385835222
 21
-46.97322341484106
 72
     1
 10
4138.608385835222
 20
-46.97322341484106
 11
4136.605885835222
 21
-46.73292341484112
 72
     1
 10
4136.605885835222
 20
-46.73292341484112
 11
4136.605885835222
 21
-42.32742341484082
 72
     1
 10
4136.605885835222
 20
-42.32742341484082
 11
4139.809885835222
 21
-42.72792341484102
 72
     1
 10
4139.809885835222
 20
-42.72792341484102
 11
4139.809885835222
 21
-47.13342341484087
 72
     1
 10
4139.809885835222
 20
-47.13342341484087
 11
4138.928785835222
 21
-44.32992341484088
 97
        8
330
2709B
330
2709E
330
2709F
330
2709A
330
2709D
330
2708B
330
270B6
330
2708C
 75
     0
 76
     1
 98
        1
 10
4140.487110650981
 20
156.7472866793954
  0
HATCH
  5
2708E
330
18
100
AcDbEntity
  8
0
 62
     2
100
AcDbHatch
 10
0.0
 20
0.0
 30
0.0
210
0.0
220
0.0
230
1.0
  2
SOLID
 70
     1
 71
     1
 91
        2
 92
       16
 93
        1
 72
     2
 10
4138.007635835222
 20
-44.73042341484153
 40
0.6007500000000002
 50
0.0
 51
360.0
 73
     1
 97
        1
330
270A3
 92
        1
 93
        8
 72
     2
 10
4138.00949862592
 20
-44.73135481019027
 40
1.00311322310025
 50
23.58977727261614
 51
179.9468005913759
 73
     1
 72
     2
 10
4137.807385835222
 20
-44.73042341484153
 40
0.8009999999999999
 50
180.0
 51
360.0
 73
     1
 72
     1
 10
4138.608385835222
 20
-44.73042341484153
 11
4138.608385835222
 21
-46.97322341484151
 72
     1
 10
4138.608385835222
 20
-46.97322341484151
 11
4136.605885835222
 21
-46.73292341484204
 72
     1
 10
4136.605885835222
 20
-46.73292341484204
 11
4136.605885835222
 21
-42.32742341484128
 72
     1
 10
4136.605885835222
 20
-42.32742341484128
 11
4139.809885835222
 21
-42.72792341484102
 72
     1
 10
4139.809885835222
 20
-42.72792341484102
 11
4139.809885835222
 21
-47.13342341484177
 72
     1
 10
4139.809885835222
 20
-47.13342341484177
 11
4138.928785835222
 21
-44.32992341484179
 97
        8
330
270A0
330
270A4
330
270A2
330
270A5
330
270A1
330
2708F
330
270B7
330
27090
 75
     0
 76
     1
 98
        1
 10
4140.487110650981
 20
156.747286679394
  0
LINE
  5
2708F
102
{ACAD_REACTORS
330
2708E
102
}
330
18
100
AcDbEntity
  8
0
 62
     2
100
AcDbLine
 10
4136.605885835222
 20
-42.32742341484128
 30
0.0
 11
4139.809885835222
 21
-42.72792341484102
 31
0.0
  0
LINE
  5
27090
102
{ACAD_REACTORS
330
2708E
102
}
330
18
100
AcDbEntity
  8
0
 62
     2
100
AcDbLine
 10
4139.809885835222
 20
-47.13342341484177
 30
0.0
 11
4138.928785835222
 21
-44.32992341484179
 31
0.0
  0
LINE
  5
27091
330
18
100
AcDbEntity
  8
0
 62
     2
100
AcDbLine
 10
4136.252362417221
 20
-74.78137691376298
 30
0.0
 11
4147.252362417221
 21
-74.78137691376298
 31
0.0
  0
LINE
  5
27092
330
18
100
AcDbEntity
  8
0
 62
     2
100
AcDbLine
 10
4136.252362417221
 20
-74.78137691376298
 30
0.0
 11
4147.252362417221
 21
-74.78137691376298
 31
0.0
  0
TEXT
  5
27093
330
18
100
AcDbEntity
  8
0
 62
     2
100
AcDbText
 10
4138.350382382792
 20
-48.07093574936754
 30
0.0
 40
1.44
  1
NIKKI
 50
270.0
 41
1.25
  7
TIMESNR
100
AcDbText
  0
TEXT
  5
27094
330
18
100
AcDbEntity
  8
0
 62
     2
100
AcDbText
 10
4138.350382382792
 20
-48.07093574936891
 30
0.0
 40
1.44
  1
NIKKI
 50
270.0
 41
1.25
  7
TIMESNR
100
AcDbText
  0
LINE
  5
27095
330
18
100
AcDbEntity
  8
0
  6
CENTER
 62
     1
 48
0.6
370
    13
100
AcDbLine
 10
4187.72930977208
 20
-57.28137691376286
 30
0.0
 11
4108.561281000433
 21
-57.28137691376286
 31
0.0
  0
ARC
  5
27096
330
18
100
AcDbEntity
  8
0
 62
     4
100
AcDbCircle
 10
4137.25236241722
 20
-99.78137691376298
 30
0.0
 40
0.5
100
AcDbArc
 50
180.0
 51
270.0
  0
ARC
  5
27097
330
18
100
AcDbEntity
  8
0
 62
     4
100
AcDbCircle
 10
4137.252362417221
 20
-85.78137691376298
 30
0.0
 40
0.5
100
AcDbArc
 50
90.0
 51
180.0
  0
LINE
  5
27098
330
18
100
AcDbEntity
  8
0
 62
     4
100
AcDbLine
 10
4136.752362417221
 20
-85.78137691376298
 30
0.0
 11
4136.752362417221
 21
-99.78137691376298
 31
0.0
  0
LINE
  5
27099
102
{ACAD_REACTORS
330
27082
102
}
330
18
100
AcDbEntity
  8
0
 62
     4
100
AcDbLine
 10
4138.050856497835
 20
-86.53845031538015
 30
0.0
 11
4138.050856497835
 21
-90.94395031538089
 31
0.0
  0
LINE
  5
2709A
102
{ACAD_REACTORS
330
2708D
102
}
330
18
100
AcDbEntity
  8
0
 62
     2
100
AcDbLine
 10
4136.605885835222
 20
-46.73292341484112
 30
0.0
 11
4138.608385835222
 21
-46.97322341484106
 31
0.0
  0
ARC
  5
2709B
102
{ACAD_REACTORS
330
2708D
102
}
330
18
100
AcDbEntity
  8
0
 62
     2
100
AcDbCircle
 10
4138.00949862592
 20
-44.73135481018982
 30
0.0
 40
1.00311322310025
100
AcDbArc
 50
23.58977727261614
 51
179.9468005914019
  0
CIRCLE
  5
2709C
102
{ACAD_REACTORS
330
2708D
102
}
330
18
100
AcDbEntity
  8
0
 62
     2
100
AcDbCircle
 10
4138.007635835222
 20
-44.73042341484108
 30
0.0
 40
0.6007500000000002
  0
LINE
  5
2709D
102
{ACAD_REACTORS
330
2708D
102
}
330
18
100
AcDbEntity
  8
0
 62
     2
100
AcDbLine
 10
4136.605885835222
 20
-42.32742341484082
 30
0.0
 11
4136.605885835222
 21
-46.73292341484112
 31
0.0
  0
ARC
  5
2709E
102
{ACAD_REACTORS
330
2708D
102
}
330
18
100
AcDbEntity
  8
0
 62
     2
100
AcDbCircle
 10
4137.807385835222
 20
-44.73042341484108
 30
0.0
 40
0.8009999999999999
100
AcDbArc
 50
180.0
 51
0.0
  0
LINE
  5
2709F
102
{ACAD_REACTORS
330
2708D
102
}
330
18
100
AcDbEntity
  8
0
 62
     2
100
AcDbLine
 10
4138.608385835222
 20
-44.73042341484108
 30
0.0
 11
4138.608385835222
 21
-46.97322341484106
 31
0.0
  0
ARC
  5
270A0
102
{ACAD_REACTORS
330
2708E
102
}
330
18
100
AcDbEntity
  8
0
 62
     2
100
AcDbCircle
 10
4138.00949862592
 20
-44.73135481019027
 30
0.0
 40
1.00311322310025
100
AcDbArc
 50
23.58977727261614
 51
179.9468005913759
  0
LINE
  5
270A1
102
{ACAD_REACTORS
330
2708E
102
}
330
18
100
AcDbEntity
  8
0
 62
     2
100
AcDbLine
 10
4136.605885835222
 20
-42.32742341484128
 30
0.0
 11
4136.605885835222
 21
-46.73292341484204
 31
0.0
  0
LINE
  5
270A2
102
{ACAD_REACTORS
330
2708E
102
}
330
18
100
AcDbEntity
  8
0
 62
     2
100
AcDbLine
 10
4138.608385835222
 20
-44.73042341484153
 30
0.0
 11
4138.608385835222
 21
-46.97322341484151
 31
0.0
  0
CIRCLE
  5
270A3
102
{ACAD_REACTORS
330
2708E
102
}
330
18
100
AcDbEntity
  8
0
 62
     2
100
AcDbCircle
 10
4138.007635835222
 20
-44.73042341484153
 30
0.0
 40
0.6007500000000002
  0
ARC
  5
270A4
102
{ACAD_REACTORS
330
2708E
102
}
330
18
100
AcDbEntity
  8
0
 62
     2
100
AcDbCircle
 10
4137.807385835222
 20
-44.73042341484153
 30
0.0
 40
0.8009999999999999
100
AcDbArc
 50
180.0
 51
0.0
  0
LINE
  5
270A5
102
{ACAD_REACTORS
330
2708E
102
}
330
18
100
AcDbEntity
  8
0
 62
     2
100
AcDbLine
 10
4136.605885835222
 20
-46.73292341484204
 30
0.0
 11
4138.608385835222
 21
-46.97322341484151
 31
0.0
  0
ARC
  5
270A6
330
18
100
AcDbEntity
  8
0
 62
     2
100
AcDbCircle
 10
4136.252362417221
 20
-74.28137691376298
 30
0.0
 40
0.5
100
AcDbArc
 50
180.0
 51
270.0
  0
ARC
  5
270A7
330
18
100
AcDbEntity
  8
0
 62
     2
100
AcDbCircle
 10
4136.252362417221
 20
-74.28137691376298
 30
0.0
 40
0.5
100
AcDbArc
 50
180.0
 51
270.0
  0
TEXT
  5
270A8
330
18
100
AcDbEntity
  8
0
 62
     2
100
AcDbText
 10
4136.653619973806
 20
-47.94952263922879
 30
0.0
 40
1.44
  1
DENSO
 50
270.0
 41
1.3
  7
TIMESNR
100
AcDbText
  0
TEXT
  5
270A9
330
18
100
AcDbEntity
  8
0
 62
     2
100
AcDbText
 10
4136.653619973806
 20
-47.94952263922834
 30
0.0
 40
1.44
  1
DENSO
 50
270.0
 41
1.3
  7
TIMESNR
100
AcDbText
  0
TEXT
  5
270AA
330
18
100
AcDbEntity
  8
0
 62
     2
100
AcDbText
 10
4144.135274564899
 20
-41.60534694462887
 30
0.0
 40
2.6
  1
MODEL:CLN1000MA
 50
270.0
 41
1.199999999999999
  7
MSゴシックN
 11
4143.660147661345
 21
-41.60534694462887
 31
0.0
100
AcDbText
 73
     1
  0
LEADER
  5
270AB
330
18
100
AcDbEntity
  8
文字
370
    13
100
AcDbLeader
  3
まこ
 73
     0
 74
     0
 75
     1
 40
7.005076142131978
 41
22.32487309644669
 76
     3
 10
4146.75236241722
 20
-92.78137691376299
 30
0.0
 10
4169.848575173741
 20
-72.00473362045034
 30
0.0
 10
4174.848575173742
 20
-72.00473362045034
 30
0.0
340
270AC
1001
ACAD
1000
DSTYLE
1002
{
1070
   147
1040
0.5
1070
    77
1070
     1
1002
}
  0
MTEXT
  5
270AC
102
{ACAD_REACTORS
330
270AB
102
}
330
18
100
AcDbEntity
  8
文字
370
    13
100
AcDbMText
 10
4175.848575173741
 20
-71.00473362045033
 30
0.0
 40
6.0
 41
0.0
 71
     7
 72
     1
  1
\A1;合格証
  7
まこ
 73
     1
 44
1.0
  0
LINE
  5
270AD
102
{ACAD_REACTORS
330
27082
102
}
330
18
100
AcDbEntity
  8
0
 62
     4
100
AcDbLine
 10
4140.053356497833
 20
-88.94145031538039
 30
0.0
 11
4140.053356497833
 21
-91.18425031538038
 31
0.0
  0
LINE
  5
270AE
102
{ACAD_REACTORS
330
27082
102
}
330
18
100
AcDbEntity
  8
0
 62
     4
100
AcDbLine
 10
4141.254856497834
 20
-91.34445031538064
 30
0.0
 11
4140.373756497833
 21
-88.54095031538065
 31
0.0
  0
TEXT
  5
270AF
330
18
100
AcDbEntity
  8
0
 62
     4
100
AcDbText
 10
4139.795353045403
 20
-92.28196264990776
 30
0.0
 40
1.44
  1
NIKKI
 50
270.0
  7
TIMESNR
100
AcDbText
  0
ARC
  5
270B0
330
18
100
AcDbEntity
  8
0
 62
     4
100
AcDbCircle
 10
4146.252362417221
 20
-85.78137691376298
 30
0.0
 40
0.5
100
AcDbArc
 50
0.0
 51
90.0
  0
TEXT
  5
270B1
330
18
100
AcDbEntity
  8
0
 62
     4
100
AcDbText
 10
4143.710921868149
 20
-86.49609539296955
 30
0.0
 40
2.0
  1
Certificate
 50
270.0
  7
TIMESNR
 11
4143.072133115445
 21
-86.49609539296955
 31
0.0
100
AcDbText
 73
     1
  0
LINE
  5
270B2
330
18
100
AcDbEntity
  8
0
 62
     4
100
AcDbLine
 10
4142.752362417222
 20
-85.28137691376299
 30
0.0
 11
4142.752362417222
 21
-100.2813769137629
 31
0.0
  0
LINE
  5
270B3
102
{ACAD_REACTORS
330
27082
102
}
330
18
100
AcDbEntity
  8
0
 62
     4
100
AcDbLine
 10
4141.254856497834
 20
-86.9389503153817
 30
0.0
 11
4141.254856497834
 21
-91.34445031538064
 31
0.0
  0
LINE
  5
270B4
330
18
100
AcDbEntity
  8
0
 62
     4
100
AcDbLine
 10
4146.75236241722
 20
-99.78137691376298
 30
0.0
 11
4146.75236241722
 21
-85.78137691376298
 31
0.0
  0
ARC
  5
270B5
330
18
100
AcDbEntity
  8
0
 62
     4
100
AcDbCircle
 10
4146.252362417221
 20
-99.78137691376298
 30
0.0
 40
0.5
100
AcDbArc
 50
270.0
 51
0.0
  0
LINE
  5
270B6
102
{ACAD_REACTORS
330
2708D
102
}
330
18
100
AcDbEntity
  8
0
 62
     2
100
AcDbLine
 10
4139.809885835222
 20
-42.72792341484102
 30
0.0
 11
4139.809885835222
 21
-47.13342341484087
 31
0.0
  0
LINE
  5
270B7
102
{ACAD_REACTORS
330
2708E
102
}
330
18
100
AcDbEntity
  8
0
 62
     2
100
AcDbLine
 10
4139.809885835222
 20
-42.72792341484102
 30
0.0
 11
4139.809885835222
 21
-47.13342341484177
 31
0.0
  0
ARC
  5
270B8
330
18
100
AcDbEntity
  8
0
 62
     2
100
AcDbCircle
 10
4147.252362417221
 20
-74.28137691376298
 30
0.0
 40
0.5
100
AcDbArc
 50
270.0
 51
0.0
  0
ARC
  5
270B9
330
18
100
AcDbEntity
  8
0
 62
     2
100
AcDbCircle
 10
4147.252362417221
 20
-74.28137691376298
 30
0.0
 40
0.5
100
AcDbArc
 50
270.0
 51
0.0
  0
TEXT
  5
270BA
330
18
100
AcDbEntity
  8
0
 62
     2
100
AcDbText
 10
4141.311241216468
 20
-41.57822037181733
 30
0.0
 40
2.0
  1
SER No.******
 50
270.0
 41
1.199999999999999
  7
MSゴシックN
 11
4140.945758982965
 21
-41.57822037181733
 31
0.0
100
AcDbText
 73
     1
  0
TEXT
  5
270BB
330
18
100
AcDbEntity
  8
0
 62
     2
100
AcDbText
 10
4141.311241216468
 20
-41.57822037181733
 30
0.0
 40
2.0
  1
SER No.******
 50
270.0
 41
1.199999999999999
  7
MSｺﾞｼｯｸN
 11
4140.945758982965
 21
-41.57822037181733
 31
0.0
100
AcDbText
 73
     1
  0
LINE
  5
270BC
330
18
100
AcDbEntity
  8
0
 62
     2
100
AcDbLine
 10
4147.252362417221
 20
-39.78137691376297
 30
0.0
 11
4136.252362417221
 21
-39.78137691376297
 31
0.0
  0
LINE
  5
270BD
330
18
100
AcDbEntity
  8
0
 62
     2
100
AcDbLine
 10
4147.252362417221
 20
-39.78137691376297
 30
0.0
 11
4136.252362417221
 21
-39.78137691376297
 31
0.0
  0
LINE
  5
270BE
330
18
100
AcDbEntity
  8
0
 48
0.3
370
    50
100
AcDbLine
 10
4170.75236241722
 20
7.718623086237136
 30
0.0
 11
4130.752362417221
 21
7.718623086237136
 31
0.0
  0
ARC
  5
270BF
330
18
100
AcDbEntity
  8
0
 62
     2
100
AcDbCircle
 10
4136.252362417221
 20
-40.28137691376297
 30
0.0
 40
0.5
100
AcDbArc
 50
90.0
 51
180.0
  0
ARC
  5
270C0
330
18
100
AcDbEntity
  8
0
 62
     2
100
AcDbCircle
 10
4136.252362417221
 20
-40.28137691376297
 30
0.0
 40
0.5
100
AcDbArc
 50
90.0
 51
180.0
  0
LINE
  5
270C1
330
18
100
AcDbEntity
  8
0
  6
PHANTOM
 48
0.6
370
     5
100
AcDbLine
 10
4129.552362417221
 20
-7.204965955667368
 30
0.0
 11
4124.552412174189
 21
-7.204965955667368
 31
0.0
  0
LINE
  5
270C7
330
18
100
AcDbEntity
  8
0
  6
CENTER
 62
     1
 48
0.6
370
    13
100
AcDbLine
 10
4106.875131549109
 20
0.3194230862373004
 30
0.0
 11
4133.793292894393
 21
0.3194230862373004
 31
0.0
  0
MTEXT
  5
270C8
102
{ACAD_REACTORS
330
2707B
102
}
330
18
100
AcDbEntity
  8
文字
370
    13
100
AcDbMText
 10
4174.877783736827
 20
-39.59088474106703
 30
0.0
 40
6.0
 41
0.0
 71
     7
 72
     1
  1
\A1;銘板
  7
まこ
 73
     1
 44
1.0
  0
ARC
  5
270C9
330
18
100
AcDbEntity
  8
0
 62
     2
100
AcDbCircle
 10
4147.252362417221
 20
-40.28137691376297
 30
0.0
 40
0.5
100
AcDbArc
 50
0.0
 51
90.0
  0
ARC
  5
270CA
330
18
100
AcDbEntity
  8
0
 62
     2
100
AcDbCircle
 10
4147.252362417221
 20
-40.28137691376297
 30
0.0
 40
0.5
100
AcDbArc
 50
0.0
 51
90.0
  0
CIRCLE
  5
270CD
330
18
100
AcDbEntity
  8
0
  6
HIDDEN
 48
0.45
370
    13
100
AcDbCircle
 10
4162.75344260789
 20
-2.192003952591214
 30
0.0
 40
4.0
  0
LINE
  5
270D0
330
18
100
AcDbEntity
  8
0
  6
CENTER
 62
     1
 48
0.6
370
    13
100
AcDbLine
 10
4173.717601907788
 20
0.2186230862371374
 30
0.0
 11
4158.336311138469
 21
0.2186230862371374
 31
0.0
  0
LINE
  5
270D8
330
18
100
AcDbEntity
  8
0
 48
0.3
370
    50
100
AcDbLine
 10
4170.75236241722
 20
-10.28142077801748
 30
0.0
 11
4170.75236241722
 21
7.718623086237136
 31
0.0
  0
LINE
  5
270D9
330
18
100
AcDbEntity
  8
0
 48
0.3
370
    50
100
AcDbLine
 10
4170.75236241722
 20
-10.28142077801748
 30
0.0
 11
4170.252362417221
 21
-10.28142077801748
 31
0.0
  0
LINE
  5
270DA
330
18
100
AcDbEntity
  8
0
 62
     4
370
    13
100
AcDbLine
 10
4220.98338144051
 20
7.71862308623713
 30
0.0
 11
4220.98338144051
 21
0.2186230862371303
 31
0.0
  0
LINE
  5
270DB
330
18
100
AcDbEntity
  8
0
370
    50
100
AcDbLine
 10
4261.784081367976
 20
7.718623086237137
 30
0.0
 11
4261.784081367976
 21
-10.27860474188946
 31
0.0
  0
LINE
  5
270DC
330
18
100
AcDbEntity
  8
0
370
    50
100
AcDbLine
 10
4246.761898348199
 20
-10.27860474188946
 30
0.0
 11
4420.784081367976
 21
-10.27860474188946
 31
0.0
  0
MTEXT
  5
270DE
102
{ACAD_REACTORS
330
270E7
102
}
330
18
100
AcDbEntity
  8
文字
370
    13
100
AcDbMText
 10
4566.249857304917
 20
17.68511882715344
 30
0.0
 40
6.0
 41
0.0
 71
     7
 72
     1
  1
取付穴10-M5ネジ深10
  7
まこ
 73
     1
 44
1.0
  0
LINE
  5
270E0
330
18
100
AcDbEntity
  8
0
  6
CENTER
 62
     1
 48
0.3
370
    13
100
AcDbLine
 10
4287.676656963974
 20
0.2186230862371303
 30
0.0
 11
4297.644943001053
 21
0.2186230862371303
 31
0.0
  0
CIRCLE
  5
270E1
330
18
100
AcDbEntity
  8
0
370
     9
100
AcDbCircle
 10
4292.761898348198
 20
0.2186230862371303
 30
0.0
 40
2.5
  0
CIRCLE
  5
270E2
330
18
100
AcDbEntity
  8
0
370
    20
100
AcDbCircle
 10
4292.761898348198
 20
0.2186230862371303
 30
0.0
 40
2.0
  0
LEADER
  5
270E7
330
18
100
AcDbEntity
  8
文字
370
    13
100
AcDbLeader
  3
まこ
 73
     0
 74
     0
 75
     1
 40
7.187817258883248
 41
73.30964467005076
 76
     3
 10
4550.591844563956
 20
1.968001237890545
 30
0.0
 10
4560.249857304918
 20
16.68511882715344
 30
0.0
 10
4565.249857304918
 20
16.68511882715344
 30
0.0
340
270DE
1001
ACAD
1000
DSTYLE
1002
{
1070
   147
1040
0.5
1070
    77
1070
     1
1002
}
  0
LINE
  5
270EC
330
18
100
AcDbEntity
  8
0
370
    50
100
AcDbLine
 10
4580.784120748199
 20
-10.27860474188946
 30
0.0
 11
4594.761898348198
 21
-10.27860474188946
 31
0.0
  0
LINE
  5
270ED
330
18
100
AcDbEntity
  8
0
370
    50
100
AcDbLine
 10
4579.784120748199
 20
7.71862308623713
 30
0.0
 11
4579.784120748199
 21
-10.27860474188946
 31
0.0
  0
DIMENSION
  5
270EE
330
18
100
AcDbEntity
  8
0
 62
     4
370
    13
100
AcDbDimension
  2
*D49
 10
4745.612800948175
 20
-104.2790436367054
 30
0.0
 11
4741.612800948175
 21
-57.27904361281032
 31
0.0
 70
    32
 71
     5
 42
94.00000004778872
  3
まこ
100
AcDbAlignedDimension
 13
4777.482430506455
 23
-10.27904358891673
 33
0.0
 14
4777.481725041938
 24
-104.2790436367054
 34
0.0
 50
90.0
100
AcDbRotatedDimension
1001
ACAD
1000
DSTYLE
1002
{
1070
   271
1070
     6
1070
   279
1070
     1
1002
}
  0
LINE
  5
270EF
330
18
100
AcDbEntity
  8
0
 48
0.3
370
    50
100
AcDbLine
 10
4777.982430506455
 20
-10.27904358891673
 30
0.0
 11
4777.982430506455
 21
-104.2790435889167
 31
0.0
  0
LINE
  5
270F2
330
18
100
AcDbEntity
  8
0
 48
0.3
370
    50
100
AcDbLine
 10
4817.482430506456
 20
7.720956411083264
 30
0.0
 11
4817.482430506456
 21
-122.2790435889167
 31
0.0
  0
LWPOLYLINE
  5
270F3
330
18
100
AcDbEntity
  8
0
  6
PHANTOM
 48
0.6
370
     5
100
AcDbPolyline
 90
        4
 70
     1
 43
0.0
 10
4823.682430506456
 20
7.720934685026094
 10
4831.482430506456
 20
7.720934685026094
 10
4831.482430506456
 20
-122.2790653149743
 10
4823.682430506456
 20
-122.2790653149743
  0
LINE
  5
270F4
330
18
100
AcDbEntity
  8
0
  6
PHANTOM
 48
0.6
370
     5
100
AcDbLine
 10
4818.682430506456
 20
-107.1790874531714
 30
0.0
 11
4818.682430506456
 21
-7.202632630821227
 31
0.0
  0
LEADER
  5
270F7
330
18
100
AcDbEntity
  8
文字
370
    13
100
AcDbLeader
  3
まこ
 73
     0
 74
     0
 75
     1
 40
17.82741116751268
 41
85.21827411167512
 76
     3
 10
4828.582380749487
 20
-122.2790653149743
 30
0.0
 10
4793.011870737145
 20
-178.8673476887224
 30
0.0
 10
4798.011870737146
 20
-178.8673476887224
 30
0.0
340
2716D
213
-5.442785655195621
223
0.1272420806863295
233
0.0
1001
ACAD
1000
DSTYLE
1002
{
1070
   147
1040
0.5
1070
    77
1070
     1
1002
}
  0
LINE
  5
270F8
330
18
100
AcDbEntity
  8
0
  6
CENTER
 62
     1
 48
0.6
370
    13
100
AcDbLine
 10
4841.359611617598
 20
-114.6782435889165
 30
0.0
 11
4814.399306148523
 21
-114.6782435889165
 31
0.0
  0
DIMENSION
  5
27106
330
18
100
AcDbEntity
  8
0
 62
     4
370
    13
100
AcDbDimension
  2
*D50
 10
4745.612800948175
 20
-122.2790435611378
 30
0.0
 11
4745.612800948175
 21
-113.2766663998159
 31
0.0
 70
   160
  1
（<>）
 71
     5
 42
17.99999997222113
  3
まこ
100
AcDbAlignedDimension
 13
4777.481725041936
 23
-104.2790435889167
 33
0.0
 14
4777.482430504735
 24
-122.2790435611378
 34
0.0
 50
90.0
100
AcDbRotatedDimension
1001
ACAD
1000
DSTYLE
1002
{
1070
   279
1070
     1
1002
}
  0
LINE
  5
27142
330
18
100
AcDbEntity
  8
0
 48
0.3
370
    50
100
AcDbLine
 10
4817.482430506456
 20
-122.2790435889167
 30
0.0
 11
4777.482430506455
 21
-122.2790435889167
 31
0.0
  0
LINE
  5
27143
330
18
100
AcDbEntity
  8
0
 48
0.3
370
    50
100
AcDbLine
 10
4777.482430504736
 20
-122.2790435889167
 30
0.0
 11
4777.481725041936
 21
-104.2790435889167
 31
0.0
  0
LINE
  5
27144
330
18
100
AcDbEntity
  8
0
 48
0.3
370
    50
100
AcDbLine
 10
4777.982562163151
 20
-104.2790435889167
 30
0.0
 11
4777.48172172193
 21
-104.2790435889167
 31
0.0
  0
LINE
  5
2714D
330
18
100
AcDbEntity
  8
0
  6
CENTER
 62
     1
 48
0.6
370
    13
100
AcDbLine
 10
4774.517191015887
 20
-114.7790435889167
 30
0.0
 11
4789.898481785207
 21
-114.7790435889167
 31
0.0
  0
CIRCLE
  5
27151
330
18
100
AcDbEntity
  8
0
  6
HIDDEN
 48
0.45
370
    13
100
AcDbCircle
 10
4785.481350315787
 20
-112.1896706277455
 30
0.0
 40
4.0
  0
LEADER
  5
27154
330
18
100
AcDbEntity
  8
0
370
    13
100
AcDbLeader
  3
まこ
 73
     0
 75
     1
 40
7.279187817258882
 41
45.59390862944161
 76
     3
 10
4797.157772729512
 20
-120.1762045115201
 30
0.0
 10
4793.456160059335
 20
-174.3187831787279
 30
0.0
 10
4788.456160059335
 20
-174.3187831787279
 30
0.0
340
27155
213
-2.704692684656947
223
-0.3805761528126084
233
0.0
1001
ACAD
1000
DSTYLE
1002
{
1070
   147
1040
0.5
1070
    77
1070
     1
1002
}
  0
MTEXT
  5
27155
102
{ACAD_REACTORS
330
27154
102
}
330
18
100
AcDbEntity
  8
0
 62
     2
370
    13
100
AcDbMText
 10
4790.160852743992
 20
-169.2986131172858
 30
0.0
 40
6.0
 41
0.0
 71
     6
 72
     1
  1
\A1;ケーブル位置
  7
まこ
 73
     1
 44
1.0
  0
LINE
  5
27167
330
18
100
AcDbEntity
  8
0
  6
PHANTOM
 48
0.6
370
     5
100
AcDbLine
 10
4823.682380749488
 20
-107.1790874531714
 30
0.0
 11
4818.682430506456
 21
-107.1790874531714
 31
0.0
  0
MTEXT
  5
2716D
102
{ACAD_REACTORS
330
270F7
102
}
330
18
100
AcDbEntity
  8
文字
370
    13
100
AcDbMText
 10
4804.454656392341
 20
-177.9945897694088
 30
0.0
 40
6.0
 41
0.0
 71
     7
 72
     1
  1
組合せマグネットベース\PＭＢＮＡシリーズ
  7
まこ
 73
     1
 44
1.0
  0
LINE
  5
2716E
330
18
100
AcDbEntity
  8
0
  6
CENTER
 62
     1
 48
0.6
370
    13
100
AcDbLine
 10
4760.505483151596
 20
-57.27904358891672
 30
0.0
 11
4849.001509019934
 21
-57.27904358891672
 31
0.0
  0
LINE
  5
2716F
330
18
100
AcDbEntity
  8
0
  6
CENTER
 62
     1
 48
0.6
370
    13
100
AcDbLine
 10
4841.359611617598
 20
0.3217564110834417
 30
0.0
 11
4814.441450272315
 21
0.3217564110834417
 31
0.0
  0
DIMENSION
  5
27170
330
18
100
AcDbEntity
  8
0
 62
     4
370
    13
100
AcDbDimension
  2
*D43
 10
4831.482430506456
 20
34.23303937167833
 30
0.0
 11
4848.76814479217
 21
38.23303937167834
 31
0.0
 70
    32
 71
     5
 42
7.800000000000181
  3
まこ
100
AcDbAlignedDimension
 13
4823.682430506456
 23
7.720934685026094
 33
0.0
 14
4831.482430506456
 24
7.720934685026094
 34
0.0
100
AcDbRotatedDimension
  0
DIMENSION
  5
27171
330
18
100
AcDbEntity
  8
0
 62
     4
370
    13
100
AcDbDimension
  2
*D44
 10
4831.482430506456
 20
47.36977554391342
 30
0.0
 11
4851.053859077884
 21
51.36977554391342
 31
0.0
 70
    32
 71
     5
 42
12.80000000000018
  3
まこ
100
AcDbAlignedDimension
 13
4818.682430506456
 23
-7.202632630821227
 33
0.0
 14
4831.482430506456
 24
7.720934685026094
 34
0.0
100
AcDbRotatedDimension
1001
ACAD
1000
DSTYLE
1002
{
1070
   172
1070
     1
1070
   343
1005
153E2
1070
   342
1005
0
1070
   173
1070
     1
1070
   344
1005
1215D
1002
}
  0
DIMENSION
  5
27172
330
18
100
AcDbEntity
  8
0
 62
     4
370
    13
100
AcDbDimension
  2
*D45
 10
4818.682430506456
 20
47.36977554391342
 30
0.0
 11
4839.853898051103
 21
64.06711994389934
 31
0.0
 70
   160
 71
     5
 42
1.199999999999818
  3
まこ
100
AcDbAlignedDimension
 13
4817.482430506456
 23
7.720912546828657
 33
0.0
 14
4818.682430506456
 24
-7.202632630821227
 34
0.0
100
AcDbRotatedDimension
1001
ACAD
1000
DSTYLE
1002
{
1070
   344
1005
153E2
1070
   342
1005
0
1070
   173
1070
     1
1070
   343
1005
1215D
1070
   279
1070
     2
1002
}
  0
DIMENSION
  5
27173
330
18
100
AcDbEntity
  8
0
 62
     4
370
    13
100
AcDbDimension
  2
*D46
 10
4817.482430506456
 20
47.36977554391342
 30
0.0
 11
4797.482430506455
 21
51.36977554391342
 31
0.0
 70
    32
 71
     5
 42
40.0
  3
まこ
100
AcDbAlignedDimension
 13
4777.482430506455
 23
7.720912546828657
 33
0.0
 14
4817.482430506456
 24
7.720912546828657
 34
0.0
100
AcDbRotatedDimension
1001
ACAD
1000
DSTYLE
1002
{
1070
   271
1070
     6
1002
}
  0
DIMENSION
  5
27174
330
18
100
AcDbEntity
  8
0
 62
     4
370
    13
100
AcDbDimension
  2
*D47
 10
4831.482430506456
 20
71.58389546837563
 30
0.0
 11
4804.482430506456
 21
71.58389546837563
 31
0.0
 70
   160
  1
<>（取付寸法）
 71
     5
 42
54.0
  3
まこ
100
AcDbAlignedDimension
 13
4777.482430506455
 23
7.720912546828657
 33
0.0
 14
4831.482430506456
 24
7.720934685026094
 34
0.0
100
AcDbRotatedDimension
  0
DIMENSION
  5
27175
330
18
100
AcDbEntity
  8
0
 62
     4
370
    13
100
AcDbDimension
  2
*D48
 10
4745.612800948175
 20
-10.27904358891672
 30
0.0
 11
4745.612800948175
 21
-1.279043588915962
 31
0.0
 70
   160
  1
（<>）
 71
     5
 42
17.99999999999999
  3
まこ
100
AcDbAlignedDimension
 13
4777.48302481856
 23
7.720956411083264
 33
0.0
 14
4777.482430506455
 24
-10.27904358891673
 34
0.0
 50
90.0
100
AcDbRotatedDimension
1001
ACAD
1000
DSTYLE
1002
{
1070
   271
1070
     6
1002
}
  0
LINE
  5
27176
330
18
100
AcDbEntity
  8
0
 48
0.3
370
    50
100
AcDbLine
 10
4777.482430506455
 20
7.720956411083264
 30
0.0
 11
4817.482430506456
 21
7.720956411083264
 31
0.0
  0
DIMENSION
  5
27177
330
18
100
AcDbEntity
  8
0
 62
     4
370
    13
100
AcDbDimension
  2
*D51
 10
4777.982430506455
 20
-28.68189634508851
 30
0.0
 11
4760.196716220741
 21
-28.68189634508851
 31
0.0
 70
   160
 71
     5
 42
0.5
  3
まこ
100
AcDbAlignedDimension
 13
4777.482430506455
 23
-10.27904358891673
 33
0.0
 14
4777.982430506455
 24
-10.27904358891673
 34
0.0
100
AcDbRotatedDimension
  0
LINE
  5
27178
330
18
100
AcDbEntity
  8
0
 48
0.3
370
    50
100
AcDbLine
 10
4777.482430506455
 20
-10.27904358891673
 30
0.0
 11
4777.982430506455
 21
-10.27904358891673
 31
0.0
  0
LINE
  5
27179
330
18
100
AcDbEntity
  8
0
 48
0.3
370
    50
100
AcDbLine
 10
4777.482430506455
 20
-10.27904358891673
 30
0.0
 11
4777.482430506455
 21
7.720956411083264
 31
0.0
  0
LINE
  5
27181
330
18
100
AcDbEntity
  8
0
  6
CENTER
 62
     1
 48
0.6
370
    13
100
AcDbLine
 10
4774.517191015887
 20
0.2209564110832787
 30
0.0
 11
4789.898481785207
 21
0.2209564110832787
 31
0.0
  0
CIRCLE
  5
27184
330
18
100
AcDbEntity
  8
0
  6
HIDDEN
 48
0.45
370
    13
100
AcDbCircle
 10
4785.481350315786
 20
-2.189670627745073
 30
0.0
 40
4.0
  0
LINE
  5
27187
330
18
100
AcDbEntity
  8
0
  6
PHANTOM
 48
0.6
370
     5
100
AcDbLine
 10
4818.682430506456
 20
-7.202632630821227
 30
0.0
 11
4823.682380749488
 21
-7.202632630821227
 31
0.0
  0
LINE
  5
2718D
330
18
100
AcDbEntity
  8
0
 62
     4
370
    13
100
AcDbLine
 10
4823.682380749488
 20
34.23303937167833
 30
0.0
 11
4834.059882342137
 21
34.23303937167833
 31
0.0
  0
TEXT
  5
2718E
330
18
100
AcDbEntity
  8
文字
370
    13
100
AcDbText
 10
4845.292574735325
 20
61.14462583740144
 30
0.0
 40
6.0
  1
（ギャップ）
 41
0.6
  7
ｽﾀｲﾙ3
100
AcDbText
  0
TEXT
  5
2718F
330
18
100
AcDbEntity
  8
0
 62
     7
100
AcDbText
 10
4138.256957693658
 20
-59.40303730831384
 30
137.5
 40
1.5
  1
SN-16140
 50
270.0
  7
MSゴシックN
 11
4137.982846018531
 21
-59.40303730831384
 31
137.5
100
AcDbText
 73
     1
  0
TEXT
  5
27190
330
18
100
AcDbEntity
  8
0
 62
     7
100
AcDbText
 10
4136.387171643272
 20
-59.40303730831384
 30
137.5
 40
1.5
  1
MADE IN JAPAN
 50
270.0
  7
MSゴシックN
 11
4136.113059968145
 21
-59.40303730831384
 31
137.5
100
AcDbText
 73
     1
  0
CIRCLE
  5
2733A
330
18
100
AcDbEntity
  8
0
  6
HIDDEN
 48
0.45
370
    13
100
AcDbCircle
 10
4340.751898348198
 20
-217.6484581668432
 30
0.0
 40
6.0
  0
LINE
  5
2733C
330
18
100
AcDbEntity
  8
隠れ線
 48
0.6
370
    13
100
AcDbLine
 10
4261.784081367976
 20
-212.1484581668432
 30
0.0
 11
4579.784120748199
 21
-212.1484581668432
 31
0.0
  0
LINE
  5
2733D
330
18
100
AcDbEntity
  8
隠れ線
 48
0.6
370
    13
100
AcDbLine
 10
4261.784081367976
 20
-221.6484581668432
 30
0.0
 11
4579.784120748199
 21
-221.6484581668432
 31
0.0
  0
LWPOLYLINE
  5
2733E
330
18
100
AcDbEntity
  8
0
370
    50
100
AcDbPolyline
 90
        2
 70
     0
 43
0.0
 10
4579.784120748199
 20
-236.1484581668432
 10
4261.784081367976
 20
-236.1484581668432
  0
LINE
  5
2733F
330
18
100
AcDbEntity
  8
0
370
    50
100
AcDbLine
 10
4246.761898348199
 20
-210.1484581668432
 30
0.0
 11
4594.761898348198
 21
-210.1484581668432
 31
0.0
  0
LINE
  5
27340
330
18
100
AcDbEntity
  8
0
370
    50
100
AcDbLine
 10
4594.761898348198
 20
-250.1484581668433
 30
0.0
 11
4246.761898348199
 21
-250.1484581668433
 31
0.0
  0
LINE
  5
27341
330
18
100
AcDbEntity
  8
隠れ線
 48
0.6
370
    13
100
AcDbLine
 10
4290.761162428341
 20
-220.1484581668432
 30
0.0
 11
4294.753684919146
 21
-220.1484581668432
 31
0.0
  0
LINE
  5
27342
330
18
100
AcDbEntity
  8
隠れ線
 48
0.6
370
    13
100
AcDbLine
 10
4291.26116242834
 20
-210.1484581668432
 30
0.0
 11
4291.26116242834
 21
-221.6484581668428
 31
0.0
  0
LINE
  5
27343
330
18
100
AcDbEntity
  8
隠れ線
 48
0.6
370
    13
100
AcDbLine
 10
4290.761162428341
 20
-220.1484581668432
 30
0.0
 11
4291.26116242834
 21
-220.8371508211143
 31
0.0
  0
LINE
  5
27344
330
18
100
AcDbEntity
  8
隠れ線
 48
0.6
370
    13
100
AcDbLine
 10
4290.761162428341
 20
-210.1484581668432
 30
0.0
 11
4290.761162428341
 21
-220.1484581668432
 31
0.0
  0
LINE
  5
27345
330
18
100
AcDbEntity
  8
0
  6
CENTER
 62
     1
 48
0.6
370
    13
100
AcDbLine
 10
4292.761898348198
 20
-223.9159921356117
 30
0.0
 11
4292.761898348198
 21
-208.3981454647014
 31
0.0
  0
LINE
  5
2734A
330
18
100
AcDbEntity
  8
0
370
    50
100
AcDbLine
 10
4261.784081367976
 20
-210.1484581668432
 30
0.0
 11
4261.784081367976
 21
-236.1484581668432
 31
0.0
  0
CIRCLE
  5
2734B
330
18
100
AcDbEntity
  8
0
  6
HIDDEN
 48
0.45
370
    13
100
AcDbCircle
 10
4269.631898348198
 20
-217.6484581668432
 30
0.0
 40
6.0
  0
LINE
  5
2734C
330
18
100
AcDbEntity
  8
0
370
    50
100
AcDbLine
 10
4246.761898348199
 20
-210.1484581668432
 30
0.0
 11
4246.761898348199
 21
-250.1484581668433
 31
0.0
  0
LINE
  5
2734D
330
18
100
AcDbEntity
  8
0
370
    50
100
AcDbLine
 10
4246.761898348199
 20
-212.1398656937035
 30
0.0
 11
4261.784081367976
 21
-212.1398656937035
 31
0.0
  0
LINE
  5
27351
330
18
100
AcDbEntity
  8
隠れ線
 48
0.6
370
    13
100
AcDbLine
 10
4294.753684919146
 20
-220.1484581668432
 30
0.0
 11
4294.753684919146
 21
-210.1484581668432
 31
0.0
  0
CIRCLE
  5
27355
330
18
100
AcDbEntity
  8
0
  6
HIDDEN
 48
0.45
370
    13
100
AcDbCircle
 10
4305.191898348199
 20
-217.6484581668432
 30
0.0
 40
6.0
  0
LINE
  5
27357
330
18
100
AcDbEntity
  8
隠れ線
 48
0.6
370
    13
100
AcDbLine
 10
4294.26116242834
 20
-210.1484581668432
 30
0.0
 11
4294.26116242834
 21
-221.6484581668428
 31
0.0
  0
LINE
  5
27358
330
18
100
AcDbEntity
  8
隠れ線
 48
0.6
370
    13
100
AcDbLine
 10
4294.26116242834
 20
-220.8371508211143
 30
0.0
 11
4294.753684919146
 21
-220.1484581668432
 31
0.0
  0
LWPOLYLINE
  5
27359
330
18
100
AcDbEntity
  8
0
370
    50
100
AcDbPolyline
 90
        2
 70
     0
 43
0.0
 10
4420.784081367976
 20
-210.1484581668432
 10
4580.784120748199
 20
-210.1484581668432
  0
LINE
  5
2735A
330
18
100
AcDbEntity
  8
隠れ線
 48
0.6
370
    13
100
AcDbLine
 10
4358.753684919146
 20
-220.1484581668432
 30
0.0
 11
4358.753684919146
 21
-210.1484581668432
 31
0.0
  0
LINE
  5
27360
330
18
100
AcDbEntity
  8
隠れ線
 48
0.6
370
    13
100
AcDbLine
 10
4358.26116242834
 20
-210.1484581668432
 30
0.0
 11
4358.26116242834
 21
-221.6484581668428
 31
0.0
  0
LINE
  5
27361
330
18
100
AcDbEntity
  8
隠れ線
 48
0.6
370
    13
100
AcDbLine
 10
4355.26116242834
 20
-210.1484581668432
 30
0.0
 11
4355.26116242834
 21
-221.6484581668428
 31
0.0
  0
LINE
  5
27362
330
18
100
AcDbEntity
  8
隠れ線
 48
0.6
370
    13
100
AcDbLine
 10
4354.761162428341
 20
-220.1484581668432
 30
0.0
 11
4355.26116242834
 21
-220.8371508211143
 31
0.0
  0
LINE
  5
27363
330
18
100
AcDbEntity
  8
0
  6
CENTER
 62
     1
 48
0.6
370
    13
100
AcDbLine
 10
4356.761898348199
 20
-223.9159921356117
 30
0.0
 11
4356.761898348199
 21
-208.3981454647014
 31
0.0
  0
LINE
  5
27364
330
18
100
AcDbEntity
  8
隠れ線
 48
0.6
370
    13
100
AcDbLine
 10
4354.761162428341
 20
-210.1484581668432
 30
0.0
 11
4354.761162428341
 21
-220.1484581668432
 31
0.0
  0
LINE
  5
27365
330
18
100
AcDbEntity
  8
隠れ線
 48
0.6
370
    13
100
AcDbLine
 10
4358.26116242834
 20
-220.8371508211143
 30
0.0
 11
4358.753684919146
 21
-220.1484581668432
 31
0.0
  0
LINE
  5
27366
330
18
100
AcDbEntity
  8
隠れ線
 48
0.6
370
    13
100
AcDbLine
 10
4354.761162428341
 20
-220.1484581668432
 30
0.0
 11
4358.753684919146
 21
-220.1484581668432
 31
0.0
  0
CIRCLE
  5
27367
330
18
100
AcDbEntity
  8
0
  6
HIDDEN
 48
0.45
370
    13
100
AcDbCircle
 10
4376.311898348199
 20
-217.6484581668432
 30
0.0
 40
6.0
  0
CIRCLE
  5
27368
330
18
100
AcDbEntity
  8
0
  6
HIDDEN
 48
0.45
370
    13
100
AcDbCircle
 10
4429.651898348198
 20
-217.6484581668432
 30
0.0
 40
6.0
  0
LINE
  5
27369
330
18
100
AcDbEntity
  8
隠れ線
 48
0.3
370
    13
100
AcDbLine
 10
4422.753684919146
 20
-220.1484581668432
 30
0.0
 11
4422.753684919146
 21
-210.1484581668432
 31
0.0
  0
CIRCLE
  5
27372
330
18
100
AcDbEntity
  8
0
  6
HIDDEN
 48
0.45
370
    13
100
AcDbCircle
 10
4411.871898348198
 20
-217.6484581668432
 30
0.0
 40
6.0
  0
LINE
  5
27373
330
18
100
AcDbEntity
  8
隠れ線
 48
0.3
370
    13
100
AcDbLine
 10
4422.26116242834
 20
-210.1484581668432
 30
0.0
 11
4422.26116242834
 21
-221.6484581668428
 31
0.0
  0
LINE
  5
27374
330
18
100
AcDbEntity
  8
隠れ線
 48
0.3
370
    13
100
AcDbLine
 10
4419.26116242834
 20
-210.1484581668432
 30
0.0
 11
4419.26116242834
 21
-221.6484581668428
 31
0.0
  0
LINE
  5
27375
330
18
100
AcDbEntity
  8
隠れ線
 48
0.3
370
    13
100
AcDbLine
 10
4418.761162428341
 20
-220.1484581668432
 30
0.0
 11
4419.26116242834
 21
-220.8371508211143
 31
0.0
  0
LINE
  5
27376
330
18
100
AcDbEntity
  8
0
  6
CENTER
 62
     1
 48
0.3
370
    13
100
AcDbLine
 10
4420.761898348199
 20
-223.9159921356117
 30
0.0
 11
4420.761898348199
 21
-208.3981454647014
 31
0.0
  0
LINE
  5
27377
330
18
100
AcDbEntity
  8
隠れ線
 48
0.3
370
    13
100
AcDbLine
 10
4418.761162428341
 20
-210.1484581668432
 30
0.0
 11
4418.761162428341
 21
-220.1484581668432
 31
0.0
  0
LINE
  5
27378
330
18
100
AcDbEntity
  8
隠れ線
 48
0.3
370
    13
100
AcDbLine
 10
4422.26116242834
 20
-220.8371508211143
 30
0.0
 11
4422.753684919146
 21
-220.1484581668432
 31
0.0
  0
LINE
  5
27379
330
18
100
AcDbEntity
  8
隠れ線
 48
0.3
370
    13
100
AcDbLine
 10
4418.761162428341
 20
-220.1484581668432
 30
0.0
 11
4422.753684919146
 21
-220.1484581668432
 31
0.0
  0
LINE
  5
2737A
330
18
100
AcDbEntity
  8
隠れ線
 48
0.6
370
    13
100
AcDbLine
 10
4486.753684919146
 20
-220.1484581668432
 30
0.0
 11
4486.753684919146
 21
-210.1484581668432
 31
0.0
  0
LINE
  5
2737C
330
18
100
AcDbEntity
  8
隠れ線
 48
0.6
370
    13
100
AcDbLine
 10
4486.26116242834
 20
-210.1484581668432
 30
0.0
 11
4486.26116242834
 21
-221.6484581668428
 31
0.0
  0
LINE
  5
2737D
330
18
100
AcDbEntity
  8
隠れ線
 48
0.6
370
    13
100
AcDbLine
 10
4483.26116242834
 20
-210.1484581668432
 30
0.0
 11
4483.26116242834
 21
-221.6484581668428
 31
0.0
  0
LINE
  5
2737E
330
18
100
AcDbEntity
  8
隠れ線
 48
0.6
370
    13
100
AcDbLine
 10
4482.76116242834
 20
-220.1484581668432
 30
0.0
 11
4483.26116242834
 21
-220.8371508211143
 31
0.0
  0
LINE
  5
2737F
330
18
100
AcDbEntity
  8
0
  6
CENTER
 62
     1
 48
0.6
370
    13
100
AcDbLine
 10
4484.761898348199
 20
-223.9159921356117
 30
0.0
 11
4484.761898348199
 21
-208.3981454647014
 31
0.0
  0
LINE
  5
27380
330
18
100
AcDbEntity
  8
隠れ線
 48
0.6
370
    13
100
AcDbLine
 10
4482.76116242834
 20
-210.1484581668432
 30
0.0
 11
4482.76116242834
 21
-220.1484581668432
 31
0.0
  0
LINE
  5
27381
330
18
100
AcDbEntity
  8
隠れ線
 48
0.6
370
    13
100
AcDbLine
 10
4486.26116242834
 20
-220.8371508211143
 30
0.0
 11
4486.753684919146
 21
-220.1484581668432
 31
0.0
  0
LINE
  5
27382
330
18
100
AcDbEntity
  8
隠れ線
 48
0.6
370
    13
100
AcDbLine
 10
4482.76116242834
 20
-220.1484581668432
 30
0.0
 11
4486.753684919146
 21
-220.1484581668432
 31
0.0
  0
CIRCLE
  5
27385
330
18
100
AcDbEntity
  8
0
  6
HIDDEN
 48
0.45
370
    13
100
AcDbCircle
 10
4465.211898348199
 20
-217.6484581668432
 30
0.0
 40
6.0
  0
CIRCLE
  5
27387
330
18
100
AcDbEntity
  8
0
  6
HIDDEN
 48
0.45
370
    13
100
AcDbCircle
 10
4536.331898348199
 20
-217.6484581668432
 30
0.0
 40
6.0
  0
CIRCLE
  5
2738F
330
18
100
AcDbEntity
  8
0
  6
HIDDEN
 48
0.45
370
    13
100
AcDbCircle
 10
4500.771898348199
 20
-217.6484581668432
 30
0.0
 40
6.0
  0
LINE
  5
27394
330
18
100
AcDbEntity
  8
0
370
    50
100
AcDbLine
 10
4579.784120748199
 20
-212.1398656937035
 30
0.0
 11
4594.761898348198
 21
-212.1398656937035
 31
0.0
  0
LINE
  5
27396
330
18
100
AcDbEntity
  8
0
370
    50
100
AcDbLine
 10
4579.784120748199
 20
-210.1484581668432
 30
0.0
 11
4579.784120748199
 21
-236.1484581668432
 31
0.0
  0
CIRCLE
  5
27399
330
18
100
AcDbEntity
  8
0
  6
HIDDEN
 48
0.45
370
    13
100
AcDbCircle
 10
4571.891898348199
 20
-217.6484581668432
 30
0.0
 40
6.0
  0
LINE
  5
2739B
330
18
100
AcDbEntity
  8
隠れ線
 48
0.6
370
    13
100
AcDbLine
 10
4550.26116242834
 20
-210.1484581668432
 30
0.0
 11
4550.26116242834
 21
-221.6484581668428
 31
0.0
  0
LINE
  5
2739C
330
18
100
AcDbEntity
  8
隠れ線
 48
0.6
370
    13
100
AcDbLine
 10
4547.26116242834
 20
-210.1484581668432
 30
0.0
 11
4547.26116242834
 21
-221.6484581668428
 31
0.0
  0
LINE
  5
2739D
330
18
100
AcDbEntity
  8
隠れ線
 48
0.6
370
    13
100
AcDbLine
 10
4550.26116242834
 20
-220.8371508211143
 30
0.0
 11
4550.753684919146
 21
-220.1484581668432
 31
0.0
  0
LINE
  5
2739E
330
18
100
AcDbEntity
  8
隠れ線
 48
0.6
370
    13
100
AcDbLine
 10
4546.761162428341
 20
-220.1484581668432
 30
0.0
 11
4547.26116242834
 21
-220.8371508211143
 31
0.0
  0
LINE
  5
2739F
330
18
100
AcDbEntity
  8
隠れ線
 48
0.6
370
    13
100
AcDbLine
 10
4546.761162428341
 20
-220.1484581668432
 30
0.0
 11
4550.753684919146
 21
-220.1484581668432
 31
0.0
  0
LINE
  5
273A0
330
18
100
AcDbEntity
  8
0
  6
CENTER
 62
     1
 48
0.6
370
    13
100
AcDbLine
 10
4548.761898348199
 20
-223.9159921356117
 30
0.0
 11
4548.761898348199
 21
-208.3981454647014
 31
0.0
  0
LINE
  5
273A1
330
18
100
AcDbEntity
  8
隠れ線
 48
0.6
370
    13
100
AcDbLine
 10
4550.753684919146
 20
-220.1484581668432
 30
0.0
 11
4550.753684919146
 21
-210.1484581668432
 31
0.0
  0
LINE
  5
273A2
330
18
100
AcDbEntity
  8
隠れ線
 48
0.6
370
    13
100
AcDbLine
 10
4546.761162428341
 20
-210.1484581668432
 30
0.0
 11
4546.761162428341
 21
-220.1484581668432
 31
0.0
  0
LINE
  5
273A6
330
18
100
AcDbEntity
  8
0
370
    50
100
AcDbLine
 10
4594.761898348198
 20
-210.1484581668432
 30
0.0
 11
4594.761898348198
 21
-250.1484581668433
 31
0.0
  0
LINE
  5
273F4
330
18
100
AcDbEntity
  8
0
  6
CENTER
 62
     1
 48
0.3
370
    13
100
AcDbLine
 10
4292.761898348198
 20
-120.1781480188615
 30
0.0
 11
4292.761898348198
 21
-109.5506655914105
 31
0.0
  0
LINE
  5
273F5
330
18
100
AcDbEntity
  8
0
  6
CENTER
 62
     1
 48
0.3
370
    13
100
AcDbLine
 10
4292.761898348198
 20
-4.45247244717575
 30
0.0
 11
4292.761898348198
 21
4.715124635507891
 31
0.0
  0
CIRCLE
  5
27438
330
18
100
AcDbEntity
  8
0
370
     9
100
AcDbCircle
 10
4356.761898348199
 20
0.2186230862371303
 30
0.0
 40
2.5
  0
CIRCLE
  5
27439
330
18
100
AcDbEntity
  8
0
370
    20
100
AcDbCircle
 10
4356.761898348199
 20
0.2186230862371303
 30
0.0
 40
2.0
  0
LINE
  5
2743A
330
18
100
AcDbEntity
  8
0
  6
CENTER
 62
     1
 48
0.3
370
    13
100
AcDbLine
 10
4356.761898348199
 20
-4.45247244717575
 30
0.0
 11
4356.761898348199
 21
4.715124635507891
 31
0.0
  0
LINE
  5
2743B
330
18
100
AcDbEntity
  8
0
  6
CENTER
 62
     1
 48
0.3
370
    13
100
AcDbLine
 10
4351.676656963974
 20
0.2186230862371303
 30
0.0
 11
4361.644943001053
 21
0.2186230862371303
 31
0.0
  0
CIRCLE
  5
2743C
330
18
100
AcDbEntity
  8
0
370
     9
100
AcDbCircle
 10
4356.761898348199
 20
-114.7813769137628
 30
0.0
 40
2.5
  0
CIRCLE
  5
2743D
330
18
100
AcDbEntity
  8
0
370
    20
100
AcDbCircle
 10
4356.761898348199
 20
-114.7813769137628
 30
0.0
 40
2.0
  0
LINE
  5
2743E
330
18
100
AcDbEntity
  8
0
  6
CENTER
 62
     1
 48
0.3
370
    13
100
AcDbLine
 10
4356.761898348199
 20
-120.1781480188615
 30
0.0
 11
4356.761898348199
 21
-109.5506655914105
 31
0.0
  0
LINE
  5
2743F
330
18
100
AcDbEntity
  8
0
  6
CENTER
 62
     1
 48
0.3
370
    13
100
AcDbLine
 10
4351.655600747344
 20
-114.7813769137628
 30
0.0
 11
4361.924003746948
 21
-114.7813769137629
 31
0.0
  0
CIRCLE
  5
27440
330
18
100
AcDbEntity
  8
0
370
     9
100
AcDbCircle
 10
4420.761898348199
 20
0.2186230862371303
 30
0.0
 40
2.5
  0
CIRCLE
  5
27441
330
18
100
AcDbEntity
  8
0
370
    20
100
AcDbCircle
 10
4420.761898348199
 20
0.2186230862371303
 30
0.0
 40
2.0
  0
LINE
  5
27442
330
18
100
AcDbEntity
  8
0
  6
CENTER
 62
     1
 48
0.3
370
    13
100
AcDbLine
 10
4420.761898348199
 20
-4.45247244717575
 30
0.0
 11
4420.761898348199
 21
4.715124635507891
 31
0.0
  0
LINE
  5
27443
330
18
100
AcDbEntity
  8
0
  6
CENTER
 62
     1
 48
0.3
370
    13
100
AcDbLine
 10
4415.676656963974
 20
0.2186230862371303
 30
0.0
 11
4425.644943001053
 21
0.2186230862371303
 31
0.0
  0
CIRCLE
  5
27444
330
18
100
AcDbEntity
  8
0
370
     9
100
AcDbCircle
 10
4420.761898348199
 20
-114.7813769137628
 30
0.0
 40
2.5
  0
CIRCLE
  5
27445
330
18
100
AcDbEntity
  8
0
370
    20
100
AcDbCircle
 10
4420.761898348199
 20
-114.7813769137628
 30
0.0
 40
2.0
  0
LINE
  5
27446
330
18
100
AcDbEntity
  8
0
  6
CENTER
 62
     1
 48
0.3
370
    13
100
AcDbLine
 10
4420.761898348199
 20
-120.1781480188615
 30
0.0
 11
4420.761898348199
 21
-109.5506655914105
 31
0.0
  0
LINE
  5
27447
330
18
100
AcDbEntity
  8
0
  6
CENTER
 62
     1
 48
0.3
370
    13
100
AcDbLine
 10
4415.655600747344
 20
-114.7813769137628
 30
0.0
 11
4425.924003746948
 21
-114.7813769137629
 31
0.0
  0
CIRCLE
  5
27448
330
18
100
AcDbEntity
  8
0
370
     9
100
AcDbCircle
 10
4484.761898348199
 20
0.2186230862371303
 30
0.0
 40
2.5
  0
CIRCLE
  5
27449
330
18
100
AcDbEntity
  8
0
370
    20
100
AcDbCircle
 10
4484.761898348199
 20
0.2186230862371303
 30
0.0
 40
2.0
  0
LINE
  5
2744A
330
18
100
AcDbEntity
  8
0
  6
CENTER
 62
     1
 48
0.3
370
    13
100
AcDbLine
 10
4484.761898348199
 20
-4.45247244717575
 30
0.0
 11
4484.761898348199
 21
4.715124635507891
 31
0.0
  0
LINE
  5
2744B
330
18
100
AcDbEntity
  8
0
  6
CENTER
 62
     1
 48
0.3
370
    13
100
AcDbLine
 10
4479.676656963974
 20
0.2186230862371303
 30
0.0
 11
4489.644943001053
 21
0.2186230862371303
 31
0.0
  0
CIRCLE
  5
2744C
330
18
100
AcDbEntity
  8
0
370
     9
100
AcDbCircle
 10
4484.761898348199
 20
-114.7813769137628
 30
0.0
 40
2.5
  0
CIRCLE
  5
2744D
330
18
100
AcDbEntity
  8
0
370
    20
100
AcDbCircle
 10
4484.761898348199
 20
-114.7813769137628
 30
0.0
 40
2.0
  0
LINE
  5
2744E
330
18
100
AcDbEntity
  8
0
  6
CENTER
 62
     1
 48
0.3
370
    13
100
AcDbLine
 10
4484.761898348199
 20
-120.1781480188615
 30
0.0
 11
4484.761898348199
 21
-109.5506655914105
 31
0.0
  0
LINE
  5
2744F
330
18
100
AcDbEntity
  8
0
  6
CENTER
 62
     1
 48
0.3
370
    13
100
AcDbLine
 10
4479.655600747343
 20
-114.7813769137628
 30
0.0
 11
4489.924003746948
 21
-114.7813769137629
 31
0.0
  0
CIRCLE
  5
27450
330
18
100
AcDbEntity
  8
0
370
     9
100
AcDbCircle
 10
4548.761898348199
 20
0.2186230862371303
 30
0.0
 40
2.5
  0
CIRCLE
  5
27451
330
18
100
AcDbEntity
  8
0
370
    20
100
AcDbCircle
 10
4548.761898348199
 20
0.2186230862371303
 30
0.0
 40
2.0
  0
LINE
  5
27452
330
18
100
AcDbEntity
  8
0
  6
CENTER
 62
     1
 48
0.3
370
    13
100
AcDbLine
 10
4548.761898348199
 20
-4.45247244717575
 30
0.0
 11
4548.761898348199
 21
4.715124635507891
 31
0.0
  0
LINE
  5
27453
330
18
100
AcDbEntity
  8
0
  6
CENTER
 62
     1
 48
0.3
370
    13
100
AcDbLine
 10
4543.676656963974
 20
0.2186230862371303
 30
0.0
 11
4553.644943001053
 21
0.2186230862371303
 31
0.0
  0
CIRCLE
  5
27454
330
18
100
AcDbEntity
  8
0
370
     9
100
AcDbCircle
 10
4548.761898348199
 20
-114.7813769137628
 30
0.0
 40
2.5
  0
CIRCLE
  5
27455
330
18
100
AcDbEntity
  8
0
370
    20
100
AcDbCircle
 10
4548.761898348199
 20
-114.7813769137628
 30
0.0
 40
2.0
  0
LINE
  5
27456
330
18
100
AcDbEntity
  8
0
  6
CENTER
 62
     1
 48
0.3
370
    13
100
AcDbLine
 10
4548.761898348199
 20
-120.1781480188615
 30
0.0
 11
4548.761898348199
 21
-109.5506655914105
 31
0.0
  0
LINE
  5
27457
330
18
100
AcDbEntity
  8
0
  6
CENTER
 62
     1
 48
0.3
370
    13
100
AcDbLine
 10
4543.655600747343
 20
-114.7813769137628
 30
0.0
 11
4553.924003746948
 21
-114.7813769137629
 31
0.0
  0
LINE
  5
27F5C
330
18
100
AcDbEntity
  8
0
 62
     4
370
    13
100
AcDbLine
 10
4777.48172172193
 20
-28.68189634508851
 30
0.0
 11
4777.982562163151
 21
-28.68189634508851
 31
0.0
  0
LINE
  5
27FC1
330
18
100
AcDbEntity
  8
0
 62
     4
370
    13
100
AcDbLine
 10
4817.482430506456
 20
47.36977554391343
 30
0.0
 11
4818.482430506456
 21
47.36977554391343
 31
0.0
  0
LINE
  5
27FC2
330
18
100
AcDbEntity
  8
0
 62
     4
370
    13
100
AcDbLine
 10
4817.982430506456
 20
47.36977554391343
 30
0.0
 11
4821.243257373724
 21
60.02647576599702
 31
0.0
  0
LINE
  5
27FC3
330
18
100
AcDbEntity
  8
0
 62
     4
370
    13
100
AcDbLine
 10
4821.243257373724
 20
60.02647576599702
 30
0.0
 11
4870.133433322112
 21
60.02647576599702
 31
0.0
  0
LINE
  5
2803C
330
18
100
AcDbEntity
  8
0
  6
HIDDEN
 48
0.45
370
    13
100
AcDbLine
 10
4791.48172172193
 20
-118.2055435889167
 30
0.0
 11
4791.48172172193
 21
3.794456411083245
 31
0.0
  0
LINE
  5
2803D
330
18
100
AcDbEntity
  8
0
  6
HIDDEN
 48
0.45
370
    13
100
AcDbLine
 10
4791.48172172193
 20
3.794456411083245
 30
0.0
 11
4779.481721721929
 21
3.794456411083245
 31
0.0
  0
LINE
  5
2803E
330
18
100
AcDbEntity
  8
0
  6
HIDDEN
 48
0.45
370
    13
100
AcDbLine
 10
4779.481721721929
 20
3.794456411083245
 30
0.0
 11
4779.481721721929
 21
-118.2055435889167
 31
0.0
  0
LINE
  5
2803F
330
18
100
AcDbEntity
  8
0
  6
HIDDEN
 48
0.45
370
    13
100
AcDbLine
 10
4779.481721721929
 20
-118.2055435889167
 30
0.0
 11
4791.48172172193
 21
-118.2055435889167
 31
0.0
  0
LINE
  5
28040
330
18
100
AcDbEntity
  8
0
  6
CENTER
 62
     1
 48
0.6
370
    13
100
AcDbLine
 10
4791.481859340225
 20
-105.2790874477777
 30
0.0
 11
4777.482568124752
 21
-105.2790874477777
 31
0.0
  0
LINE
  5
28041
330
18
100
AcDbEntity
  8
0
  6
CENTER
 62
     1
 48
0.6
370
    13
100
AcDbLine
 10
4791.481859340225
 20
-81.27908744777775
 30
0.0
 11
4777.482568124752
 21
-81.27908744777775
 31
0.0
  0
CIRCLE
  5
28042
330
18
100
AcDbEntity
  8
0
370
     9
100
AcDbCircle
 10
4785.48172172193
 20
-81.27908745317133
 30
0.0
 40
2.0
  0
CIRCLE
  5
28043
330
18
100
AcDbEntity
  8
0
370
    20
100
AcDbCircle
 10
4785.481859340226
 20
-81.27908744777775
 30
0.0
 40
1.6
  0
CIRCLE
  5
28044
330
18
100
AcDbEntity
  8
0
370
     9
100
AcDbCircle
 10
4785.481859340226
 20
-105.2790874477777
 30
0.0
 40
2.0
  0
CIRCLE
  5
28045
330
18
100
AcDbEntity
  8
0
370
    20
100
AcDbCircle
 10
4785.481859340226
 20
-105.2790874477777
 30
0.0
 40
1.6
  0
DIMENSION
  5
28046
330
18
100
AcDbEntity
  8
0
370
    13
100
AcDbDimension
  2
*D56
 10
4755.230719428523
 20
-105.2790874531713
 30
0.0
 11
4751.230719428523
 21
-113.7790874531705
 31
0.0
 70
    32
 71
     5
 42
17.0
  3
まこ
100
AcDbAlignedDimension
 13
4777.482430506455
 23
-122.2790874531713
 33
0.0
 14
4777.482430506455
 24
-105.2790874531713
 34
0.0
 50
90.0
100
AcDbRotatedDimension
1001
ACAD
1000
DSTYLE
1002
{
1070
   271
1070
     6
1002
}
  0
DIMENSION
  5
28053
330
18
100
AcDbEntity
  8
0
370
    13
100
AcDbDimension
  2
*D57
 10
4755.230719428523
 20
-81.27908745317133
 30
0.0
 11
4751.230719428523
 21
-93.27908745317056
 31
0.0
 70
    32
 71
     5
 42
24.0
  3
まこ
100
AcDbAlignedDimension
 13
4777.482430506455
 23
-105.2790874531713
 33
0.0
 14
4777.482430506455
 24
-81.27908745317133
 34
0.0
 50
90.0
100
AcDbRotatedDimension
1001
ACAD
1000
DSTYLE
1002
{
1070
   271
1070
     6
1002
}
  0
DIMENSION
  5
28072
330
18
100
AcDbEntity
  8
0
370
    13
100
AcDbDimension
  2
*D58
 10
4785.482430498592
 20
-142.4377035421343
 30
0.0
 11
4781.482430494552
 21
-138.4377035421343
 31
0.0
 70
    32
 71
     5
 42
8.000000008079041
  3
まこ
100
AcDbAlignedDimension
 13
4777.482430490513
 23
-122.2786806706189
 33
0.0
 14
4785.482430498592
 24
-122.2787300498945
 34
0.0
100
AcDbRotatedDimension
  0
LINE
  5
2808E
330
18
100
AcDbEntity
  8
0
 62
     4
370
    13
100
AcDbLine
 10
4777.482430506455
 20
-142.4377035421343
 30
0.0
 11
4785.48172172193
 21
-142.4377035421343
 31
0.0
  0
LEADER
  5
2808F
330
18
100
AcDbEntity
  8
0
370
    30
100
AcDbLeader
  3
まこ
 73
     0
 75
     1
 40
17.40101522842639
 41
73.61421319796955
 76
     3
 10
4784.723033390124
 20
-106.6876978188358
 30
0.0
 10
4758.555643292372
 20
-155.2622847452244
 30
0.0
 10
4753.555643292371
 20
-155.2622847452244
 30
0.0
340
28090
213
-0.8279807101698679
223
-0.6119159594295525
233
0.0
1001
ACAD
1000
DSTYLE
1002
{
1070
   147
1040
0.5
1070
    77
1070
     1
1002
}
  0
MTEXT
  5
28090
102
{ACAD_REACTORS
330
2808F
102
}
330
18
100
AcDbEntity
  8
0
370
    13
100
AcDbMText
 10
4753.383624002542
 20
-153.6503687857948
 30
0.0
 40
6.0
 41
0.0
 71
     9
 72
     1
  1
\A1;2-M4ネジ深10\Pｵﾌﾟｼｮﾝ磁極ｾﾝｻ取付用
  7
まこ
 73
     1
 44
1.0
  0
LINE
  5
280AB
330
18
100
AcDbEntity
  8
0
  6
CENTER
 62
     1
 48
0.6
370
    13
100
AcDbLine
 10
4600.761898348198
 20
-81.27908745317133
 30
0.0
 11
4586.762607132725
 21
-81.27908745317133
 31
0.0
  0
LINE
  5
280AC
330
18
100
AcDbEntity
  8
0
  6
CENTER
 62
     1
 48
0.6
370
    13
100
AcDbLine
 10
4600.761898348198
 20
-105.2790874531713
 30
0.0
 11
4586.762607132725
 21
-105.2790874531713
 31
0.0
  0
LINE
  5
283A4
330
18
100
AcDbEntity
  8
0
  6
CENTER
 62
     1
 48
0.3
370
    13
100
AcDbLine
 10
4785.482430498592
 20
-122.2787300498945
 30
0.0
 11
4785.481725035792
 21
-72.88265368371549
 31
0.0
  0
LINE
  5
284E1
330
18
100
AcDbEntity
  8
隠れ線
  6
HIDDEN
 48
0.6
370
     5
100
AcDbLine
 10
4831.482430506456
 20
-111.6782435889165
 30
0.0
 11
4823.682430506456
 21
-111.6782435889165
 31
0.0
  0
LINE
  5
284E2
330
18
100
AcDbEntity
  8
隠れ線
  6
HIDDEN
 48
0.6
370
     5
100
AcDbLine
 10
4831.482430506456
 20
-117.6782435889165
 30
0.0
 11
4823.682430506456
 21
-117.6782435889165
 31
0.0
  0
LINE
  5
284E3
330
18
100
AcDbEntity
  8
隠れ線
  6
HIDDEN
 48
0.6
370
     5
100
AcDbLine
 10
4831.482430506456
 20
3.321756411083441
 30
0.0
 11
4823.682430506456
 21
3.321756411083441
 31
0.0
  0
LINE
  5
284E4
330
18
100
AcDbEntity
  8
隠れ線
  6
HIDDEN
 48
0.6
370
     5
100
AcDbLine
 10
4831.482430506456
 20
-2.678243588916557
 30
0.0
 11
4823.682430506456
 21
-2.678243588916557
 31
0.0
  0
TEXT
  5
28584
330
18
100
AcDbEntity
  8
文字
370
    13
100
AcDbText
 10
4862.700673004832
 20
48.42089357870438
 30
0.0
 40
6.0
  1
注：1
 41
0.6
  7
ｽﾀｲﾙ3
100
AcDbText
  0
TEXT
  5
28586
330
18
100
AcDbEntity
  8
文字
370
    13
100
AcDbText
 10
4863.638580293309
 20
68.35464498123994
 30
0.0
 40
6.0
  1
注：1
 41
0.6
  7
ｽﾀｲﾙ3
100
AcDbText
  0
LINE
  5
285B3
330
18
100
AcDbEntity
  8
隠れ線
 48
0.6
370
     5
100
AcDbLine
 10
4116.752362417221
 20
3.319423086237299
 30
0.0
 11
4124.552362417222
 21
3.319423086237299
 31
0.0
  0
LINE
  5
285B4
330
18
100
AcDbEntity
  8
隠れ線
 48
0.6
370
     5
100
AcDbLine
 10
4116.752362417221
 20
-2.680576913762699
 30
0.0
 11
4124.552362417222
 21
-2.680576913762699
 31
0.0
  0
LINE
  5
285B5
330
18
100
AcDbEntity
  8
隠れ線
 48
0.6
370
     5
100
AcDbLine
 10
4116.752362417221
 20
-111.6805769137627
 30
0.0
 11
4124.552362417222
 21
-111.6805769137627
 31
0.0
  0
LINE
  5
285B6
330
18
100
AcDbEntity
  8
隠れ線
 48
0.6
370
     5
100
AcDbLine
 10
4116.752362417221
 20
-117.6805769137627
 30
0.0
 11
4124.552362417222
 21
-117.6805769137627
 31
0.0
  0
LWPOLYLINE
  5
2878D
102
{ACAD_REACTORS
330
287C8
102
}
330
18
100
AcDbEntity
  8
0
100
AcDbPolyline
 90
        4
 70
     1
 43
0.0
 10
4684.33543780822
 20
-119.5313769137628
 10
4679.83543780822
 20
-119.5313769137628
 10
4679.83543780822
 20
-124.0313769137628
 10
4684.33543780822
 20
-124.0313769137628
  0
LWPOLYLINE
  5
2878E
102
{ACAD_REACTORS
330
287C8
102
}
330
18
100
AcDbEntity
  8
0
100
AcDbPolyline
 90
        4
 70
     1
 43
0.0
 10
4726.835437808221
 20
-131.0313769137628
 10
4721.83543780822
 20
-131.0313769137628
 10
4721.83543780822
 20
-101.5313769137628
 10
4726.835437808221
 20
-101.5313769137628
  0
LINE
  5
2878F
102
{ACAD_REACTORS
330
287C8
102
}
330
18
100
AcDbEntity
  8
0
100
AcDbLine
 10
4679.83543780822
 20
-127.2813769137628
 30
0.0
 11
4679.83543780822
 21
-105.2813769137628
 31
0.0
  0
LWPOLYLINE
  5
28790
102
{ACAD_REACTORS
330
287C8
102
}
330
18
100
AcDbEntity
  8
0
100
AcDbPolyline
 90
        4
 70
     1
 43
0.0
 10
4721.83543780822
 20
-133.1313769137632
 10
4717.83543780822
 20
-133.1313769137632
 10
4717.83543780822
 20
-99.4313769137625
 10
4721.83543780822
 20
-99.4313769137625
  0
LINE
  5
28791
102
{ACAD_REACTORS
330
287C8
102
}
330
18
100
AcDbEntity
  8
0
100
AcDbLine
 10
4703.83543780822
 20
-127.2813769137628
 30
0.0
 11
4679.83543780822
 21
-127.2813769137628
 31
0.0
  0
LINE
  5
28792
102
{ACAD_REACTORS
330
287C8
102
}
330
18
100
AcDbEntity
  8
0
100
AcDbLine
 10
4704.83543780822
 20
-131.0313769137628
 30
0.0
 11
4717.83543780822
 21
-131.0313769137628
 31
0.0
  0
LINE
  5
28793
102
{ACAD_REACTORS
330
287C8
102
}
330
18
100
AcDbEntity
  8
0
100
AcDbLine
 10
4704.83543780822
 20
-126.7813769137628
 30
0.0
 11
4717.83543780822
 21
-126.7813769137628
 31
0.0
  0
LINE
  5
28794
102
{ACAD_REACTORS
330
287C8
102
}
330
18
100
AcDbEntity
  8
0
100
AcDbLine
 10
4703.83543780822
 20
-127.2813769137628
 30
0.0
 11
4704.83543780822
 21
-126.7813769137628
 31
0.0
  0
LINE
  5
28795
102
{ACAD_REACTORS
330
287C8
102
}
330
18
100
AcDbEntity
  8
0
100
AcDbLine
 10
4704.83543780822
 20
-131.0313769137628
 30
0.0
 11
4703.83543780822
 21
-127.2813769137628
 31
0.0
  0
LINE
  5
28796
102
{ACAD_REACTORS
330
287C8
102
}
330
18
100
AcDbEntity
  8
0
100
AcDbLine
 10
4704.83543780822
 20
-131.0313769137628
 30
0.0
 11
4704.83543780822
 21
-126.7813769137628
 31
0.0
  0
LWPOLYLINE
  5
28797
102
{ACAD_REACTORS
330
287C8
102
}
330
18
100
AcDbEntity
  8
0
100
AcDbPolyline
 90
        4
 70
     1
 43
0.0
 10
4697.457412185336
 20
-107.5313769137628
 10
4687.457412185336
 20
-107.5313769137628
 10
4687.457412185336
 20
-125.0313769137628
 10
4697.457412185336
 20
-125.0313769137628
  0
LINE
  5
28798
102
{ACAD_REACTORS
330
287C8
102
}
330
18
100
AcDbEntity
  8
0
100
AcDbLine
 10
4703.83543780822
 20
-105.2813769137628
 30
0.0
 11
4679.83543780822
 21
-105.2813769137628
 31
0.0
  0
LINE
  5
28799
102
{ACAD_REACTORS
330
287C8
102
}
330
18
100
AcDbEntity
  8
0
100
AcDbLine
 10
4658.527329700111
 20
-118.5813769137621
 30
0.0
 11
4679.83543780822
 21
-122.1813769137625
 31
0.0
  0
LINE
  5
2879A
102
{ACAD_REACTORS
330
287C8
102
}
330
18
100
AcDbEntity
  8
0
100
AcDbLine
 10
4657.93543780822
 20
-114.2813769137628
 30
0.0
 11
4679.83543780822
 21
-110.5813769137621
 31
0.0
  0
LINE
  5
2879B
102
{ACAD_REACTORS
330
287C8
102
}
330
18
100
AcDbEntity
  8
0
100
AcDbLine
 10
4657.93543780822
 20
-116.6813769137625
 30
0.0
 11
4679.83543780822
 21
-112.9813769137635
 31
0.0
  0
LINE
  5
2879C
102
{ACAD_REACTORS
330
287C8
102
}
330
18
100
AcDbEntity
  8
0
100
AcDbLine
 10
4657.93543780822
 20
-116.2813769137628
 30
0.0
 11
4679.83543780822
 21
-112.5813769137621
 31
0.0
  0
LINE
  5
2879D
102
{ACAD_REACTORS
330
287C8
102
}
330
18
100
AcDbEntity
  8
0
100
AcDbLine
 10
4657.93543780822
 20
-118.6813769137625
 30
0.0
 11
4679.83543780822
 21
-114.9813769137635
 31
0.0
  0
LINE
  5
2879E
102
{ACAD_REACTORS
330
287C8
102
}
330
18
100
AcDbEntity
  8
0
100
AcDbLine
 10
4664.549531767952
 20
-117.5639272493335
 30
0.0
 11
4679.83543780822
 21
-120.1813769137625
 31
0.0
  0
LINE
  5
2879F
102
{ACAD_REACTORS
330
287C8
102
}
330
18
100
AcDbEntity
  8
0
100
AcDbLine
 10
4665.630032402815
 20
-117.3813769137632
 30
0.0
 11
4679.83543780822
 21
-119.7813769137628
 31
0.0
  0
LINE
  5
287A0
102
{ACAD_REACTORS
330
287C8
102
}
330
18
100
AcDbEntity
  8
基板
100
AcDbLine
 10
4657.935437808219
 20
-119.6668518238202
 30
0.0
 11
4657.935437808219
 21
-113.1668518238198
 31
0.0
  0
LINE
  5
287A1
102
{ACAD_REACTORS
330
287C8
102
}
330
18
100
AcDbEntity
  8
0
100
AcDbLine
 10
4657.93543780822
 20
-114.0313769137628
 30
0.0
 11
4658.670337137079
 21
-114.1572158399376
 31
0.0
  0
LINE
  5
287A2
102
{ACAD_REACTORS
330
287C8
102
}
330
18
100
AcDbEntity
  8
0
100
AcDbLine
 10
4657.93543780822
 20
-116.4313769137625
 30
0.0
 11
4658.670337137079
 21
-116.5572158399372
 31
0.0
  0
LINE
  5
287A3
102
{ACAD_REACTORS
330
287C8
102
}
330
18
100
AcDbEntity
  8
0
100
AcDbLine
 10
4658.527329700111
 20
-116.1813769137625
 30
0.0
 11
4659.711113483896
 21
-116.3813769137632
 31
0.0
  0
LINE
  5
287A4
102
{ACAD_REACTORS
330
287C8
102
}
330
18
100
AcDbEntity
  8
0
100
AcDbLine
 10
4664.549531767952
 20
-115.1639272493339
 30
0.0
 11
4665.725370694127
 21
-115.3652695312121
 31
0.0
  0
LINE
  5
287A5
102
{ACAD_REACTORS
330
287C8
102
}
330
18
100
AcDbEntity
  8
0
370
    20
100
AcDbLine
 10
4679.83543780822
 20
-123.6563769137628
 30
0.0
 11
4679.83543780822
 21
-108.9063769137628
 31
0.0
  0
LWPOLYLINE
  5
287A6
102
{ACAD_REACTORS
330
287C8
102
}
330
18
100
AcDbEntity
  8
0
100
AcDbPolyline
 90
        4
 70
     1
 43
0.0
 10
4684.33543780822
 20
-108.5313769137628
 10
4679.83543780822
 20
-108.5313769137628
 10
4679.83543780822
 20
-113.0313769137628
 10
4684.33543780822
 20
-113.0313769137628
  0
LINE
  5
287A7
102
{ACAD_REACTORS
330
287C8
102
}
330
18
100
AcDbEntity
  8
0
100
AcDbLine
 10
4671.604565324998
 20
-116.3719809406084
 30
0.0
 11
4679.83543780822
 21
-117.7813769137628
 31
0.0
  0
LINE
  5
287A8
102
{ACAD_REACTORS
330
287C8
102
}
330
18
100
AcDbEntity
  8
0
100
AcDbLine
 10
4704.83543780822
 20
-123.7813769137628
 30
0.0
 11
4717.83543780822
 21
-123.7813769137628
 31
0.0
  0
LINE
  5
287A9
102
{ACAD_REACTORS
330
287C8
102
}
330
18
100
AcDbEntity
  8
0
100
AcDbLine
 10
4704.83543780822
 20
-120.7813769137628
 30
0.0
 11
4717.83543780822
 21
-120.7813769137628
 31
0.0
  0
LINE
  5
287AA
102
{ACAD_REACTORS
330
287C8
102
}
330
18
100
AcDbEntity
  8
0
100
AcDbLine
 10
4704.83543780822
 20
-111.7813769137628
 30
0.0
 11
4717.83543780822
 21
-111.7813769137628
 31
0.0
  0
LINE
  5
287AB
102
{ACAD_REACTORS
330
287C8
102
}
330
18
100
AcDbEntity
  8
0
100
AcDbLine
 10
4704.83543780822
 20
-105.7813769137628
 30
0.0
 11
4717.83543780822
 21
-105.7813769137628
 31
0.0
  0
LINE
  5
287AC
102
{ACAD_REACTORS
330
287C8
102
}
330
18
100
AcDbEntity
  8
0
100
AcDbLine
 10
4704.83543780822
 20
-108.7813769137628
 30
0.0
 11
4717.83543780822
 21
-108.7813769137628
 31
0.0
  0
LINE
  5
287AD
102
{ACAD_REACTORS
330
287C8
102
}
330
18
100
AcDbEntity
  8
0
100
AcDbLine
 10
4717.83543780822
 20
-101.5313769137628
 30
0.0
 11
4704.83543780822
 21
-101.5313769137628
 31
0.0
  0
LINE
  5
287AE
102
{ACAD_REACTORS
330
287C8
102
}
330
18
100
AcDbEntity
  8
0
100
AcDbLine
 10
4704.83543780822
 20
-117.7813769137628
 30
0.0
 11
4717.83543780822
 21
-117.7813769137628
 31
0.0
  0
LINE
  5
287AF
102
{ACAD_REACTORS
330
287C8
102
}
330
18
100
AcDbEntity
  8
0
100
AcDbLine
 10
4704.83543780822
 20
-114.7813769137628
 30
0.0
 11
4717.83543780822
 21
-114.7813769137628
 31
0.0
  0
LINE
  5
287B0
102
{ACAD_REACTORS
330
287C8
102
}
330
18
100
AcDbEntity
  8
0
100
AcDbLine
 10
4704.83543780822
 20
-123.7813769137628
 30
0.0
 11
4704.83543780822
 21
-120.7813769137628
 31
0.0
  0
LINE
  5
287B1
102
{ACAD_REACTORS
330
287C8
102
}
330
18
100
AcDbEntity
  8
0
100
AcDbLine
 10
4704.83543780822
 20
-111.7813769137628
 30
0.0
 11
4704.83543780822
 21
-108.7813769137628
 31
0.0
  0
LINE
  5
287B2
102
{ACAD_REACTORS
330
287C8
102
}
330
18
100
AcDbEntity
  8
0
100
AcDbLine
 10
4704.83543780822
 20
-101.5313769137628
 30
0.0
 11
4703.83543780822
 21
-105.2813769137628
 31
0.0
  0
LINE
  5
287B3
102
{ACAD_REACTORS
330
287C8
102
}
330
18
100
AcDbEntity
  8
0
100
AcDbLine
 10
4703.83543780822
 20
-105.2813769137628
 30
0.0
 11
4704.83543780822
 21
-105.7813769137628
 31
0.0
  0
LINE
  5
287B4
102
{ACAD_REACTORS
330
287C8
102
}
330
18
100
AcDbEntity
  8
0
100
AcDbLine
 10
4704.83543780822
 20
-105.7813769137628
 30
0.0
 11
4704.83543780822
 21
-101.5313769137628
 31
0.0
  0
LINE
  5
287B5
102
{ACAD_REACTORS
330
287C8
102
}
330
18
100
AcDbEntity
  8
0
100
AcDbLine
 10
4704.83543780822
 20
-117.7813769137628
 30
0.0
 11
4704.83543780822
 21
-114.7813769137628
 31
0.0
  0
TEXT
  5
287B6
102
{ACAD_REACTORS
330
287C8
102
}
330
18
100
AcDbEntity
  8
FRAME020
  6
Continuous
100
AcDbText
 10
4691.713955589148
 20
-109.8477225656406
 30
0.0
 40
4.0
  1
ＡＭＰ
 50
270.0
100
AcDbText
  0
TEXT
  5
287B7
102
{ACAD_REACTORS
330
287C8
102
}
330
18
100
AcDbEntity
  8
FRAME020
  6
Continuous
100
AcDbText
 10
4688.141491441209
 20
-110.6562127424476
 30
0.0
 40
2.799999999999999
  1
0-5200
 50
270.0
100
AcDbText
  0
LINE
  5
287B8
102
{ACAD_REACTORS
330
287C8
102
}
330
18
100
AcDbEntity
  8
0
370
    50
100
AcDbLine
 10
4657.935437808219
 20
-120.0313769137628
 30
0.0
 11
4642.966717704122
 21
-120.0313769137628
 31
0.0
  0
LINE
  5
287B9
102
{ACAD_REACTORS
330
287C8
102
}
330
18
100
AcDbEntity
  8
0
  6
CENTER
 62
     1
 48
0.45
370
    13
100
AcDbLine
 10
4590.63047083317
 20
-116.2813769137628
 30
0.0
 11
4658.792380676648
 21
-116.2813769137628
 31
0.0
  0
LINE
  5
287BA
102
{ACAD_REACTORS
330
287C8
102
}
330
18
100
AcDbEntity
  8
0
370
    50
100
AcDbLine
 10
4638.272894955499
 20
-120.0313769137628
 30
0.0
 11
4614.761898348199
 21
-120.0313769137628
 31
0.0
  0
LINE
  5
287BB
102
{ACAD_REACTORS
330
287C8
102
}
330
18
100
AcDbEntity
  8
0
370
    50
100
AcDbLine
 10
4614.761898348199
 20
-112.5313769137628
 30
0.0
 11
4640.606739444322
 21
-112.5313769137633
 31
0.0
  0
LINE
  5
287BC
102
{ACAD_REACTORS
330
287C8
102
}
330
18
100
AcDbEntity
  8
0
  6
CENTER
 62
     1
 48
0.45
370
    13
100
AcDbLine
 10
4643.566168900107
 20
-103.0609350253625
 30
0.0
 11
4634.972462583411
 21
-130.5943600023097
 31
0.0
  0
LINE
  5
287BD
102
{ACAD_REACTORS
330
287C8
102
}
330
18
100
AcDbEntity
  8
0
370
    50
100
AcDbLine
 10
4657.935437808218
 20
-112.5313769137628
 30
0.0
 11
4657.935437808219
 21
-120.0313769137628
 31
0.0
  0
LINE
  5
287BE
102
{ACAD_REACTORS
330
287C8
102
}
330
18
100
AcDbEntity
  8
0
  6
CENTER
 62
     1
 48
0.45
370
    13
100
AcDbLine
 10
4648.259991648729
 20
-103.0609350253625
 30
0.0
 11
4639.666285332034
 21
-130.5943600023097
 31
0.0
  0
LINE
  5
287BF
102
{ACAD_REACTORS
330
287C8
102
}
330
18
100
AcDbEntity
  8
0
370
    50
100
AcDbLine
 10
4645.300562192945
 20
-112.5313769137628
 30
0.0
 11
4657.935437808219
 21
-112.5313769137628
 31
0.0
  0
LINE
  5
287C0
102
{ACAD_REACTORS
330
287C8
102
}
330
18
100
AcDbEntity
  8
0
 48
10.0
370
    50
100
AcDbLine
 10
4594.761898348198
 20
-111.7813769137628
 30
0.0
 11
4614.761898348199
 21
-111.7813769137628
 31
0.0
  0
LINE
  5
287C1
102
{ACAD_REACTORS
330
287C8
102
}
330
18
100
AcDbEntity
  8
0
 48
10.0
370
    50
100
AcDbLine
 10
4614.761898348199
 20
-120.7813769137628
 30
0.0
 11
4594.761898348198
 21
-120.7813769137628
 31
0.0
  0
LINE
  5
287C2
102
{ACAD_REACTORS
330
287C8
102
}
330
18
100
AcDbEntity
  8
0
 48
10.0
370
    50
100
AcDbLine
 10
4594.761898348198
 20
-111.7813769137628
 30
0.0
 11
4594.761898348198
 21
-120.7813769137628
 31
0.0
  0
LINE
  5
287C3
102
{ACAD_REACTORS
330
287C8
102
}
330
18
100
AcDbEntity
  8
0
370
    50
100
AcDbLine
 10
4614.761898348199
 20
-120.0200857881886
 30
0.0
 11
4614.761898348199
 21
-112.542668039337
 31
0.0
  0
LINE
  5
287C4
102
{ACAD_REACTORS
330
287C8
102
}
330
18
100
AcDbEntity
  8
0
370
    50
100
AcDbLine
 10
4614.761898348199
 20
-111.7813769137628
 30
0.0
 11
4614.761898348199
 21
-120.7813769137628
 31
0.0
  0
LINE
  5
28812
102
{ACAD_REACTORS
330
2884D
102
}
330
18
100
AcDbEntity
  8
0
370
    50
100
AcDbLine
 10
4614.761898348199
 20
-226.3984581668432
 30
0.0
 11
4640.606739444322
 21
-226.3984581668437
 31
0.0
  0
LINE
  5
28813
102
{ACAD_REACTORS
330
2884D
102
}
330
18
100
AcDbEntity
  8
0
370
    50
100
AcDbLine
 10
4638.272894955499
 20
-233.8984581668432
 30
0.0
 11
4614.761898348199
 21
-233.8984581668432
 31
0.0
  0
LINE
  5
28814
102
{ACAD_REACTORS
330
2884D
102
}
330
18
100
AcDbEntity
  8
0
  6
CENTER
 62
     1
 48
0.45
370
    13
100
AcDbLine
 10
4590.63047083317
 20
-230.1484581668432
 30
0.0
 11
4658.792380676648
 21
-230.1484581668432
 31
0.0
  0
LINE
  5
28815
102
{ACAD_REACTORS
330
2884D
102
}
330
18
100
AcDbEntity
  8
0
 48
10.0
370
    50
100
AcDbLine
 10
4614.761898348199
 20
-234.6484581668432
 30
0.0
 11
4594.761898348198
 21
-234.6484581668432
 31
0.0
  0
LINE
  5
28816
102
{ACAD_REACTORS
330
2884D
102
}
330
18
100
AcDbEntity
  8
0
 48
10.0
370
    50
100
AcDbLine
 10
4594.761898348198
 20
-225.6484581668432
 30
0.0
 11
4614.761898348199
 21
-225.6484581668432
 31
0.0
  0
LINE
  5
28819
102
{ACAD_REACTORS
330
2884D
102
}
330
18
100
AcDbEntity
  8
0
370
    50
100
AcDbLine
 10
4614.761898348199
 20
-225.6484581668432
 30
0.0
 11
4614.761898348199
 21
-234.6484581668432
 31
0.0
  0
LINE
  5
2881A
102
{ACAD_REACTORS
330
2884D
102
}
330
18
100
AcDbEntity
  8
0
370
    50
100
AcDbLine
 10
4614.761898348199
 20
-233.887167041269
 30
0.0
 11
4614.761898348199
 21
-226.4097492924174
 31
0.0
  0
LINE
  5
2881B
102
{ACAD_REACTORS
330
2884D
102
}
330
18
100
AcDbEntity
  8
0
100
AcDbLine
 10
4703.83543780822
 20
-222.5129832567863
 30
0.0
 11
4679.83543780822
 21
-222.5129832567863
 31
0.0
  0
LINE
  5
2881C
102
{ACAD_REACTORS
330
2884D
102
}
330
18
100
AcDbEntity
  8
0
100
AcDbLine
 10
4703.83543780822
 20
-237.6379832567868
 30
0.0
 11
4679.83543780822
 21
-237.6379832567868
 31
0.0
  0
LINE
  5
2881D
102
{ACAD_REACTORS
330
2884D
102
}
330
18
100
AcDbEntity
  8
0
100
AcDbLine
 10
4657.93543780822
 20
-232.4129832567855
 30
0.0
 11
4679.83543780822
 21
-228.7129832567866
 31
0.0
  0
LINE
  5
2881E
102
{ACAD_REACTORS
330
2884D
102
}
330
18
100
AcDbEntity
  8
0
100
AcDbLine
 10
4657.93543780822
 20
-230.0129832567859
 30
0.0
 11
4679.83543780822
 21
-226.3129832567851
 31
0.0
  0
LINE
  5
2881F
102
{ACAD_REACTORS
330
2884D
102
}
330
18
100
AcDbEntity
  8
0
100
AcDbLine
 10
4657.93543780822
 20
-230.4129832567855
 30
0.0
 11
4679.83543780822
 21
-226.7129832567866
 31
0.0
  0
LINE
  5
28820
102
{ACAD_REACTORS
330
2884D
102
}
330
18
100
AcDbEntity
  8
0
100
AcDbLine
 10
4657.93543780822
 20
-228.0129832567859
 30
0.0
 11
4679.83543780822
 21
-224.3129832567851
 31
0.0
  0
LINE
  5
28821
102
{ACAD_REACTORS
330
2884D
102
}
330
18
100
AcDbEntity
  8
0
100
AcDbLine
 10
4658.527329700111
 20
-232.3129832567851
 30
0.0
 11
4679.83543780822
 21
-235.9129832567855
 31
0.0
  0
LINE
  5
28822
102
{ACAD_REACTORS
330
2884D
102
}
330
18
100
AcDbEntity
  8
0
370
    50
100
AcDbLine
 10
4645.300562192945
 20
-226.3984581668432
 30
0.0
 11
4657.935437808219
 21
-226.3984581668432
 31
0.0
  0
LINE
  5
28823
102
{ACAD_REACTORS
330
2884D
102
}
330
18
100
AcDbEntity
  8
0
370
    50
100
AcDbLine
 10
4657.935437808219
 20
-233.8984581668432
 30
0.0
 11
4642.966717704122
 21
-233.8984581668432
 31
0.0
  0
LINE
  5
28824
102
{ACAD_REACTORS
330
2884D
102
}
330
18
100
AcDbEntity
  8
0
  6
CENTER
 62
     1
 48
0.45
370
    13
100
AcDbLine
 10
4648.259991648729
 20
-216.928016278443
 30
0.0
 11
4639.666285332034
 21
-244.4614412553901
 31
0.0
  0
LINE
  5
28825
102
{ACAD_REACTORS
330
2884D
102
}
330
18
100
AcDbEntity
  8
0
  6
CENTER
 62
     1
 48
0.45
370
    13
100
AcDbLine
 10
4643.566168900107
 20
-216.928016278443
 30
0.0
 11
4634.972462583411
 21
-244.4614412553901
 31
0.0
  0
LINE
  5
28826
102
{ACAD_REACTORS
330
2884D
102
}
330
18
100
AcDbEntity
  8
0
370
    50
100
AcDbLine
 10
4657.935437808219
 20
-226.3984581668432
 30
0.0
 11
4657.935437808219
 21
-233.8984581668432
 31
0.0
  0
LINE
  5
28827
102
{ACAD_REACTORS
330
2884D
102
}
330
18
100
AcDbEntity
  8
0
100
AcDbLine
 10
4658.527329700111
 20
-229.9129832567855
 30
0.0
 11
4659.711113483896
 21
-230.1129832567862
 31
0.0
  0
LINE
  5
28828
102
{ACAD_REACTORS
330
2884D
102
}
330
18
100
AcDbEntity
  8
0
100
AcDbLine
 10
4657.93543780822
 20
-230.1629832567855
 30
0.0
 11
4658.670337137079
 21
-230.2888221829602
 31
0.0
  0
LINE
  5
28829
102
{ACAD_REACTORS
330
2884D
102
}
330
18
100
AcDbEntity
  8
0
100
AcDbLine
 10
4657.93543780822
 20
-227.7629832567859
 30
0.0
 11
4658.670337137079
 21
-227.8888221829606
 31
0.0
  0
LINE
  5
2882A
102
{ACAD_REACTORS
330
2884D
102
}
330
18
100
AcDbEntity
  8
基板
100
AcDbLine
 10
4657.935437808219
 20
-233.3984581668433
 30
0.0
 11
4657.935437808219
 21
-226.8984581668433
 31
0.0
  0
LINE
  5
2882B
102
{ACAD_REACTORS
330
2884D
102
}
330
18
100
AcDbEntity
  8
0
100
AcDbLine
 10
4671.604565324998
 20
-230.1035872836314
 30
0.0
 11
4679.83543780822
 21
-231.5129832567858
 31
0.0
  0
LINE
  5
2882C
102
{ACAD_REACTORS
330
2884D
102
}
330
18
100
AcDbEntity
  8
0
100
AcDbLine
 10
4665.630032402815
 20
-231.1129832567862
 30
0.0
 11
4679.83543780822
 21
-233.5129832567858
 31
0.0
  0
LINE
  5
2882D
102
{ACAD_REACTORS
330
2884D
102
}
330
18
100
AcDbEntity
  8
0
100
AcDbLine
 10
4664.549531767952
 20
-231.2955335923565
 30
0.0
 11
4679.83543780822
 21
-233.9129832567855
 31
0.0
  0
LINE
  5
2882E
102
{ACAD_REACTORS
330
2884D
102
}
330
18
100
AcDbEntity
  8
0
100
AcDbLine
 10
4664.549531767952
 20
-228.8955335923569
 30
0.0
 11
4665.725370694127
 21
-229.0968758742351
 31
0.0
  0
LINE
  5
2882F
102
{ACAD_REACTORS
330
2884D
102
}
330
18
100
AcDbEntity
  8
0
370
    20
100
AcDbLine
 10
4679.83543780822
 20
-237.3879832567859
 30
0.0
 11
4679.83543780822
 21
-222.6379832567859
 31
0.0
  0
LINE
  5
28830
102
{ACAD_REACTORS
330
2884D
102
}
330
18
100
AcDbEntity
  8
0
100
AcDbLine
 10
4679.83543780822
 20
-237.6379832567868
 30
0.0
 11
4679.83543780822
 21
-222.5129832567863
 31
0.0
  0
LINE
  5
28831
102
{ACAD_REACTORS
330
2884D
102
}
330
18
100
AcDbEntity
  8
0
100
AcDbLine
 10
4717.83543780822
 20
-216.6629832567855
 30
0.0
 11
4721.83543780822
 21
-216.6629832567855
 31
0.0
  0
LINE
  5
28832
102
{ACAD_REACTORS
330
2884D
102
}
330
18
100
AcDbEntity
  8
0
100
AcDbLine
 10
4721.83543780822
 20
-243.3629832567867
 30
0.0
 11
4717.83543780822
 21
-243.3629832567867
 31
0.0
  0
LINE
  5
28833
102
{ACAD_REACTORS
330
2884D
102
}
330
18
100
AcDbEntity
  8
0
100
AcDbLine
 10
4704.83543780822
 20
-228.5129832567859
 30
0.0
 11
4717.83543780822
 21
-228.5129832567859
 31
0.0
  0
LINE
  5
28834
102
{ACAD_REACTORS
330
2884D
102
}
330
18
100
AcDbEntity
  8
0
100
AcDbLine
 10
4704.83543780822
 20
-231.5129832567858
 30
0.0
 11
4717.83543780822
 21
-231.5129832567858
 31
0.0
  0
LINE
  5
28835
102
{ACAD_REACTORS
330
2884D
102
}
330
18
100
AcDbEntity
  8
0
100
AcDbLine
 10
4717.83543780822
 20
-218.7629832567858
 30
0.0
 11
4704.83543780822
 21
-218.7629832567858
 31
0.0
  0
LINE
  5
28836
102
{ACAD_REACTORS
330
2884D
102
}
330
18
100
AcDbEntity
  8
0
100
AcDbLine
 10
4704.83543780822
 20
-222.5129832567859
 30
0.0
 11
4717.83543780822
 21
-222.5129832567859
 31
0.0
  0
LINE
  5
28837
102
{ACAD_REACTORS
330
2884D
102
}
330
18
100
AcDbEntity
  8
0
100
AcDbLine
 10
4704.83543780822
 20
-219.5129832567859
 30
0.0
 11
4717.83543780822
 21
-219.5129832567859
 31
0.0
  0
LINE
  5
28838
102
{ACAD_REACTORS
330
2884D
102
}
330
18
100
AcDbEntity
  8
0
100
AcDbLine
 10
4704.83543780822
 20
-225.5129832567859
 30
0.0
 11
4717.83543780822
 21
-225.5129832567859
 31
0.0
  0
LINE
  5
28839
102
{ACAD_REACTORS
330
2884D
102
}
330
18
100
AcDbEntity
  8
0
100
AcDbLine
 10
4704.83543780822
 20
-234.5129832567859
 30
0.0
 11
4717.83543780822
 21
-234.5129832567859
 31
0.0
  0
LINE
  5
2883A
102
{ACAD_REACTORS
330
2884D
102
}
330
18
100
AcDbEntity
  8
0
100
AcDbLine
 10
4704.83543780822
 20
-237.5129832567858
 30
0.0
 11
4717.83543780822
 21
-237.5129832567858
 31
0.0
  0
LINE
  5
2883B
102
{ACAD_REACTORS
330
2884D
102
}
330
18
100
AcDbEntity
  8
0
100
AcDbLine
 10
4704.83543780822
 20
-240.5129832567859
 30
0.0
 11
4717.83543780822
 21
-240.5129832567859
 31
0.0
  0
LINE
  5
2883C
102
{ACAD_REACTORS
330
2884D
102
}
330
18
100
AcDbEntity
  8
0
100
AcDbLine
 10
4704.83543780822
 20
-241.2629832567863
 30
0.0
 11
4717.83543780822
 21
-241.2629832567863
 31
0.0
  0
LINE
  5
2883D
102
{ACAD_REACTORS
330
2884D
102
}
330
18
100
AcDbEntity
  8
0
100
AcDbLine
 10
4704.83543780822
 20
-231.5129832567858
 30
0.0
 11
4704.83543780822
 21
-228.5129832567859
 31
0.0
  0
LINE
  5
2883E
102
{ACAD_REACTORS
330
2884D
102
}
330
18
100
AcDbEntity
  8
0
100
AcDbLine
 10
4704.83543780822
 20
-223.0129832567858
 30
0.0
 11
4704.83543780822
 21
-218.7629832567858
 31
0.0
  0
LINE
  5
2883F
102
{ACAD_REACTORS
330
2884D
102
}
330
18
100
AcDbEntity
  8
0
100
AcDbLine
 10
4703.83543780822
 20
-222.5129832567859
 30
0.0
 11
4704.83543780822
 21
-223.0129832567858
 31
0.0
  0
LINE
  5
28840
102
{ACAD_REACTORS
330
2884D
102
}
330
18
100
AcDbEntity
  8
0
100
AcDbLine
 10
4704.83543780822
 20
-218.7629832567858
 30
0.0
 11
4703.83543780822
 21
-222.5129832567859
 31
0.0
  0
LINE
  5
28841
102
{ACAD_REACTORS
330
2884D
102
}
330
18
100
AcDbEntity
  8
0
100
AcDbLine
 10
4704.83543780822
 20
-225.5129832567859
 30
0.0
 11
4704.83543780822
 21
-222.5129832567859
 31
0.0
  0
LINE
  5
28842
102
{ACAD_REACTORS
330
2884D
102
}
330
18
100
AcDbEntity
  8
0
100
AcDbLine
 10
4704.83543780822
 20
-237.5129832567858
 30
0.0
 11
4704.83543780822
 21
-234.5129832567859
 31
0.0
  0
LINE
  5
28843
102
{ACAD_REACTORS
330
2884D
102
}
330
18
100
AcDbEntity
  8
0
100
AcDbLine
 10
4704.83543780822
 20
-241.2629832567863
 30
0.0
 11
4704.83543780822
 21
-237.0129832567863
 31
0.0
  0
LINE
  5
28844
102
{ACAD_REACTORS
330
2884D
102
}
330
18
100
AcDbEntity
  8
0
100
AcDbLine
 10
4704.83543780822
 20
-241.2629832567863
 30
0.0
 11
4703.83543780822
 21
-237.6379832567868
 31
0.0
  0
LINE
  5
28845
102
{ACAD_REACTORS
330
2884D
102
}
330
18
100
AcDbEntity
  8
0
100
AcDbLine
 10
4703.83543780822
 20
-237.6379832567868
 30
0.0
 11
4704.83543780822
 21
-237.0129832567863
 31
0.0
  0
LINE
  5
28846
102
{ACAD_REACTORS
330
2884D
102
}
330
18
100
AcDbEntity
  8
0
100
AcDbLine
 10
4717.83543780822
 20
-243.3629832567867
 30
0.0
 11
4717.83543780822
 21
-216.6629832567855
 31
0.0
  0
LINE
  5
28847
102
{ACAD_REACTORS
330
2884D
102
}
330
18
100
AcDbEntity
  8
0
100
AcDbLine
 10
4726.835437808219
 20
-218.7629832567858
 30
0.0
 11
4726.835437808221
 21
-241.2629832567863
 31
0.0
  0
LINE
  5
28848
102
{ACAD_REACTORS
330
2884D
102
}
330
18
100
AcDbEntity
  8
0
100
AcDbLine
 10
4721.83543780822
 20
-218.7629832567858
 30
0.0
 11
4726.835437808221
 21
-218.7629832567858
 31
0.0
  0
LINE
  5
28849
102
{ACAD_REACTORS
330
2884D
102
}
330
18
100
AcDbEntity
  8
0
100
AcDbLine
 10
4721.83543780822
 20
-243.3629832567867
 30
0.0
 11
4721.83543780822
 21
-216.6629832567855
 31
0.0
  0
LINE
  5
2884A
102
{ACAD_REACTORS
330
2884D
102
}
330
18
100
AcDbEntity
  8
0
100
AcDbLine
 10
4726.835437808221
 20
-241.2629832567863
 30
0.0
 11
4721.83543780822
 21
-241.2629832567863
 31
0.0
  0
LINE
  5
2884B
102
{ACAD_REACTORS
330
2884D
102
}
330
18
100
AcDbEntity
  8
0
100
AcDbLine
 10
4721.83543780822
 20
-216.6629832567855
 30
0.0
 11
4721.83543780822
 21
-243.3629832567867
 31
0.0
  0
LINE
  5
2884C
102
{ACAD_REACTORS
330
2884D
102
}
330
18
100
AcDbEntity
  8
0
 48
10.0
370
    50
100
AcDbLine
 10
4594.761898348198
 20
-225.6484581668432
 30
0.0
 11
4594.761898348198
 21
-234.6484581668432
 31
0.0
  0
LINE
  5
28862
330
18
100
AcDbEntity
  8
細線
100
AcDbLine
 10
4799.250197459423
 20
-116.2790435889167
 30
0.0
 11
4800.898692240002
 21
-114.6305488083369
 31
0.0
  0
LINE
  5
28863
330
18
100
AcDbEntity
  8
細線
100
AcDbLine
 10
4797.482430506455
 20
-115.3951601124338
 30
0.0
 11
4799.721010143978
 21
-113.1565804749118
 31
0.0
  0
LINE
  5
28864
330
18
100
AcDbEntity
  8
細線
100
AcDbLine
 10
4798.366313982938
 20
-116.2790435889167
 30
0.0
 11
4800.583461943886
 21
-114.0618956279702
 31
0.0
  0
LINE
  5
28865
330
18
100
AcDbEntity
  8
細線
100
AcDbLine
 10
4797.482430506455
 20
-114.51127663595
 30
0.0
 11
4799.175767114099
 21
-112.8179400283063
 31
0.0
  0
LINE
  5
28866
330
18
100
AcDbEntity
  8
細線
100
AcDbLine
 10
4797.482430506455
 20
-113.6273931594667
 30
0.0
 11
4798.54350865143
 21
-112.5663150144912
 31
0.0
  0
LINE
  5
28867
330
18
100
AcDbEntity
  8
0
  6
CENTER
 62
     1
 48
0.3
370
    13
100
AcDbLine
 10
4797.482430506455
 20
-111.239471182944
 30
0.0
 11
4797.482430506455
 21
-120.7187482592319
 31
0.0
  0
LINE
  5
28868
330
18
100
AcDbEntity
  8
細線
100
AcDbLine
 10
4795.391688048841
 20
-119.2536695230149
 30
0.0
 11
4797.482430506455
 21
-117.1629270654005
 31
0.0
  0
LINE
  5
28869
330
18
100
AcDbEntity
  8
細線
100
AcDbLine
 10
4794.901809245033
 20
-118.8596648503392
 30
0.0
 11
4797.482430506455
 21
-116.2790435889167
 31
0.0
  0
LINE
  5
2886A
330
18
100
AcDbEntity
  8
細線
100
AcDbLine
 10
4794.486372895782
 20
-118.391217723107
 30
0.0
 11
4796.598547029972
 21
-116.2790435889167
 31
0.0
  0
LINE
  5
2886B
330
18
100
AcDbEntity
  8
細線
100
AcDbLine
 10
4794.147732449177
 20
-117.8459746932278
 30
0.0
 11
4795.71466355349
 21
-116.2790435889158
 31
0.0
  0
LINE
  5
2886C
330
18
100
AcDbEntity
  8
0
  6
CENTER
 62
     1
 48
0.3
370
    13
100
AcDbLine
 10
4802.110150378494
 20
-116.2790435889167
 30
0.0
 11
4791.978088577979
 21
-116.2790435889167
 31
0.0
  0
LINE
  5
2886D
330
18
100
AcDbEntity
  8
細線
100
AcDbLine
 10
4797.482430506455
 20
-116.2790435889167
 30
0.0
 11
4800.18945727121
 21
-113.5720168241626
 31
0.0
  0
CIRCLE
  5
2886E
330
18
100
AcDbEntity
  8
実線
370
    50
100
AcDbCircle
 10
4797.482430506455
 20
-116.1526380855846
 30
0.0
 40
3.74
  0
LINE
  5
2886F
330
18
100
AcDbEntity
  8
細線
100
AcDbLine
 10
4800.134080935906
 20
-116.2790435889167
 30
0.0
 11
4801.121880946203
 21
-115.2912435786204
 31
0.0
  0
DIMENSION
  5
28898
330
18
100
AcDbEntity
  8
dimension
100
AcDbDimension
  2
*D59
 10
4679.83543780822
 20
-163.4880200848067
 30
0.0
 11
4637.29866807821
 21
-159.4880200848067
 31
0.0
 70
    32
  1
（200）
 71
     5
 42
85.07353946002149
  3
まこ
100
AcDbAlignedDimension
 13
4594.761898348198
 23
-122.2813769137628
 33
0.0
 14
4679.83543780822
 24
-127.2813769137628
 34
0.0
100
AcDbRotatedDimension
  0
VIEWPORT
  5
23
330
15
100
AcDbEntity
 67
     1
  8
0
100
AcDbViewport
 10
200.000598292055
 20
144.0006902937292
 30
0.0
 40
580.5684887768012
 41
291.4430637272764
 68
     1
 69
     1
 12
200.000598292055
 22
144.0006902937292
 13
0.0
 23
0.0
 14
10.0
 24
10.0
 15
10.0
 25
10.0
 16
0.0
 26
0.0
 36
1.0
 17
0.0
 27
0.0
 37
0.0
 42
50.0
 43
0.0
 44
0.0
 45
291.4430637272764
 50
0.0
 51
0.0
 72
   100
 90
    32768
  1

281
     0
 71
     1
 74
     0
110
0.0
120
0.0
130
0.0
111
1.0
121
0.0
131
0.0
112
0.0
122
1.0
132
0.0
 79
     0
146
0.0
  0
VIEWPORT
  5
2E
330
15
100
AcDbEntity
 67
     1
  8
M_VIEW
100
AcDbViewport
 10
200.0
 20
144.0
 30
0.0
 40
400.0
 41
288.0
 68
     2
 69
     2
 12
4501.685503328842
 22
-146.630219685344
 13
0.0
 23
0.0
 14
10.0
 24
10.0
 15
10.0
 25
10.0
 16
0.0
 26
0.0
 36
1.0
 17
0.0
 27
0.0
 37
0.0
 42
50.0
 43
0.0
 44
0.0
 45
575.9999998028095
 50
0.0
 51
0.0
 72
   100
 90
    32768
  1

281
     0
 71
     1
 74
     0
110
0.0
120
0.0
130
0.0
111
1.0
121
0.0
131
0.0
112
0.0
122
1.0
132
0.0
 79
     0
146
0.0
  0
INSERT
  5
115F
330
15
100
AcDbEntity
 67
     1
  8
FRAME025
100
AcDbBlockReference
  2
機械A4横_LBP
 10
82.74908858651452
 20
152.030959079227
 30
0.0
  0
TEXT
  5
AA6A
330
15
100
AcDbEntity
 67
     1
  8
文字
  6
ByBlock
 62
     0
100
AcDbText
 10
32.81885892396519
 20
73.01882819621747
 30
0.0
 40
3.2
  1

 50
90.0
 41
0.625
  7
MSｺﾞｼｯｸ
100
AcDbText
  0
TEXT
  5
AA6C
330
15
100
AcDbEntity
 67
     1
  8
文字
  6
ByBlock
 62
     0
100
AcDbText
 10
37.25020936743055
 20
73.01882819621747
 30
0.0
 40
3.2
  1

 50
90.0
 41
0.625
  7
MSｺﾞｼｯｸ
100
AcDbText
  0
TEXT
  5
FCA5
330
15
100
AcDbEntity
 67
     1
  8
FRAME020
  6
Continuous
100
AcDbText
 10
126.6213117262079
 20
29.63926951973459
 30
0.0
 40
2.5
  1

 41
0.625
  7
MSｺﾞｼｯｸ
100
AcDbText
  0
TEXT
  5
12229
330
15
100
AcDbEntity
 67
     1
  8
0
100
AcDbText
 10
313.4941972603066
 20
10.6316829925787
 30
0.0
 40
6.0
  1
ＳＥ－３８０００Ｂ
 41
1.1
100
AcDbText
  0
MTEXT
  5
21047
330
15
100
AcDbEntity
 67
     1
  8
0
 48
10.0
100
AcDbMText
 10
327.7719738752167
 20
55.46212977036839
 30
0.0
 40
6.0
 41
50.05040000000001
 71
     1
 72
     5
  1
{\L質量：11.0kg}
 73
     1
 44
1.0
  0
LINE
  5
284C2
330
15
100
AcDbEntity
 67
     1
  8
細線
  6
Continuous
100
AcDbLine
 10
17.43438746271434
 20
30.34467421753243
 30
0.0
 11
107.7165685218278
 21
30.34467421753243
 31
0.0
  0
LINE
  5
284C3
330
15
100
AcDbEntity
 67
     1
  8
細線
  6
Continuous
100
AcDbLine
 10
17.43438746271434
 20
25.34467421753243
 30
0.0
 11
107.7165685218278
 21
25.34467421753243
 31
0.0
  0
TEXT
  5
284C4
330
15
100
AcDbEntity
 67
     1
  8
wakumoji
  6
Continuous
100
AcDbText
 10
19.53487108163415
 20
26.41713572360471
 30
0.0
 40
2.88
  1
  マグネットカバーを付けた場合は、マグネットベースの
 41
0.9
  7
まこ
100
AcDbText
  0
TEXT
  5
284C5
330
15
100
AcDbEntity
 67
     1
  8
wakumoji
  6
Continuous
100
AcDbText
 10
19.53487108163415
 20
21.41713572360471
 30
0.0
 40
2.88
  1
  全高は13mm、ギャップは1mmになります。
 41
0.9
  7
まこ
100
AcDbText
  0
LINE
  5
284C6
330
15
100
AcDbEntity
 67
     1
  8
細線
  6
Continuous
100
AcDbLine
 10
17.43438746271434
 20
20.34467421753242
 30
0.0
 11
107.7165685218278
 21
20.34467421753242
 31
0.0
  0
TEXT
  5
284C7
330
15
100
AcDbEntity
 67
     1
  8
wakumoji
  6
Continuous
100
AcDbText
 10
19.53487108163415
 20
31.41713572360471
 30
0.0
 40
2.88
  1
1.本図は、オプション（マグネットカバー）未装着です。
 41
0.9
  7
まこ
100
AcDbText
  0
LINE
  5
284C8
330
15
100
AcDbEntity
 67
     1
  8
細線
  6
Continuous
100
AcDbLine
 10
17.43438746271434
 20
35.7446742175324
 30
0.0
 11
33.13123620262848
 21
35.7446742175324
 31
0.0
  0
TEXT
  5
284C9
330
15
100
AcDbEntity
 67
     1
  8
wakumoji
  6
Continuous
100
AcDbText
 10
18.39326712426958
 20
37.16127201058196
 30
0.0
 40
2.88
  1
注　　記
  7
まこ
100
AcDbText
  0
MTEXT
  5
288CA
330
15
100
AcDbEntity
 67
     1
  8
dimension
100
AcDbMText
 10
212.934027691484
 20
29.14742037924054
 30
0.0
 40
6.0
 41
183.7045999999999
 71
     1
 72
     5
  1
τﾘﾆｱﾓｰﾀ ｺｱ付N NLA-NA CLﾕﾆｯﾄ CLN1000MA (1000N)
  7
ｽﾀｲﾙ3
 73
     1
 44
1.0
1001
ACAD
1000
MTEXTBEGIN
1070
    73
1070
     1
1070
    44
1040
1.0
1070
    74
1070
     0
1000
MTEXTEND
  0
ENDSEC
  0
SECTION
  2
OBJECTS
  0
DICTIONARY
  5
C
330
0
100
AcDbDictionary
281
     1
  3
ACAD_GROUP
350
D
  3
ACAD_LAYOUT
350
DB2
  3
ACAD_MLINESTYLE
350
1B
  3
ACAD_PLOTSETTINGS
350
DB3
  3
ACAD_PLOTSTYLENAME
350
FB5B
  3
AcadDim
350
1B534
  3
AcDbVariableDictionary
350
106A6
  3
ASE_INDEX_DICTIONARY
350
1A99F
  3
DWGPROPS
350
15EC9
1001
ACAD
1000
TREAT_AS_HARD
1070
     0
  0
DICTIONARY
  5
284A8
330
2
100
AcDbDictionary
280
     1
281
     1
  3
ACAD_LAYERFILTERS
360
284A9
  3
ACAD_LAYERSTATES
360
284B5
  0
DICTIONARY
  5
EFC6
330
18
100
AcDbDictionary
280
     1
281
     1
  0
DICTIONARY
  5
EFC4
330
15
100
AcDbDictionary
280
     1
281
     1
  0
DICTIONARY
  5
D
102
{ACAD_REACTORS
330
C
102
}
330
C
100
AcDbDictionary
281
     1
  3
*A1
350
AC8A
  3
*A10
350
2536D
  3
*A100
350
16068
  3
*A101
350
25337
  3
*A102
350
25391
  3
*A103
350
1B73B
  3
*A104
350
265CC
  3
*A105
350
106B3
  3
*A106
350
287C8
  3
*A107
350
2884D
  3
*A108
350
26C4B
  3
*A109
350
26E24
  3
*A11
350
27805
  3
*A110
350
18F21
  3
*A111
350
25397
  3
*A112
350
26C43
  3
*A113
350
1EB80
  3
*A114
350
19A52
  3
*A115
350
265D0
  3
*A116
350
253AB
  3
*A117
350
19989
  3
*A118
350
17B11
  3
*A119
350
1F913
  3
*A12
350
20231
  3
*A120
350
25584
  3
*A121
350
19255
  3
*A122
350
25355
  3
*A123
350
25301
  3
*A124
350
26E60
  3
*A125
350
16059
  3
*A126
350
26E25
  3
*A127
350
19F87
  3
*A128
350
19AA4
  3
*A129
350
26C53
  3
*A13
350
2020E
  3
*A130
350
1D706
  3
*A131
350
1AA94
  3
*A132
350
1EB7D
  3
*A133
350
25585
  3
*A134
350
1B732
  3
*A135
350
26E61
  3
*A136
350
25373
  3
*A137
350
20222
  3
*A138
350
25586
  3
*A139
350
2001F
  3
*A14
350
27CB9
  3
*A140
350
1D6C0
  3
*A141
350
252FB
  3
*A142
350
FCB8
  3
*A143
350
25590
  3
*A144
350
173BD
  3
*A145
350
215A2
  3
*A146
350
1606B
  3
*A147
350
25596
  3
*A148
350
1B720
  3
*A149
350
25331
  3
*A15
350
2531F
  3
*A150
350
ACBD
  3
*A151
350
2559C
  3
*A152
350
1D68E
  3
*A153
350
2559D
  3
*A154
350
2535B
  3
*A155
350
169DA
  3
*A156
350
259CF
  3
*A157
350
25379
  3
*A158
350
25313
  3
*A159
350
259D0
  3
*A16
350
25343
  3
*A160
350
2629A
  3
*A161
350
259D1
  3
*A162
350
262A0
  3
*A163
350
1F91D
  3
*A164
350
265D1
  3
*A165
350
18F1F
  3
*A166
350
25E12
  3
*A167
350
20213
  3
*A168
350
265D2
  3
*A169
350
265C7
  3
*A17
350
25D0D
  3
*A170
350
26093
  3
*A171
350
25E11
  3
*A172
350
1738A
  3
*A173
350
18FA8
  3
*A174
350
1EB7C
  3
*A175
350
173BE
  3
*A176
350
20CA2
  3
*A177
350
AC9A
  3
*A178
350
20013
  3
*A179
350
26095
  3
*A18
350
19A86
  3
*A180
350
259D2
  3
*A181
350
25AC2
  3
*A182
350
25AC3
  3
*A183
350
19786
  3
*A184
350
265CF
  3
*A185
350
19787
  3
*A186
350
19881
  3
*A187
350
1D67A
  3
*A188
350
2629E
  3
*A189
350
20025
  3
*A19
350
26B62
  3
*A190
350
2732E
  3
*A191
350
106A5
  3
*A192
350
1D670
  3
*A193
350
2532B
  3
*A194
350
19FAB
  3
*A195
350
1F90E
  3
*A196
350
252DD
  3
*A197
350
2022C
  3
*A198
350
262A1
  3
*A199
350
173BF
  3
*A2
350
2001C
  3
*A20
350
16058
  3
*A200
350
25D0E
  3
*A201
350
1F918
  3
*A202
350
2732F
  3
*A203
350
25361
  3
*A204
350
27CB0
  3
*A205
350
27330
  3
*A206
350
27331
  3
*A207
350
20CA6
  3
*A208
350
26C78
  3
*A209
350
265CA
  3
*A21
350
1B756
  3
*A210
350
106C6
  3
*A211
350
20209
  3
*A212
350
27332
  3
*A213
350
25D0A
  3
*A214
350
FB6B
  3
*A215
350
26094
  3
*A216
350
ACA2
  3
*A217
350
2608F
  3
*A218
350
27333
  3
*A219
350
16069
  3
*A22
350
18F23
  3
*A220
350
26E26
  3
*A221
350
18F20
  3
*A222
350
27334
  3
*A223
350
1A691
  3
*A224
350
26096
  3
*A225
350
265C9
  3
*A226
350
25D97
  3
*A227
350
27336
  3
*A228
350
2629F
  3
*A229
350
252F5
  3
*A23
350
265CB
  3
*A230
350
27338
  3
*A231
350
252EF
  3
*A232
350
26B3D
  3
*A233
350
25D0B
  3
*A234
350
1606A
  3
*A235
350
2629D
  3
*A236
350
277FA
  3
*A237
350
26C8B
  3
*A238
350
1D6E8
  3
*A239
350
277FB
  3
*A24
350
26E5E
  3
*A240
350
265CE
  3
*A241
350
19A5A
  3
*A242
350
1D6CA
  3
*A243
350
277FC
  3
*A244
350
1D6D4
  3
*A245
350
277FD
  3
*A246
350
17389
  3
*A247
350
2629C
  3
*A248
350
27CB8
  3
*A249
350
1D710
  3
*A25
350
19F67
  3
*A250
350
19729
  3
*A251
350
20022
  3
*A252
350
27CB6
  3
*A253
350
1A695
  3
*A254
350
1B744
  3
*A255
350
25D0C
  3
*A256
350
25E10
  3
*A257
350
26090
  3
*A258
350
277FE
  3
*A259
350
277FF
  3
*A26
350
20019
  3
*A260
350
27800
  3
*A261
350
27801
  3
*A262
350
27802
  3
*A263
350
1EB7E
  3
*A264
350
1D6DE
  3
*A265
350
2537F
  3
*A266
350
27803
  3
*A267
350
2530D
  3
*A268
350
FBFF
  3
*A269
350
25367
  3
*A27
350
18FA7
  3
*A270
350
20028
  3
*A271
350
27CB7
  3
*A272
350
1A09A
  3
*A273
350
2533D
  3
*A274
350
27804
  3
*A28
350
1F904
  3
*A29
350
25385
  3
*A3
350
1F8F5
  3
*A30
350
19988
  3
*A31
350
27CB3
  3
*A32
350
2534F
  3
*A33
350
FC95
  3
*A34
350
1738B
  3
*A35
350
1F8F0
  3
*A36
350
1F909
  3
*A37
350
106C7
  3
*A38
350
26C06
  3
*A39
350
FC91
  3
*A4
350
ACB4
  3
*A40
350
1D6A2
  3
*A41
350
2538B
  3
*A42
350
1A692
  3
*A43
350
27CB1
  3
*A44
350
20010
  3
*A45
350
1EB7F
  3
*A46
350
25E13
  3
*A47
350
27CBA
  3
*A48
350
20236
  3
*A49
350
26E22
  3
*A5
350
17901
  3
*A50
350
26092
  3
*A51
350
ACAB
  3
*A52
350
26091
  3
*A53
350
1B74D
  3
*A54
350
17BFF
  3
*A55
350
27CB4
  3
*A56
350
252E3
  3
*A57
350
1998A
  3
*A58
350
20016
  3
*A59
350
1B729
  3
*A6
350
265C8
  3
*A60
350
1D6FC
  3
*A61
350
27CB2
  3
*A62
350
18FA6
  3
*A63
350
20227
  3
*A64
350
1D684
  3
*A65
350
19861
  3
*A66
350
27806
  3
*A67
350
19F55
  3
*A68
350
24D3F
  3
*A69
350
1F8FA
  3
*A7
350
25307
  3
*A70
350
1D6B6
  3
*A71
350
25325
  3
*A72
350
198F1
  3
*A73
350
1D6AC
  3
*A74
350
18F22
  3
*A75
350
1D698
  3
*A76
350
20218
  3
*A77
350
1F8FF
  3
*A78
350
2002B
  3
*A79
350
ACA1
  3
*A8
350
19259
  3
*A80
350
27CAF
  3
*A81
350
2021D
  3
*A82
350
27CB5
  3
*A83
350
27D88
  3
*A84
350
19F99
  3
*A85
350
19794
  3
*A86
350
FC9B
  3
*A87
350
1D6F2
  3
*A88
350
252E9
  3
*A89
350
196C2
  3
*A9
350
25349
  3
*A90
350
26E5F
  3
*A91
350
FC9A
  3
*A92
350
265CD
  3
*A93
350
25319
  3
*A94
350
26E23
  3
*A95
350
19A51
  3
*A96
350
2629B
  3
*A97
350
FB6C
  3
*A98
350
26C07
  3
*A99
350
19256
1001
ACAD
1000
TREAT_AS_HARD
1070
     0
  0
DICTIONARY
  5
DB2
102
{ACAD_REACTORS
330
C
102
}
330
C
100
AcDbDictionary
281
     1
  3
Model
350
FB5D
  3
外形図
350
FB5E
1001
ACAD
1000
TREAT_AS_HARD
1070
     0
  0
DICTIONARY
  5
1B
102
{ACAD_REACTORS
330
C
102
}
330
C
100
AcDbDictionary
281
     1
  3
STANDARD
350
1C
1001
ACAD
1000
TREAT_AS_HARD
1070
     0
  0
DICTIONARY
  5
DB3
102
{ACAD_REACTORS
330
C
102
}
330
C
100
AcDbDictionary
281
     1
1001
ACAD
1000
TREAT_AS_HARD
1070
     0
  0
ACDBDICTIONARYWDFLT
  5
FB5B
102
{ACAD_REACTORS
330
C
102
}
330
C
100
AcDbDictionary
281
     1
  3
Normal
350
FB5C
100
AcDbDictionaryWithDefault
340
FB5C
  0
XRECORD
  5
1B534
102
{ACAD_REACTORS
330
C
102
}
330
C
100
AcDbXrecord
280
     1
 90
   990106
  3

 60
     0
 61
     0
 62
     4
 63
     4
 64
     1
 65
     0
 66
     0
 67
     3
 68
     1
 69
     0
 70
     0
 71
     0
 72
     0
 40
0.0
170
     2
340
28090
  0
DICTIONARY
  5
106A6
102
{ACAD_REACTORS
330
C
102
}
330
C
100
AcDbDictionary
281
     1
  3
SORTENTS
350
106A7
  0
DICTIONARY
  5
1A99F
102
{ACAD_REACTORS
330
C
102
}
330
C
100
AcDbDictionary
281
     1
  3
ASEBlockHierarchyIndexRecord
350
1A9A1
1001
DCO15
1040
1464612067.17
  0
XRECORD
  5
15EC9
102
{ACAD_REACTORS
330
C
102
}
330
C
100
AcDbXrecord
280
     1
  1
DWGPROPS COOKIE
  2

  3

  4

  6

  7

  8

  9

300
=
301
=
302
=
303
=
304
=
305
=
306
=
307
=
308
=
309
=
 40
12.65185717592592
 41
2451224.660162384
 42
2452395.660827315
  1

 90
        0
  0
DICTIONARY
  5
284A9
102
{ACAD_REACTORS
330
284A8
102
}
330
284A8
100
AcDbDictionary
280
     1
281
     1
  3
0
360
284AA
  3
11
360
284AB
  3
150_
360
284AC
  3
160_
360
284AD
  3
170_
360
284AE
  3
171_
360
284AF
  3
350_
360
284B0
  3
4
360
284B1
  3
5
360
284B2
  3
7
360
284B3
  3
kiseki
360
284B4
  0
DICTIONARY
  5
284B5
102
{ACAD_REACTORS
330
284A8
102
}
330
284A8
100
AcDbDictionary
281
     1
  0
GROUP
  5
AC8A
102
{ACAD_REACTORS
330
D
102
}
330
D
100
AcDbGroup
300

 70
     1
 71
     1
  0
GROUP
  5
2536D
102
{ACAD_REACTORS
330
D
102
}
330
D
100
AcDbGroup
300

 70
     1
 71
     1
  0
GROUP
  5
16068
102
{ACAD_REACTORS
330
D
102
}
330
D
100
AcDbGroup
300

 70
     1
 71
     1
  0
GROUP
  5
25337
102
{ACAD_REACTORS
330
D
102
}
330
D
100
AcDbGroup
300

 70
     1
 71
     1
  0
GROUP
  5
25391
102
{ACAD_REACTORS
330
D
102
}
330
D
100
AcDbGroup
300

 70
     1
 71
     1
  0
GROUP
  5
1B73B
102
{ACAD_REACTORS
330
D
102
}
330
D
100
AcDbGroup
300

 70
     1
 71
     1
  0
GROUP
  5
265CC
102
{ACAD_REACTORS
330
D
102
}
330
D
100
AcDbGroup
300

 70
     1
 71
     1
  0
GROUP
  5
106B3
102
{ACAD_REACTORS
330
D
102
}
330
D
100
AcDbGroup
300

 70
     1
 71
     1
  0
GROUP
  5
287C8
102
{ACAD_REACTORS
330
D
102
}
330
D
100
AcDbGroup
300

 70
     1
 71
     1
340
287B9
340
287BA
340
287BB
340
287C3
340
287C4
340
287C2
340
287C0
340
287C1
340
28791
340
28792
340
28793
340
28794
340
28795
340
28796
340
28797
340
287B7
340
2879A
340
2879B
340
2879C
340
2879D
340
2879E
340
2879F
340
287A0
340
287A1
340
287A2
340
287A3
340
287A4
340
287A6
340
287A7
340
287BD
340
287B8
340
287BF
340
2878D
340
28799
340
287A5
340
287A9
340
287AA
340
287AC
340
287AE
340
287AF
340
287B1
340
287B5
340
287A8
340
287B0
340
287B6
340
2878E
340
2878F
340
28790
340
28798
340
287AB
340
287AD
340
287B2
340
287B3
340
287B4
340
287BC
340
287BE
  0
GROUP
  5
2884D
102
{ACAD_REACTORS
330
D
102
}
330
D
100
AcDbGroup
300

 70
     1
 71
     1
340
2884B
340
28849
340
28847
340
28846
340
28830
340
2882F
340
28826
340
28824
340
28820
340
2881E
340
2881C
340
2882E
340
2882D
340
2882C
340
2882B
340
2882A
340
28829
340
28828
340
28827
340
28823
340
28821
340
2881F
340
2881D
340
2884A
340
28845
340
28844
340
28843
340
28842
340
2883D
340
2883C
340
2883B
340
2883A
340
28839
340
28834
340
28833
340
28832
340
2881B
340
28822
340
28848
340
28841
340
28840
340
2883F
340
2883E
340
28838
340
28837
340
28836
340
28835
340
28831
340
28814
340
28813
340
28812
340
2884C
340
2881A
340
28819
340
28815
340
28816
340
28825
  0
GROUP
  5
26C4B
102
{ACAD_REACTORS
330
D
102
}
330
D
100
AcDbGroup
300

 70
     1
 71
     1
  0
GROUP
  5
26E24
102
{ACAD_REACTORS
330
D
102
}
330
D
100
AcDbGroup
300

 70
     1
 71
     1
  0
GROUP
  5
27805
102
{ACAD_REACTORS
330
D
102
}
330
D
100
AcDbGroup
300

 70
     1
 71
     1
  0
GROUP
  5
18F21
102
{ACAD_REACTORS
330
D
102
}
330
D
100
AcDbGroup
300

 70
     1
 71
     1
  0
GROUP
  5
25397
102
{ACAD_REACTORS
330
D
102
}
330
D
100
AcDbGroup
300

 70
     1
 71
     1
  0
GROUP
  5
26C43
102
{ACAD_REACTORS
330
D
102
}
330
D
100
AcDbGroup
300

 70
     1
 71
     1
  0
GROUP
  5
1EB80
102
{ACAD_REACTORS
330
D
102
}
330
D
100
AcDbGroup
300

 70
     1
 71
     1
  0
GROUP
  5
19A52
102
{ACAD_REACTORS
330
D
102
}
330
D
100
AcDbGroup
300

 70
     1
 71
     1
  0
GROUP
  5
265D0
102
{ACAD_REACTORS
330
D
102
}
330
D
100
AcDbGroup
300

 70
     1
 71
     1
  0
GROUP
  5
253AB
102
{ACAD_REACTORS
330
D
102
}
330
D
100
AcDbGroup
300

 70
     1
 71
     1
  0
GROUP
  5
19989
102
{ACAD_REACTORS
330
D
102
}
330
D
100
AcDbGroup
300

 70
     1
 71
     1
  0
GROUP
  5
17B11
102
{ACAD_REACTORS
330
D
102
}
330
D
100
AcDbGroup
300

 70
     1
 71
     1
  0
GROUP
  5
1F913
102
{ACAD_REACTORS
330
D
102
}
330
D
100
AcDbGroup
300

 70
     1
 71
     1
  0
GROUP
  5
20231
102
{ACAD_REACTORS
330
D
102
}
330
D
100
AcDbGroup
300

 70
     1
 71
     1
  0
GROUP
  5
25584
102
{ACAD_REACTORS
330
D
102
}
330
D
100
AcDbGroup
300

 70
     1
 71
     1
  0
GROUP
  5
19255
102
{ACAD_REACTORS
330
D
102
}
330
D
100
AcDbGroup
300

 70
     1
 71
     1
  0
GROUP
  5
25355
102
{ACAD_REACTORS
330
D
102
}
330
D
100
AcDbGroup
300

 70
     1
 71
     1
  0
GROUP
  5
25301
102
{ACAD_REACTORS
330
D
102
}
330
D
100
AcDbGroup
300

 70
     1
 71
     1
  0
GROUP
  5
26E60
102
{ACAD_REACTORS
330
D
102
}
330
D
100
AcDbGroup
300

 70
     1
 71
     1
  0
GROUP
  5
16059
102
{ACAD_REACTORS
330
D
102
}
330
D
100
AcDbGroup
300

 70
     1
 71
     1
  0
GROUP
  5
26E25
102
{ACAD_REACTORS
330
D
102
}
330
D
100
AcDbGroup
300

 70
     1
 71
     1
  0
GROUP
  5
19F87
102
{ACAD_REACTORS
330
D
102
}
330
D
100
AcDbGroup
300

 70
     1
 71
     1
  0
GROUP
  5
19AA4
102
{ACAD_REACTORS
330
D
102
}
330
D
100
AcDbGroup
300

 70
     1
 71
     1
  0
GROUP
  5
26C53
102
{ACAD_REACTORS
330
D
102
}
330
D
100
AcDbGroup
300

 70
     1
 71
     1
  0
GROUP
  5
2020E
102
{ACAD_REACTORS
330
D
102
}
330
D
100
AcDbGroup
300

 70
     1
 71
     1
  0
GROUP
  5
1D706
102
{ACAD_REACTORS
330
D
102
}
330
D
100
AcDbGroup
300

 70
     1
 71
     1
  0
GROUP
  5
1AA94
102
{ACAD_REACTORS
330
D
102
}
330
D
100
AcDbGroup
300

 70
     1
 71
     1
  0
GROUP
  5
1EB7D
102
{ACAD_REACTORS
330
D
102
}
330
D
100
AcDbGroup
300

 70
     1
 71
     1
  0
GROUP
  5
25585
102
{ACAD_REACTORS
330
D
102
}
330
D
100
AcDbGroup
300

 70
     1
 71
     1
  0
GROUP
  5
1B732
102
{ACAD_REACTORS
330
D
102
}
330
D
100
AcDbGroup
300

 70
     1
 71
     1
  0
GROUP
  5
26E61
102
{ACAD_REACTORS
330
D
102
}
330
D
100
AcDbGroup
300

 70
     1
 71
     1
  0
GROUP
  5
25373
102
{ACAD_REACTORS
330
D
102
}
330
D
100
AcDbGroup
300

 70
     1
 71
     1
  0
GROUP
  5
20222
102
{ACAD_REACTORS
330
D
102
}
330
D
100
AcDbGroup
300

 70
     1
 71
     1
  0
GROUP
  5
25586
102
{ACAD_REACTORS
330
D
102
}
330
D
100
AcDbGroup
300

 70
     1
 71
     1
  0
GROUP
  5
2001F
102
{ACAD_REACTORS
330
D
102
}
330
D
100
AcDbGroup
300

 70
     1
 71
     1
  0
GROUP
  5
27CB9
102
{ACAD_REACTORS
330
D
102
}
330
D
100
AcDbGroup
300

 70
     1
 71
     1
  0
GROUP
  5
1D6C0
102
{ACAD_REACTORS
330
D
102
}
330
D
100
AcDbGroup
300

 70
     1
 71
     1
  0
GROUP
  5
252FB
102
{ACAD_REACTORS
330
D
102
}
330
D
100
AcDbGroup
300

 70
     1
 71
     1
  0
GROUP
  5
FCB8
102
{ACAD_REACTORS
330
D
102
}
330
D
100
AcDbGroup
300

 70
     1
 71
     1
  0
GROUP
  5
25590
102
{ACAD_REACTORS
330
D
102
}
330
D
100
AcDbGroup
300

 70
     1
 71
     1
  0
GROUP
  5
173BD
102
{ACAD_REACTORS
330
D
102
}
330
D
100
AcDbGroup
300

 70
     1
 71
     1
  0
GROUP
  5
215A2
102
{ACAD_REACTORS
330
D
102
}
330
D
100
AcDbGroup
300

 70
     1
 71
     1
  0
GROUP
  5
1606B
102
{ACAD_REACTORS
330
D
102
}
330
D
100
AcDbGroup
300

 70
     1
 71
     1
  0
GROUP
  5
25596
102
{ACAD_REACTORS
330
D
102
}
330
D
100
AcDbGroup
300

 70
     1
 71
     1
  0
GROUP
  5
1B720
102
{ACAD_REACTORS
330
D
102
}
330
D
100
AcDbGroup
300

 70
     1
 71
     1
  0
GROUP
  5
25331
102
{ACAD_REACTORS
330
D
102
}
330
D
100
AcDbGroup
300

 70
     1
 71
     1
  0
GROUP
  5
2531F
102
{ACAD_REACTORS
330
D
102
}
330
D
100
AcDbGroup
300

 70
     1
 71
     1
  0
GROUP
  5
ACBD
102
{ACAD_REACTORS
330
D
102
}
330
D
100
AcDbGroup
300

 70
     1
 71
     1
  0
GROUP
  5
2559C
102
{ACAD_REACTORS
330
D
102
}
330
D
100
AcDbGroup
300

 70
     1
 71
     1
  0
GROUP
  5
1D68E
102
{ACAD_REACTORS
330
D
102
}
330
D
100
AcDbGroup
300

 70
     1
 71
     1
  0
GROUP
  5
2559D
102
{ACAD_REACTORS
330
D
102
}
330
D
100
AcDbGroup
300

 70
     1
 71
     1
  0
GROUP
  5
2535B
102
{ACAD_REACTORS
330
D
102
}
330
D
100
AcDbGroup
300

 70
     1
 71
     1
  0
GROUP
  5
169DA
102
{ACAD_REACTORS
330
D
102
}
330
D
100
AcDbGroup
300

 70
     1
 71
     1
  0
GROUP
  5
259CF
102
{ACAD_REACTORS
330
D
102
}
330
D
100
AcDbGroup
300

 70
     1
 71
     1
  0
GROUP
  5
25379
102
{ACAD_REACTORS
330
D
102
}
330
D
100
AcDbGroup
300

 70
     1
 71
     1
  0
GROUP
  5
25313
102
{ACAD_REACTORS
330
D
102
}
330
D
100
AcDbGroup
300

 70
     1
 71
     1
  0
GROUP
  5
259D0
102
{ACAD_REACTORS
330
D
102
}
330
D
100
AcDbGroup
300

 70
     1
 71
     1
  0
GROUP
  5
25343
102
{ACAD_REACTORS
330
D
102
}
330
D
100
AcDbGroup
300

 70
     1
 71
     1
  0
GROUP
  5
2629A
102
{ACAD_REACTORS
330
D
102
}
330
D
100
AcDbGroup
300

 70
     1
 71
     1
  0
GROUP
  5
259D1
102
{ACAD_REACTORS
330
D
102
}
330
D
100
AcDbGroup
300

 70
     1
 71
     1
  0
GROUP
  5
262A0
102
{ACAD_REACTORS
330
D
102
}
330
D
100
AcDbGroup
300

 70
     1
 71
     1
  0
GROUP
  5
1F91D
102
{ACAD_REACTORS
330
D
102
}
330
D
100
AcDbGroup
300

 70
     1
 71
     1
  0
GROUP
  5
265D1
102
{ACAD_REACTORS
330
D
102
}
330
D
100
AcDbGroup
300

 70
     1
 71
     1
  0
GROUP
  5
18F1F
102
{ACAD_REACTORS
330
D
102
}
330
D
100
AcDbGroup
300

 70
     1
 71
     1
  0
GROUP
  5
25E12
102
{ACAD_REACTORS
330
D
102
}
330
D
100
AcDbGroup
300

 70
     1
 71
     1
  0
GROUP
  5
20213
102
{ACAD_REACTORS
330
D
102
}
330
D
100
AcDbGroup
300

 70
     1
 71
     1
  0
GROUP
  5
265D2
102
{ACAD_REACTORS
330
D
102
}
330
D
100
AcDbGroup
300

 70
     1
 71
     1
  0
GROUP
  5
265C7
102
{ACAD_REACTORS
330
D
102
}
330
D
100
AcDbGroup
300

 70
     1
 71
     1
  0
GROUP
  5
25D0D
102
{ACAD_REACTORS
330
D
102
}
330
D
100
AcDbGroup
300

 70
     1
 71
     1
  0
GROUP
  5
26093
102
{ACAD_REACTORS
330
D
102
}
330
D
100
AcDbGroup
300

 70
     1
 71
     1
  0
GROUP
  5
25E11
102
{ACAD_REACTORS
330
D
102
}
330
D
100
AcDbGroup
300

 70
     1
 71
     1
  0
GROUP
  5
1738A
102
{ACAD_REACTORS
330
D
102
}
330
D
100
AcDbGroup
300

 70
     1
 71
     1
  0
GROUP
  5
18FA8
102
{ACAD_REACTORS
330
D
102
}
330
D
100
AcDbGroup
300

 70
     1
 71
     1
  0
GROUP
  5
1EB7C
102
{ACAD_REACTORS
330
D
102
}
330
D
100
AcDbGroup
300

 70
     1
 71
     1
  0
GROUP
  5
173BE
102
{ACAD_REACTORS
330
D
102
}
330
D
100
AcDbGroup
300

 70
     1
 71
     1
  0
GROUP
  5
20CA2
102
{ACAD_REACTORS
330
D
102
}
330
D
100
AcDbGroup
300

 70
     1
 71
     1
  0
GROUP
  5
AC9A
102
{ACAD_REACTORS
330
D
102
}
330
D
100
AcDbGroup
300

 70
     1
 71
     1
  0
GROUP
  5
20013
102
{ACAD_REACTORS
330
D
102
}
330
D
100
AcDbGroup
300

 70
     1
 71
     1
  0
GROUP
  5
26095
102
{ACAD_REACTORS
330
D
102
}
330
D
100
AcDbGroup
300

 70
     1
 71
     1
  0
GROUP
  5
19A86
102
{ACAD_REACTORS
330
D
102
}
330
D
100
AcDbGroup
300

 70
     1
 71
     1
  0
GROUP
  5
259D2
102
{ACAD_REACTORS
330
D
102
}
330
D
100
AcDbGroup
300

 70
     1
 71
     1
  0
GROUP
  5
25AC2
102
{ACAD_REACTORS
330
D
102
}
330
D
100
AcDbGroup
300

 70
     1
 71
     1
  0
GROUP
  5
25AC3
102
{ACAD_REACTORS
330
D
102
}
330
D
100
AcDbGroup
300

 70
     1
 71
     1
  0
GROUP
  5
19786
102
{ACAD_REACTORS
330
D
102
}
330
D
100
AcDbGroup
300

 70
     1
 71
     1
  0
GROUP
  5
265CF
102
{ACAD_REACTORS
330
D
102
}
330
D
100
AcDbGroup
300

 70
     1
 71
     1
  0
GROUP
  5
19787
102
{ACAD_REACTORS
330
D
102
}
330
D
100
AcDbGroup
300

 70
     1
 71
     1
  0
GROUP
  5
19881
102
{ACAD_REACTORS
330
D
102
}
330
D
100
AcDbGroup
300

 70
     1
 71
     1
  0
GROUP
  5
1D67A
102
{ACAD_REACTORS
330
D
102
}
330
D
100
AcDbGroup
300

 70
     1
 71
     1
  0
GROUP
  5
2629E
102
{ACAD_REACTORS
330
D
102
}
330
D
100
AcDbGroup
300

 70
     1
 71
     1
  0
GROUP
  5
20025
102
{ACAD_REACTORS
330
D
102
}
330
D
100
AcDbGroup
300

 70
     1
 71
     1
  0
GROUP
  5
26B62
102
{ACAD_REACTORS
330
D
102
}
330
D
100
AcDbGroup
300

 70
     1
 71
     1
  0
GROUP
  5
2732E
102
{ACAD_REACTORS
330
D
102
}
330
D
100
AcDbGroup
300

 70
     1
 71
     1
  0
GROUP
  5
106A5
102
{ACAD_REACTORS
330
D
102
}
330
D
100
AcDbGroup
300

 70
     1
 71
     1
  0
GROUP
  5
1D670
102
{ACAD_REACTORS
330
D
102
}
330
D
100
AcDbGroup
300

 70
     1
 71
     1
  0
GROUP
  5
2532B
102
{ACAD_REACTORS
330
D
102
}
330
D
100
AcDbGroup
300

 70
     1
 71
     1
  0
GROUP
  5
19FAB
102
{ACAD_REACTORS
330
D
102
}
330
D
100
AcDbGroup
300

 70
     1
 71
     1
  0
GROUP
  5
1F90E
102
{ACAD_REACTORS
330
D
102
}
330
D
100
AcDbGroup
300

 70
     1
 71
     1
  0
GROUP
  5
252DD
102
{ACAD_REACTORS
330
D
102
}
330
D
100
AcDbGroup
300

 70
     1
 71
     1
  0
GROUP
  5
2022C
102
{ACAD_REACTORS
330
D
102
}
330
D
100
AcDbGroup
300

 70
     1
 71
     1
  0
GROUP
  5
262A1
102
{ACAD_REACTORS
330
D
102
}
330
D
100
AcDbGroup
300

 70
     1
 71
     1
  0
GROUP
  5
173BF
102
{ACAD_REACTORS
330
D
102
}
330
D
100
AcDbGroup
300

 70
     1
 71
     1
  0
GROUP
  5
2001C
102
{ACAD_REACTORS
330
D
102
}
330
D
100
AcDbGroup
300

 70
     1
 71
     1
  0
GROUP
  5
16058
102
{ACAD_REACTORS
330
D
102
}
330
D
100
AcDbGroup
300

 70
     1
 71
     1
  0
GROUP
  5
25D0E
102
{ACAD_REACTORS
330
D
102
}
330
D
100
AcDbGroup
300

 70
     1
 71
     1
  0
GROUP
  5
1F918
102
{ACAD_REACTORS
330
D
102
}
330
D
100
AcDbGroup
300

 70
     1
 71
     1
  0
GROUP
  5
2732F
102
{ACAD_REACTORS
330
D
102
}
330
D
100
AcDbGroup
300

 70
     1
 71
     1
  0
GROUP
  5
25361
102
{ACAD_REACTORS
330
D
102
}
330
D
100
AcDbGroup
300

 70
     1
 71
     1
  0
GROUP
  5
27CB0
102
{ACAD_REACTORS
330
D
102
}
330
D
100
AcDbGroup
300

 70
     1
 71
     1
  0
GROUP
  5
27330
102
{ACAD_REACTORS
330
D
102
}
330
D
100
AcDbGroup
300

 70
     1
 71
     1
  0
GROUP
  5
27331
102
{ACAD_REACTORS
330
D
102
}
330
D
100
AcDbGroup
300

 70
     1
 71
     1
  0
GROUP
  5
20CA6
102
{ACAD_REACTORS
330
D
102
}
330
D
100
AcDbGroup
300

 70
     1
 71
     1
  0
GROUP
  5
26C78
102
{ACAD_REACTORS
330
D
102
}
330
D
100
AcDbGroup
300

 70
     1
 71
     1
  0
GROUP
  5
265CA
102
{ACAD_REACTORS
330
D
102
}
330
D
100
AcDbGroup
300

 70
     1
 71
     1
  0
GROUP
  5
1B756
102
{ACAD_REACTORS
330
D
102
}
330
D
100
AcDbGroup
300

 70
     1
 71
     1
  0
GROUP
  5
106C6
102
{ACAD_REACTORS
330
D
102
}
330
D
100
AcDbGroup
300

 70
     1
 71
     1
  0
GROUP
  5
20209
102
{ACAD_REACTORS
330
D
102
}
330
D
100
AcDbGroup
300

 70
     1
 71
     1
  0
GROUP
  5
27332
102
{ACAD_REACTORS
330
D
102
}
330
D
100
AcDbGroup
300

 70
     1
 71
     1
  0
GROUP
  5
25D0A
102
{ACAD_REACTORS
330
D
102
}
330
D
100
AcDbGroup
300

 70
     1
 71
     1
  0
GROUP
  5
FB6B
102
{ACAD_REACTORS
330
D
102
}
330
D
100
AcDbGroup
300

 70
     1
 71
     1
  0
GROUP
  5
26094
102
{ACAD_REACTORS
330
D
102
}
330
D
100
AcDbGroup
300

 70
     1
 71
     1
  0
GROUP
  5
ACA2
102
{ACAD_REACTORS
330
D
102
}
330
D
100
AcDbGroup
300

 70
     1
 71
     1
  0
GROUP
  5
2608F
102
{ACAD_REACTORS
330
D
102
}
330
D
100
AcDbGroup
300

 70
     1
 71
     1
  0
GROUP
  5
27333
102
{ACAD_REACTORS
330
D
102
}
330
D
100
AcDbGroup
300

 70
     1
 71
     1
  0
GROUP
  5
16069
102
{ACAD_REACTORS
330
D
102
}
330
D
100
AcDbGroup
300

 70
     1
 71
     1
  0
GROUP
  5
18F23
102
{ACAD_REACTORS
330
D
102
}
330
D
100
AcDbGroup
300

 70
     1
 71
     1
  0
GROUP
  5
26E26
102
{ACAD_REACTORS
330
D
102
}
330
D
100
AcDbGroup
300

 70
     1
 71
     1
  0
GROUP
  5
18F20
102
{ACAD_REACTORS
330
D
102
}
330
D
100
AcDbGroup
300

 70
     1
 71
     1
  0
GROUP
  5
27334
102
{ACAD_REACTORS
330
D
102
}
330
D
100
AcDbGroup
300

 70
     1
 71
     1
  0
GROUP
  5
1A691
102
{ACAD_REACTORS
330
D
102
}
330
D
100
AcDbGroup
300

 70
     1
 71
     1
  0
GROUP
  5
26096
102
{ACAD_REACTORS
330
D
102
}
330
D
100
AcDbGroup
300

 70
     1
 71
     1
  0
GROUP
  5
265C9
102
{ACAD_REACTORS
330
D
102
}
330
D
100
AcDbGroup
300

 70
     1
 71
     1
  0
GROUP
  5
25D97
102
{ACAD_REACTORS
330
D
102
}
330
D
100
AcDbGroup
300

 70
     1
 71
     1
  0
GROUP
  5
27336
102
{ACAD_REACTORS
330
D
102
}
330
D
100
AcDbGroup
300

 70
     1
 71
     1
  0
GROUP
  5
2629F
102
{ACAD_REACTORS
330
D
102
}
330
D
100
AcDbGroup
300

 70
     1
 71
     1
  0
GROUP
  5
252F5
102
{ACAD_REACTORS
330
D
102
}
330
D
100
AcDbGroup
300

 70
     1
 71
     1
  0
GROUP
  5
265CB
102
{ACAD_REACTORS
330
D
102
}
330
D
100
AcDbGroup
300

 70
     1
 71
     1
  0
GROUP
  5
27338
102
{ACAD_REACTORS
330
D
102
}
330
D
100
AcDbGroup
300

 70
     1
 71
     1
  0
GROUP
  5
252EF
102
{ACAD_REACTORS
330
D
102
}
330
D
100
AcDbGroup
300

 70
     1
 71
     1
  0
GROUP
  5
26B3D
102
{ACAD_REACTORS
330
D
102
}
330
D
100
AcDbGroup
300

 70
     1
 71
     1
  0
GROUP
  5
25D0B
102
{ACAD_REACTORS
330
D
102
}
330
D
100
AcDbGroup
300

 70
     1
 71
     1
  0
GROUP
  5
1606A
102
{ACAD_REACTORS
330
D
102
}
330
D
100
AcDbGroup
300

 70
     1
 71
     1
  0
GROUP
  5
2629D
102
{ACAD_REACTORS
330
D
102
}
330
D
100
AcDbGroup
300

 70
     1
 71
     1
  0
GROUP
  5
277FA
102
{ACAD_REACTORS
330
D
102
}
330
D
100
AcDbGroup
300

 70
     1
 71
     1
  0
GROUP
  5
26C8B
102
{ACAD_REACTORS
330
D
102
}
330
D
100
AcDbGroup
300

 70
     1
 71
     1
  0
GROUP
  5
1D6E8
102
{ACAD_REACTORS
330
D
102
}
330
D
100
AcDbGroup
300

 70
     1
 71
     1
  0
GROUP
  5
277FB
102
{ACAD_REACTORS
330
D
102
}
330
D
100
AcDbGroup
300

 70
     1
 71
     1
  0
GROUP
  5
26E5E
102
{ACAD_REACTORS
330
D
102
}
330
D
100
AcDbGroup
300

 70
     1
 71
     1
  0
GROUP
  5
265CE
102
{ACAD_REACTORS
330
D
102
}
330
D
100
AcDbGroup
300

 70
     1
 71
     1
  0
GROUP
  5
19A5A
102
{ACAD_REACTORS
330
D
102
}
330
D
100
AcDbGroup
300

 70
     1
 71
     1
  0
GROUP
  5
1D6CA
102
{ACAD_REACTORS
330
D
102
}
330
D
100
AcDbGroup
300

 70
     1
 71
     1
  0
GROUP
  5
277FC
102
{ACAD_REACTORS
330
D
102
}
330
D
100
AcDbGroup
300

 70
     1
 71
     1
  0
GROUP
  5
1D6D4
102
{ACAD_REACTORS
330
D
102
}
330
D
100
AcDbGroup
300

 70
     1
 71
     1
  0
GROUP
  5
277FD
102
{ACAD_REACTORS
330
D
102
}
330
D
100
AcDbGroup
300

 70
     1
 71
     1
  0
GROUP
  5
17389
102
{ACAD_REACTORS
330
D
102
}
330
D
100
AcDbGroup
300

 70
     1
 71
     1
  0
GROUP
  5
2629C
102
{ACAD_REACTORS
330
D
102
}
330
D
100
AcDbGroup
300

 70
     1
 71
     1
  0
GROUP
  5
27CB8
102
{ACAD_REACTORS
330
D
102
}
330
D
100
AcDbGroup
300

 70
     1
 71
     1
  0
GROUP
  5
1D710
102
{ACAD_REACTORS
330
D
102
}
330
D
100
AcDbGroup
300

 70
     1
 71
     1
  0
GROUP
  5
19F67
102
{ACAD_REACTORS
330
D
102
}
330
D
100
AcDbGroup
300

 70
     1
 71
     1
  0
GROUP
  5
19729
102
{ACAD_REACTORS
330
D
102
}
330
D
100
AcDbGroup
300

 70
     1
 71
     1
  0
GROUP
  5
20022
102
{ACAD_REACTORS
330
D
102
}
330
D
100
AcDbGroup
300

 70
     1
 71
     1
  0
GROUP
  5
27CB6
102
{ACAD_REACTORS
330
D
102
}
330
D
100
AcDbGroup
300

 70
     1
 71
     1
  0
GROUP
  5
1A695
102
{ACAD_REACTORS
330
D
102
}
330
D
100
AcDbGroup
300

 70
     1
 71
     1
  0
GROUP
  5
1B744
102
{ACAD_REACTORS
330
D
102
}
330
D
100
AcDbGroup
300

 70
     1
 71
     1
  0
GROUP
  5
25D0C
102
{ACAD_REACTORS
330
D
102
}
330
D
100
AcDbGroup
300

 70
     1
 71
     1
  0
GROUP
  5
25E10
102
{ACAD_REACTORS
330
D
102
}
330
D
100
AcDbGroup
300

 70
     1
 71
     1
  0
GROUP
  5
26090
102
{ACAD_REACTORS
330
D
102
}
330
D
100
AcDbGroup
300

 70
     1
 71
     1
  0
GROUP
  5
277FE
102
{ACAD_REACTORS
330
D
102
}
330
D
100
AcDbGroup
300

 70
     1
 71
     1
  0
GROUP
  5
277FF
102
{ACAD_REACTORS
330
D
102
}
330
D
100
AcDbGroup
300

 70
     1
 71
     1
  0
GROUP
  5
20019
102
{ACAD_REACTORS
330
D
102
}
330
D
100
AcDbGroup
300

 70
     1
 71
     1
  0
GROUP
  5
27800
102
{ACAD_REACTORS
330
D
102
}
330
D
100
AcDbGroup
300

 70
     1
 71
     1
  0
GROUP
  5
27801
102
{ACAD_REACTORS
330
D
102
}
330
D
100
AcDbGroup
300

 70
     1
 71
     1
  0
GROUP
  5
27802
102
{ACAD_REACTORS
330
D
102
}
330
D
100
AcDbGroup
300

 70
     1
 71
     1
  0
GROUP
  5
1EB7E
102
{ACAD_REACTORS
330
D
102
}
330
D
100
AcDbGroup
300

 70
     1
 71
     1
  0
GROUP
  5
1D6DE
102
{ACAD_REACTORS
330
D
102
}
330
D
100
AcDbGroup
300

 70
     1
 71
     1
  0
GROUP
  5
2537F
102
{ACAD_REACTORS
330
D
102
}
330
D
100
AcDbGroup
300

 70
     1
 71
     1
  0
GROUP
  5
27803
102
{ACAD_REACTORS
330
D
102
}
330
D
100
AcDbGroup
300

 70
     1
 71
     1
  0
GROUP
  5
2530D
102
{ACAD_REACTORS
330
D
102
}
330
D
100
AcDbGroup
300

 70
     1
 71
     1
  0
GROUP
  5
FBFF
102
{ACAD_REACTORS
330
D
102
}
330
D
100
AcDbGroup
300

 70
     1
 71
     1
  0
GROUP
  5
25367
102
{ACAD_REACTORS
330
D
102
}
330
D
100
AcDbGroup
300

 70
     1
 71
     1
  0
GROUP
  5
18FA7
102
{ACAD_REACTORS
330
D
102
}
330
D
100
AcDbGroup
300

 70
     1
 71
     1
  0
GROUP
  5
20028
102
{ACAD_REACTORS
330
D
102
}
330
D
100
AcDbGroup
300

 70
     1
 71
     1
  0
GROUP
  5
27CB7
102
{ACAD_REACTORS
330
D
102
}
330
D
100
AcDbGroup
300

 70
     1
 71
     1
  0
GROUP
  5
1A09A
102
{ACAD_REACTORS
330
D
102
}
330
D
100
AcDbGroup
300

 70
     1
 71
     1
  0
GROUP
  5
2533D
102
{ACAD_REACTORS
330
D
102
}
330
D
100
AcDbGroup
300

 70
     1
 71
     1
  0
GROUP
  5
27804
102
{ACAD_REACTORS
330
D
102
}
330
D
100
AcDbGroup
300

 70
     1
 71
     1
  0
GROUP
  5
1F904
102
{ACAD_REACTORS
330
D
102
}
330
D
100
AcDbGroup
300

 70
     1
 71
     1
  0
GROUP
  5
25385
102
{ACAD_REACTORS
330
D
102
}
330
D
100
AcDbGroup
300

 70
     1
 71
     1
  0
GROUP
  5
1F8F5
102
{ACAD_REACTORS
330
D
102
}
330
D
100
AcDbGroup
300

 70
     1
 71
     1
  0
GROUP
  5
19988
102
{ACAD_REACTORS
330
D
102
}
330
D
100
AcDbGroup
300

 70
     1
 71
     1
  0
GROUP
  5
27CB3
102
{ACAD_REACTORS
330
D
102
}
330
D
100
AcDbGroup
300

 70
     1
 71
     1
  0
GROUP
  5
2534F
102
{ACAD_REACTORS
330
D
102
}
330
D
100
AcDbGroup
300

 70
     1
 71
     1
  0
GROUP
  5
FC95
102
{ACAD_REACTORS
330
D
102
}
330
D
100
AcDbGroup
300

 70
     1
 71
     1
  0
GROUP
  5
1738B
102
{ACAD_REACTORS
330
D
102
}
330
D
100
AcDbGroup
300

 70
     1
 71
     1
  0
GROUP
  5
1F8F0
102
{ACAD_REACTORS
330
D
102
}
330
D
100
AcDbGroup
300

 70
     1
 71
     1
  0
GROUP
  5
1F909
102
{ACAD_REACTORS
330
D
102
}
330
D
100
AcDbGroup
300

 70
     1
 71
     1
  0
GROUP
  5
106C7
102
{ACAD_REACTORS
330
D
102
}
330
D
100
AcDbGroup
300

 70
     1
 71
     1
  0
GROUP
  5
26C06
102
{ACAD_REACTORS
330
D
102
}
330
D
100
AcDbGroup
300

 70
     1
 71
     1
  0
GROUP
  5
FC91
102
{ACAD_REACTORS
330
D
102
}
330
D
100
AcDbGroup
300

 70
     1
 71
     1
  0
GROUP
  5
ACB4
102
{ACAD_REACTORS
330
D
102
}
330
D
100
AcDbGroup
300

 70
     1
 71
     1
  0
GROUP
  5
1D6A2
102
{ACAD_REACTORS
330
D
102
}
330
D
100
AcDbGroup
300

 70
     1
 71
     1
  0
GROUP
  5
2538B
102
{ACAD_REACTORS
330
D
102
}
330
D
100
AcDbGroup
300

 70
     1
 71
     1
  0
GROUP
  5
1A692
102
{ACAD_REACTORS
330
D
102
}
330
D
100
AcDbGroup
300

 70
     1
 71
     1
  0
GROUP
  5
27CB1
102
{ACAD_REACTORS
330
D
102
}
330
D
100
AcDbGroup
300

 70
     1
 71
     1
  0
GROUP
  5
20010
102
{ACAD_REACTORS
330
D
102
}
330
D
100
AcDbGroup
300

 70
     1
 71
     1
  0
GROUP
  5
1EB7F
102
{ACAD_REACTORS
330
D
102
}
330
D
100
AcDbGroup
300

 70
     1
 71
     1
  0
GROUP
  5
25E13
102
{ACAD_REACTORS
330
D
102
}
330
D
100
AcDbGroup
300

 70
     1
 71
     1
  0
GROUP
  5
27CBA
102
{ACAD_REACTORS
330
D
102
}
330
D
100
AcDbGroup
300

 70
     1
 71
     1
  0
GROUP
  5
20236
102
{ACAD_REACTORS
330
D
102
}
330
D
100
AcDbGroup
300

 70
     1
 71
     1
  0
GROUP
  5
26E22
102
{ACAD_REACTORS
330
D
102
}
330
D
100
AcDbGroup
300

 70
     1
 71
     1
  0
GROUP
  5
17901
102
{ACAD_REACTORS
330
D
102
}
330
D
100
AcDbGroup
300

 70
     1
 71
     1
  0
GROUP
  5
26092
102
{ACAD_REACTORS
330
D
102
}
330
D
100
AcDbGroup
300

 70
     1
 71
     1
  0
GROUP
  5
ACAB
102
{ACAD_REACTORS
330
D
102
}
330
D
100
AcDbGroup
300

 70
     1
 71
     1
  0
GROUP
  5
26091
102
{ACAD_REACTORS
330
D
102
}
330
D
100
AcDbGroup
300

 70
     1
 71
     1
  0
GROUP
  5
1B74D
102
{ACAD_REACTORS
330
D
102
}
330
D
100
AcDbGroup
300

 70
     1
 71
     1
  0
GROUP
  5
17BFF
102
{ACAD_REACTORS
330
D
102
}
330
D
100
AcDbGroup
300

 70
     1
 71
     1
  0
GROUP
  5
27CB4
102
{ACAD_REACTORS
330
D
102
}
330
D
100
AcDbGroup
300

 70
     1
 71
     1
  0
GROUP
  5
252E3
102
{ACAD_REACTORS
330
D
102
}
330
D
100
AcDbGroup
300

 70
     1
 71
     1
  0
GROUP
  5
1998A
102
{ACAD_REACTORS
330
D
102
}
330
D
100
AcDbGroup
300

 70
     1
 71
     1
  0
GROUP
  5
20016
102
{ACAD_REACTORS
330
D
102
}
330
D
100
AcDbGroup
300

 70
     1
 71
     1
  0
GROUP
  5
1B729
102
{ACAD_REACTORS
330
D
102
}
330
D
100
AcDbGroup
300

 70
     1
 71
     1
  0
GROUP
  5
265C8
102
{ACAD_REACTORS
330
D
102
}
330
D
100
AcDbGroup
300

 70
     1
 71
     1
  0
GROUP
  5
1D6FC
102
{ACAD_REACTORS
330
D
102
}
330
D
100
AcDbGroup
300

 70
     1
 71
     1
  0
GROUP
  5
27CB2
102
{ACAD_REACTORS
330
D
102
}
330
D
100
AcDbGroup
300

 70
     1
 71
     1
  0
GROUP
  5
18FA6
102
{ACAD_REACTORS
330
D
102
}
330
D
100
AcDbGroup
300

 70
     1
 71
     1
  0
GROUP
  5
20227
102
{ACAD_REACTORS
330
D
102
}
330
D
100
AcDbGroup
300

 70
     1
 71
     1
  0
GROUP
  5
1D684
102
{ACAD_REACTORS
330
D
102
}
330
D
100
AcDbGroup
300

 70
     1
 71
     1
  0
GROUP
  5
19861
102
{ACAD_REACTORS
330
D
102
}
330
D
100
AcDbGroup
300

 70
     1
 71
     1
  0
GROUP
  5
27806
102
{ACAD_REACTORS
330
D
102
}
330
D
100
AcDbGroup
300

 70
     1
 71
     1
  0
GROUP
  5
19F55
102
{ACAD_REACTORS
330
D
102
}
330
D
100
AcDbGroup
300

 70
     1
 71
     1
  0
GROUP
  5
24D3F
102
{ACAD_REACTORS
330
D
102
}
330
D
100
AcDbGroup
300

 70
     1
 71
     1
  0
GROUP
  5
1F8FA
102
{ACAD_REACTORS
330
D
102
}
330
D
100
AcDbGroup
300

 70
     1
 71
     1
  0
GROUP
  5
25307
102
{ACAD_REACTORS
330
D
102
}
330
D
100
AcDbGroup
300

 70
     1
 71
     1
  0
GROUP
  5
1D6B6
102
{ACAD_REACTORS
330
D
102
}
330
D
100
AcDbGroup
300

 70
     1
 71
     1
  0
GROUP
  5
25325
102
{ACAD_REACTORS
330
D
102
}
330
D
100
AcDbGroup
300

 70
     1
 71
     1
  0
GROUP
  5
198F1
102
{ACAD_REACTORS
330
D
102
}
330
D
100
AcDbGroup
300

 70
     1
 71
     1
  0
GROUP
  5
1D6AC
102
{ACAD_REACTORS
330
D
102
}
330
D
100
AcDbGroup
300

 70
     1
 71
     1
  0
GROUP
  5
18F22
102
{ACAD_REACTORS
330
D
102
}
330
D
100
AcDbGroup
300

 70
     1
 71
     1
  0
GROUP
  5
1D698
102
{ACAD_REACTORS
330
D
102
}
330
D
100
AcDbGroup
300

 70
     1
 71
     1
  0
GROUP
  5
20218
102
{ACAD_REACTORS
330
D
102
}
330
D
100
AcDbGroup
300

 70
     1
 71
     1
  0
GROUP
  5
1F8FF
102
{ACAD_REACTORS
330
D
102
}
330
D
100
AcDbGroup
300

 70
     1
 71
     1
  0
GROUP
  5
2002B
102
{ACAD_REACTORS
330
D
102
}
330
D
100
AcDbGroup
300

 70
     1
 71
     1
  0
GROUP
  5
ACA1
102
{ACAD_REACTORS
330
D
102
}
330
D
100
AcDbGroup
300

 70
     1
 71
     1
  0
GROUP
  5
19259
102
{ACAD_REACTORS
330
D
102
}
330
D
100
AcDbGroup
300

 70
     1
 71
     1
  0
GROUP
  5
27CAF
102
{ACAD_REACTORS
330
D
102
}
330
D
100
AcDbGroup
300

 70
     1
 71
     1
  0
GROUP
  5
2021D
102
{ACAD_REACTORS
330
D
102
}
330
D
100
AcDbGroup
300

 70
     1
 71
     1
  0
GROUP
  5
27CB5
102
{ACAD_REACTORS
330
D
102
}
330
D
100
AcDbGroup
300

 70
     1
 71
     1
  0
GROUP
  5
27D88
102
{ACAD_REACTORS
330
D
102
}
330
D
100
AcDbGroup
300

 70
     1
 71
     1
  0
GROUP
  5
19F99
102
{ACAD_REACTORS
330
D
102
}
330
D
100
AcDbGroup
300

 70
     1
 71
     1
  0
GROUP
  5
19794
102
{ACAD_REACTORS
330
D
102
}
330
D
100
AcDbGroup
300

 70
     1
 71
     1
  0
GROUP
  5
FC9B
102
{ACAD_REACTORS
330
D
102
}
330
D
100
AcDbGroup
300

 70
     1
 71
     1
  0
GROUP
  5
1D6F2
102
{ACAD_REACTORS
330
D
102
}
330
D
100
AcDbGroup
300

 70
     1
 71
     1
  0
GROUP
  5
252E9
102
{ACAD_REACTORS
330
D
102
}
330
D
100
AcDbGroup
300

 70
     1
 71
     1
  0
GROUP
  5
196C2
102
{ACAD_REACTORS
330
D
102
}
330
D
100
AcDbGroup
300

 70
     1
 71
     1
  0
GROUP
  5
25349
102
{ACAD_REACTORS
330
D
102
}
330
D
100
AcDbGroup
300

 70
     1
 71
     1
  0
GROUP
  5
26E5F
102
{ACAD_REACTORS
330
D
102
}
330
D
100
AcDbGroup
300

 70
     1
 71
     1
  0
GROUP
  5
FC9A
102
{ACAD_REACTORS
330
D
102
}
330
D
100
AcDbGroup
300

 70
     1
 71
     1
  0
GROUP
  5
265CD
102
{ACAD_REACTORS
330
D
102
}
330
D
100
AcDbGroup
300

 70
     1
 71
     1
  0
GROUP
  5
25319
102
{ACAD_REACTORS
330
D
102
}
330
D
100
AcDbGroup
300

 70
     1
 71
     1
  0
GROUP
  5
26E23
102
{ACAD_REACTORS
330
D
102
}
330
D
100
AcDbGroup
300

 70
     1
 71
     1
  0
GROUP
  5
19A51
102
{ACAD_REACTORS
330
D
102
}
330
D
100
AcDbGroup
300

 70
     1
 71
     1
  0
GROUP
  5
2629B
102
{ACAD_REACTORS
330
D
102
}
330
D
100
AcDbGroup
300

 70
     1
 71
     1
  0
GROUP
  5
FB6C
102
{ACAD_REACTORS
330
D
102
}
330
D
100
AcDbGroup
300

 70
     1
 71
     1
  0
GROUP
  5
26C07
102
{ACAD_REACTORS
330
D
102
}
330
D
100
AcDbGroup
300

 70
     1
 71
     1
  0
GROUP
  5
19256
102
{ACAD_REACTORS
330
D
102
}
330
D
100
AcDbGroup
300

 70
     1
 71
     1
  0
LAYOUT
  5
FB5D
102
{ACAD_REACTORS
330
DB2
102
}
330
DB2
100
AcDbPlotSettings
  1

  2
\\HONAMI\LBP-910
  4
A3
  6

 40
5.873749732971191
 41
5.873747825622558
 42
5.873748779296875
 43
5.873748779296875
 44
296.9259948730469
 45
419.9466552734374
 46
0.0
 47
0.0
 48
-134.0496161171158
 49
-116.2294073187233
140
1105.745250909008
141
633.2284101676227
142
1.0
143
2.866823569012708
 70
 11952
 72
     1
 73
     1
 74
     1
  7
monochrome.ctb
 75
     0
147
0.3488181173089717
148
98.7130430422485
149
74.96499340265336
100
AcDbLayout
  1
Model
 70
     1
 71
     0
 10
0.0
 20
0.0
 11
12.0
 21
9.0
 12
0.0
 22
0.0
 32
0.0
 14
0.0
 24
0.0
 34
0.0
 15
0.0
 25
0.0
 35
0.0
146
0.0
 13
0.0
 23
0.0
 33
0.0
 16
1.0
 26
0.0
 36
0.0
 17
0.0
 27
1.0
 37
0.0
 76
     0
330
18
  0
LAYOUT
  5
FB5E
102
{ACAD_REACTORS
330
DB2
102
}
330
DB2
100
AcDbPlotSettings
  1

  2
HP 750C_aaa3.pc3
  4
User257
  6

 40
4.995333194732666
 41
9.990656852722167
 42
4.995330810546875
 43
9.99066162109375
 44
296.9683227539062
 45
419.9466552734374
 46
-1.28
 47
2.0
 48
0.0
 49
0.0
140
0.0
141
0.0
142
1.0
143
1.0
 70
   688
 72
     1
 73
     1
 74
     1
  7
monochrome.ctb
 75
    16
147
1.0
148
0.0005500942349954
149
1.515815784993947
100
AcDbLayout
  1
外形図
 70
     0
 71
     1
 10
-11.99121171532874
 20
-5.231148979726612
 11
407.9554435581087
 21
291.7371737741796
 12
0.0
 22
0.0
 32
0.0
 14
-0.0212956837920047
 24
-0.0064706068073974
 34
-0.0015258207003583
 15
400.0224922679022
 25
288.0078511942658
 35
0.0000000349246037
146
0.0
 13
0.0
 23
0.0
 33
0.0
 16
1.0
 26
0.0
 36
0.0
 17
0.0
 27
1.0
 37
0.0
 76
     0
330
15
331
23
  0
MLINESTYLE
  5
1C
102
{ACAD_REACTORS
330
1B
102
}
330
1B
100
AcDbMlineStyle
  2
STANDARD
 70
     0
  3

 62
   256
 51
90.0
 52
90.0
 71
     2
 49
0.5
 62
   256
  6
BYLAYER
 49
-0.5
 62
   256
  6
BYLAYER
  0
ACDBPLACEHOLDER
  5
FB5C
102
{ACAD_REACTORS
330
FB5B
102
}
330
FB5B
  0
DICTIONARYVAR
  5
106A7
102
{ACAD_REACTORS
330
106A6
102
}
330
106A6
100
DictionaryVariables
280
     0
  1
96
  0
XRECORD
  5
1A9A1
102
{ACAD_REACTORS
330
1A99F
102
}
330
1A99F
100
AcDbXrecord
280
     1
330
187D7
330
0
330
0
330
0
330
0
330
0
330
0
330
0
330
0
330
0
330
79
330
115F
330
0
330
0
330
0
330
0
330
0
330
0
330
0
330
0
330
0
330
0
330
0
330
0
330
0
330
0
330
0
330
0
330
0
330
0
330
0
330
0
330
0
330
0
330
0
330
0
330
0
330
0
330
0
330
0
330
0
330
0
330
0
330
0
  0
XRECORD
  5
284AA
102
{ACAD_REACTORS
330
284A9
102
}
330
284A9
100
AcDbXrecord
280
     1
  1
0
  1
*0
  1
*
  1
*
 70
     0
  1
*
  1
*
  0
XRECORD
  5
284AB
102
{ACAD_REACTORS
330
284A9
102
}
330
284A9
100
AcDbXrecord
280
     1
  1
11
  1
*11
  1
*
  1
*
 70
     0
  1
*
  1
*
  0
XRECORD
  5
284AC
102
{ACAD_REACTORS
330
284A9
102
}
330
284A9
100
AcDbXrecord
280
     1
  1
150_
  1
150_*
  1
*
  1
*
 70
     0
  1
*
  1
*
  0
XRECORD
  5
284AD
102
{ACAD_REACTORS
330
284A9
102
}
330
284A9
100
AcDbXrecord
280
     1
  1
160_
  1
160_*
  1
*
  1
*
 70
     0
  1
*
  1
*
  0
XRECORD
  5
284AE
102
{ACAD_REACTORS
330
284A9
102
}
330
284A9
100
AcDbXrecord
280
     1
  1
170_
  1
170_*
  1
*
  1
*
 70
     0
  1
*
  1
*
  0
XRECORD
  5
284AF
102
{ACAD_REACTORS
330
284A9
102
}
330
284A9
100
AcDbXrecord
280
     1
  1
171_
  1
171_*
  1
*
  1
*
 70
     0
  1
*
  1
*
  0
XRECORD
  5
284B0
102
{ACAD_REACTORS
330
284A9
102
}
330
284A9
100
AcDbXrecord
280
     1
  1
350_
  1
350_*
  1
*
  1
*
 70
     0
  1
*
  1
*
  0
XRECORD
  5
284B1
102
{ACAD_REACTORS
330
284A9
102
}
330
284A9
100
AcDbXrecord
280
     1
  1
4
  1
*4
  1
*
  1
*
 70
     0
  1
*
  1
*
  0
XRECORD
  5
284B2
102
{ACAD_REACTORS
330
284A9
102
}
330
284A9
100
AcDbXrecord
280
     1
  1
5
  1
*5
  1
*
  1
*
 70
     0
  1
*
  1
*
  0
XRECORD
  5
284B3
102
{ACAD_REACTORS
330
284A9
102
}
330
284A9
100
AcDbXrecord
280
     1
  1
7
  1
*7
  1
*
  1
*
 70
     0
  1
*
  1
*
  0
XRECORD
  5
284B4
102
{ACAD_REACTORS
330
284A9
102
}
330
284A9
100
AcDbXrecord
280
     1
  1
kiseki
  1
kiseki*
  1
*
  1
*
 70
     0
  1
*
  1
*
  0
ENDSEC
  0
EOF
